<?xml version="1.0" standalone="no"?>
<!DOCTYPE svg PUBLIC "-//W3C//DTD SVG 1.1//EN" "http://www.w3.org/Graphics/SVG/1.1/DTD/svg11.dtd" >
<svg xmlns="http://www.w3.org/2000/svg" xmlns:xlink="http://www.w3.org/1999/xlink" version="1.1">
<metadata>
Created by FontForge 20170731 at Thu Mar  2 15:41:50 2017
 By Aleksey,,,
Copyright (c) 2017 by Alfonso Garci'a - Latinotype Team. All rights reserved.
</metadata>
<defs>
<font id="RawsonAlt-Black" horiz-adv-x="0" >
  <font-face 
    font-family="Rawson Alt Black"
    font-weight="800"
    font-stretch="normal"
    units-per-em="1100"
    panose-1="0 0 9 0 0 0 0 0 0 0"
    ascent="880"
    descent="-220"
    x-height="516"
    cap-height="663"
    bbox="-731 -256 1351 967"
    underline-thickness="50"
    underline-position="-200"
    unicode-range="U+0020-FB02"
  />
<missing-glyph horiz-adv-x="500" 
 />
    <glyph glyph-name="fi" unicode="fi" horiz-adv-x="682" 
d="M529 571q-44 0 -76 31.5t-32 76.5t32 76.5t76 31.5q45 0 76.5 -31.5t31.5 -76.5t-31.5 -76.5t-76.5 -31.5zM98 481q0 111 62 174t162 63q41 0 72 -8v-162l-2 -1q-19 6 -39 6q-69 0 -69 -74v-1h82v-145h-82v-333h-186v333h-71v145h71v3zM436 0v516h186v-516h-186z" />
    <glyph glyph-name="fl" unicode="fl" horiz-adv-x="683" 
d="M98 481q0 111 62 174t162 63q38 0 72 -7v-163l-2 -1q-19 6 -39 6q-69 0 -69 -74v-1h82v-144h-82v-334h-186v334h-71v144h71v3zM437 710h186v-710h-186v710z" />
    <glyph glyph-name=".notdef" horiz-adv-x="500" 
 />
    <glyph glyph-name=".null" 
 />
    <glyph glyph-name="nonmarkingreturn" horiz-adv-x="366" 
 />
    <glyph glyph-name="space" unicode=" " horiz-adv-x="226" 
 />
    <glyph glyph-name="exclam" unicode="!" horiz-adv-x="309" 
d="M77 242l-13 458h183l-13 -458h-157zM153 -13q-48 0 -73 26.5t-25 66.5t25 65t73 25t73 -25t25 -65t-25 -66.5t-73 -26.5z" />
    <glyph glyph-name="quotedbl" unicode="&#x22;" horiz-adv-x="418" 
d="M63 394l-10 266h132l15 -14l-41 -252h-96zM242 394l-10 266h132l15 -14l-41 -252h-96z" />
    <glyph glyph-name="numbersign" unicode="#" horiz-adv-x="637" 
d="M589 342h-84l-15 -87h99v-121h-118l-18 -107h-121l18 107h-107l-18 -107h-121l18 107h-75v121h94l15 87h-109v121h129l17 106h121l-17 -106h107l17 106h121l-17 -106h64v-121zM369 255l15 87h-107l-15 -87h107z" />
    <glyph glyph-name="dollar" unicode="$" horiz-adv-x="517" 
d="M478 236q0 -131 -133 -165v-103h-173v96q-62 8 -126 32v147l2 1q86 -54 183 -54q82 0 82 30q0 16 -19.5 26t-93.5 32q-154 45 -154 160q0 64 38.5 107t107.5 61v105h173v-98q60 -7 95 -22v-149l-2 -1q-25 14 -71 23t-84 9q-68 0 -68 -29q0 -11 17.5 -19t77.5 -27
q78 -26 113 -65.5t35 -96.5z" />
    <glyph glyph-name="percent" unicode="%" horiz-adv-x="850" 
d="M211 308q-81 0 -131 44t-50 131q0 86 51 133.5t131 47.5q82 0 133 -47t51 -134t-50.5 -131t-134.5 -44zM131 13l461 636h135l-461 -636h-135zM211 415q56 0 56 68q0 73 -56 73q-52 0 -52 -73q0 -68 52 -68zM635 -4q-81 0 -131.5 44t-50.5 130t51 133.5t131 47.5
q83 0 133.5 -46.5t50.5 -134.5q0 -86 -50.5 -130t-133.5 -44zM635 103q55 0 55 67q0 73 -55 73q-53 0 -53 -73q0 -67 53 -67z" />
    <glyph glyph-name="ampersand" unicode="&#x26;" horiz-adv-x="704" 
d="M708 0h-202l-38 41q-89 -59 -200 -59q-99 0 -166.5 47.5t-67.5 145.5q0 132 121 205q-46 64 -46 133q0 78 55.5 126t153.5 48q82 0 145 -27v-147l-3 -1q-61 24 -116 24q-60 0 -60 -31q0 -18 14 -37.5t82 -95.5l98 -111q12 34 16 53h-47v131h259v-131h-64
q-20 -94 -67 -164zM296 137q38 0 71 11l-114 122q-6 6 -8 9q-37 -30 -37 -72q0 -33 23 -51.5t65 -18.5z" />
    <glyph glyph-name="quotesingle" unicode="'" horiz-adv-x="239" 
d="M63 394l-10 266h132l15 -14l-41 -252h-96z" />
    <glyph glyph-name="parenleft" unicode="(" horiz-adv-x="366" 
d="M271 -185q-39 18 -78.5 56.5t-76.5 97.5t-60 146t-23 187q0 96 23 182t60 145.5t76.5 99t78.5 57.5l70 -129q-53 -43 -91 -130.5t-38 -223.5q0 -137 38 -226t91 -134z" />
    <glyph glyph-name="parenright" unicode=")" horiz-adv-x="367" 
d="M96 796q39 -18 78.5 -56.5t76.5 -97.5t60 -146t23 -187q0 -96 -23 -182t-60 -145.5t-76.5 -99t-78.5 -57.5l-70 129q53 43 91 130.5t38 223.5q0 137 -38 226t-91 134z" />
    <glyph glyph-name="asterisk" unicode="*" horiz-adv-x="520" 
d="M239 560l-13 6l-83 138l5 13l110 30l18 -12l-4 -157l-8 -11zM317 542l-14 2l-18 18l-2 14l79 142l14 2l80 -82l-2 -20zM206 513l-162 -3l-8 11l29 110l20 9l133 -81l6 -13l-7 -25zM440 404l-134 81l-5 13l6 24l11 9l162 3l9 -11l-30 -111zM150 325l-81 81l2 21l137 75
l14 -2l18 -17l2 -14l-78 -142zM266 297l-17 12l3 157l9 10l24 7l13 -5l84 -139l-5 -13z" />
    <glyph glyph-name="plus" unicode="+" horiz-adv-x="554" 
d="M523 351v-119h-185v-186h-122v186h-185v119h186v187h121v-187h185z" />
    <glyph glyph-name="comma" unicode="," horiz-adv-x="269" 
d="M41 -148q19 91 19 174q0 52 -5 112l141 15l22 -26q0 -73 -20.5 -148t-53.5 -127h-103z" />
    <glyph glyph-name="hyphen" unicode="-" horiz-adv-x="426" 
d="M57 213v151h312v-151h-312z" />
    <glyph glyph-name="period" unicode="." horiz-adv-x="273" 
d="M136 -15q-45 0 -70 25.5t-25 64.5t25 66t70 27t70 -26.5t25 -66.5q0 -39 -25 -64.5t-70 -25.5z" />
    <glyph glyph-name="slash" unicode="/" horiz-adv-x="525" 
d="M24 -122l313 872h165l-313 -872h-165z" />
    <glyph glyph-name="zero" unicode="0" horiz-adv-x="675" 
d="M335 -16q-132 0 -213 86t-81 256q0 171 82.5 262t212.5 91q134 0 216 -90.5t82 -262.5q0 -171 -81.5 -256.5t-217.5 -85.5zM336 139q104 0 104 187q0 97 -27 146.5t-77 49.5q-48 0 -74.5 -49.5t-26.5 -146.5q0 -187 101 -187z" />
    <glyph glyph-name="one" unicode="1" horiz-adv-x="428" 
d="M168 0v425l-133 -51h-7v190l289 111h29v-675h-178z" />
    <glyph glyph-name="two" unicode="2" horiz-adv-x="594" 
d="M34 0q0 53 13.5 97.5t44 87t63 76t87.5 82.5q68 52 87.5 74t19.5 47q0 53 -95 53q-61 0 -114.5 -20t-83.5 -41h-2l-1 163q93 60 227 60q48 0 91 -10.5t80 -31.5t59 -60t22 -90q0 -77 -30.5 -118t-132.5 -122q-83 -73 -83 -96h268v-151h-520z" />
    <glyph glyph-name="three" unicode="3" horiz-adv-x="557" 
d="M425 359q90 -48 95 -151q0 -102 -75.5 -163t-203.5 -61q-113 0 -196 39v156l2 1q70 -41 169 -41q127 0 127 74q0 32 -29 46.5t-110 15.5h-67v136h67q108 0 108 57q0 29 -21 42t-68 13q-112 0 -166 -26l-2 1v152q109 30 196 30q68 0 119 -16t85.5 -58.5t34.5 -108.5
q0 -86 -65 -138z" />
    <glyph glyph-name="four" unicode="4" horiz-adv-x="629" 
d="M593 239v-136h-84v-103h-167v103h-328v86l350 478h145v-428h84zM225 239h117v163z" />
    <glyph glyph-name="five" unicode="5" horiz-adv-x="573" 
d="M268 -16q-116 0 -216 28v163l2 1q95 -37 195 -37q104 0 104 77q0 71 -104 71q-99 0 -191 -24l-3 3l22 401h422v-151h-275l-6 -86q29 7 77 7q110 0 174 -51.5t64 -159.5q0 -56 -17.5 -100t-45 -70t-64 -43t-70 -23t-68.5 -6z" />
    <glyph glyph-name="six" unicode="6" horiz-adv-x="621" 
d="M367 449q96 0 156 -56.5t60 -158.5q0 -110 -71.5 -180.5t-203.5 -70.5q-131 0 -199.5 82t-68.5 231q0 180 97 281.5t255 101.5q95 0 141 -16v-148l-5 -4q-50 16 -130 16q-138 0 -173 -127q55 49 142 49zM313 136q95 0 95 82q0 35 -21.5 57.5t-65.5 22.5q-36 0 -63 -21
t-34 -65q20 -76 89 -76z" />
    <glyph glyph-name="seven" unicode="7" horiz-adv-x="536" 
d="M81 0l227 494h-282v169h490v-96l-243 -567h-192z" />
    <glyph glyph-name="eight" unicode="8" horiz-adv-x="625" 
d="M474 349q59 -35 84 -74t25 -94q0 -87 -72.5 -142t-197.5 -55q-134 0 -203 46.5t-69 132.5q0 104 106 176q-85 60 -85 147q0 94 74.5 143.5t185.5 49.5q104 0 177 -44.5t73 -131.5q0 -97 -98 -154zM313 530q-79 0 -79 -43q0 -19 21 -34t87 -42q61 28 61 68q0 51 -90 51z
M323 125q91 0 91 52q0 23 -25.5 40.5t-120.5 56.5q-52 -33 -52 -86q0 -63 107 -63z" />
    <glyph glyph-name="nine" unicode="9" horiz-adv-x="624" 
d="M308 680q129 0 202 -87.5t73 -244.5q0 -185 -82 -274.5t-231 -89.5q-120 0 -187 27v160l5 3q72 -34 163 -34q74 -1 108 30t43 87q-55 -39 -136 -39q-100 0 -164 56.5t-64 158.5q0 113 70 180t200 67zM218 444q0 -34 20.5 -56t61.5 -22q66 0 105 28q-15 130 -105 130
q-39 0 -60.5 -22.5t-21.5 -57.5z" />
    <glyph glyph-name="colon" unicode=":" horiz-adv-x="306" 
d="M153 346q-48 0 -73 25t-25 65t25 66.5t73 26.5t73 -26.5t25 -66.5t-25 -65t-73 -25zM153 -15q-48 0 -73 25t-25 65t25 66.5t73 26.5t73 -26.5t25 -66.5t-25 -65t-73 -25z" />
    <glyph glyph-name="semicolon" unicode=";" horiz-adv-x="298" 
d="M148 346q-45 0 -70 25.5t-25 64.5t25 66t70 27t70 -26.5t25 -66.5q0 -39 -25 -64.5t-70 -25.5zM56 -148q19 91 19 174q0 52 -5 112l141 15l22 -26q0 -73 -20.5 -148t-53.5 -127h-103z" />
    <glyph glyph-name="less" unicode="&#x3c;" horiz-adv-x="501" 
d="M179 300l24 -10l261 -152l-60 -110l-374 215v112l374 216l60 -109l-262 -152z" />
    <glyph glyph-name="equal" unicode="=" horiz-adv-x="618" 
d="M58 342v121h502v-121h-502zM58 114v121h502v-121h-502z" />
    <glyph glyph-name="greater" unicode="&#x3e;" horiz-adv-x="501" 
d="M98 570l374 -215v-112l-374 -216l-60 109l262 152l23 10l-24 10l-261 152z" />
    <glyph glyph-name="question" unicode="?" horiz-adv-x="457" 
d="M96 223q-1 73 19.5 112.5t75.5 74.5q31 24 42 39.5t11 37.5q0 54 -77 54q-68 0 -120 -27l-2 1l-1 159q60 26 149 26q99 0 166.5 -48t67.5 -144q0 -61 -26 -100t-82 -81q-27 -20 -41.5 -39t-17.5 -31.5t-3 -31.5zM182 -13q-48 0 -73 25t-25 65t25 66.5t73 26.5t73 -26.5
t25 -66.5t-25 -65t-73 -25z" />
    <glyph glyph-name="at" unicode="@" horiz-adv-x="850" 
d="M618 435v-226q0 -17 15 -17q35 0 35 113q0 101 -60.5 152.5t-158.5 51.5q-122 0 -192 -71.5t-70 -187.5q0 -117 67 -183t184 -66q104 0 164 46h5l66 -101q-80 -74 -236 -74q-188 0 -293.5 102.5t-105.5 275.5q0 171 111 280t300 109q159 0 264 -88t105 -237
q0 -107 -48.5 -176t-152.5 -69q-86 0 -114 53q-12 -24 -40 -41t-67 -17q-73 0 -118 50t-45 137q0 88 51 141t130 53q54 0 91 -23l3 13h110zM434 187q15 0 29 8t19 22v100q-19 14 -48 14q-28 0 -45 -19.5t-17 -53.5t16.5 -52.5t45.5 -18.5z" />
    <glyph glyph-name="A" unicode="A" horiz-adv-x="652" 
d="M474 0l-31 71h-240l-28 -71h-184l290 663h83l302 -663h-192zM253 197h135l-53 120l-18 50l-16 -50z" />
    <glyph glyph-name="B" unicode="B" horiz-adv-x="618" 
d="M478 360q107 -46 107 -160q0 -97 -68 -148.5t-184 -51.5h-261v663q77 8 204 8q270 0 270 -179q0 -87 -68 -132zM302 526q-32 0 -51 -2v-127h46q40 0 59.5 18t19.5 49q0 29 -19.5 45.5t-54.5 16.5zM315 135q91 0 91 71q0 31 -24 48.5t-65 17.5h-66v-137h64z" />
    <glyph glyph-name="C" unicode="C" horiz-adv-x="602" 
d="M394 -12q-156 0 -257 90t-101 246q0 165 97.5 260t256.5 95q88 0 168 -22v-173l-3 -2q-65 30 -138 30q-93 0 -141.5 -46t-48.5 -133q0 -86 50 -132t145 -46q69 0 132 24l4 -3v-167q-74 -21 -164 -21z" />
    <glyph glyph-name="D" unicode="D" horiz-adv-x="733" 
d="M334 673q167 0 264.5 -90t97.5 -244q0 -163 -102.5 -251.5t-278.5 -88.5q-210 0 -243 1v663q133 10 262 10zM335 161q170 2 170 175q0 85 -48.5 127.5t-125.5 42.5q-46 0 -75 -4v-339q26 -2 79 -2z" />
    <glyph glyph-name="E" unicode="E" horiz-adv-x="571" 
d="M257 148h267v-148h-452v663h444v-148h-259v-103h240v-144h-240v-120z" />
    <glyph glyph-name="F" unicode="F" horiz-adv-x="539" 
d="M508 497h-251v-120h214v-163h-214v-214h-185v663h436v-166z" />
    <glyph glyph-name="G" unicode="G" horiz-adv-x="677" 
d="M399 -11q-171 0 -266.5 86.5t-95.5 253.5q0 163 104.5 256.5t286.5 93.5q100 0 175 -26l-1 -177l-4 -2q-70 38 -175 38q-94 0 -144.5 -47.5t-50.5 -135.5q0 -84 47 -129t134 -45q17 0 55 4v171h165l1 -308q-111 -33 -231 -33z" />
    <glyph glyph-name="H" unicode="H" horiz-adv-x="752" 
d="M495 663h185v-663h-185v246h-238v-246h-185v663h185v-249h238v249z" />
    <glyph glyph-name="I" unicode="I" horiz-adv-x="330" 
d="M72 0v663h186v-663h-186z" />
    <glyph glyph-name="J" unicode="J" horiz-adv-x="400" 
d="M77 -3q-31 0 -62 4v155l4 2q17 -3 33 -3q55 0 76.5 33.5t21.5 94.5v380h186v-361q0 -154 -64 -229.5t-195 -75.5z" />
    <glyph glyph-name="K" unicode="K" horiz-adv-x="695" 
d="M402 337l311 -333l-2 -4h-227l-227 241v-241h-185v663h185v-257l226 257h210l2 -4z" />
    <glyph glyph-name="L" unicode="L" horiz-adv-x="511" 
d="M257 153h244v-153h-429v663h185v-510z" />
    <glyph glyph-name="M" unicode="M" horiz-adv-x="842" 
d="M737 662l59 -662h-175l-20 277h-3l-145 -274h-62l-146 270h-3l-23 -273h-173l59 662h107l215 -396l208 396h102z" />
    <glyph glyph-name="N" unicode="N" horiz-adv-x="740" 
d="M72 0v663h82l334 -318h3v318h177v-663h-82l-334 328h-3v-328h-177z" />
    <glyph glyph-name="O" unicode="O" horiz-adv-x="776" 
d="M388 -12q-93 0 -171 36.5t-129.5 116.5t-51.5 191q0 159 99 253t253 94q93 0 171 -37t129.5 -117.5t51.5 -192.5q0 -157 -99 -250.5t-253 -93.5zM388 155q75 0 117.5 47t42.5 130q0 84 -42.5 132t-117.5 48t-117.5 -48t-42.5 -132q0 -83 42.5 -130t117.5 -47z" />
    <glyph glyph-name="P" unicode="P" horiz-adv-x="614" 
d="M593 439q1 -126 -73.5 -189t-194.5 -63q-33 0 -69 3v-190h-184v663q133 9 226 8q294 -2 295 -232zM301 340q107 0 107 89q0 41 -27 62.5t-70 21.5q-40 0 -55 -1v-170q36 -2 45 -2z" />
    <glyph glyph-name="Q" unicode="Q" horiz-adv-x="776" 
d="M510 6q34 -63 137 -94l2 -4l-69 -130q-192 37 -250 214q-126 18 -210 105.5t-84 234.5q0 159 99 253t253 94q93 0 171 -37t129.5 -117.5t51.5 -192.5q0 -123 -62.5 -208.5t-167.5 -117.5zM228 332q0 -83 42.5 -130t117.5 -47t117.5 47t42.5 130q0 84 -42.5 132t-117.5 48
t-117.5 -48t-42.5 -132z" />
    <glyph glyph-name="R" unicode="R" horiz-adv-x="647" 
d="M476 232l143 -228l-2 -4h-197l-123 205h-41v-205h-184v663q107 8 223 8q48 0 88.5 -6t80 -22t67 -41t44.5 -65t17 -93q0 -153 -116 -212zM313 513q-40 0 -57 -2v-169h51q45 0 72 23t27 62q0 43 -25 64.5t-68 21.5z" />
    <glyph glyph-name="S" unicode="S" horiz-adv-x="534" 
d="M251 -11q-111 0 -204 43v167l4 2q84 -58 180 -58q77 0 77 50q0 24 -19 41.5t-79 42.5q-160 65 -160 197q0 101 70 152.5t175 51.5t178 -27v-156l-4 -2q-54 28 -146 30q-89 1 -89 -40q0 -19 21 -32.5t82 -39.5q157 -66 157 -211q0 -97 -66 -154t-177 -57z" />
    <glyph glyph-name="T" unicode="T" horiz-adv-x="606" 
d="M594 663v-166h-193v-497h-186v497h-203v166h582z" />
    <glyph glyph-name="U" unicode="U" horiz-adv-x="723" 
d="M362 -13q-144 0 -221 73t-77 209v394h184v-371q0 -149 116 -149t116 149v371h179v-394q0 -134 -78 -208t-219 -74z" />
    <glyph glyph-name="V" unicode="V" horiz-adv-x="646" 
d="M655 663l2 -4l-279 -659h-119l-263 659l2 4h195l119 -349l16 -65l15 65l130 349h182z" />
    <glyph glyph-name="W" unicode="W" horiz-adv-x="965" 
d="M963 663l2 -4l-211 -659h-141l-115 337l-10 43l-12 -43l-115 -337h-145l-223 659l2 4h196l95 -350l11 -59l14 59l110 343h137l109 -324l16 -72l16 72l87 331h177z" />
    <glyph glyph-name="X" unicode="X" horiz-adv-x="682" 
d="M459 349l227 -345l-2 -4h-218l-134 214l-123 -214h-201l-2 4l214 334l-213 321l2 4h221l116 -191l114 191h202l2 -4z" />
    <glyph glyph-name="Y" unicode="Y" horiz-adv-x="631" 
d="M224 0v255l-233 404l2 4h200l128 -241l125 241h188l2 -4l-228 -406v-253h-184z" />
    <glyph glyph-name="Z" unicode="Z" horiz-adv-x="615" 
d="M37 0v63l284 449h-284l-2 151h534v-63l-291 -448h303v-152h-544z" />
    <glyph glyph-name="bracketleft" unicode="[" horiz-adv-x="369" 
d="M334 631h-106v-652h106v-135h-264v921h264v-134z" />
    <glyph glyph-name="backslash" unicode="\" horiz-adv-x="525" 
d="M501 -122h-165l-313 872h165z" />
    <glyph glyph-name="bracketright" unicode="]" horiz-adv-x="369" 
d="M35 766h264v-921h-264v134h106v652h-106v135z" />
    <glyph glyph-name="asciicircum" unicode="^" horiz-adv-x="559" 
d="M335 695l196 -374l-119 -53l-121 251l-10 25l-11 -25l-121 -251l-121 53l196 374h111z" />
    <glyph glyph-name="underscore" unicode="_" horiz-adv-x="554" 
d="M51 -145v145h452v-145h-452z" />
    <glyph glyph-name="grave" unicode="`" horiz-adv-x="282" 
d="M230 556l-236 95l-4 20l106 127l186 -161z" />
    <glyph glyph-name="a" unicode="a" horiz-adv-x="664" 
d="M630 170l4 -2v-157q-43 -18 -96 -18q-95 0 -122 68q-20 -32 -62 -53.5t-96 -21.5q-101 0 -163 69.5t-62 191.5q0 127 74 205t186 78q82 0 130 -35l5 21h151v-330q0 -24 25 -24q16 0 26 8zM314 154q25 0 48 12.5t31 34.5v150q-29 22 -73 22q-41 0 -68.5 -32t-27.5 -82
t24.5 -77.5t65.5 -27.5z" />
    <glyph glyph-name="b" unicode="b" horiz-adv-x="640" 
d="M384 530q106 0 164.5 -70.5t58.5 -188.5q0 -130 -80 -207.5t-212 -77.5q-150 0 -257 48v676h186v-227q51 47 140 47zM314 145q46 0 74 28t28 82q0 57 -26.5 83t-66.5 26q-27 0 -49.5 -13t-29.5 -34v-159q30 -13 70 -13z" />
    <glyph glyph-name="c" unicode="c" horiz-adv-x="493" 
d="M323 -14q-128 0 -209.5 71t-81.5 198q0 130 78 202.5t207 72.5q75 0 136 -22v-155l-6 -4q-58 23 -107 23q-57 0 -87 -29t-30 -82t31 -84.5t86 -31.5q53 0 107 27l6 -4v-158q-55 -24 -130 -24z" />
    <glyph glyph-name="d" unicode="d" horiz-adv-x="664" 
d="M630 170l4 -2v-157q-43 -18 -96 -18q-95 0 -122 68q-20 -32 -62 -53.5t-96 -21.5q-99 0 -162 67t-63 193q0 127 75.5 205.5t190.5 78.5q53 0 94 -13v193h186v-524q0 -24 27 -24q14 0 24 8zM314 154q25 0 48 12.5t31 34.5v157q-30 15 -69 15q-45 0 -72.5 -30t-27.5 -84
q0 -53 24 -79t66 -26z" />
    <glyph glyph-name="e" unicode="e" horiz-adv-x="590" 
d="M556 208h-330q24 -76 132 -76q80 0 161 35l4 -2v-141q-77 -38 -201 -38q-54 0 -103 14.5t-92.5 44.5t-69 85t-25.5 128q0 123 75.5 197.5t196.5 74.5q115 0 183.5 -63.5t70.5 -180.5q0 -26 -2 -78zM223 305h156q-5 78 -76 78q-66 0 -80 -78z" />
    <glyph glyph-name="f" unicode="f" horiz-adv-x="396" 
d="M326 718q46 0 80 -10v-162l-2 -1q-23 8 -53 8q-67 0 -67 -73v-1h92v-145h-92v-334h-186v334h-71v145h71q0 113 62 176t166 63z" />
    <glyph glyph-name="g" unicode="g" horiz-adv-x="639" 
d="M454 530h127v-441q0 -128 -84.5 -195.5t-220.5 -67.5q-119 0 -212 36v154l4 2q82 -46 178 -46q80 0 113.5 24t35.5 79q-47 -38 -126 -38q-112 0 -174 61t-62 173q0 120 74.5 189.5t187.5 69.5q87 0 143 -42zM310 189q67 0 85 50v113q-31 21 -77 21q-42 0 -68 -25t-26 -69
q0 -43 23.5 -66.5t62.5 -23.5z" />
    <glyph glyph-name="h" unicode="h" horiz-adv-x="638" 
d="M393 530q87 0 139 -55.5t52 -153.5v-321h-186v272q0 83 -74 83q-65 0 -78 -58v-297h-186v710h186v-241q54 61 147 61z" />
    <glyph glyph-name="i" unicode="i" horiz-adv-x="306" 
d="M153 571q-44 0 -76 31.5t-32 76.5t32 76.5t76 31.5q45 0 76.5 -31.5t31.5 -76.5t-31.5 -76.5t-76.5 -31.5zM60 0v516h186v-516h-186z" />
    <glyph glyph-name="j" unicode="j" horiz-adv-x="325" 
d="M172 571q-44 0 -76 31.5t-32 76.5t32 76.5t76 31.5q45 0 76.5 -31.5t31.5 -76.5t-31.5 -76.5t-76.5 -31.5zM42 -171q-31 0 -82 7v160l4 2q17 -4 38 -4q77 0 77 89v433h186v-477q0 -106 -59 -158t-164 -52z" />
    <glyph glyph-name="k" unicode="k" horiz-adv-x="613" 
d="M407 275l211 -271l-2 -4h-221l-149 191v-191h-186v710h186v-377l147 183h207l2 -4z" />
    <glyph glyph-name="l" unicode="l" horiz-adv-x="346" 
d="M248 -11q-96 0 -144.5 44.5t-48.5 145.5v531h186v-489q0 -67 50 -67q19 0 35 8l4 -2v-159q-39 -12 -82 -12z" />
    <glyph glyph-name="m" unicode="m" horiz-adv-x="956" 
d="M716 530q85 0 135.5 -55t50.5 -150v-325h-186v268q0 83 -70 83q-27 0 -46.5 -14.5t-25.5 -43.5v-293h-186v268q0 83 -70 83q-27 0 -46.5 -14.5t-25.5 -43.5v-293h-186v516h151l17 -69q53 83 160 83q115 0 162 -94q20 39 62 66.5t104 27.5z" />
    <glyph glyph-name="n" unicode="n" horiz-adv-x="638" 
d="M393 530q86 0 138.5 -57.5t52.5 -153.5v-319h-186v267q0 84 -75 84q-27 0 -49 -16t-28 -42v-293h-186v516h151l17 -70q54 84 165 84z" />
    <glyph glyph-name="o" unicode="o" horiz-adv-x="638" 
d="M319 -14q-120 0 -203.5 70t-83.5 202q0 124 79.5 198t207.5 74q121 0 204 -69.5t83 -201.5q0 -125 -79.5 -199t-207.5 -74zM319 144q46 0 71 32t25 83t-25 82t-71 31q-47 0 -71.5 -31.5t-24.5 -81.5q0 -52 24 -83.5t72 -31.5z" />
    <glyph glyph-name="p" unicode="p" horiz-adv-x="641" 
d="M386 530q105 0 163.5 -72t58.5 -190q0 -126 -76 -204t-190 -78q-56 0 -96 17v-167h-186v680h151l14 -57q23 29 65 50t96 21zM316 145q46 0 74 29.5t28 83.5q0 57 -26.5 81.5t-66.5 24.5q-27 0 -49.5 -13t-29.5 -34v-159q30 -13 70 -13z" />
    <glyph glyph-name="q" unicode="q" horiz-adv-x="639" 
d="M428 516h151v-680h-186v198q-53 -48 -135 -48q-101 0 -163 70.5t-62 195.5q0 127 73 202.5t187 75.5q81 0 130 -33zM314 154q25 0 48 12.5t31 34.5v152q-29 20 -73 20q-43 0 -69.5 -30t-26.5 -82q0 -53 24 -80t66 -27z" />
    <glyph glyph-name="r" unicode="r" horiz-adv-x="434" 
d="M360 528q30 0 55 -7v-168l-4 -2q-22 8 -51 8q-47 0 -80.5 -31.5t-33.5 -95.5v-232h-186v516h151l19 -75q17 41 53.5 64t76.5 23z" />
    <glyph glyph-name="s" unicode="s" horiz-adv-x="501" 
d="M240 -14q-111 0 -199 37v144l4 2q37 -24 91 -39.5t95 -15.5q62 0 62 30q0 16 -16.5 24.5t-85.5 29.5q-82 25 -116 64.5t-34 96.5q0 77 64.5 124t169.5 47q111 0 171 -24v-146l-4 -2q-25 13 -71 21t-84 8q-67 0 -67 -25q0 -13 16.5 -21.5t84.5 -28.5q78 -23 112.5 -60
t34.5 -96q0 -80 -60 -125t-168 -45z" />
    <glyph glyph-name="t" unicode="t" horiz-adv-x="445" 
d="M407 371h-129v-134q0 -79 67 -79q30 0 58 13l4 -2v-156q-45 -20 -118 -20q-92 0 -144.5 52.5t-52.5 152.5v173h-83v145h83v124l183 35l3 -2v-157h129v-145z" />
    <glyph glyph-name="u" unicode="u" horiz-adv-x="629" 
d="M383 516h186v-516h-151l-18 74q-51 -88 -172 -88q-82 0 -127.5 50.5t-45.5 134.5v345h186v-299q0 -72 68 -72q57 0 74 46v325z" />
    <glyph glyph-name="v" unicode="v" horiz-adv-x="572" 
d="M573 516l2 -4l-220 -512h-141l-213 512l2 4h201l87 -266l92 266h190z" />
    <glyph glyph-name="w" unicode="w" horiz-adv-x="814" 
d="M811 516l2 -4l-175 -512h-128l-94 281l-5 19l-6 -19l-98 -281h-130l-176 512l2 4h183l66 -249l3 -25l6 24l77 250h152l74 -248l7 -30l4 32l65 246h171z" />
    <glyph glyph-name="x" unicode="x" horiz-adv-x="583" 
d="M402 266l177 -262l-2 -4h-207l-87 142l-86 -142h-191l-2 4l176 258l-168 250l2 4h208l76 -128l77 128h190l2 -4z" />
    <glyph glyph-name="y" unicode="y" horiz-adv-x="556" 
d="M555 516l2 -4l-216 -518l-64 -158h-192l-2 3l110 217l-188 456l2 4h196l80 -259l86 259h186z" />
    <glyph glyph-name="z" unicode="z" horiz-adv-x="545" 
d="M269 144h242v-144h-476v92l224 275h-221v149h463v-98z" />
    <glyph glyph-name="braceleft" unicode="{" horiz-adv-x="400" 
d="M271 437q0 -56 -34.5 -91.5t-71.5 -35.5v-9q37 0 71.5 -35.5t34.5 -91.5v-174q0 -40 53 -40h39v-137h-62q-88 0 -137.5 45.5t-49.5 122.5v142q0 48 -28.5 74t-53.5 26v152q25 0 53.5 23.5t28.5 68.5v142q0 77 49.5 122.5t137.5 45.5h62v-137h-39q-53 0 -53 -40v-173z" />
    <glyph glyph-name="bar" unicode="|" horiz-adv-x="308" 
d="M70 -115v840h168v-840h-168z" />
    <glyph glyph-name="braceright" unicode="}" horiz-adv-x="400" 
d="M286 477q0 -48 28.5 -74t53.5 -26v-152q-25 0 -53.5 -23.5t-28.5 -68.5v-142q0 -77 -49.5 -122.5t-137.5 -45.5h-62v137h39q53 0 53 40v174q0 56 34.5 91.5t71.5 35.5v9q-37 0 -71.5 35.5t-34.5 91.5v173q0 40 -53 40h-39v137h62q88 0 137.5 -45.5t49.5 -122.5v-142z" />
    <glyph glyph-name="asciitilde" unicode="~" horiz-adv-x="561" 
d="M158 213l-103 14q0 65 37 106t97 41q43 0 97 -16.5t83 -16.5q36 0 39 35l5 3l95 -19q0 -62 -36.5 -101.5t-95.5 -39.5q-34 0 -91 16.5t-82 16.5q-40 0 -42 -36z" />
    <glyph glyph-name="exclamdown" unicode="&#xa1;" horiz-adv-x="300" 
d="M152 349q-48 0 -73 25t-25 65t25 66.5t73 26.5t73 -26.5t25 -66.5t-25 -65t-73 -25zM58 -181l12 458h158l12 -458h-182z" />
    <glyph glyph-name="cent" unicode="&#xa2;" horiz-adv-x="530" 
d="M481 227v-158q-35 -13 -86 -17v-94h-174v108q-87 26 -136.5 91t-49.5 163q0 106 48.5 175.5t137.5 96.5v109h174v-97q43 -4 85 -17v-155l-6 -4q-63 21 -112 21q-64 0 -98 -30.5t-34 -86.5t34.5 -89.5t97.5 -33.5q57 0 113 22z" />
    <glyph glyph-name="sterling" unicode="&#xa3;" horiz-adv-x="588" 
d="M277 153h268v-153h-486l-5 8q53 112 60 247h-73v151h69q-1 7 -1 19q0 123 78.5 187.5t190.5 64.5q82 0 154 -22v-154l-6 -3q-70 28 -132 28q-49 0 -75.5 -23t-26.5 -64q0 -22 1 -33h155v-151h-151q-4 -47 -20 -102z" />
    <glyph glyph-name="currency" unicode="&#xa4;" horiz-adv-x="722" 
d="M617 336q0 -56 -24 -110l92 -92l-123 -122l-91 91q-52 -26 -113 -26q-56 0 -110 24l-89 -89l-122 122l88 88q-26 54 -26 114q0 61 26 113l-88 88l122 123l89 -89q54 24 110 24q60 0 114 -26l90 91l123 -123l-92 -92q24 -53 24 -109zM255 336q0 -43 29.5 -73.5t73.5 -30.5
t74 30.5t30 73.5t-30 73.5t-74 30.5t-73.5 -30.5t-29.5 -73.5z" />
    <glyph glyph-name="yen" unicode="&#xa5;" horiz-adv-x="702" 
d="M678 670l-215 -385h113v-169h-131v-116h-184v116h-129v169h112l-220 385h204l130 -268l127 268h193z" />
    <glyph glyph-name="brokenbar" unicode="&#xa6;" horiz-adv-x="316" 
d="M74 400v325h168v-325h-168zM74 -115v326h168v-326h-168z" />
    <glyph glyph-name="section" unicode="&#xa7;" horiz-adv-x="563" 
d="M459 143q43 -39 43 -105q0 -82 -70.5 -135t-176.5 -53q-103 0 -181 33v155l5 2q85 -41 166 -41q68 0 68 30q0 17 -19.5 28t-94.5 38q-85 31 -123.5 67t-38.5 106q0 80 75 133q-50 44 -50 120q0 80 69.5 129.5t176.5 49.5q97 0 161 -22v-154l-4 -2q-52 27 -137 27
q-79 0 -79 -34q0 -17 18 -26.5t89 -32.5q86 -28 129.5 -68t43.5 -106q0 -77 -70 -139zM304 221q48 -18 57 -22q12 19 12 42t-22 41t-100 47q-9 3 -23.5 9t-19.5 8q-14 -23 -14 -43q0 -25 19 -40.5t91 -41.5z" />
    <glyph glyph-name="dieresis" unicode="&#xa8;" horiz-adv-x="457" 
d="M105 577q-43 0 -72.5 29.5t-29.5 70.5q0 43 29.5 73t72.5 30q42 0 72 -30t30 -73q0 -41 -30 -70.5t-72 -29.5zM348 577q-43 0 -72.5 29.5t-29.5 70.5q0 43 29.5 73t72.5 30q42 0 72 -30t30 -73q0 -41 -30 -70.5t-72 -29.5z" />
    <glyph glyph-name="copyright" unicode="&#xa9;" horiz-adv-x="689" 
d="M347 -20q-142 0 -226.5 86.5t-84.5 216.5q0 129 84.5 216t226.5 87q140 0 223 -87t83 -216q0 -130 -83 -216.5t-223 -86.5zM345 77q99 0 148.5 57t49.5 150q0 90 -53 147.5t-145 57.5t-145 -57.5t-53 -147.5t53 -148.5t145 -58.5zM371 129q-74 0 -123 39t-49 109
q0 74 46.5 115.5t121.5 41.5q43 0 75 -12v-99l-3 -2q-24 9 -52 9q-56 0 -56 -49q0 -24 16 -37.5t43 -13.5q29 0 49 9l3 -2v-99q-24 -9 -71 -9z" />
    <glyph glyph-name="ordfeminine" unicode="&#xaa;" horiz-adv-x="480" 
d="M438 467l2 -1v-114q-28 -12 -71 -12q-60 0 -79 57q-49 -62 -126 -62q-62 0 -95.5 33t-33.5 82q0 64 47.5 94t113.5 30q44 0 72 -8q-7 52 -76 52q-70 0 -118 -19l-2 2v109q48 25 143 25q186 0 186 -178v-70q0 -23 18 -23q11 0 19 3zM209 439q42 0 60 27v24q-22 5 -42 5
q-52 0 -52 -29q0 -27 34 -27z" />
    <glyph glyph-name="guillemotleft" unicode="&#xab;" horiz-adv-x="601" 
d="M147 91l-120 199l124 197h162v-14l-110 -179l111 -193v-10h-167zM397 91l-120 199l124 197h162v-14l-110 -179l111 -193v-10h-167z" />
    <glyph glyph-name="registered" unicode="&#xae;" horiz-adv-x="660" 
d="M332 750q131 0 209 -81t78 -203t-78 -203t-209 -81q-134 0 -213 81t-79 203t79 203t213 81zM329 275q92 0 137.5 53t45.5 139q0 83 -49 136.5t-134 53.5q-84 0 -133.5 -53.5t-49.5 -136.5t49.5 -137.5t133.5 -54.5zM464 498q0 -59 -41 -88l47 -76h-113l-34 56h-22v-56
h-107v267q62 3 126 3q58 0 101 -25t43 -81zM318 523q-11 0 -17 -1v-63h17q16 0 25.5 9t9.5 23q0 32 -35 32z" />
    <glyph glyph-name="macron" unicode="&#xaf;" horiz-adv-x="367" 
d="M25 604v109h317v-109h-317z" />
    <glyph glyph-name="degree" unicode="&#xb0;" horiz-adv-x="387" 
d="M194 364q-68 0 -113.5 44t-45.5 111t45.5 111t113.5 44q67 0 112.5 -44.5t45.5 -110.5t-45.5 -110.5t-112.5 -44.5zM194 463q23 0 36.5 16t13.5 40t-13.5 40t-36.5 16t-37 -16t-14 -40t14 -40t37 -16z" />
    <glyph glyph-name="plusminus" unicode="&#xb1;" horiz-adv-x="578" 
d="M535 252h-185v-131h175v-121h-472v121h175v131h-185v118h186v168h121v-168h185v-118z" />
    <glyph glyph-name="acute" unicode="&#xb4;" horiz-adv-x="282" 
d="M52 556l-52 81l186 161l106 -127l-4 -20z" />
    <glyph glyph-name="paragraph" unicode="&#xb6;" horiz-adv-x="641" 
d="M590 601v-165h-60v-548h-43v548h-56v-548h-176v297q-105 0 -165.5 50t-60.5 156q0 105 71.5 157.5t180.5 52.5h309z" />
    <glyph glyph-name="periodcentered" unicode="&#xb7;" horiz-adv-x="290" 
d="M145 148q-48 0 -73 25t-25 65t25 66.5t73 26.5t73 -26.5t25 -66.5t-25 -65t-73 -25z" />
    <glyph glyph-name="cedilla" unicode="&#xb8;" horiz-adv-x="226" 
d="M80 -245q-40 0 -68 7v69l4 2q21 -6 36 -6q54 0 54 34q1 15 -10 23t-30 8q-16 0 -32 -2l-2 4v61l33 46h95l-34 -42q10 0 15 -1q45 -5 70.5 -29.5t25.5 -65.5q0 -108 -157 -108z" />
    <glyph glyph-name="ordmasculine" unicode="&#xba;" horiz-adv-x="505" 
d="M253 326q-92 0 -156.5 54t-64.5 154q0 93 62 152t159 59q91 0 156 -55t65 -155q0 -93 -62 -151t-159 -58zM253 459q30 0 46 21.5t16 54.5t-16 55t-46 22t-46 -22t-16 -55q0 -34 15.5 -55t46.5 -21z" />
    <glyph glyph-name="guillemotright" unicode="&#xbb;" horiz-adv-x="601" 
d="M204 487l120 -199l-124 -197h-162v14l110 179l-111 193v10h167zM454 487l120 -199l-124 -197h-162v14l110 179l-111 193v10h167z" />
    <glyph glyph-name="onequarter" unicode="&#xbc;" horiz-adv-x="757" 
d="M106 300v201l-75 -15v131l191 55h13v-372h-129zM492 663h132l-397 -674h-130zM726 130v-82h-37v-48h-118v48h-183v58l191 262h110v-238h37zM514 130h57v86z" />
    <glyph glyph-name="onehalf" unicode="&#xbd;" horiz-adv-x="785" 
d="M106 300v201l-75 -15v131l191 55h13v-372h-129zM83 -11l395 674h132l-397 -674h-130zM440 0q0 110 101 182q46 33 57 44t11 22q0 17 -34 17q-71 0 -125 -34l-1 1v108q58 34 139 34q65 0 111 -27t46 -84q0 -43 -19.5 -70t-62.5 -54q-40 -25 -41 -37h132v-102h-314z" />
    <glyph glyph-name="threequarters" unicode="&#xbe;" horiz-adv-x="784" 
d="M332 420q0 -59 -46 -94t-125 -35q-69 0 -120 18v99l1 1q43 -17 102 -17q71 0 71 29q0 23 -35 23h-89v86h80q28 0 28 20q0 23 -57 23q-64 0 -96 -12l-1 1v99q57 13 117 13q158 0 158 -103q0 -43 -35 -73q47 -24 47 -78zM543 663h132l-397 -674h-130zM753 130v-82h-37v-48
h-118v48h-183v58l191 262h110v-238h37zM541 130h57v86z" />
    <glyph glyph-name="questiondown" unicode="&#xbf;" horiz-adv-x="451" 
d="M272 532q48 0 73 -25t25 -65t-25 -66.5t-73 -26.5t-73 26.5t-25 66.5t25 65t73 25zM358 296q1 -73 -19.5 -112.5t-75.5 -74.5q-31 -24 -42 -39.5t-11 -37.5q0 -54 77 -54q68 0 120 27l2 -1l1 -159q-60 -26 -149 -26q-99 0 -166.5 48t-67.5 144q0 61 26 100t82 81
q27 20 41.5 39t17.5 31.5t3 31.5z" />
    <glyph glyph-name="Agrave" unicode="&#xc0;" horiz-adv-x="652" 
d="M421 699l-249 69l-9 18l79 134l214 -134zM474 0l-31 71h-240l-28 -71h-184l290 663h83l302 -663h-192zM253 197h135l-53 120l-18 50l-16 -50z" />
    <glyph glyph-name="Aacute" unicode="&#xc1;" horiz-adv-x="652" 
d="M467 768l-249 -69l-35 85l214 136l79 -134zM474 0l-31 71h-240l-28 -71h-184l290 663h83l302 -663h-192zM253 197h135l-53 120l-18 50l-16 -50z" />
    <glyph glyph-name="Acircumflex" unicode="&#xc2;" horiz-adv-x="652" 
d="M317 778l-122 -76l-51 67l133 142h83l139 -140l-53 -69zM474 0l-31 71h-240l-28 -71h-184l290 663h83l302 -663h-192zM253 197h135l-53 120l-18 50l-16 -50z" />
    <glyph glyph-name="Atilde" unicode="&#xc3;" horiz-adv-x="652" 
d="M229 708l-3 -2l-103 28q0 61 36 102t94 41q32 0 71.5 -15.5t58.5 -15.5q13 0 24 10t11 24l3 2l103 -28q0 -62 -35.5 -102t-94.5 -40q-25 0 -67 15t-60 15q-17 0 -27.5 -10.5t-10.5 -23.5zM474 0l-31 71h-240l-28 -71h-184l290 663h83l302 -663h-192zM253 197h135l-53 120
l-18 50l-16 -50z" />
    <glyph glyph-name="Adieresis" unicode="&#xc4;" horiz-adv-x="652" 
d="M194 714q-38 0 -64 26t-26 64q0 37 26.5 63t63.5 26t63.5 -26t26.5 -63t-26.5 -63.5t-63.5 -26.5zM451 714q-37 0 -63.5 26t-26.5 64q0 37 26.5 63t63.5 26t63.5 -26t26.5 -63q0 -38 -26.5 -64t-63.5 -26zM474 0l-31 71h-240l-28 -71h-184l290 663h83l302 -663h-192z
M253 197h135l-53 120l-18 50l-16 -50z" />
    <glyph glyph-name="Aring" unicode="&#xc5;" horiz-adv-x="652" 
d="M322 689q-58 0 -94.5 34t-36.5 86q0 51 36.5 85t94.5 34t95 -34t37 -85q0 -52 -37 -86t-95 -34zM322 851q-18 0 -30.5 -12.5t-12.5 -29.5q0 -18 12 -30.5t31 -12.5t31.5 12.5t12.5 30.5t-12.5 30t-31.5 12zM474 0l-31 71h-240l-28 -71h-184l290 663h83l302 -663h-192z
M253 197h135l-53 120l-18 50l-16 -50z" />
    <glyph glyph-name="AE" unicode="&#xc6;" horiz-adv-x="884" 
d="M599 150h238v-150h-424v121h-180l-65 -121h-187l376 663h472v-150h-230v-97h211v-148h-211v-118zM303 251h110v210l-83 -159z" />
    <glyph glyph-name="Ccedilla" unicode="&#xc7;" horiz-adv-x="602" 
d="M417 512q-93 0 -141.5 -46t-48.5 -133q0 -86 50 -132t145 -46q69 0 132 24l4 -3v-167q-59 -17 -137 -20l-24 -30q10 0 15 -1q45 -5 70.5 -29.5t25.5 -65.5q0 -108 -157 -108q-40 0 -68 7v69l4 2q21 -6 36 -6q54 0 54 34q1 15 -10 23t-30 8q-16 0 -32 -2l-2 4v61l27 37
q-132 19 -213 106t-81 226q0 165 97.5 260t256.5 95q88 0 168 -22v-173l-3 -2q-65 30 -138 30z" />
    <glyph glyph-name="Egrave" unicode="&#xc8;" horiz-adv-x="571" 
d="M399 699l-249 69l-9 18l79 134l214 -134zM257 148h267v-148h-452v663h444v-148h-259v-103h240v-144h-240v-120z" />
    <glyph glyph-name="Eacute" unicode="&#xc9;" horiz-adv-x="571" 
d="M445 768l-249 -69l-35 85l214 136l79 -134zM257 148h267v-148h-452v663h444v-148h-259v-103h240v-144h-240v-120z" />
    <glyph glyph-name="Ecircumflex" unicode="&#xca;" horiz-adv-x="571" 
d="M295 778l-122 -76l-51 67l133 142h83l139 -140l-53 -69zM257 148h267v-148h-452v663h444v-148h-259v-103h240v-144h-240v-120z" />
    <glyph glyph-name="Edieresis" unicode="&#xcb;" horiz-adv-x="571" 
d="M172 714q-38 0 -64 26t-26 64q0 37 26.5 63t63.5 26t63.5 -26t26.5 -63t-26.5 -63.5t-63.5 -26.5zM429 714q-37 0 -63.5 26t-26.5 64q0 37 26.5 63t63.5 26t63.5 -26t26.5 -63q0 -38 -26.5 -64t-63.5 -26zM257 148h267v-148h-452v663h444v-148h-259v-103h240v-144h-240
v-120z" />
    <glyph glyph-name="Igrave" unicode="&#xcc;" horiz-adv-x="330" 
d="M265 699l-249 69l-9 18l79 134l214 -134zM72 0v663h186v-663h-186z" />
    <glyph glyph-name="Iacute" unicode="&#xcd;" horiz-adv-x="330" 
d="M62 699l-35 85l214 136l79 -134l-9 -18zM72 0v663h186v-663h-186z" />
    <glyph glyph-name="Icircumflex" unicode="&#xce;" horiz-adv-x="330" 
d="M39 702l-51 67l133 142h83l139 -140l-53 -69l-129 76zM72 0v663h186v-663h-186z" />
    <glyph glyph-name="Idieresis" unicode="&#xcf;" horiz-adv-x="330" 
d="M38 714q-38 0 -64 26t-26 64q0 37 26.5 63t63.5 26t63.5 -26t26.5 -63t-26.5 -63.5t-63.5 -26.5zM295 714q-37 0 -63.5 26t-26.5 64q0 37 26.5 63t63.5 26t63.5 -26t26.5 -63q0 -38 -26.5 -64t-63.5 -26zM72 0v663h186v-663h-186z" />
    <glyph glyph-name="Eth" unicode="&#xd0;" horiz-adv-x="753" 
d="M354 673q167 0 264.5 -90t97.5 -244q0 -163 -102.5 -251.5t-278.5 -88.5q-210 0 -243 1v277h-74v110h74v276q133 10 262 10zM355 161q170 2 170 175q0 85 -48.5 127.5t-125.5 42.5q-46 0 -75 -4v-115h96v-110h-96v-114q26 -2 79 -2z" />
    <glyph glyph-name="Ntilde" unicode="&#xd1;" horiz-adv-x="740" 
d="M274 706l-103 28q0 61 36 102t94 41q32 0 71.5 -15.5t58.5 -15.5q13 0 24 10t11 24l3 2l103 -28q0 -62 -35.5 -102t-94.5 -40q-25 0 -67 15t-60 15q-17 0 -27.5 -10.5t-10.5 -23.5zM72 0v663h82l334 -318h3v318h177v-663h-82l-334 328h-3v-328h-177z" />
    <glyph glyph-name="Ograve" unicode="&#xd2;" horiz-adv-x="776" 
d="M487 699l-249 69l-9 18l79 134l214 -134zM388 -12q-93 0 -171 36.5t-129.5 116.5t-51.5 191q0 159 99 253t253 94q93 0 171 -37t129.5 -117.5t51.5 -192.5q0 -157 -99 -250.5t-253 -93.5zM388 155q75 0 117.5 47t42.5 130q0 84 -42.5 132t-117.5 48t-117.5 -48
t-42.5 -132q0 -83 42.5 -130t117.5 -47z" />
    <glyph glyph-name="Oacute" unicode="&#xd3;" horiz-adv-x="776" 
d="M284 699l-35 85l214 136l79 -134l-9 -18zM388 -12q-93 0 -171 36.5t-129.5 116.5t-51.5 191q0 159 99 253t253 94q93 0 171 -37t129.5 -117.5t51.5 -192.5q0 -157 -99 -250.5t-253 -93.5zM388 155q75 0 117.5 47t42.5 130q0 84 -42.5 132t-117.5 48t-117.5 -48
t-42.5 -132q0 -83 42.5 -130t117.5 -47z" />
    <glyph glyph-name="Ocircumflex" unicode="&#xd4;" horiz-adv-x="776" 
d="M261 702l-51 67l133 142h83l139 -140l-53 -69l-129 76zM388 -12q-93 0 -171 36.5t-129.5 116.5t-51.5 191q0 159 99 253t253 94q93 0 171 -37t129.5 -117.5t51.5 -192.5q0 -157 -99 -250.5t-253 -93.5zM388 155q75 0 117.5 47t42.5 130q0 84 -42.5 132t-117.5 48
t-117.5 -48t-42.5 -132q0 -83 42.5 -130t117.5 -47z" />
    <glyph glyph-name="Otilde" unicode="&#xd5;" horiz-adv-x="776" 
d="M292 706l-103 28q0 61 36 102t94 41q32 0 71.5 -15.5t58.5 -15.5q13 0 24 10t11 24l3 2l103 -28q0 -62 -35.5 -102t-94.5 -40q-25 0 -67 15t-60 15q-17 0 -27.5 -10.5t-10.5 -23.5zM388 -12q-93 0 -171 36.5t-129.5 116.5t-51.5 191q0 159 99 253t253 94q93 0 171 -37
t129.5 -117.5t51.5 -192.5q0 -157 -99 -250.5t-253 -93.5zM388 155q75 0 117.5 47t42.5 130q0 84 -42.5 132t-117.5 48t-117.5 -48t-42.5 -132q0 -83 42.5 -130t117.5 -47z" />
    <glyph glyph-name="Odieresis" unicode="&#xd6;" horiz-adv-x="776" 
d="M260 714q-38 0 -64 26t-26 64q0 37 26.5 63t63.5 26t63.5 -26t26.5 -63t-26.5 -63.5t-63.5 -26.5zM517 714q-37 0 -63.5 26t-26.5 64q0 37 26.5 63t63.5 26t63.5 -26t26.5 -63q0 -38 -26.5 -64t-63.5 -26zM388 -12q-93 0 -171 36.5t-129.5 116.5t-51.5 191q0 159 99 253
t253 94q93 0 171 -37t129.5 -117.5t51.5 -192.5q0 -157 -99 -250.5t-253 -93.5zM388 155q75 0 117.5 47t42.5 130q0 84 -42.5 132t-117.5 48t-117.5 -48t-42.5 -132q0 -83 42.5 -130t117.5 -47z" />
    <glyph glyph-name="multiply" unicode="&#xd7;" horiz-adv-x="534" 
d="M495 434l-141 -141l141 -142l-86 -86l-141 142l-142 -142l-86 86l142 142l-142 141l86 86l142 -141l141 141z" />
    <glyph glyph-name="Oslash" unicode="&#xd8;" horiz-adv-x="776" 
d="M741 680v-12l-85 -99q84 -94 84 -237q0 -157 -99 -250.5t-253 -93.5q-106 0 -191 48l-44 -51h-118v15l84 99q-83 91 -83 233q0 159 99 253t253 94q103 0 185 -46l40 47h128zM228 332q0 -51 16 -87l214 253q-31 14 -70 14q-75 0 -117.5 -48t-42.5 -132zM548 332
q0 52 -17 92l-218 -253q31 -16 75 -16q75 0 117.5 47t42.5 130z" />
    <glyph glyph-name="Ugrave" unicode="&#xd9;" horiz-adv-x="723" 
d="M461 699l-249 69l-9 18l79 134l214 -134zM362 -13q-144 0 -221 73t-77 209v394h184v-371q0 -149 116 -149t116 149v371h179v-394q0 -134 -78 -208t-219 -74z" />
    <glyph glyph-name="Uacute" unicode="&#xda;" horiz-adv-x="723" 
d="M258 699l-35 85l214 136l79 -134l-9 -18zM362 -13q-144 0 -221 73t-77 209v394h184v-371q0 -149 116 -149t116 149v371h179v-394q0 -134 -78 -208t-219 -74z" />
    <glyph glyph-name="Ucircumflex" unicode="&#xdb;" horiz-adv-x="723" 
d="M235 702l-51 67l133 142h83l139 -140l-53 -69l-129 76zM362 -13q-144 0 -221 73t-77 209v394h184v-371q0 -149 116 -149t116 149v371h179v-394q0 -134 -78 -208t-219 -74z" />
    <glyph glyph-name="Udieresis" unicode="&#xdc;" horiz-adv-x="723" 
d="M234 714q-38 0 -64 26t-26 64q0 37 26.5 63t63.5 26t63.5 -26t26.5 -63t-26.5 -63.5t-63.5 -26.5zM491 714q-37 0 -63.5 26t-26.5 64q0 37 26.5 63t63.5 26t63.5 -26t26.5 -63q0 -38 -26.5 -64t-63.5 -26zM362 -13q-144 0 -221 73t-77 209v394h184v-371q0 -149 116 -149
t116 149v371h179v-394q0 -134 -78 -208t-219 -74z" />
    <glyph glyph-name="Yacute" unicode="&#xdd;" horiz-adv-x="631" 
d="M213 699l-35 85l214 136l79 -134l-9 -18zM224 0v255l-233 404l2 4h200l128 -241l125 241h188l2 -4l-228 -406v-253h-184z" />
    <glyph glyph-name="Thorn" unicode="&#xde;" horiz-adv-x="614" 
d="M581 351q1 -128 -73.5 -192.5t-194.5 -64.5q-17 0 -57 2v-96h-184v663h184v-94q32 3 64 3q36 0 70 -6t69.5 -22t61.5 -40t43 -63.5t17 -89.5zM289 242q107 0 107 90q0 41 -27 62t-70 21q-23 0 -43 -2v-170q13 -1 33 -1z" />
    <glyph glyph-name="germandbls" unicode="&#xdf;" horiz-adv-x="669" 
d="M567 306q33 -30 46 -43.5t25.5 -42t12.5 -65.5q0 -76 -57.5 -122.5t-132.5 -46.5q-82 0 -140 27v144l4 2q45 -45 104 -45q20 0 31.5 8.5t11.5 22.5q0 16 -11.5 29t-56.5 46q-50 38 -68 62.5t-18 66.5q0 34 17 59t34.5 46.5t17.5 44.5q0 30 -18 42.5t-41 12.5
q-44 0 -63 -25.5t-19 -80.5v-448h-186v463q0 119 72.5 187t192.5 68q42 0 81 -8.5t78.5 -28.5t63.5 -60.5t24 -96.5q0 -39 -16 -66t-32 -44.5t-16 -32.5q0 -19 11.5 -32t47.5 -43z" />
    <glyph glyph-name="agrave" unicode="&#xe0;" horiz-adv-x="664" 
d="M397 556l-236 95l-4 20l106 127l186 -161zM630 170l4 -2v-157q-43 -18 -96 -18q-95 0 -122 68q-20 -32 -62 -53.5t-96 -21.5q-101 0 -163 69.5t-62 191.5q0 127 74 205t186 78q82 0 130 -35l5 21h151v-330q0 -24 25 -24q16 0 26 8zM314 154q25 0 48 12.5t31 34.5v150
q-29 22 -73 22q-41 0 -68.5 -32t-27.5 -82t24.5 -77.5t65.5 -27.5z" />
    <glyph glyph-name="aacute" unicode="&#xe1;" horiz-adv-x="664" 
d="M472 651l-236 -95l-52 81l186 161l106 -127zM630 170l4 -2v-157q-43 -18 -96 -18q-95 0 -122 68q-20 -32 -62 -53.5t-96 -21.5q-101 0 -163 69.5t-62 191.5q0 127 74 205t186 78q82 0 130 -35l5 21h151v-330q0 -24 25 -24q16 0 26 8zM314 154q25 0 48 12.5t31 34.5v150
q-29 22 -73 22q-41 0 -68.5 -32t-27.5 -82t24.5 -77.5t65.5 -27.5z" />
    <glyph glyph-name="acircumflex" unicode="&#xe2;" horiz-adv-x="664" 
d="M319 649l-106 -79l-60 57l124 156h85l129 -156l-60 -57zM630 170l4 -2v-157q-43 -18 -96 -18q-95 0 -122 68q-20 -32 -62 -53.5t-96 -21.5q-101 0 -163 69.5t-62 191.5q0 127 74 205t186 78q82 0 130 -35l5 21h151v-330q0 -24 25 -24q16 0 26 8zM314 154q25 0 48 12.5
t31 34.5v150q-29 22 -73 22q-41 0 -68.5 -32t-27.5 -82t24.5 -77.5t65.5 -27.5z" />
    <glyph glyph-name="atilde" unicode="&#xe3;" horiz-adv-x="664" 
d="M235 591l-4 -3l-109 30q0 57 35 101t96 44q33 0 72 -15t58 -15q17 0 27 10t10 25l4 2l109 -29q0 -66 -38 -105.5t-95 -39.5q-30 -1 -71 14.5t-56 15.5q-36 0 -38 -35zM630 170l4 -2v-157q-43 -18 -96 -18q-95 0 -122 68q-20 -32 -62 -53.5t-96 -21.5q-101 0 -163 69.5
t-62 191.5q0 127 74 205t186 78q82 0 130 -35l5 21h151v-330q0 -24 25 -24q16 0 26 8zM314 154q25 0 48 12.5t31 34.5v150q-29 22 -73 22q-41 0 -68.5 -32t-27.5 -82t24.5 -77.5t65.5 -27.5z" />
    <glyph glyph-name="adieresis" unicode="&#xe4;" horiz-adv-x="664" 
d="M199 577q-43 0 -72.5 29.5t-29.5 70.5q0 43 29.5 73t72.5 30q42 0 72 -30t30 -73q0 -41 -30 -70.5t-72 -29.5zM442 577q-43 0 -72.5 29.5t-29.5 70.5q0 43 29.5 73t72.5 30q42 0 72 -30t30 -73q0 -41 -30 -70.5t-72 -29.5zM630 170l4 -2v-157q-43 -18 -96 -18
q-95 0 -122 68q-20 -32 -62 -53.5t-96 -21.5q-101 0 -163 69.5t-62 191.5q0 127 74 205t186 78q82 0 130 -35l5 21h151v-330q0 -24 25 -24q16 0 26 8zM314 154q25 0 48 12.5t31 34.5v150q-29 22 -73 22q-41 0 -68.5 -32t-27.5 -82t24.5 -77.5t65.5 -27.5z" />
    <glyph glyph-name="aring" unicode="&#xe5;" horiz-adv-x="664" 
d="M322 549q-59 0 -97 38t-38 94t38 93.5t97 37.5q60 0 98 -37.5t38 -93.5t-38 -94t-98 -38zM322 726q-21 0 -34 -13t-13 -32q0 -20 13 -33t34 -13t34.5 13t13.5 33q0 19 -13.5 32t-34.5 13zM630 170l4 -2v-157q-43 -18 -96 -18q-95 0 -122 68q-20 -32 -62 -53.5t-96 -21.5
q-101 0 -163 69.5t-62 191.5q0 127 74 205t186 78q82 0 130 -35l5 21h151v-330q0 -24 25 -24q16 0 26 8zM314 154q25 0 48 12.5t31 34.5v150q-29 22 -73 22q-41 0 -68.5 -32t-27.5 -82t24.5 -77.5t65.5 -27.5z" />
    <glyph glyph-name="ae" unicode="&#xe6;" horiz-adv-x="876" 
d="M592 530q117 0 184 -61.5t69 -185.5q0 -26 -2 -78h-328q21 -78 111 -78q97 0 178 40l4 -2v-137q-81 -42 -198 -42q-145 0 -224 85q-80 -84 -186 -84q-87 0 -132 40t-45 105q0 43 17.5 74t44 48.5t68.5 28.5t79.5 14.5t87.5 4.5q-9 71 -103 71q-89 0 -144 -29l-4 2v147
q22 14 72 25.5t111 11.5q110 0 173 -50q70 50 167 50zM511 302h155q-3 43 -21.5 61.5t-53.5 18.5q-65 0 -80 -80zM249 121q51 0 89 31q-8 22 -13 52q-120 -3 -120 -48q0 -14 11 -24.5t33 -10.5z" />
    <glyph glyph-name="ccedilla" unicode="&#xe7;" horiz-adv-x="493" 
d="M340 372q-57 0 -87 -29t-30 -82t31 -84.5t86 -31.5q53 0 107 27l6 -4v-158q-53 -23 -119 -24l-22 -27q10 0 15 -1q45 -5 70.5 -29.5t25.5 -65.5q0 -108 -157 -108q-40 0 -68 7v69l4 2q21 -6 36 -6q54 0 54 34q1 15 -10 23t-30 8q-16 0 -32 -2l-2 4v61l28 39
q-97 19 -155.5 87t-58.5 174q0 130 78 202.5t207 72.5q75 0 136 -22v-155l-6 -4q-58 23 -107 23z" />
    <glyph glyph-name="egrave" unicode="&#xe8;" horiz-adv-x="590" 
d="M374 556l-236 95l-4 20l106 127l186 -161zM556 208h-330q24 -76 132 -76q80 0 161 35l4 -2v-141q-77 -38 -201 -38q-54 0 -103 14.5t-92.5 44.5t-69 85t-25.5 128q0 123 75.5 197.5t196.5 74.5q115 0 183.5 -63.5t70.5 -180.5q0 -26 -2 -78zM223 305h156q-5 78 -76 78
q-66 0 -80 -78z" />
    <glyph glyph-name="eacute" unicode="&#xe9;" horiz-adv-x="590" 
d="M449 651l-236 -95l-52 81l186 161l106 -127zM556 208h-330q24 -76 132 -76q80 0 161 35l4 -2v-141q-77 -38 -201 -38q-54 0 -103 14.5t-92.5 44.5t-69 85t-25.5 128q0 123 75.5 197.5t196.5 74.5q115 0 183.5 -63.5t70.5 -180.5q0 -26 -2 -78zM223 305h156q-5 78 -76 78
q-66 0 -80 -78z" />
    <glyph glyph-name="ecircumflex" unicode="&#xea;" horiz-adv-x="590" 
d="M296 649l-106 -79l-60 57l124 156h85l129 -156l-60 -57zM556 208h-330q24 -76 132 -76q80 0 161 35l4 -2v-141q-77 -38 -201 -38q-54 0 -103 14.5t-92.5 44.5t-69 85t-25.5 128q0 123 75.5 197.5t196.5 74.5q115 0 183.5 -63.5t70.5 -180.5q0 -26 -2 -78zM223 305h156
q-5 78 -76 78q-66 0 -80 -78z" />
    <glyph glyph-name="edieresis" unicode="&#xeb;" horiz-adv-x="590" 
d="M176 577q-43 0 -72.5 29.5t-29.5 70.5q0 43 29.5 73t72.5 30q42 0 72 -30t30 -73q0 -41 -30 -70.5t-72 -29.5zM419 577q-43 0 -72.5 29.5t-29.5 70.5q0 43 29.5 73t72.5 30q42 0 72 -30t30 -73q0 -41 -30 -70.5t-72 -29.5zM556 208h-330q24 -76 132 -76q80 0 161 35l4 -2
v-141q-77 -38 -201 -38q-54 0 -103 14.5t-92.5 44.5t-69 85t-25.5 128q0 123 75.5 197.5t196.5 74.5q115 0 183.5 -63.5t70.5 -180.5q0 -26 -2 -78zM223 305h156q-5 78 -76 78q-66 0 -80 -78z" />
    <glyph glyph-name="igrave" unicode="&#xec;" horiz-adv-x="306" 
d="M228 556l-236 95l-4 20l106 127l186 -161zM60 0v516h186v-516h-186z" />
    <glyph glyph-name="iacute" unicode="&#xed;" horiz-adv-x="306" 
d="M67 556l-52 81l186 161l106 -127l-4 -20zM60 0v516h186v-516h-186z" />
    <glyph glyph-name="icircumflex" unicode="&#xee;" horiz-adv-x="306" 
d="M44 570l-60 57l124 156h85l129 -156l-60 -57l-112 79zM60 0v516h186v-516h-186z" />
    <glyph glyph-name="idieresis" unicode="&#xef;" horiz-adv-x="306" 
d="M46 577q-43 0 -72.5 29.5t-29.5 70.5q0 43 29.5 73t72.5 30q42 0 72 -30t30 -73q0 -41 -30 -70.5t-72 -29.5zM259 577q-43 0 -72.5 29.5t-29.5 70.5q0 43 29.5 73t72.5 30q42 0 72 -30t30 -73q0 -41 -30 -70.5t-72 -29.5zM60 0v516h186v-516h-186z" />
    <glyph glyph-name="eth" unicode="&#xf0;" horiz-adv-x="653" 
d="M443 682q171 -87 171 -357q0 -157 -79.5 -248t-219.5 -91q-131 0 -206.5 64.5t-75.5 174.5q0 107 68.5 171.5t181.5 64.5q70 0 127 -31q-17 84 -67 116l-47 -64l-88 64l16 22q-58 -1 -106 -17l-5 4v149q51 17 141 17q38 0 78 -5l47 63l88 -64zM319 143q44 0 68 27t30 86
q-12 26 -38 44t-59 18q-43 0 -67.5 -26.5t-24.5 -61.5t22.5 -61t68.5 -26z" />
    <glyph glyph-name="ntilde" unicode="&#xf1;" horiz-adv-x="638" 
d="M228 591l-4 -3l-109 30q0 57 35 101t96 44q33 0 72 -15t58 -15q17 0 27 10t10 25l4 2l109 -29q0 -66 -38 -105.5t-95 -39.5q-30 -1 -71 14.5t-56 15.5q-36 0 -38 -35zM393 530q86 0 138.5 -57.5t52.5 -153.5v-319h-186v267q0 84 -75 84q-27 0 -49 -16t-28 -42v-293h-186
v516h151l17 -70q54 84 165 84z" />
    <glyph glyph-name="ograve" unicode="&#xf2;" horiz-adv-x="638" 
d="M394 556l-236 95l-4 20l106 127l186 -161zM319 -14q-120 0 -203.5 70t-83.5 202q0 124 79.5 198t207.5 74q121 0 204 -69.5t83 -201.5q0 -125 -79.5 -199t-207.5 -74zM319 144q46 0 71 32t25 83t-25 82t-71 31q-47 0 -71.5 -31.5t-24.5 -81.5q0 -52 24 -83.5t72 -31.5z
" />
    <glyph glyph-name="oacute" unicode="&#xf3;" horiz-adv-x="638" 
d="M233 556l-52 81l186 161l106 -127l-4 -20zM319 -14q-120 0 -203.5 70t-83.5 202q0 124 79.5 198t207.5 74q121 0 204 -69.5t83 -201.5q0 -125 -79.5 -199t-207.5 -74zM319 144q46 0 71 32t25 83t-25 82t-71 31q-47 0 -71.5 -31.5t-24.5 -81.5q0 -52 24 -83.5t72 -31.5z
" />
    <glyph glyph-name="ocircumflex" unicode="&#xf4;" horiz-adv-x="638" 
d="M210 570l-60 57l124 156h85l129 -156l-60 -57l-112 79zM319 -14q-120 0 -203.5 70t-83.5 202q0 124 79.5 198t207.5 74q121 0 204 -69.5t83 -201.5q0 -125 -79.5 -199t-207.5 -74zM319 144q46 0 71 32t25 83t-25 82t-71 31q-47 0 -71.5 -31.5t-24.5 -81.5q0 -52 24 -83.5
t72 -31.5z" />
    <glyph glyph-name="otilde" unicode="&#xf5;" horiz-adv-x="638" 
d="M228 588l-109 30q0 57 35 101t96 44q33 0 72 -15t58 -15q17 0 27 10t10 25l4 2l109 -29q0 -66 -38 -105.5t-95 -39.5q-30 -1 -71 14.5t-56 15.5q-36 0 -38 -35zM319 -14q-120 0 -203.5 70t-83.5 202q0 124 79.5 198t207.5 74q121 0 204 -69.5t83 -201.5
q0 -125 -79.5 -199t-207.5 -74zM319 144q46 0 71 32t25 83t-25 82t-71 31q-47 0 -71.5 -31.5t-24.5 -81.5q0 -52 24 -83.5t72 -31.5z" />
    <glyph glyph-name="odieresis" unicode="&#xf6;" horiz-adv-x="638" 
d="M196 577q-43 0 -72.5 29.5t-29.5 70.5q0 43 29.5 73t72.5 30q42 0 72 -30t30 -73q0 -41 -30 -70.5t-72 -29.5zM439 577q-43 0 -72.5 29.5t-29.5 70.5q0 43 29.5 73t72.5 30q42 0 72 -30t30 -73q0 -41 -30 -70.5t-72 -29.5zM319 -14q-120 0 -203.5 70t-83.5 202
q0 124 79.5 198t207.5 74q121 0 204 -69.5t83 -201.5q0 -125 -79.5 -199t-207.5 -74zM319 144q46 0 71 32t25 83t-25 82t-71 31q-47 0 -71.5 -31.5t-24.5 -81.5q0 -52 24 -83.5t72 -31.5z" />
    <glyph glyph-name="divide" unicode="&#xf7;" horiz-adv-x="564" 
d="M282 390q-48 0 -73 25t-25 65t25 66.5t73 26.5t73 -26.5t25 -66.5t-25 -65t-73 -25zM31 241v121h502v-121h-502zM282 27q-48 0 -73 25t-25 65t25 66.5t73 26.5t73 -26.5t25 -66.5t-25 -65t-73 -25z" />
    <glyph glyph-name="oslash" unicode="&#xf8;" horiz-adv-x="639" 
d="M641 539v-12l-86 -99q52 -70 52 -169q0 -125 -79.5 -199t-207.5 -74q-54 0 -117 26l-31 -35h-157v15l82 96q-64 72 -64 170q0 124 79.5 198t207.5 74q70 0 126 -23l27 32h168zM320 144q46 0 71 32t25 83t-25 82t-71 31q-47 0 -71.5 -31.5t-24.5 -81.5q0 -52 24 -83.5
t72 -31.5z" />
    <glyph glyph-name="ugrave" unicode="&#xf9;" horiz-adv-x="629" 
d="M393 556l-236 95l-4 20l106 127l186 -161zM383 516h186v-516h-151l-18 74q-51 -88 -172 -88q-82 0 -127.5 50.5t-45.5 134.5v345h186v-299q0 -72 68 -72q57 0 74 46v325z" />
    <glyph glyph-name="uacute" unicode="&#xfa;" horiz-adv-x="629" 
d="M468 651l-236 -95l-52 81l186 161l106 -127zM383 516h186v-516h-151l-18 74q-51 -88 -172 -88q-82 0 -127.5 50.5t-45.5 134.5v345h186v-299q0 -72 68 -72q57 0 74 46v325z" />
    <glyph glyph-name="ucircumflex" unicode="&#xfb;" horiz-adv-x="629" 
d="M315 649l-106 -79l-60 57l124 156h85l129 -156l-60 -57zM383 516h186v-516h-151l-18 74q-51 -88 -172 -88q-82 0 -127.5 50.5t-45.5 134.5v345h186v-299q0 -72 68 -72q57 0 74 46v325z" />
    <glyph glyph-name="udieresis" unicode="&#xfc;" horiz-adv-x="629" 
d="M195 577q-43 0 -72.5 29.5t-29.5 70.5q0 43 29.5 73t72.5 30q42 0 72 -30t30 -73q0 -41 -30 -70.5t-72 -29.5zM438 577q-43 0 -72.5 29.5t-29.5 70.5q0 43 29.5 73t72.5 30q42 0 72 -30t30 -73q0 -41 -30 -70.5t-72 -29.5zM383 516h186v-516h-151l-18 74
q-51 -88 -172 -88q-82 0 -127.5 50.5t-45.5 134.5v345h186v-299q0 -72 68 -72q57 0 74 46v325z" />
    <glyph glyph-name="yacute" unicode="&#xfd;" horiz-adv-x="556" 
d="M434 651l-236 -95l-52 81l186 161l106 -127zM555 516l2 -4l-216 -518l-64 -158h-192l-2 3l110 217l-188 456l2 4h196l80 -259l86 259h186z" />
    <glyph glyph-name="thorn" unicode="&#xfe;" horiz-adv-x="641" 
d="M386 530q105 0 163.5 -72t58.5 -190q0 -126 -76 -204t-190 -78q-56 0 -96 17v-167h-186v874h186v-229q57 49 140 49zM316 145q46 0 74 29.5t28 83.5q0 57 -26.5 81.5t-66.5 24.5q-27 0 -49.5 -13t-29.5 -34v-159q30 -13 70 -13z" />
    <glyph glyph-name="ydieresis" unicode="&#xff;" horiz-adv-x="556" 
d="M161 577q-43 0 -72.5 29.5t-29.5 70.5q0 43 29.5 73t72.5 30q42 0 72 -30t30 -73q0 -41 -30 -70.5t-72 -29.5zM404 577q-43 0 -72.5 29.5t-29.5 70.5q0 43 29.5 73t72.5 30q42 0 72 -30t30 -73q0 -41 -30 -70.5t-72 -29.5zM555 516l2 -4l-216 -518l-64 -158h-192l-2 3
l110 217l-188 456l2 4h196l80 -259l86 259h186z" />
    <glyph glyph-name="Amacron" unicode="&#x100;" horiz-adv-x="652" 
d="M491 844v-109h-340v109h340zM474 0l-31 71h-240l-28 -71h-184l290 663h83l302 -663h-192zM253 197h135l-53 120l-18 50l-16 -50z" />
    <glyph glyph-name="amacron" unicode="&#x101;" horiz-adv-x="664" 
d="M480 713v-109h-317v109h317zM630 170l4 -2v-157q-43 -18 -96 -18q-95 0 -122 68q-20 -32 -62 -53.5t-96 -21.5q-101 0 -163 69.5t-62 191.5q0 127 74 205t186 78q82 0 130 -35l5 21h151v-330q0 -24 25 -24q16 0 26 8zM314 154q25 0 48 12.5t31 34.5v150q-29 22 -73 22
q-41 0 -68.5 -32t-27.5 -82t24.5 -77.5t65.5 -27.5z" />
    <glyph glyph-name="Abreve" unicode="&#x102;" horiz-adv-x="652" 
d="M320 713q-72 0 -123.5 47t-51.5 123l111 12q7 -72 67 -72q32 0 51.5 20.5t21.5 51.5l104 -12q0 -76 -52.5 -123t-127.5 -47zM474 0l-31 71h-240l-28 -71h-184l290 663h83l302 -663h-192zM253 197h135l-53 120l-18 50l-16 -50z" />
    <glyph glyph-name="abreve" unicode="&#x103;" horiz-adv-x="664" 
d="M321 573q-70 0 -119.5 46t-49.5 125l107 12l5 -4q6 -61 59 -61q28 0 45.5 17.5t20.5 43.5l4 3l100 -11q0 -79 -50 -125t-122 -46zM630 170l4 -2v-157q-43 -18 -96 -18q-95 0 -122 68q-20 -32 -62 -53.5t-96 -21.5q-101 0 -163 69.5t-62 191.5q0 127 74 205t186 78
q82 0 130 -35l5 21h151v-330q0 -24 25 -24q16 0 26 8zM314 154q25 0 48 12.5t31 34.5v150q-29 22 -73 22q-41 0 -68.5 -32t-27.5 -82t24.5 -77.5t65.5 -27.5z" />
    <glyph glyph-name="Aogonek" unicode="&#x104;" horiz-adv-x="652" 
d="M623 0q-84 -47 -84 -105q0 -19 10 -33t33 -14q15 0 30 3l5 -4v-85q-32 -8 -71 -8q-61 0 -100.5 25t-39.5 74q0 83 108 147h-40l-31 71h-240l-28 -71h-184l290 663h83l302 -663h-43zM253 197h135l-53 120l-18 50l-16 -50z" />
    <glyph glyph-name="aogonek" unicode="&#x105;" horiz-adv-x="664" 
d="M634 11q-84 -47 -84 -105q0 -19 10 -33t33 -14q15 0 30 3l5 -4v-85q-32 -8 -71 -8q-61 0 -100.5 25t-39.5 74q0 74 84 132q-63 11 -85 65q-20 -32 -62 -53.5t-96 -21.5q-101 0 -163 69.5t-62 191.5q0 127 74 205t186 78q82 0 130 -35l5 21h151v-330q0 -24 25 -24
q16 0 26 8l4 -2v-157zM314 154q25 0 48 12.5t31 34.5v150q-29 22 -73 22q-41 0 -68.5 -32t-27.5 -82t24.5 -77.5t65.5 -27.5z" />
    <glyph glyph-name="Cacute" unicode="&#x106;" horiz-adv-x="602" 
d="M261 699l-35 85l214 136l79 -134l-9 -18zM394 -12q-156 0 -257 90t-101 246q0 165 97.5 260t256.5 95q88 0 168 -22v-173l-3 -2q-65 30 -138 30q-93 0 -141.5 -46t-48.5 -133q0 -86 50 -132t145 -46q69 0 132 24l4 -3v-167q-74 -21 -164 -21z" />
    <glyph glyph-name="cacute" unicode="&#x107;" horiz-adv-x="493" 
d="M200 569l-52 81l186 161l106 -127l-4 -20zM323 -14q-128 0 -209.5 71t-81.5 198q0 130 78 202.5t207 72.5q75 0 136 -22v-155l-6 -4q-58 23 -107 23q-57 0 -87 -29t-30 -82t31 -84.5t86 -31.5q53 0 107 27l6 -4v-158q-55 -24 -130 -24z" />
    <glyph glyph-name="Cdotaccent" unicode="&#x10a;" horiz-adv-x="602" 
d="M365 704q-43 0 -74 31t-31 74t31 74t74 31t74 -31t31 -74t-31 -74t-74 -31zM394 -12q-156 0 -257 90t-101 246q0 165 97.5 260t256.5 95q88 0 168 -22v-173l-3 -2q-65 30 -138 30q-93 0 -141.5 -46t-48.5 -133q0 -86 50 -132t145 -46q69 0 132 24l4 -3v-167
q-74 -21 -164 -21z" />
    <glyph glyph-name="cdotaccent" unicode="&#x10b;" horiz-adv-x="493" 
d="M286 584q-44 0 -76 31.5t-32 76.5t32 76.5t76 31.5q45 0 76.5 -31.5t31.5 -76.5t-31.5 -76.5t-76.5 -31.5zM323 -14q-128 0 -209.5 71t-81.5 198q0 130 78 202.5t207 72.5q75 0 136 -22v-155l-6 -4q-58 23 -107 23q-57 0 -87 -29t-30 -82t31 -84.5t86 -31.5q53 0 107 27
l6 -4v-158q-55 -24 -130 -24z" />
    <glyph glyph-name="Ccaron" unicode="&#x10c;" horiz-adv-x="602" 
d="M326 703l-139 134l54 69l128 -76l122 76l51 -67l-133 -136h-83zM394 -12q-156 0 -257 90t-101 246q0 165 97.5 260t256.5 95q88 0 168 -22v-173l-3 -2q-65 30 -138 30q-93 0 -141.5 -46t-48.5 -133q0 -86 50 -132t145 -46q69 0 132 24l4 -3v-167q-74 -21 -164 -21z" />
    <glyph glyph-name="ccaron" unicode="&#x10d;" horiz-adv-x="493" 
d="M246 583l-129 156l60 57l112 -79l106 79l60 -57l-124 -156h-85zM323 -14q-128 0 -209.5 71t-81.5 198q0 130 78 202.5t207 72.5q75 0 136 -22v-155l-6 -4q-58 23 -107 23q-57 0 -87 -29t-30 -82t31 -84.5t86 -31.5q53 0 107 27l6 -4v-158q-55 -24 -130 -24z" />
    <glyph glyph-name="Dcaron" unicode="&#x10e;" horiz-adv-x="733" 
d="M381 703h-83l-139 134l54 69l128 -76l122 76l51 -67zM334 673q167 0 264.5 -90t97.5 -244q0 -163 -102.5 -251.5t-278.5 -88.5q-210 0 -243 1v663q133 10 262 10zM335 161q170 2 170 175q0 85 -48.5 127.5t-125.5 42.5q-46 0 -75 -4v-339q26 -2 79 -2z" />
    <glyph glyph-name="dcaron" unicode="&#x10f;" horiz-adv-x="717" 
d="M751 714l14 -15l-49 -240h-96l7 255h124zM604 162q14 0 27 8l3 -2v-157q-43 -18 -96 -18q-95 0 -122 68q-20 -32 -62 -53.5t-96 -21.5q-99 0 -162 67t-63 193q0 127 75.5 205.5t190.5 78.5q53 0 94 -13v193h186v-524q0 -24 25 -24zM314 154q25 0 48 12.5t31 34.5v157
q-30 15 -69 15q-45 0 -72.5 -30t-27.5 -84q0 -53 24 -79t66 -26z" />
    <glyph glyph-name="Dcroat" unicode="&#x110;" horiz-adv-x="753" 
d="M354 673q167 0 264.5 -90t97.5 -244q0 -163 -102.5 -251.5t-278.5 -88.5q-210 0 -243 1v277h-74v110h74v276q133 10 262 10zM355 161q170 2 170 175q0 85 -48.5 127.5t-125.5 42.5q-46 0 -75 -4v-115h96v-110h-96v-114q26 -2 79 -2z" />
    <glyph glyph-name="dcroat" unicode="&#x111;" horiz-adv-x="664" 
d="M579 563v-377q0 -24 27 -24q14 0 24 8l4 -2v-157q-43 -18 -96 -18q-95 0 -122 68q-20 -32 -62 -53.5t-96 -21.5q-99 0 -162 67t-63 193q0 127 75.5 205.5t190.5 78.5q53 0 94 -13v46h-99v110h99v37h186v-37h69v-110h-69zM314 154q25 0 48 12.5t31 34.5v157q-30 15 -69 15
q-45 0 -72.5 -30t-27.5 -84q0 -53 24 -79t66 -26z" />
    <glyph glyph-name="Emacron" unicode="&#x112;" horiz-adv-x="571" 
d="M469 844v-109h-340v109h340zM257 148h267v-148h-452v663h444v-148h-259v-103h240v-144h-240v-120z" />
    <glyph glyph-name="emacron" unicode="&#x113;" horiz-adv-x="590" 
d="M457 713v-109h-317v109h317zM556 208h-330q24 -76 132 -76q80 0 161 35l4 -2v-141q-77 -38 -201 -38q-54 0 -103 14.5t-92.5 44.5t-69 85t-25.5 128q0 123 75.5 197.5t196.5 74.5q115 0 183.5 -63.5t70.5 -180.5q0 -26 -2 -78zM223 305h156q-5 78 -76 78q-66 0 -80 -78z
" />
    <glyph glyph-name="Edotaccent" unicode="&#x116;" horiz-adv-x="571" 
d="M300 704q-44 0 -74.5 31t-30.5 74t30.5 74t74.5 31t74.5 -31t30.5 -74t-30.5 -74t-74.5 -31zM257 148h267v-148h-452v663h444v-148h-259v-103h240v-144h-240v-120z" />
    <glyph glyph-name="edotaccent" unicode="&#x117;" horiz-adv-x="590" 
d="M299 571q-44 0 -76 31.5t-32 76.5t32 76.5t76 31.5q45 0 76.5 -31.5t31.5 -76.5t-31.5 -76.5t-76.5 -31.5zM556 208h-330q24 -76 132 -76q80 0 161 35l4 -2v-141q-77 -38 -201 -38q-54 0 -103 14.5t-92.5 44.5t-69 85t-25.5 128q0 123 75.5 197.5t196.5 74.5
q115 0 183.5 -63.5t70.5 -180.5q0 -26 -2 -78zM223 305h156q-5 78 -76 78q-66 0 -80 -78z" />
    <glyph glyph-name="Eogonek" unicode="&#x118;" horiz-adv-x="571" 
d="M524 0q-84 -47 -84 -105q0 -19 10 -33t33 -14q15 0 30 3l5 -4v-85q-32 -8 -71 -8q-61 0 -100.5 25t-39.5 74q0 83 108 147h-343v663h444v-148h-259v-103h240v-144h-240v-120h267v-148z" />
    <glyph glyph-name="eogonek" unicode="&#x119;" horiz-adv-x="590" 
d="M556 208h-330q24 -76 132 -76q80 0 161 35l4 -2v-141q-32 -15 -61 -22q-70 -44 -70 -97q0 -19 10 -33t33 -14q15 0 30 3l5 -4v-85q-32 -8 -71 -8q-61 0 -100.5 25t-39.5 74q0 69 72 123h-9q-54 0 -103 14.5t-92.5 44.5t-69 85t-25.5 128q0 123 75.5 197.5t196.5 74.5
q115 0 183.5 -63.5t70.5 -180.5q0 -26 -2 -78zM223 305h156q-5 78 -76 78q-66 0 -80 -78z" />
    <glyph glyph-name="Ecaron" unicode="&#x11a;" horiz-adv-x="571" 
d="M344 703h-83l-139 134l54 69l128 -76l122 76l51 -67zM257 148h267v-148h-452v663h444v-148h-259v-103h240v-144h-240v-120z" />
    <glyph glyph-name="ecaron" unicode="&#x11b;" horiz-adv-x="590" 
d="M344 570h-85l-129 156l60 57l112 -79l106 79l60 -57zM556 208h-330q24 -76 132 -76q80 0 161 35l4 -2v-141q-77 -38 -201 -38q-54 0 -103 14.5t-92.5 44.5t-69 85t-25.5 128q0 123 75.5 197.5t196.5 74.5q115 0 183.5 -63.5t70.5 -180.5q0 -26 -2 -78zM223 305h156
q-5 78 -76 78q-66 0 -80 -78z" />
    <glyph glyph-name="Gbreve" unicode="&#x11e;" horiz-adv-x="677" 
d="M378 713q-72 0 -123.5 47t-51.5 123l111 12q7 -72 67 -72q32 0 51.5 20.5t21.5 51.5l104 -12q0 -76 -52.5 -123t-127.5 -47zM399 -11q-171 0 -266.5 86.5t-95.5 253.5q0 163 104.5 256.5t286.5 93.5q100 0 175 -26l-1 -177l-4 -2q-70 38 -175 38q-94 0 -144.5 -47.5
t-50.5 -135.5q0 -84 47 -129t134 -45q17 0 55 4v171h165l1 -308q-111 -33 -231 -33z" />
    <glyph glyph-name="gbreve" unicode="&#x11f;" horiz-adv-x="639" 
d="M299 573q-70 0 -119.5 46t-49.5 125l107 12l5 -4q6 -61 59 -61q28 0 45.5 17.5t20.5 43.5l4 3l100 -11q0 -79 -50 -125t-122 -46zM454 530h127v-441q0 -128 -84.5 -195.5t-220.5 -67.5q-119 0 -212 36v154l4 2q82 -46 178 -46q80 0 113.5 24t35.5 79q-47 -38 -126 -38
q-112 0 -174 61t-62 173q0 120 74.5 189.5t187.5 69.5q87 0 143 -42zM310 189q67 0 85 50v113q-31 21 -77 21q-42 0 -68 -25t-26 -69q0 -43 23.5 -66.5t62.5 -23.5z" />
    <glyph glyph-name="Gdotaccent" unicode="&#x120;" horiz-adv-x="677" 
d="M380 704q-44 0 -74.5 31t-30.5 74t30.5 74t74.5 31t74.5 -31t30.5 -74t-30.5 -74t-74.5 -31zM399 -11q-171 0 -266.5 86.5t-95.5 253.5q0 163 104.5 256.5t286.5 93.5q100 0 175 -26l-1 -177l-4 -2q-70 38 -175 38q-94 0 -144.5 -47.5t-50.5 -135.5q0 -84 47 -129
t134 -45q17 0 55 4v171h165l1 -308q-111 -33 -231 -33z" />
    <glyph glyph-name="gdotaccent" unicode="&#x121;" horiz-adv-x="639" 
d="M300 571q-44 0 -76 31.5t-32 76.5t32 76.5t76 31.5q45 0 76.5 -31.5t31.5 -76.5t-31.5 -76.5t-76.5 -31.5zM454 530h127v-441q0 -128 -84.5 -195.5t-220.5 -67.5q-119 0 -212 36v154l4 2q82 -46 178 -46q80 0 113.5 24t35.5 79q-47 -38 -126 -38q-112 0 -174 61t-62 173
q0 120 74.5 189.5t187.5 69.5q87 0 143 -42zM310 189q67 0 85 50v113q-31 21 -77 21q-42 0 -68 -25t-26 -69q0 -43 23.5 -66.5t62.5 -23.5z" />
    <glyph glyph-name="Gcommaaccent" unicode="&#x122;" horiz-adv-x="677" 
d="M399 -11q-171 0 -266.5 86.5t-95.5 253.5q0 163 104.5 256.5t286.5 93.5q100 0 175 -26l-1 -177l-4 -2q-70 38 -175 38q-94 0 -144.5 -47.5t-50.5 -135.5q0 -84 47 -129t134 -45q17 0 55 4v171h165l1 -308q-111 -33 -231 -33zM308 -256q16 79 16 135q0 20 -4 70l137 11
l13 -20q0 -108 -60 -196h-102z" />
    <glyph glyph-name="gcommaaccent" unicode="&#x123;" horiz-adv-x="639" 
d="M376 567l-137 -11l-13 20q0 108 60 196h102q-16 -79 -16 -135q0 -20 4 -70zM454 530h127v-441q0 -128 -84.5 -195.5t-220.5 -67.5q-119 0 -212 36v154l4 2q82 -46 178 -46q80 0 113.5 24t35.5 79q-47 -38 -126 -38q-112 0 -174 61t-62 173q0 120 74.5 189.5t187.5 69.5
q87 0 143 -42zM310 189q67 0 85 50v113q-31 21 -77 21q-42 0 -68 -25t-26 -69q0 -43 23.5 -66.5t62.5 -23.5z" />
    <glyph glyph-name="Hbar" unicode="&#x126;" horiz-adv-x="828" 
d="M768 585v-110h-50v-475h-185v246h-238v-246h-185v475h-50v110h50v78h185v-78h238v78h185v-78h50zM533 414v61h-238v-61h238z" />
    <glyph glyph-name="hbar" unicode="&#x127;" horiz-adv-x="638" 
d="M393 530q87 0 139 -55.5t52 -153.5v-321h-186v272q0 83 -74 83q-65 0 -78 -58v-297h-186v563h-73v110h73v37h186v-37h95v-110h-95v-94q54 61 147 61z" />
    <glyph glyph-name="Itilde" unicode="&#x128;" horiz-adv-x="330" 
d="M70 706l-103 28q0 61 36 102t94 41q32 0 71.5 -15.5t58.5 -15.5q13 0 24 10t11 24l3 2l103 -28q0 -62 -35.5 -102t-94.5 -40q-25 0 -67 15t-60 15q-17 0 -27.5 -10.5t-10.5 -23.5zM72 0v663h186v-663h-186z" />
    <glyph glyph-name="itilde" unicode="&#x129;" horiz-adv-x="306" 
d="M62 588l-109 30q0 57 35 101t96 44q33 0 72 -15t58 -15q17 0 27 10t10 25l4 2l109 -29q0 -66 -38 -105.5t-95 -39.5q-30 -1 -71 14.5t-56 15.5q-36 0 -38 -35zM60 0v516h186v-516h-186z" />
    <glyph glyph-name="Imacron" unicode="&#x12a;" horiz-adv-x="330" 
d="M29 739v114h272v-114h-272zM72 0v663h186v-663h-186z" />
    <glyph glyph-name="imacron" unicode="&#x12b;" horiz-adv-x="306" 
d="M-6 604v109h317v-109h-317zM60 0v516h186v-516h-186z" />
    <glyph glyph-name="Iogonek" unicode="&#x12e;" horiz-adv-x="330" 
d="M229 0q-67 -44 -67 -95q0 -19 10 -33t33 -14q15 0 30 3l5 -4v-85q-32 -8 -71 -8q-61 0 -100.5 25t-39.5 74q0 77 92 137h-49v663h186v-663h-29z" />
    <glyph glyph-name="iogonek" unicode="&#x12f;" horiz-adv-x="306" 
d="M153 571q-44 0 -76 31.5t-32 76.5t32 76.5t76 31.5q45 0 76.5 -31.5t31.5 -76.5t-31.5 -76.5t-76.5 -31.5zM60 0v516h186v-516h-20q-84 -47 -84 -105q0 -19 10 -33t33 -14q15 0 30 3l5 -4v-85q-32 -8 -71 -8q-61 0 -100.5 25t-39.5 74q0 83 108 147h-57z" />
    <glyph glyph-name="Idotaccent" unicode="&#x130;" horiz-adv-x="330" 
d="M166 704q-44 0 -74.5 31t-30.5 74t30.5 74t74.5 31t74.5 -31t30.5 -74t-30.5 -74t-74.5 -31zM72 0v663h186v-663h-186z" />
    <glyph glyph-name="dotlessi" unicode="&#x131;" horiz-adv-x="306" 
d="M60 0v516h186v-516h-186z" />
    <glyph glyph-name="IJ" unicode="&#x132;" horiz-adv-x="730" 
d="M72 0v663h186v-663h-186zM407 -3q-31 0 -62 4v155l4 2q16 -3 33 -3q55 0 76.5 33.5t21.5 94.5v380h186v-361q0 -154 -64 -229.5t-195 -75.5z" />
    <glyph glyph-name="ij" unicode="&#x133;" horiz-adv-x="631" 
d="M153 571q-44 0 -76 31.5t-32 76.5t32 76.5t76 31.5q45 0 76.5 -31.5t31.5 -76.5t-31.5 -76.5t-76.5 -31.5zM478 571q-44 0 -76 31.5t-32 76.5t32 76.5t76 31.5q45 0 76.5 -31.5t31.5 -76.5t-31.5 -76.5t-76.5 -31.5zM60 100v416h186v-416h-186zM318 -171q-76 0 -137 20
v161l2 1q47 -17 93 -17q62 0 85.5 32t23.5 117v373h186v-393q0 -294 -253 -294z" />
    <glyph glyph-name="Kcommaaccent" unicode="&#x136;" horiz-adv-x="695" 
d="M402 337l311 -333l-2 -4h-227l-227 241v-241h-185v663h185v-257l226 257h210l2 -4zM274 -51l137 11l13 -20q0 -108 -60 -196h-102q16 79 16 135q0 20 -4 70z" />
    <glyph glyph-name="kcommaaccent" unicode="&#x137;" horiz-adv-x="613" 
d="M407 275l211 -271l-2 -4h-221l-149 191v-191h-186v710h186v-377l147 183h207l2 -4zM238 -51l137 11l13 -20q0 -108 -60 -196h-102q16 79 16 135q0 20 -4 70z" />
    <glyph glyph-name="kgreenlandic" unicode="&#x138;" horiz-adv-x="613" 
d="M407 275l211 -271l-2 -4h-221l-149 191v-191h-186v516h186v-183l147 183h210l2 -4z" />
    <glyph glyph-name="Lacute" unicode="&#x139;" horiz-adv-x="511" 
d="M330 768l-249 -69l-35 85l214 136l79 -134zM257 153h244v-153h-429v663h185v-510z" />
    <glyph glyph-name="lacute" unicode="&#x13a;" horiz-adv-x="346" 
d="M44 746l-35 85l214 136l79 -134l-9 -18zM248 -11q-96 0 -144.5 44.5t-48.5 145.5v531h186v-489q0 -67 50 -67q19 0 35 8l4 -2v-159q-39 -12 -82 -12z" />
    <glyph glyph-name="Lcommaaccent" unicode="&#x13b;" horiz-adv-x="511" 
d="M257 153h244v-153h-429v663h185v-510zM212 -51l137 11l13 -20q0 -108 -60 -196h-102q16 79 16 135q0 20 -4 70z" />
    <glyph glyph-name="lcommaaccent" unicode="&#x13c;" horiz-adv-x="346" 
d="M248 -11q-96 0 -144.5 44.5t-48.5 145.5v531h186v-489q0 -67 50 -67q19 0 35 8l4 -2v-159q-39 -12 -82 -12zM110 -256q16 79 16 135q0 20 -4 70l137 11l13 -20q0 -108 -60 -196h-102z" />
    <glyph glyph-name="Lcaron" unicode="&#x13d;" horiz-adv-x="519" 
d="M489 659l-49 -240h-96l7 255h124zM257 153h244v-153h-429v663h185v-510z" />
    <glyph glyph-name="lcaron" unicode="&#x13e;" horiz-adv-x="380" 
d="M295 459l7 255h124l14 -15l-49 -240h-96zM248 -11q-96 0 -144.5 44.5t-48.5 145.5v531h186v-489q0 -67 50 -67q20 0 37 7l2 -1v-159q-39 -12 -82 -12z" />
    <glyph glyph-name="Ldot" unicode="&#x13f;" horiz-adv-x="558" 
d="M257 663v-510h244v-153h-429v663h185zM426 318q-48 0 -73 25t-25 65t25 66.5t73 26.5t73 -26.5t25 -66.5t-25 -65t-73 -25z" />
    <glyph glyph-name="ldot" unicode="&#x140;" horiz-adv-x="481" 
d="M248 -11q-96 0 -144.5 44.5t-48.5 145.5v531h186v-489q0 -67 50 -67q20 0 37 7l2 -1v-159q-39 -12 -82 -12zM393 265q-48 0 -73 25t-25 65t25 66.5t73 26.5t73 -26.5t25 -66.5t-25 -65t-73 -25z" />
    <glyph glyph-name="Lslash" unicode="&#x141;" horiz-adv-x="529" 
d="M275 153h244v-153h-429v210l-64 -41l-5 2v124l69 44v324h185v-207l64 41h5v-126l-69 -44v-174z" />
    <glyph glyph-name="lslash" unicode="&#x142;" horiz-adv-x="402" 
d="M363 161l2 -1v-159q-39 -12 -82 -12q-96 0 -144.5 44.5t-48.5 145.5v46l-59 -39h-5v126l64 42v356h186v-234l67 44h5v-126l-72 -47v-126q0 -67 50 -67q20 0 37 7z" />
    <glyph glyph-name="Nacute" unicode="&#x143;" horiz-adv-x="740" 
d="M266 699l-35 85l214 136l79 -134l-9 -18zM72 0v663h82l334 -318h3v318h177v-663h-82l-334 328h-3v-328h-177z" />
    <glyph glyph-name="nacute" unicode="&#x144;" horiz-adv-x="638" 
d="M465 651l-236 -95l-52 81l186 161l106 -127zM393 530q86 0 138.5 -57.5t52.5 -153.5v-319h-186v267q0 84 -75 84q-27 0 -49 -16t-28 -42v-293h-186v516h151l17 -70q54 84 165 84z" />
    <glyph glyph-name="Ncommaaccent" unicode="&#x145;" horiz-adv-x="740" 
d="M72 0v663h82l334 -318h3v318h177v-663h-82l-334 328h-3v-328h-177zM292 -256q16 79 16 135q0 20 -4 70l137 11l13 -20q0 -108 -60 -196h-102z" />
    <glyph glyph-name="ncommaaccent" unicode="&#x146;" horiz-adv-x="638" 
d="M393 530q86 0 138.5 -57.5t52.5 -153.5v-319h-186v267q0 84 -75 84q-27 0 -49 -16t-28 -42v-293h-186v516h151l17 -70q54 84 165 84zM244 -51l137 11l13 -20q0 -108 -60 -196h-102q16 79 16 135q0 20 -4 70z" />
    <glyph glyph-name="Ncaron" unicode="&#x147;" horiz-adv-x="740" 
d="M331 703l-139 134l54 69l128 -76l122 76l51 -67l-133 -136h-83zM72 0v663h82l334 -318h3v318h177v-663h-82l-334 328h-3v-328h-177z" />
    <glyph glyph-name="ncaron" unicode="&#x148;" horiz-adv-x="638" 
d="M360 570h-85l-129 156l60 57l112 -79l106 79l60 -57zM393 530q86 0 138.5 -57.5t52.5 -153.5v-319h-186v267q0 84 -75 84q-27 0 -49 -16t-28 -42v-293h-186v516h151l17 -70q54 84 165 84z" />
    <glyph glyph-name="Eng" unicode="&#x14a;" horiz-adv-x="739" 
d="M491 663h177v-556q0 -164 -64.5 -235.5t-186.5 -71.5q-34 0 -63 4v151l1 1q17 -4 37 -4q99 0 99 136v5l-239 235h-3v-328h-177v663h82l334 -318h3v318z" />
    <glyph glyph-name="eng" unicode="&#x14b;" horiz-adv-x="638" 
d="M393 530q87 0 139 -55t52 -150v-334q0 -106 -57.5 -158t-158.5 -52q-29 0 -78 7l-1 151l2 2q23 -5 37 -5q70 0 70 89v242q0 84 -75 84q-64 0 -77 -58v-293h-186v516h151l17 -70q54 84 165 84z" />
    <glyph glyph-name="Omacron" unicode="&#x14c;" horiz-adv-x="776" 
d="M217 735v109h340v-109h-340zM388 -12q-93 0 -171 36.5t-129.5 116.5t-51.5 191q0 159 99 253t253 94q93 0 171 -37t129.5 -117.5t51.5 -192.5q0 -157 -99 -250.5t-253 -93.5zM388 155q75 0 117.5 47t42.5 130q0 84 -42.5 132t-117.5 48t-117.5 -48t-42.5 -132
q0 -83 42.5 -130t117.5 -47z" />
    <glyph glyph-name="omacron" unicode="&#x14d;" horiz-adv-x="638" 
d="M160 604v109h317v-109h-317zM319 -14q-120 0 -203.5 70t-83.5 202q0 124 79.5 198t207.5 74q121 0 204 -69.5t83 -201.5q0 -125 -79.5 -199t-207.5 -74zM319 144q46 0 71 32t25 83t-25 82t-71 31q-47 0 -71.5 -31.5t-24.5 -81.5q0 -52 24 -83.5t72 -31.5z" />
    <glyph glyph-name="Ohungarumlaut" unicode="&#x150;" horiz-adv-x="776" 
d="M296 699l-78 31l76 198l117 -33l4 -24zM518 699l-79 31l77 198l117 -33l4 -24zM388 -12q-93 0 -171 36.5t-129.5 116.5t-51.5 191q0 159 99 253t253 94q93 0 171 -37t129.5 -117.5t51.5 -192.5q0 -157 -99 -250.5t-253 -93.5zM388 155q75 0 117.5 47t42.5 130
q0 84 -42.5 132t-117.5 48t-117.5 -48t-42.5 -132q0 -83 42.5 -130t117.5 -47z" />
    <glyph glyph-name="ohungarumlaut" unicode="&#x151;" horiz-adv-x="638" 
d="M227 557l-70 44l89 195l115 -41l2 -24zM427 557l-70 44l89 195l115 -41l2 -24zM319 -14q-120 0 -203.5 70t-83.5 202q0 124 79.5 198t207.5 74q121 0 204 -69.5t83 -201.5q0 -125 -79.5 -199t-207.5 -74zM319 144q46 0 71 32t25 83t-25 82t-71 31q-47 0 -71.5 -31.5
t-24.5 -81.5q0 -52 24 -83.5t72 -31.5z" />
    <glyph glyph-name="OE" unicode="&#x152;" horiz-adv-x="948" 
d="M901 146v-146h-449q-42 -8 -81 -8q-87 0 -161.5 36t-124 115.5t-49.5 188.5q0 157 95 250t240 93q49 0 96 -12h426v-146h-232q27 -50 37 -105h176v-144h-174q-9 -69 -41 -122h242zM227 332q0 -80 39 -126.5t105 -46.5q68 0 105.5 46t37.5 127q0 83 -37.5 129.5
t-105.5 46.5q-66 0 -105 -47.5t-39 -128.5z" />
    <glyph glyph-name="oe" unicode="&#x153;" horiz-adv-x="925" 
d="M891 205h-311q23 -78 125 -78q77 0 149 38l4 -2v-137q-72 -40 -178 -40q-123 0 -198 71q-69 -71 -183 -71q-112 0 -189.5 70t-77.5 202q0 124 74 198t193 74q111 0 182 -68q66 68 172 68q110 0 174 -61.5t66 -185.5q0 -26 -2 -78zM576 302h147q-5 80 -72 80
q-64 0 -75 -80zM305 144q40 0 60.5 31.5t20.5 83.5q0 51 -20.5 82t-60.5 31t-61 -31.5t-21 -81.5q0 -52 21 -83.5t61 -31.5z" />
    <glyph glyph-name="Racute" unicode="&#x154;" horiz-adv-x="647" 
d="M461 768l-249 -69l-35 85l214 136l79 -134zM476 232l143 -228l-2 -4h-197l-123 205h-41v-205h-184v663q107 8 223 8q48 0 88.5 -6t80 -22t67 -41t44.5 -65t17 -93q0 -153 -116 -212zM313 513q-40 0 -57 -2v-169h51q45 0 72 23t27 62q0 43 -25 64.5t-68 21.5z" />
    <glyph glyph-name="racute" unicode="&#x155;" horiz-adv-x="434" 
d="M394 651l-236 -95l-52 81l186 161l106 -127zM360 528q30 0 55 -7v-168l-4 -2q-22 8 -51 8q-47 0 -80.5 -31.5t-33.5 -95.5v-232h-186v516h151l19 -75q17 41 53.5 64t76.5 23z" />
    <glyph glyph-name="Rcommaaccent" unicode="&#x156;" horiz-adv-x="647" 
d="M476 232l143 -228l-2 -4h-197l-123 205h-41v-205h-184v663q107 8 223 8q48 0 88.5 -6t80 -22t67 -41t44.5 -65t17 -93q0 -153 -116 -212zM313 513q-40 0 -57 -2v-169h51q45 0 72 23t27 62q0 43 -25 64.5t-68 21.5zM250 -51l137 11l13 -20q0 -108 -60 -196h-102
q16 79 16 135q0 20 -4 70z" />
    <glyph glyph-name="rcommaaccent" unicode="&#x157;" horiz-adv-x="434" 
d="M360 528q30 0 55 -7v-168l-4 -2q-22 8 -51 8q-47 0 -80.5 -31.5t-33.5 -95.5v-232h-186v516h151l19 -75q17 41 53.5 64t76.5 23zM84 -51l137 11l13 -20q0 -108 -60 -196h-102q16 79 16 135q0 20 -4 70z" />
    <glyph glyph-name="Rcaron" unicode="&#x158;" horiz-adv-x="647" 
d="M360 703h-83l-139 134l54 69l128 -76l122 76l51 -67zM476 232l143 -228l-2 -4h-197l-123 205h-41v-205h-184v663q107 8 223 8q48 0 88.5 -6t80 -22t67 -41t44.5 -65t17 -93q0 -153 -116 -212zM313 513q-40 0 -57 -2v-169h51q45 0 72 23t27 62q0 43 -25 64.5t-68 21.5z
" />
    <glyph glyph-name="rcaron" unicode="&#x159;" horiz-adv-x="434" 
d="M289 570h-85l-129 156l60 57l112 -79l106 79l60 -57zM360 528q30 0 55 -7v-168l-4 -2q-22 8 -51 8q-47 0 -80.5 -31.5t-33.5 -95.5v-232h-186v516h151l19 -75q17 41 53.5 64t76.5 23z" />
    <glyph glyph-name="Sacute" unicode="&#x15a;" horiz-adv-x="534" 
d="M178 699l-35 85l214 136l79 -134l-9 -18zM251 -11q-111 0 -204 43v167l4 2q84 -58 180 -58q77 0 77 50q0 24 -19 41.5t-79 42.5q-160 65 -160 197q0 101 70 152.5t175 51.5t178 -27v-156l-4 -2q-54 28 -146 30q-89 1 -89 -40q0 -19 21 -32.5t82 -39.5q157 -66 157 -211
q0 -97 -66 -154t-177 -57z" />
    <glyph glyph-name="sacute" unicode="&#x15b;" horiz-adv-x="501" 
d="M165 569l-52 81l186 161l106 -127l-4 -20zM240 -14q-111 0 -199 37v144l4 2q37 -24 91 -39.5t95 -15.5q62 0 62 30q0 16 -16.5 24.5t-85.5 29.5q-82 25 -116 64.5t-34 96.5q0 77 64.5 124t169.5 47q111 0 171 -24v-146l-4 -2q-25 13 -71 21t-84 8q-67 0 -67 -25
q0 -13 16.5 -21.5t84.5 -28.5q78 -23 112.5 -60t34.5 -96q0 -80 -60 -125t-168 -45z" />
    <glyph glyph-name="Scedilla" unicode="&#x15e;" horiz-adv-x="534" 
d="M494 200q0 -84 -50.5 -138.5t-138.5 -68.5l-27 -34q10 0 15 -1q45 -5 70.5 -29.5t25.5 -65.5q0 -108 -157 -108q-40 0 -68 7v69l4 2q21 -6 36 -6q54 0 54 34q1 15 -10 23t-30 8q-16 0 -32 -2l-2 4v61l25 35q-84 6 -162 42v167l4 2q84 -58 180 -58q77 0 77 50
q0 24 -19 41.5t-79 42.5q-160 65 -160 197q0 101 70 152.5t175 51.5t178 -27v-156l-4 -2q-54 28 -146 30q-89 1 -89 -40q0 -19 21 -32.5t82 -39.5q157 -66 157 -211z" />
    <glyph glyph-name="scedilla" unicode="&#x15f;" horiz-adv-x="501" 
d="M468 156q0 -70 -46 -113.5t-131 -53.5l-24 -30q10 0 15 -1q45 -5 70.5 -29.5t25.5 -65.5q0 -108 -157 -108q-40 0 -68 7v69l4 2q21 -6 36 -6q54 0 54 34q1 15 -10 23t-30 8q-16 0 -32 -2l-2 4v61l23 33q-83 5 -155 35v144l4 2q37 -24 91 -39.5t95 -15.5q62 0 62 30
q0 16 -16.5 24.5t-85.5 29.5q-82 25 -116 64.5t-34 96.5q0 77 64.5 124t169.5 47q111 0 171 -24v-146l-4 -2q-25 13 -71 21t-84 8q-67 0 -67 -25q0 -13 16.5 -21.5t84.5 -28.5q78 -23 112.5 -60t34.5 -96z" />
    <glyph glyph-name="Scaron" unicode="&#x160;" horiz-adv-x="534" 
d="M243 703l-139 134l54 69l128 -76l122 76l51 -67l-133 -136h-83zM251 -11q-111 0 -204 43v167l4 2q84 -58 180 -58q77 0 77 50q0 24 -19 41.5t-79 42.5q-160 65 -160 197q0 101 70 152.5t175 51.5t178 -27v-156l-4 -2q-54 28 -146 30q-89 1 -89 -40q0 -19 21 -32.5
t82 -39.5q157 -66 157 -211q0 -97 -66 -154t-177 -57z" />
    <glyph glyph-name="scaron" unicode="&#x161;" horiz-adv-x="501" 
d="M211 583l-129 156l60 57l112 -79l106 79l60 -57l-124 -156h-85zM240 -14q-111 0 -199 37v144l4 2q37 -24 91 -39.5t95 -15.5q62 0 62 30q0 16 -16.5 24.5t-85.5 29.5q-82 25 -116 64.5t-34 96.5q0 77 64.5 124t169.5 47q111 0 171 -24v-146l-4 -2q-25 13 -71 21t-84 8
q-67 0 -67 -25q0 -13 16.5 -21.5t84.5 -28.5q78 -23 112.5 -60t34.5 -96q0 -80 -60 -125t-168 -45z" />
    <glyph glyph-name="uni0162" unicode="&#x162;" horiz-adv-x="606" 
d="M401 0h-52l-33 -41q10 0 15 -1q45 -5 70.5 -29.5t25.5 -65.5q0 -108 -157 -108q-40 0 -68 7v69l4 2q21 -6 36 -6q54 0 54 34q1 15 -10 23t-30 8q-16 0 -32 -2l-2 4v61l32 45h-39v497h-203v166h582v-166h-193v-497z" />
    <glyph glyph-name="uni0163" unicode="&#x163;" horiz-adv-x="445" 
d="M407 371h-129v-134q0 -79 67 -79q30 0 58 13l4 -2v-156q-34 -16 -86 -19l-28 -35q10 0 15 -1q45 -5 70.5 -29.5t25.5 -65.5q0 -108 -157 -108q-40 0 -68 7v69l4 2q21 -6 36 -6q54 0 54 34q1 15 -10 23t-30 8q-16 0 -32 -2l-2 4v61l32 44q-66 15 -102.5 65.5t-36.5 133.5
v173h-83v145h83v124l183 35l3 -2v-157h129v-145z" />
    <glyph glyph-name="Tcaron" unicode="&#x164;" horiz-adv-x="606" 
d="M347 703h-83l-139 134l54 69l128 -76l122 76l51 -67zM594 663v-166h-193v-497h-186v497h-203v166h582z" />
    <glyph glyph-name="tcaron" unicode="&#x165;" horiz-adv-x="442" 
d="M471 813l14 -15l-53 -210h-96l7 225h128zM278 673v-157h129v-145h-129v-134q0 -79 67 -79q30 0 58 13l4 -2v-156q-45 -20 -118 -20q-92 0 -144.5 52.5t-52.5 152.5v173h-83v145h83v124l183 35z" />
    <glyph glyph-name="Tbar" unicode="&#x166;" horiz-adv-x="612" 
d="M597 497h-193v-150h79v-110h-79v-237h-186v237h-89v110h89v150h-203v166h582v-166z" />
    <glyph glyph-name="tbar" unicode="&#x167;" horiz-adv-x="445" 
d="M407 371h-129v-51h87v-110h-85q10 -52 65 -52q30 0 58 13l4 -2v-156q-45 -20 -118 -20q-92 0 -144.5 52.5t-52.5 152.5v12h-81v110h81v51h-83v145h83v124l183 35l3 -2v-157h129v-145z" />
    <glyph glyph-name="Utilde" unicode="&#x168;" horiz-adv-x="723" 
d="M266 706l-103 28q0 61 36 102t94 41q32 0 71.5 -15.5t58.5 -15.5q13 0 24 10t11 24l3 2l103 -28q0 -62 -35.5 -102t-94.5 -40q-25 0 -67 15t-60 15q-17 0 -27.5 -10.5t-10.5 -23.5zM362 -13q-144 0 -221 73t-77 209v394h184v-371q0 -149 116 -149t116 149v371h179v-394
q0 -134 -78 -208t-219 -74z" />
    <glyph glyph-name="utilde" unicode="&#x169;" horiz-adv-x="629" 
d="M231 591l-4 -3l-109 30q0 57 35 101t96 44q33 0 72 -15t58 -15q17 0 27 10t10 25l4 2l109 -29q0 -66 -38 -105.5t-95 -39.5q-30 -1 -71 14.5t-56 15.5q-36 0 -38 -35zM383 516h186v-516h-151l-18 74q-51 -88 -172 -88q-82 0 -127.5 50.5t-45.5 134.5v345h186v-299
q0 -72 68 -72q57 0 74 46v325z" />
    <glyph glyph-name="Umacron" unicode="&#x16a;" horiz-adv-x="723" 
d="M191 735v109h340v-109h-340zM362 -13q-144 0 -221 73t-77 209v394h184v-371q0 -149 116 -149t116 149v371h179v-394q0 -134 -78 -208t-219 -74z" />
    <glyph glyph-name="umacron" unicode="&#x16b;" horiz-adv-x="629" 
d="M476 713v-109h-317v109h317zM383 516h186v-516h-151l-18 74q-51 -88 -172 -88q-82 0 -127.5 50.5t-45.5 134.5v345h186v-299q0 -72 68 -72q57 0 74 46v325z" />
    <glyph glyph-name="Uring" unicode="&#x16e;" horiz-adv-x="723" 
d="M362 689q-58 0 -94.5 34t-36.5 86q0 51 36.5 85t94.5 34t95 -34t37 -85q0 -52 -37 -86t-95 -34zM362 766q19 0 31.5 12.5t12.5 30.5t-12.5 30t-31.5 12q-18 0 -30.5 -12.5t-12.5 -29.5q0 -18 12 -30.5t31 -12.5zM362 -13q-144 0 -221 73t-77 209v394h184v-371
q0 -149 116 -149t116 149v371h179v-394q0 -134 -78 -208t-219 -74z" />
    <glyph glyph-name="uring" unicode="&#x16f;" horiz-adv-x="629" 
d="M318 549q-59 0 -97 38t-38 94t38 93.5t97 37.5q60 0 98 -37.5t38 -93.5t-38 -94t-98 -38zM318 726q-21 0 -34 -13t-13 -32q0 -20 13 -33t34 -13t34.5 13t13.5 33q0 19 -13.5 32t-34.5 13zM383 516h186v-516h-151l-18 74q-51 -88 -172 -88q-82 0 -127.5 50.5t-45.5 134.5
v345h186v-299q0 -72 68 -72q57 0 74 46v325z" />
    <glyph glyph-name="Uhungarumlaut" unicode="&#x170;" horiz-adv-x="723" 
d="M270 699l-78 31l76 198l117 -33l4 -24zM492 699l-79 31l77 198l117 -33l4 -24zM362 -13q-144 0 -221 73t-77 209v394h184v-371q0 -149 116 -149t116 149v371h179v-394q0 -134 -78 -208t-219 -74z" />
    <glyph glyph-name="uhungarumlaut" unicode="&#x171;" horiz-adv-x="629" 
d="M362 731l-136 -174l-70 44l89 195l115 -41zM426 557l-70 44l89 195l115 -41l2 -24zM383 516h186v-516h-151l-18 74q-51 -88 -172 -88q-82 0 -127.5 50.5t-45.5 134.5v345h186v-299q0 -72 68 -72q57 0 74 46v325z" />
    <glyph glyph-name="Uogonek" unicode="&#x172;" horiz-adv-x="723" 
d="M480 663h179v-394q0 -104 -48 -173t-138 -95q-69 -44 -69 -96q0 -19 10 -33t33 -14q15 0 30 3l5 -4v-85q-32 -8 -71 -8q-61 0 -100.5 25t-39.5 74q0 70 74 124q-136 5 -208.5 77.5t-72.5 204.5v394h184v-371q0 -149 116 -149t116 149v371z" />
    <glyph glyph-name="uogonek" unicode="&#x173;" horiz-adv-x="629" 
d="M383 516h186v-516h-2q-82 -46 -82 -104q0 -19 10 -33t33 -14q15 0 30 3l5 -4v-85q-32 -8 -71 -8q-61 0 -100.5 25t-39.5 74q0 82 106 146h-40l-18 74q-51 -88 -172 -88q-82 0 -127.5 50.5t-45.5 134.5v345h186v-299q0 -72 68 -72q57 0 74 46v325z" />
    <glyph glyph-name="Wcircumflex" unicode="&#x174;" horiz-adv-x="965" 
d="M480 782l-122 -76l-51 67l133 142h83l139 -140l-53 -69zM963 663l2 -4l-211 -659h-141l-115 337l-10 43l-12 -43l-115 -337h-145l-223 659l2 4h196l95 -350l11 -59l14 59l110 343h137l109 -324l16 -72l16 72l87 331h177z" />
    <glyph glyph-name="wcircumflex" unicode="&#x175;" horiz-adv-x="814" 
d="M406 663l-106 -79l-60 57l124 156h85l129 -156l-60 -57zM811 516l2 -4l-175 -512h-128l-94 281l-5 19l-6 -19l-98 -281h-130l-176 512l2 4h183l66 -249l3 -25l6 24l77 250h152l74 -248l7 -30l4 32l65 246h171z" />
    <glyph glyph-name="Ycircumflex" unicode="&#x176;" horiz-adv-x="631" 
d="M190 702l-51 67l133 142h83l139 -140l-53 -69l-129 76zM224 0v255l-233 404l2 4h200l128 -241l125 241h188l2 -4l-228 -406v-253h-184z" />
    <glyph glyph-name="ycircumflex" unicode="&#x177;" horiz-adv-x="556" 
d="M281 649l-106 -79l-60 57l124 156h85l129 -156l-60 -57zM555 516l2 -4l-216 -518l-64 -158h-192l-2 3l110 217l-188 456l2 4h196l80 -259l86 259h186z" />
    <glyph glyph-name="Ydieresis" unicode="&#x178;" horiz-adv-x="631" 
d="M189 714q-37 0 -63.5 26t-26.5 64q0 37 26.5 63t63.5 26t63.5 -26t26.5 -63t-26.5 -63.5t-63.5 -26.5zM446 714q-38 0 -64 26t-26 64q0 37 26.5 63t63.5 26t63.5 -26t26.5 -63q0 -38 -26 -64t-64 -26zM224 0v255l-233 404l2 4h200l128 -241l125 241h188l2 -4l-228 -406
v-253h-184z" />
    <glyph glyph-name="Zacute" unicode="&#x179;" horiz-adv-x="615" 
d="M199 699l-35 85l214 136l79 -134l-9 -18zM37 0v63l284 449h-284l-2 151h534v-63l-291 -448h303v-152h-544z" />
    <glyph glyph-name="zacute" unicode="&#x17a;" horiz-adv-x="545" 
d="M417 651l-236 -95l-52 81l186 161l106 -127zM269 144h242v-144h-476v92l224 275h-221v149h463v-98z" />
    <glyph glyph-name="Zdotaccent" unicode="&#x17b;" horiz-adv-x="615" 
d="M303 704q-43 0 -74 31t-31 74t31 74t74 31t74 -31t31 -74t-31 -74t-74 -31zM37 0v63l284 449h-284l-2 151h534v-63l-291 -448h303v-152h-544z" />
    <glyph glyph-name="zdotaccent" unicode="&#x17c;" horiz-adv-x="545" 
d="M267 571q-44 0 -76 31.5t-32 76.5t32 76.5t76 31.5q45 0 76.5 -31.5t31.5 -76.5t-31.5 -76.5t-76.5 -31.5zM269 144h242v-144h-476v92l224 275h-221v149h463v-98z" />
    <glyph glyph-name="Zcaron" unicode="&#x17d;" horiz-adv-x="615" 
d="M264 703l-139 134l54 69l128 -76l122 76l51 -67l-133 -136h-83zM37 0v63l284 449h-284l-2 151h534v-63l-291 -448h303v-152h-544z" />
    <glyph glyph-name="zcaron" unicode="&#x17e;" horiz-adv-x="545" 
d="M312 570h-85l-129 156l60 57l112 -79l106 79l60 -57zM269 144h242v-144h-476v92l224 275h-221v149h463v-98z" />
    <glyph glyph-name="uni01EA" unicode="&#x1ea;" horiz-adv-x="776" 
d="M518 8q-81 -45 -81 -103q0 -19 10 -33t33 -14q15 0 30 3l5 -4v-85q-32 -8 -71 -8q-61 0 -100.5 25t-39.5 74q0 71 75 125q-92 2 -168 39.5t-125.5 116.5t-49.5 188q0 159 99 253t253 94q93 0 171 -37t129.5 -117.5t51.5 -192.5q0 -121 -60 -205.5t-162 -118.5zM228 332
q0 -83 42.5 -130t117.5 -47t117.5 47t42.5 130q0 84 -42.5 132t-117.5 48t-117.5 -48t-42.5 -132z" />
    <glyph glyph-name="uni01EB" unicode="&#x1eb;" horiz-adv-x="638" 
d="M413 -2q-64 -42 -64 -93q0 -19 10 -33t33 -14q15 0 30 3l5 -4v-85q-32 -8 -71 -8q-61 0 -100.5 25t-39.5 74q0 69 73 124q-110 9 -183.5 78.5t-73.5 192.5q0 124 79.5 198t207.5 74q121 0 204 -69.5t83 -201.5q0 -100 -52 -168.5t-141 -92.5zM223 259q0 -52 24 -83.5
t72 -31.5q46 0 71 32t25 83t-25 82t-71 31q-47 0 -71.5 -31.5t-24.5 -81.5z" />
    <glyph glyph-name="AEacute" unicode="&#x1fc;" horiz-adv-x="884" 
d="M672 768l-249 -69l-35 85l214 136l79 -134zM599 150h238v-150h-424v121h-180l-65 -121h-187l376 663h472v-150h-230v-97h211v-148h-211v-118zM303 251h110v210l-83 -159z" />
    <glyph glyph-name="aeacute" unicode="&#x1fd;" horiz-adv-x="876" 
d="M586 651l-236 -95l-52 81l186 161l106 -127zM592 530q117 0 184 -61.5t69 -185.5q0 -26 -2 -78h-328q21 -78 111 -78q97 0 178 40l4 -2v-137q-81 -42 -198 -42q-145 0 -224 85q-80 -84 -186 -84q-87 0 -132 40t-45 105q0 43 17.5 74t44 48.5t68.5 28.5t79.5 14.5
t87.5 4.5q-9 71 -103 71q-89 0 -144 -29l-4 2v147q22 14 72 25.5t111 11.5q110 0 173 -50q70 50 167 50zM511 302h155q-3 43 -21.5 61.5t-53.5 18.5q-65 0 -80 -80zM249 121q51 0 89 31q-8 22 -13 52q-120 -3 -120 -48q0 -14 11 -24.5t33 -10.5z" />
    <glyph glyph-name="Oslashacute" unicode="&#x1fe;" horiz-adv-x="776" 
d="M525 768l-249 -69l-35 85l214 136l79 -134zM741 680v-12l-85 -99q84 -94 84 -237q0 -157 -99 -250.5t-253 -93.5q-106 0 -191 48l-44 -51h-118v15l84 99q-83 91 -83 233q0 159 99 253t253 94q103 0 185 -46l40 47h128zM228 332q0 -51 16 -87l214 253q-31 14 -70 14
q-75 0 -117.5 -48t-42.5 -132zM548 332q0 52 -17 92l-218 -253q31 -16 75 -16q75 0 117.5 47t42.5 130z" />
    <glyph glyph-name="oslashacute" unicode="&#x1ff;" horiz-adv-x="639" 
d="M470 651l-236 -95l-52 81l186 161l106 -127zM641 539v-12l-86 -99q52 -70 52 -169q0 -125 -79.5 -199t-207.5 -74q-54 0 -117 26l-31 -35h-157v15l82 96q-64 72 -64 170q0 124 79.5 198t207.5 74q70 0 126 -23l27 32h168zM320 144q46 0 71 32t25 83t-25 82t-71 31
q-47 0 -71.5 -31.5t-24.5 -81.5q0 -52 24 -83.5t72 -31.5z" />
    <glyph glyph-name="Scommaaccent" unicode="&#x218;" horiz-adv-x="534" 
d="M251 -11q-111 0 -204 43v167l4 2q84 -58 180 -58q77 0 77 50q0 24 -19 41.5t-79 42.5q-160 65 -160 197q0 101 70 152.5t175 51.5t178 -27v-156l-4 -2q-54 28 -146 30q-89 1 -89 -40q0 -19 21 -32.5t82 -39.5q157 -66 157 -211q0 -97 -66 -154t-177 -57zM177 -256
q16 79 16 135q0 20 -4 70l137 11l13 -20q0 -108 -60 -196h-102z" />
    <glyph glyph-name="scommaaccent" unicode="&#x219;" horiz-adv-x="501" 
d="M240 -14q-111 0 -199 37v144l4 2q37 -24 91 -39.5t95 -15.5q62 0 62 30q0 16 -16.5 24.5t-85.5 29.5q-82 25 -116 64.5t-34 96.5q0 77 64.5 124t169.5 47q111 0 171 -24v-146l-4 -2q-25 13 -71 21t-84 8q-67 0 -67 -25q0 -13 16.5 -21.5t84.5 -28.5q78 -23 112.5 -60
t34.5 -96q0 -80 -60 -125t-168 -45zM166 -256q16 79 16 135q0 20 -4 70l137 11l13 -20q0 -108 -60 -196h-102z" />
    <glyph glyph-name="uni021A" unicode="&#x21a;" horiz-adv-x="606" 
d="M594 663v-166h-193v-497h-186v497h-203v166h582zM227 -51l137 11l13 -20q0 -108 -60 -196h-102q16 79 16 135q0 20 -4 70z" />
    <glyph glyph-name="uni021B" unicode="&#x21b;" horiz-adv-x="445" 
d="M407 371h-129v-134q0 -79 67 -79q30 0 58 13l4 -2v-156q-45 -20 -118 -20q-92 0 -144.5 52.5t-52.5 152.5v173h-83v145h83v124l183 35l3 -2v-157h129v-145zM204 -51l137 11l13 -20q0 -108 -60 -196h-102q16 79 16 135q0 20 -4 70z" />
    <glyph glyph-name="uni0237" unicode="&#x237;" horiz-adv-x="325" 
d="M42 -171q-31 0 -82 7v160l4 2q17 -4 38 -4q77 0 77 89v433h186v-477q0 -106 -59 -158t-164 -52z" />
    <glyph glyph-name="circumflex" unicode="&#x2c6;" horiz-adv-x="435" 
d="M109 570l-60 57l124 156h85l129 -156l-60 -57l-112 79z" />
    <glyph glyph-name="caron" unicode="&#x2c7;" horiz-adv-x="435" 
d="M189 516l-139 162l60 63l111 -84l109 84l60 -63l-140 -162h-61z" />
    <glyph glyph-name="breve" unicode="&#x2d8;" horiz-adv-x="391" 
d="M194 573q-70 0 -119.5 46t-49.5 125l107 12l5 -4q6 -61 59 -61q28 0 45.5 17.5t20.5 43.5l4 3l100 -11q0 -79 -50 -125t-122 -46z" />
    <glyph glyph-name="dotaccent" unicode="&#x2d9;" horiz-adv-x="316" 
d="M158 571q-44 0 -76 31.5t-32 76.5t32 76.5t76 31.5q45 0 76.5 -31.5t31.5 -76.5t-31.5 -76.5t-76.5 -31.5z" />
    <glyph glyph-name="ring" unicode="&#x2da;" horiz-adv-x="328" 
d="M156 549q-59 0 -97 38t-38 94t38 93.5t97 37.5q60 0 98 -37.5t38 -93.5t-38 -94t-98 -38zM156 635q21 0 34.5 13t13.5 33q0 19 -13.5 32t-34.5 13t-34 -13t-13 -32q0 -20 13 -33t34 -13z" />
    <glyph glyph-name="ogonek" unicode="&#x2db;" horiz-adv-x="234" 
d="M164 -236q-61 0 -100.5 25t-39.5 74q0 84 111 149l106 -2q-84 -47 -84 -105q0 -19 10 -33t33 -14q15 0 30 3l5 -4v-85q-32 -8 -71 -8z" />
    <glyph glyph-name="tilde" unicode="&#x2dc;" horiz-adv-x="431" 
d="M124 588l-109 30q0 57 35 101t96 44q33 0 72 -15t58 -15q17 0 27 10t10 25l4 2l109 -29q0 -66 -38 -105.5t-95 -39.5q-30 -1 -71 14.5t-56 15.5q-36 0 -38 -35z" />
    <glyph glyph-name="hungarumlaut" unicode="&#x2dd;" horiz-adv-x="461" 
d="M99 557l-70 44l89 195l115 -41l2 -24zM299 557l-70 44l89 195l115 -41l2 -24z" />
    <glyph glyph-name="gravecomb" unicode="&#x300;" 
d="M-52 556l-236 95l-4 20l106 127l186 -161z" />
    <glyph glyph-name="acutecomb" unicode="&#x301;" 
d="M-230 556l-52 81l186 161l106 -127l-4 -20z" />
    <glyph glyph-name="uni0302" unicode="&#x302;" 
d="M-326 570l-60 57l124 156h85l129 -156l-60 -57l-112 79z" />
    <glyph glyph-name="tildecomb" unicode="&#x303;" 
d="M-307 588l-109 30q0 57 35 101t96 44q33 0 72 -15t58 -15q17 0 27 10t10 25l4 2l109 -29q0 -66 -38 -105.5t-95 -39.5q-30 -1 -71 14.5t-56 15.5q-36 0 -38 -35z" />
    <glyph glyph-name="uni0304" unicode="&#x304;" 
d="M-342 604v109h317v-109h-317z" />
    <glyph glyph-name="uni0306" unicode="&#x306;" 
d="M-197 573q-70 0 -119.5 46t-49.5 125l107 12l5 -4q6 -61 59 -61q28 0 45.5 17.5t20.5 43.5l4 3l100 -11q0 -79 -50 -125t-122 -46z" />
    <glyph glyph-name="uni0307" unicode="&#x307;" 
d="M-158 571q-44 0 -76 31.5t-32 76.5t32 76.5t76 31.5q45 0 76.5 -31.5t31.5 -76.5t-31.5 -76.5t-76.5 -31.5z" />
    <glyph glyph-name="uni0308" unicode="&#x308;" 
d="M-352 577q-43 0 -72.5 29.5t-29.5 70.5q0 43 29.5 73t72.5 30q42 0 72 -30t30 -73q0 -41 -30 -70.5t-72 -29.5zM-109 577q-43 0 -72.5 29.5t-29.5 70.5q0 43 29.5 73t72.5 30q42 0 72 -30t30 -73q0 -41 -30 -70.5t-72 -29.5z" />
    <glyph glyph-name="uni030A" unicode="&#x30a;" 
d="M-157 549q-59 0 -97 38t-38 94t38 93.5t97 37.5q60 0 98 -37.5t38 -93.5t-38 -94t-98 -38zM-157 635q21 0 34.5 13t13.5 33q0 19 -13.5 32t-34.5 13t-34 -13t-13 -32q0 -20 13 -33t34 -13z" />
    <glyph glyph-name="uni030B" unicode="&#x30b;" 
d="M-362 557l-70 44l89 195l115 -41l2 -24zM-162 557l-70 44l89 195l115 -41l2 -24z" />
    <glyph glyph-name="uni030C" unicode="&#x30c;" 
d="M-257 570l-129 156l60 57l112 -79l106 79l60 -57l-124 -156h-85z" />
    <glyph glyph-name="uni0326" unicode="&#x326;" 
d="M-193 -256q16 79 16 135q0 20 -4 70l137 11l13 -20q0 -108 -60 -196h-102z" />
    <glyph glyph-name="uni0327" unicode="&#x327;" 
d="M-146 -245q-40 0 -68 7v69l4 2q21 -6 36 -6q54 0 54 34q1 15 -10 23t-30 8q-16 0 -32 -2l-2 4v61l33 46h95l-34 -42q10 0 15 -1q45 -5 70.5 -29.5t25.5 -65.5q0 -108 -157 -108z" />
    <glyph glyph-name="uni0328" unicode="&#x328;" 
d="M-95 -236q-61 0 -100.5 25t-39.5 74q0 84 111 149l106 -2q-84 -47 -84 -105q0 -19 10 -33t33 -14q15 0 30 3l5 -4v-85q-32 -8 -71 -8z" />
    <glyph glyph-name="uni0335" unicode="&#x335;" 
d="M-389 121v110h354v-110h-354z" />
    <glyph glyph-name="uni0336" unicode="&#x336;" 
d="M-664 341v110h644v-110h-644z" />
    <glyph glyph-name="uni0337" unicode="&#x337;" 
d="M-332 176v126l317 208h5v-126l-317 -208h-5z" />
    <glyph glyph-name="uni0338" unicode="&#x338;" 
d="M-609 -13v15l468 547h128v-12l-479 -550h-117z" />
    <glyph glyph-name="Wgrave" unicode="&#x1e80;" horiz-adv-x="965" 
d="M584 703l-249 69l-9 18l79 134l214 -134zM963 663l2 -4l-211 -659h-141l-115 337l-10 43l-12 -43l-115 -337h-145l-223 659l2 4h196l95 -350l11 -59l14 59l110 343h137l109 -324l16 -72l16 72l87 331h177z" />
    <glyph glyph-name="wgrave" unicode="&#x1e81;" horiz-adv-x="814" 
d="M484 570l-236 95l-4 20l106 127l186 -161zM811 516l2 -4l-175 -512h-128l-94 281l-5 19l-6 -19l-98 -281h-130l-176 512l2 4h183l66 -249l3 -25l6 24l77 250h152l74 -248l7 -30l4 32l65 246h171z" />
    <glyph glyph-name="Wacute" unicode="&#x1e82;" horiz-adv-x="965" 
d="M630 772l-249 -69l-35 85l214 136l79 -134zM963 663l2 -4l-211 -659h-141l-115 337l-10 43l-12 -43l-115 -337h-145l-223 659l2 4h196l95 -350l11 -59l14 59l110 343h137l109 -324l16 -72l16 72l87 331h177z" />
    <glyph glyph-name="wacute" unicode="&#x1e83;" horiz-adv-x="814" 
d="M559 665l-236 -95l-52 81l186 161l106 -127zM811 516l2 -4l-175 -512h-128l-94 281l-5 19l-6 -19l-98 -281h-130l-176 512l2 4h183l66 -249l3 -25l6 24l77 250h152l74 -248l7 -30l4 32l65 246h171z" />
    <glyph glyph-name="Wdieresis" unicode="&#x1e84;" horiz-adv-x="965" 
d="M357 718q-37 0 -63.5 26t-26.5 64q0 37 26.5 63t63.5 26t63.5 -26t26.5 -63t-26.5 -63.5t-63.5 -26.5zM614 718q-38 0 -64 26t-26 64q0 37 26.5 63t63.5 26t63.5 -26t26.5 -63q0 -38 -26 -64t-64 -26zM963 663l2 -4l-211 -659h-141l-115 337l-10 43l-12 -43l-115 -337
h-145l-223 659l2 4h196l95 -350l11 -59l14 59l110 343h137l109 -324l16 -72l16 72l87 331h177z" />
    <glyph glyph-name="wdieresis" unicode="&#x1e85;" horiz-adv-x="814" 
d="M286 591q-43 0 -72.5 29.5t-29.5 70.5q0 43 29.5 73t72.5 30q42 0 72 -30t30 -73q0 -41 -30 -70.5t-72 -29.5zM529 591q-43 0 -72.5 29.5t-29.5 70.5q0 43 29.5 73t72.5 30q42 0 72 -30t30 -73q0 -41 -30 -70.5t-72 -29.5zM811 516l2 -4l-175 -512h-128l-94 281l-5 19
l-6 -19l-98 -281h-130l-176 512l2 4h183l66 -249l3 -25l6 24l77 250h152l74 -248l7 -30l4 32l65 246h171z" />
    <glyph glyph-name="Ygrave" unicode="&#x1ef2;" horiz-adv-x="631" 
d="M416 699l-249 69l-9 18l79 134l214 -134zM224 0v255l-233 404l2 4h200l128 -241l125 241h188l2 -4l-228 -406v-253h-184z" />
    <glyph glyph-name="ygrave" unicode="&#x1ef3;" horiz-adv-x="556" 
d="M359 556l-236 95l-4 20l106 127l186 -161zM555 516l2 -4l-216 -518l-64 -158h-192l-2 3l110 217l-188 456l2 4h196l80 -259l86 259h186z" />
    <glyph glyph-name="uni1EF8" unicode="&#x1ef8;" horiz-adv-x="631" 
d="M221 706l-103 28q0 61 36 102t94 41q32 0 71.5 -15.5t58.5 -15.5q13 0 24 10t11 24l3 2l103 -28q0 -62 -35.5 -102t-94.5 -40q-25 0 -67 15t-60 15q-17 0 -27.5 -10.5t-10.5 -23.5zM224 0v255l-233 404l2 4h200l128 -241l125 241h188l2 -4l-228 -406v-253h-184z" />
    <glyph glyph-name="uni1EF9" unicode="&#x1ef9;" horiz-adv-x="556" 
d="M197 591l-4 -3l-109 30q0 57 35 101t96 44q33 0 72 -15t58 -15q17 0 27 10t10 25l4 2l109 -29q0 -66 -38 -105.5t-95 -39.5q-30 -1 -71 14.5t-56 15.5q-36 0 -38 -35zM555 516l2 -4l-216 -518l-64 -158h-192l-2 3l110 217l-188 456l2 4h196l80 -259l86 259h186z" />
    <glyph glyph-name="endash" unicode="&#x2013;" horiz-adv-x="562" 
d="M57 203v151h448v-151h-448z" />
    <glyph glyph-name="emdash" unicode="&#x2014;" horiz-adv-x="892" 
d="M57 203v151h778v-151h-778z" />
    <glyph glyph-name="quoteleft" unicode="&#x2018;" horiz-adv-x="254" 
d="M210 707q-13 -80 -16 -146q-1 -60 3 -132l-134 -24l-22 26q1 127 76 276h93z" />
    <glyph glyph-name="quoteright" unicode="&#x2019;" horiz-adv-x="252" 
d="M48 405q13 80 16 146q1 60 -3 132l134 24l22 -26q-1 -127 -76 -276h-93z" />
    <glyph glyph-name="quotesinglbase" unicode="&#x201a;" horiz-adv-x="259" 
d="M38 -187q13 80 16 146q1 60 -3 132l134 24l22 -26q-1 -127 -76 -276h-93z" />
    <glyph glyph-name="quotedblleft" unicode="&#x201c;" horiz-adv-x="449" 
d="M210 707q-13 -80 -16 -146q-1 -60 3 -132l-134 -24l-22 26q1 127 76 276h93zM404 707q-13 -80 -16 -146q-1 -60 3 -132l-134 -24l-22 26q1 127 76 276h93z" />
    <glyph glyph-name="quotedblright" unicode="&#x201d;" horiz-adv-x="444" 
d="M48 405q13 80 16 146q1 60 -3 132l134 24l22 -26q-1 -127 -76 -276h-93zM241 405q13 80 16 146q1 60 -3 132l134 24l22 -26q-1 -127 -76 -276h-93z" />
    <glyph glyph-name="quotedblbase" unicode="&#x201e;" horiz-adv-x="449" 
d="M37 -187q13 80 16 146q1 60 -3 132l134 24l22 -26q-1 -127 -76 -276h-93zM230 -187q13 80 16 146q1 60 -3 132l134 24l22 -26q-1 -127 -76 -276h-93z" />
    <glyph glyph-name="dagger" unicode="&#x2020;" horiz-adv-x="628" 
d="M372 515l203 25v-172l-179 24l-20 -505h-126l-23 503l-173 -22v172l197 -27l-24 208h172z" />
    <glyph glyph-name="daggerdbl" unicode="&#x2021;" horiz-adv-x="628" 
d="M228 -110l26 196l-203 -24v172l179 -24l21 96l-23 94l-173 -22v172l198 -27l-25 198h172l-27 -196l203 25v-172l-179 24l-20 -96l22 -94l173 22v-172l-198 26l26 -198h-172z" />
    <glyph glyph-name="bullet" unicode="&#x2022;" horiz-adv-x="423" 
d="M212 92q-63 0 -107.5 44.5t-44.5 107.5q0 62 44.5 106.5t107.5 44.5t107 -44.5t44 -106.5q0 -63 -44 -107.5t-107 -44.5z" />
    <glyph glyph-name="ellipsis" unicode="&#x2026;" horiz-adv-x="749" 
d="M136 -15q-45 0 -70 25.5t-25 64.5t25 66t70 27t70 -26.5t25 -66.5q0 -39 -25 -64.5t-70 -25.5zM376 -15q-45 0 -70 25.5t-25 64.5t25 66t70 27t70 -26.5t25 -66.5q0 -39 -25 -64.5t-70 -25.5zM613 -15q-45 0 -70 25.5t-25 64.5t25 66t70 27t70 -26.5t25 -66.5
q0 -39 -25 -64.5t-70 -25.5z" />
    <glyph glyph-name="perthousand" unicode="&#x2030;" horiz-adv-x="1217" 
d="M212 308q-81 0 -131 44t-50 131t51 134t131 47q82 0 133 -46.5t51 -134.5q0 -87 -50.5 -131t-134.5 -44zM122 13l461 636h135l-461 -636h-135zM212 415q56 0 56 70q0 71 -56 71q-52 0 -52 -71q0 -70 52 -70zM616 -4q-81 0 -131.5 44t-50.5 130q0 87 51 134t131 47
q83 0 133.5 -46.5t50.5 -134.5q0 -86 -50.5 -130t-133.5 -44zM1003 -4q-80 0 -130.5 44t-50.5 130q0 87 51 134t131 47q83 0 133.5 -46.5t50.5 -134.5q0 -86 -50.5 -130t-134.5 -44zM616 103q55 0 55 67q0 73 -55 73q-53 0 -53 -73q0 -67 53 -67zM1004 103q55 0 55 67
q0 73 -55 73q-53 0 -53 -73q0 -67 53 -67z" />
    <glyph glyph-name="guilsinglleft" unicode="&#x2039;" horiz-adv-x="351" 
d="M147 91l-120 199l124 197h162v-14l-110 -179l111 -193v-10h-167z" />
    <glyph glyph-name="guilsinglright" unicode="&#x203a;" horiz-adv-x="351" 
d="M205 487l120 -199l-124 -197h-162v14l110 179l-111 193v10h167z" />
    <glyph glyph-name="fraction" unicode="&#x2044;" horiz-adv-x="162" 
d="M-146 -11l395 674h132l-397 -674h-130z" />
    <glyph glyph-name="Euro" unicode="&#x20ac;" horiz-adv-x="661" 
d="M485 159q62 0 119 24l4 -3l-30 -165q-50 -23 -124 -23q-130 0 -220.5 70.5t-111.5 195.5h-91l26 166h69q26 122 114.5 190.5t215.5 68.5q86 0 152 -19l-30 -162l-3 -2q-42 16 -95 16q-116 0 -153 -92h163l-26 -166h-139q35 -99 160 -99z" />
    <glyph glyph-name="trademark" unicode="&#x2122;" horiz-adv-x="884" 
d="M374 530h-97v-196h-141v196h-99v133h337v-133zM801 663l29 -329h-132l-8 111h-1l-45 -112h-85l-43 112h-1l-9 -111h-133l30 329h145l58 -148l56 148h139z" />
    <glyph glyph-name="minus" unicode="&#x2212;" horiz-adv-x="588" 
d="M58 232v121h472v-121h-472z" />
    <glyph glyph-name="approxequal" unicode="&#x2248;" horiz-adv-x="545" 
d="M160 313l-103 14q0 65 37 106t97 41q38 0 86.5 -16.5t73.5 -16.5q36 0 39 35l5 3l95 -19q0 -62 -36.5 -101.5t-95.5 -39.5q-30 0 -80.5 16.5t-72.5 16.5q-40 0 -42 -36zM160 99l-103 14q0 65 37 106t97 41q38 0 86.5 -16.5t73.5 -16.5q36 0 39 35l5 3l95 -19
q0 -62 -36.5 -101.5t-95.5 -39.5q-30 0 -80.5 16.5t-72.5 16.5q-40 0 -42 -36z" />
    <glyph glyph-name="notequal" unicode="&#x2260;" horiz-adv-x="618" 
d="M560 345h-140l-53 -112h193v-118h-248l-45 -95h-142l45 95h-112v118h167l53 112h-220v119h276l41 86h142l-41 -86h84v-119z" />
    <glyph glyph-name="uniF8FF" unicode="&#xf8ff;" horiz-adv-x="1451" 
d="M752 522q-26 0 -43.5 18t-17.5 43q0 26 17.5 44t43.5 18t44 -18t18 -44t-18 -43.5t-44 -17.5zM100 270q0 134 9 314h100q10 -200 10 -314h-119zM604 264q-82 0 -82 66q0 12 2 49t2 38h-22v79l119 30l1 -17h178q10 -64 10 -239h-118q0 92 3 147h-61l3 -65q4 -4 15 -4
q13 0 18 5v-74q-14 -15 -68 -15zM328 265q-92 0 -92 114q0 135 134 135q124 0 124 -117v-127h-83l-8 61q-6 -33 -23.5 -49.5t-51.5 -16.5zM834 270q0 175 10 239h80q6 -44 6 -76q2 15 6.5 30t24 33t49.5 18q42 0 58.5 -25t18.5 -81l3 -138h-114q0 26 1 56t1 37q0 29 -15 29
q-18 0 -18 -29q0 -7 1.5 -37t1.5 -56h-114zM1228 265q-122 0 -122 124q0 125 124 125q121 0 121 -123q0 -126 -123 -126zM366 345q24 0 24 30q0 26 -24 26q-22 0 -22 -26q0 -30 22 -30zM1228 345q23 0 23 30q0 26 -23 26q-21 0 -21 -26q0 -30 21 -30zM390 -50q-61 0 -88 17
v83q24 -16 70 -16q21 0 34 6t16.5 11.5t3.5 10.5q-16 -11 -49 -11q-90 0 -90 83v13h-55l3 -65q6 -4 15 -4q13 0 18 5v-73q-19 -15 -68 -15q-45 0 -63 17t-18 54q0 39 3 81h-18v80l117 29l-1 -18h177v-119q0 -16 3 -21.5t12 -5.5q16 0 16 27v119h104q10 -52 10 -138
q0 -81 -33.5 -115.5t-118.5 -34.5zM558 -44q0 142 10 282h78q7 -42 7 -76q17 81 80 81q37 0 58.5 -29t21.5 -84q0 -135 -137 -135q1 -15 1 -39h-119zM970 -5q-141 0 -141 122q0 59 32.5 92.5t92.5 33.5q55 0 85.5 -30t30.5 -86q0 -21 -3 -35h-124q11 -18 50 -18q34 0 55 12
v-75q-23 -16 -78 -16zM938 109h40q3 27 -17 27q-23 0 -23 -27zM670 72q5 0 12.5 2.5t16 11.5t8.5 23q0 23 -20 23q-22 0 -22 -31q0 -14 5 -29zM1098 -10q-24 0 -24 23t24 23t24 -23t-24 -23zM1098 -5q18 0 18 18t-18 18t-18 -18t18 -18zM1088 2v23h11q10 0 10 -7t-7 -7l6 -9
h-6l-4 9h-5v-9h-5zM1093 15h7q4 0 4 3t-4 3h-7v-6z" />
    <glyph glyph-name="i.loclTRK" horiz-adv-x="306" 
d="M153 571q-44 0 -76 31.5t-32 76.5t32 76.5t76 31.5q45 0 76.5 -31.5t31.5 -76.5t-31.5 -76.5t-76.5 -31.5zM60 0v516h186v-516h-186z" />
    <glyph glyph-name="caroncomb.alt" 
d="M-180 459l7 255h124l14 -15l-49 -240h-96z" />
    <glyph glyph-name="uni0308.case" 
d="M-382 714q-38 0 -64 26t-26 64q0 37 26.5 63t63.5 26t63.5 -26t26.5 -63t-26.5 -63.5t-63.5 -26.5zM-125 714q-37 0 -63.5 26t-26.5 64q0 37 26.5 63t63.5 26t63.5 -26t26.5 -63q0 -38 -26.5 -64t-63.5 -26z" />
    <glyph glyph-name="uni0307.case" 
d="M-130 704q-44 0 -74.5 31t-30.5 74t30.5 74t74.5 31t74.5 -31t30.5 -74t-30.5 -74t-74.5 -31z" />
    <glyph glyph-name="gravecomb.case" 
d="M-75 699l-249 69l-9 18l79 134l214 -134z" />
    <glyph glyph-name="acutecomb.case" 
d="M-278 699l-35 85l214 136l79 -134l-9 -18z" />
    <glyph glyph-name="uni030B.case" 
d="M-366 699l-78 31l76 198l117 -33l4 -24zM-144 699l-79 31l77 198l117 -33l4 -24z" />
    <glyph glyph-name="uni0302.case" 
d="M-329 702l-51 67l133 142h83l139 -140l-53 -69l-129 76z" />
    <glyph glyph-name="uni030C.case" 
d="M-241 703l-139 134l54 69l128 -76l122 76l51 -67l-133 -136h-83z" />
    <glyph glyph-name="uni0306.case" 
d="M-198 713q-72 0 -123.5 47t-51.5 123l111 12q7 -72 67 -72q32 0 51.5 20.5t21.5 51.5l104 -12q0 -76 -52.5 -123t-127.5 -47z" />
    <glyph glyph-name="uni030A.case" 
d="M-157 689q-58 0 -94.5 34t-36.5 86q0 51 36.5 85t94.5 34t95 -34t37 -85q0 -52 -37 -86t-95 -34zM-157 766q19 0 31.5 12.5t12.5 30.5t-12.5 30t-31.5 12t-31 -12.5t-12 -29.5q0 -18 12 -30.5t31 -12.5z" />
    <glyph glyph-name="tildecomb.case" 
d="M-317 706l-103 28q0 61 36 102t94 41q32 0 71.5 -15.5t58.5 -15.5q13 0 24 10t11 24l3 2l103 -28q0 -62 -35.5 -102t-94.5 -40q-25 0 -67 15t-60 15q-17 0 -27.5 -10.5t-10.5 -23.5z" />
    <glyph glyph-name="uni0304.case" 
d="M-360 735v109h340v-109h-340z" />
    <glyph glyph-name="uni0337.case" 
d="M-343 168v124l318 202h5v-126l-318 -202z" />
    <glyph glyph-name="uni0338.case" 
d="M-731 -14v15l578 680h128v-12l-588 -683h-118z" />
    <glyph glyph-name="caron.alt" horiz-adv-x="215" 
d="M35 412l7 255h124l14 -15l-49 -240h-96z" />
    <glyph glyph-name="acute.case" horiz-adv-x="348" 
d="M70 699l-35 85l214 136l79 -134l-9 -18z" />
    <glyph glyph-name="breve.case" horiz-adv-x="391" 
d="M193 713q-72 0 -123.5 47t-51.5 123l111 12q7 -72 67 -72q32 0 51.5 20.5t21.5 51.5l104 -12q0 -76 -52.5 -123t-127.5 -47z" />
    <glyph glyph-name="caron.case" horiz-adv-x="405" 
d="M164 703l-139 134l54 69l128 -76l122 76l51 -67l-133 -136h-83z" />
    <glyph glyph-name="circumflex.case" horiz-adv-x="405" 
d="M76 702l-51 67l133 142h83l139 -140l-53 -69l-129 76z" />
    <glyph glyph-name="dieresis.case" horiz-adv-x="507" 
d="M125 714q-37 0 -63.5 26t-26.5 64q0 37 26.5 63t63.5 26t63.5 -26t26.5 -63t-26.5 -63.5t-63.5 -26.5zM382 714q-38 0 -64 26t-26 64q0 37 26.5 63t63.5 26t63.5 -26t26.5 -63q0 -38 -26 -64t-64 -26z" />
    <glyph glyph-name="dotaccent.case" horiz-adv-x="260" 
d="M130 704q-44 0 -74.5 31t-30.5 74t30.5 74t74.5 31t74.5 -31t30.5 -74t-30.5 -74t-74.5 -31z" />
    <glyph glyph-name="grave.case" horiz-adv-x="348" 
d="M273 699l-249 69l-9 18l79 134l214 -134z" />
    <glyph glyph-name="hungarumlaut.case" horiz-adv-x="505" 
d="M139 699l-78 31l76 198l117 -33l4 -24zM361 699l-79 31l77 198l117 -33l4 -24z" />
    <glyph glyph-name="macron.case" horiz-adv-x="399" 
d="M20 735v109h340v-109h-340z" />
    <glyph glyph-name="ring.case" horiz-adv-x="313" 
d="M156 689q-58 0 -94.5 34t-36.5 86q0 51 36.5 85t94.5 34t95 -34t37 -85q0 -52 -37 -86t-95 -34zM156 766q19 0 31.5 12.5t12.5 30.5t-12.5 30t-31.5 12q-18 0 -30.5 -12.5t-12.5 -29.5q0 -18 12 -30.5t31 -12.5z" />
    <glyph glyph-name="tilde.case" horiz-adv-x="442" 
d="M125 706l-103 28q0 61 36 102t94 41q32 0 71.5 -15.5t58.5 -15.5q13 0 24 10t11 24l3 2l103 -28q0 -62 -35.5 -102t-94.5 -40q-25 0 -67 15t-60 15q-17 0 -27.5 -10.5t-10.5 -23.5z" />
    <glyph glyph-name="IJacute" horiz-adv-x="738" 
d="M78 695l-35 85l214 136l79 -134l-9 -18zM485 695l-35 85l214 136l79 -134l-9 -18zM72 0v663h186v-663h-186zM415 -3q-31 0 -62 4v155l4 2q17 -3 33 -3q55 0 76.5 33.5t21.5 94.5v380h186v-361q0 -154 -64 -229.5t-195 -75.5z" />
    <glyph glyph-name="ijacute" horiz-adv-x="631" 
d="M62 556l-52 81l175 161l107 -108l-4 -20zM380 556l-52 81l175 161l107 -108l-4 -20zM60 100v416h186v-416h-186zM318 -171q-76 0 -137 20v161l2 1q47 -17 93 -17q62 0 85.5 32t23.5 117v373h186v-393q0 -294 -253 -294z" />
    </font>
</defs>
</svg>
