<?xml version="1.0" standalone="no"?>
<!DOCTYPE svg PUBLIC "-//W3C//DTD SVG 1.1//EN" "http://www.w3.org/Graphics/SVG/1.1/DTD/svg11.dtd" >
<svg xmlns="http://www.w3.org/2000/svg" xmlns:xlink="http://www.w3.org/1999/xlink" version="1.1">
<metadata>
Created by FontForge 20170731 at Tue Mar  7 13:07:42 2017
 By Aleksey,,,
Copyright (c) 2017 by Alfonso Garci'a - Latinotype Team. All rights reserved.
</metadata>
<defs>
<font id="RawsonAlt-BlackIt" horiz-adv-x="0" >
  <font-face 
    font-family="Rawson Alt Black It"
    font-weight="800"
    font-style="italic"
    font-stretch="normal"
    units-per-em="1100"
    panose-1="0 0 9 0 0 0 0 0 0 0"
    ascent="880"
    descent="-220"
    x-height="521"
    cap-height="663"
    bbox="-693 -258 1339 976"
    underline-thickness="50"
    underline-position="-200"
    slope="-7.5"
    unicode-range="U+0020-FB02"
  />
<missing-glyph horiz-adv-x="485" 
 />
    <glyph glyph-name="fi" unicode="fi" horiz-adv-x="669" 
d="M585 793q44 0 72.5 -28.5t28.5 -71.5q0 -51 -34 -83t-81 -32q-44 0 -72.5 28.5t-28.5 71.5q0 51 34 83t81 32zM388 478l-19 -145h-77l-72 -498h-186l72 498h-69l19 145h71v3q17 119 86 181.5t170 62.5q39 0 66 -8l-22 -162l-2 -1q-22 6 -36 6q-65 0 -76 -81v-1h75zM387 0
l75 521h186l-75 -521h-186z" />
    <glyph glyph-name="fl" unicode="fl" horiz-adv-x="633" 
d="M388 478l-19 -144h-78l-72 -499h-186l72 499h-68l19 144h69l2 11q16 111 85 173.5t168 62.5q37 0 68 -7l-22 -163l-2 -1q-18 6 -35 6q-66 0 -76 -75l-1 -7h76zM490 717h186l-103 -717h-186z" />
    <glyph glyph-name=".notdef" horiz-adv-x="485" 
 />
    <glyph glyph-name=".null" 
 />
    <glyph glyph-name="nonmarkingreturn" horiz-adv-x="366" 
 />
    <glyph glyph-name="space" unicode=" " horiz-adv-x="218" 
 />
    <glyph glyph-name="exclam" unicode="!" horiz-adv-x="302" 
d="M70 243l53 463h183l-79 -463h-157zM118 -15q-44 0 -67 22.5t-23 59.5q0 41 28 71t73 30q44 0 67 -22.5t23 -59.5q0 -41 -28 -71t-73 -30z" />
    <glyph glyph-name="quotedbl" unicode="&#x22;" horiz-adv-x="410" 
d="M79 398l29 268h131l13 -14l-78 -254h-95zM256 398l29 268h131l12 -14l-77 -254h-95z" />
    <glyph glyph-name="numbersign" unicode="#" horiz-adv-x="620" 
d="M586 346h-82l-27 -89h97l-17 -121h-116l-32 -108h-121l32 108h-101l-32 -108h-121l32 108h-72l17 121h91l27 89h-106l18 121h124l32 107h121l-32 -107h101l32 107h121l-32 -107h63zM356 257l27 89h-101l-27 -89h101z" />
    <glyph glyph-name="dollar" unicode="$" horiz-adv-x="501" 
d="M394 620q64 -6 100 -23l-19 -150l-1 -1q-23 14 -67 23.5t-81 9.5q-67 0 -67 -32q0 -12 16 -20.5t66 -25.5q122 -42 122 -141q0 -74 -40.5 -122.5t-115.5 -67.5l-15 -103h-160l14 97q-63 7 -126 33l21 147l2 1q78 -55 170 -55q45 0 63 9t18 29q0 14 -19 24.5t-80 29.5
q-128 40 -128 141q0 70 43 118.5t120 69.5l15 107h163z" />
    <glyph glyph-name="percent" unicode="%" horiz-adv-x="828" 
d="M223 311q-72 0 -119 39.5t-47 118.5q0 91 55.5 146t140.5 55q72 0 119.5 -40.5t47.5 -115.5q0 -94 -55.5 -148.5t-141.5 -54.5zM91 13l539 642h134l-538 -642h-135zM235 419q27 0 41.5 23t14.5 61q0 29 -12.5 44.5t-33.5 15.5q-28 0 -43.5 -24t-15.5 -63q0 -57 49 -57z
M591 -6q-72 0 -119 39.5t-47 118.5q0 91 55.5 146t140.5 55q72 0 119.5 -40.5t47.5 -115.5q0 -94 -55.5 -148.5t-141.5 -54.5zM603 102q27 0 41.5 23t14.5 61q0 29 -12.5 44.5t-33.5 15.5q-28 0 -43.5 -24t-15.5 -63q0 -57 49 -57z" />
    <glyph glyph-name="ampersand" unicode="&#x26;" horiz-adv-x="685" 
d="M651 0h-202l-28 40q-91 -58 -201 -58q-87 0 -145 44t-58 134q0 149 156 229q-36 60 -36 121q0 86 62 135t171 49q76 0 137 -27l-20 -147l-3 -1q-60 24 -120 24q-48 0 -48 -32q0 -20 72 -126l62 -90q20 56 32 135h158q-22 -158 -99 -270zM269 137q37 0 71 16l-94 130
q-49 -37 -49 -85q0 -28 18.5 -44.5t53.5 -16.5z" />
    <glyph glyph-name="quotesingle" unicode="'" horiz-adv-x="234" 
d="M79 398l29 268h131l13 -14l-78 -254h-95z" />
    <glyph glyph-name="parenleft" unicode="(" horiz-adv-x="357" 
d="M200 -186q-72 53 -122 153t-50 246q0 117 27.5 216.5t74 169t98.5 117t111 78.5l51 -130q-32 -25 -61 -60.5t-58 -89t-46.5 -132t-17.5 -169.5q0 -100 23 -168.5t57 -102.5z" />
    <glyph glyph-name="parenright" unicode=")" horiz-adv-x="358" 
d="M171 804q66 -37 118.5 -141.5t52.5 -258.5q0 -116 -31.5 -220t-80.5 -175t-100 -117.5t-98 -67.5l-52 129q44 33 82 84.5t69.5 149t31.5 216.5q0 99 -23 168.5t-56 103.5z" />
    <glyph glyph-name="asterisk" unicode="*" horiz-adv-x="507" 
d="M275 566l-12 6l-61 140l6 13l114 30l17 -12l-28 -159l-10 -11zM350 548l-14 2l-14 18l-1 14l96 143l15 2l68 -82l-5 -20zM235 519l-167 -3l2 11l46 109l21 10l126 -80l-5 -14l-11 -25zM450 410l-119 81l-3 13l9 24l12 9l158 3l8 -11l-45 -111zM156 329l-69 82l5 21
l144 76l13 -2l16 -17v-14l-95 -144zM263 302l-15 12l27 158l10 10l25 7l13 -5l62 -140l-7 -13z" />
    <glyph glyph-name="plus" unicode="+" horiz-adv-x="539" 
d="M523 354l-17 -119h-180l-27 -188h-121l27 188h-180l17 119h181l27 189h120l-27 -189h180z" />
    <glyph glyph-name="comma" unicode="," horiz-adv-x="264" 
d="M-20 -150q33 97 46 193q5 38 8 95l143 15l18 -26q-10 -73 -41 -148.5t-71 -128.5h-103z" />
    <glyph glyph-name="hyphen" unicode="-" horiz-adv-x="413" 
d="M48 216l22 151h303l-20 -151h-305z" />
    <glyph glyph-name="period" unicode="." horiz-adv-x="266" 
d="M100 -15q-43 0 -65.5 22.5t-22.5 59.5q0 41 27 71t72 30q43 0 65.5 -22.5t22.5 -59.5q0 -41 -27 -71t-72 -30z" />
    <glyph glyph-name="slash" unicode="/" horiz-adv-x="514" 
d="M-32 -123l429 881h165l-429 -881h-165z" />
    <glyph glyph-name="zero" unicode="0" horiz-adv-x="656" 
d="M305 -16q-125 0 -194 69.5t-69 209.5q0 197 96 309.5t227 112.5q128 0 198 -72.5t70 -214.5q0 -200 -94 -307t-234 -107zM317 139q56 0 89 70t33 187q0 132 -76 132q-59 0 -93 -73t-34 -188q0 -66 19.5 -97t61.5 -31z" />
    <glyph glyph-name="one" unicode="1" horiz-adv-x="417" 
d="M123 0l63 432l-138 -53l-4 2l27 189l299 111h28l-97 -681h-178z" />
    <glyph glyph-name="two" unicode="2" horiz-adv-x="578" 
d="M-6 0q15 102 75 178.5t178 165.5q76 57 97 80t21 54q0 45 -82 45q-60 0 -114.5 -19.5t-83.5 -40.5l-4 2l20 160q99 60 231 60q59 0 106.5 -15.5t81 -55t33.5 -99.5q0 -22 -1 -37.5t-5.5 -31.5t-7 -26t-14 -24.5t-17.5 -22t-26 -25t-31.5 -27t-41.5 -33.5t-49 -40
q-88 -72 -92 -97h256l-22 -151h-508z" />
    <glyph glyph-name="three" unicode="3" horiz-adv-x="541" 
d="M425 361q71 -45 71 -131q0 -114 -74.5 -180t-226.5 -66q-112 0 -187 40l23 154l4 2q55 -41 163 -41q125 0 125 80q0 55 -77 57l-84 2l17 136h49q101 0 101 63q0 52 -80 52q-95 0 -159 -30l-4 2l21 151q74 34 196 34q93 0 151 -40.5t58 -124.5q0 -101 -87 -160z" />
    <glyph glyph-name="four" unicode="4" horiz-adv-x="612" 
d="M573 241l-18 -136h-81l-15 -105h-167l15 105h-316l12 85l408 483h145l-62 -432h79zM221 241h107l24 163z" />
    <glyph glyph-name="five" unicode="5" horiz-adv-x="558" 
d="M220 -16q-116 0 -206 29l23 161l4 2q85 -37 180 -37q112 0 112 85q0 67 -90 67q-95 0 -186 -25l-3 3l78 404h412l-22 -151h-265l-18 -88q27 7 74 7q95 0 149.5 -43.5t54.5 -134.5q0 -64 -20.5 -115t-51.5 -81t-72.5 -49.5t-78.5 -26.5t-74 -7z" />
    <glyph glyph-name="six" unicode="6" horiz-adv-x="603" 
d="M375 453q191 0 191 -204q0 -108 -75 -187t-206 -79q-121 0 -184.5 68t-63.5 194q0 211 113 325.5t291 114.5q91 0 136 -15l-21 -150l-4 -2q-55 15 -125 15q-144 0 -192 -131q59 51 140 51zM294 136q49 0 71.5 27t22.5 69q0 30 -17 49.5t-53 19.5q-78 0 -104 -86
q6 -36 26.5 -57.5t53.5 -21.5z" />
    <glyph glyph-name="seven" unicode="7" horiz-adv-x="522" 
d="M38 0l282 500h-261l23 169h450l16 -96l-318 -573h-192z" />
    <glyph glyph-name="eight" unicode="8" horiz-adv-x="598" 
d="M464 354q86 -55 86 -140q0 -101 -77 -165.5t-213 -64.5q-116 0 -176 44.5t-60 123.5q0 119 121 194q-59 56 -59 130q0 99 77.5 154t186.5 55q97 0 164 -41t67 -127q0 -97 -117 -163zM340 536q-73 0 -73 -50q0 -36 73 -70q68 31 68 76q0 44 -68 44zM289 125q42 0 65 16
t23 43q0 24 -20 41.5t-73 39.5q-18 8 -26 11q-59 -37 -59 -92q0 -59 90 -59z" />
    <glyph glyph-name="nine" unicode="9" horiz-adv-x="607" 
d="M360 686q108 0 167 -70t59 -199q0 -212 -96.5 -322.5t-266.5 -110.5q-119 0 -180 27l24 160l5 3q64 -34 153 -34q72 0 112.5 31t57.5 93q-62 -44 -144 -44q-86 0 -140 49t-54 137q0 123 79.5 201.5t223.5 78.5zM307 368q59 0 102 30v7q0 125 -79 125q-42 0 -66 -28
t-24 -68q0 -30 16.5 -48t50.5 -18z" />
    <glyph glyph-name="colon" unicode=":" horiz-adv-x="301" 
d="M164 351q-43 0 -67 23t-24 59q0 43 27 72t80 29q43 0 66.5 -24t23.5 -60q0 -43 -26.5 -71t-79.5 -28zM115 -15q-43 0 -67 23t-24 59q0 43 27 72t80 29q43 0 66.5 -23.5t23.5 -59.5q0 -43 -27 -71.5t-79 -28.5z" />
    <glyph glyph-name="semicolon" unicode=";" horiz-adv-x="291" 
d="M164 349q-43 0 -65.5 22.5t-22.5 59.5q0 41 27 71t72 30q43 0 65.5 -22.5t22.5 -59.5q0 -41 -27 -71t-72 -30zM-6 -150q33 96 46 193q5 40 8 95l143 15l18 -26q-10 -73 -41 -148.5t-71 -128.5h-103z" />
    <glyph glyph-name="less" unicode="&#x3c;" horiz-adv-x="488" 
d="M182 303l23 -11l229 -153l-75 -110l-333 216l16 113l394 217l46 -109l-275 -153z" />
    <glyph glyph-name="equal" unicode="=" horiz-adv-x="603" 
d="M68 346l17 121h491l-17 -121h-491zM35 116l16 121h492l-17 -121h-491z" />
    <glyph glyph-name="greater" unicode="&#x3e;" horiz-adv-x="488" 
d="M138 575l336 -217l-17 -112l-395 -218l-45 110l276 153l24 10l-23 10l-229 153z" />
    <glyph glyph-name="question" unicode="?" horiz-adv-x="444" 
d="M85 224q6 66 33.5 109.5t84.5 82.5q36 24 49.5 40.5t13.5 39.5q0 52 -66 52q-65 0 -119 -28l-2 1l22 159q65 27 149 27q87 0 145.5 -42.5t58.5 -125.5q0 -72 -31.5 -116t-101.5 -92q-43 -30 -57 -53t-19 -52zM144 -15q-44 0 -68 22.5t-24 59.5q0 41 28.5 71t74.5 30
q44 0 68 -22.5t24 -59.5q0 -41 -28.5 -71t-74.5 -30z" />
    <glyph glyph-name="at" unicode="@" horiz-adv-x="825" 
d="M597 247l-4 -36q-3 -18 10 -18q4 0 9.5 2.5t13 12t13.5 25t10.5 43.5t4.5 65q0 86 -52 130t-139 44q-133 0 -209.5 -83t-76.5 -211q0 -103 58 -162t151 -59q98 0 163 47h5l54 -104q-91 -72 -241 -72q-157 0 -249 91t-92 244q0 189 124.5 314t328.5 125q145 0 236 -79
t91 -218q0 -49 -12.5 -95t-39 -88.5t-74.5 -68.5t-111 -26q-80 0 -103 54q-32 -60 -107 -60q-64 0 -101 44.5t-37 118.5q0 102 59.5 162.5t146.5 60.5q49 0 83 -24l5 14h110zM411 187q12 0 25.5 8.5t20.5 22.5l9 58l7 46q-15 14 -41 14q-29 0 -49.5 -25t-20.5 -67
q0 -57 49 -57z" />
    <glyph glyph-name="A" unicode="A" horiz-adv-x="634" 
d="M419 0l-19 74h-225l-38 -74h-184l376 670h84l198 -670h-192zM239 199h128l-32 124l-10 52l-23 -52z" />
    <glyph glyph-name="B" unicode="B" horiz-adv-x="601" 
d="M485 364q78 -40 78 -138q0 -107 -77.5 -166.5t-202.5 -59.5h-253l94 663q78 8 206 8q235 0 235 -155q0 -103 -80 -152zM322 526q-19 0 -38 -1l-18 -124h41q83 0 83 72q0 28 -16 40.5t-52 12.5zM289 135q94 0 94 82q0 59 -65 59h-70l-20 -141h61z" />
    <glyph glyph-name="C" unicode="C" horiz-adv-x="581" 
d="M352 -12q-146 0 -230 78t-84 222q0 180 112.5 285.5t285.5 105.5q87 0 153 -21l-23 -173l-4 -2q-53 29 -124 29q-97 0 -150.5 -56t-53.5 -147q0 -154 168 -154q61 0 118 24l4 -2l-22 -167q-66 -22 -150 -22z" />
    <glyph glyph-name="D" unicode="D" horiz-adv-x="709" 
d="M354 673q167 0 251 -73.5t84 -206.5q0 -185 -115.5 -290.5t-306.5 -105.5q-214 2 -237 3l92 663q94 10 232 10zM310 161q87 0 137 55t50 148q0 72 -39.5 107t-103.5 35q-42 0 -70 -4l-47 -339q26 -2 73 -2z" />
    <glyph glyph-name="E" unicode="E" horiz-adv-x="554" 
d="M537 516h-249l-15 -106h229l-20 -144h-230l-17 -118h256l-20 -148h-441l94 663h434z" />
    <glyph glyph-name="F" unicode="F" horiz-adv-x="523" 
d="M526 497h-240l-17 -116h205l-22 -163h-206l-31 -218h-185l94 663h426z" />
    <glyph glyph-name="G" unicode="G" horiz-adv-x="654" 
d="M350 -11q-140 0 -225.5 75t-85.5 214q0 187 113.5 297t301.5 110q117 0 185 -30l-25 -169l-4 -2q-62 34 -163 34t-158 -58t-57 -158q0 -71 38 -109t110 -38q27 0 55 5l19 143h160l-39 -281q-109 -33 -225 -33z" />
    <glyph glyph-name="H" unicode="H" horiz-adv-x="729" 
d="M532 663h185l-95 -663h-184l36 253h-223l-36 -253h-185l94 663h185l-34 -242h223z" />
    <glyph glyph-name="I" unicode="I" horiz-adv-x="323" 
d="M30 0l89 663h187l-90 -663h-186z" />
    <glyph glyph-name="J" unicode="J" horiz-adv-x="390" 
d="M37 -3q-32 0 -61 4l23 155l4 2q15 -3 29 -3q95 0 114 129l55 379h186l-52 -360q-23 -155 -96.5 -230.5t-201.5 -75.5z" />
    <glyph glyph-name="K" unicode="K" horiz-adv-x="676" 
d="M726 659l-304 -322l227 -333l-2 -4h-220l-174 265l-38 -265h-185l94 663h185l-37 -258l241 258h211z" />
    <glyph glyph-name="L" unicode="L" horiz-adv-x="496" 
d="M236 153h233l-21 -153h-418l94 663h185z" />
    <glyph glyph-name="M" unicode="M" horiz-adv-x="816" 
d="M672 668h101l-39 -668h-175l23 276h-2l-177 -273h-62l-96 277h-3l-63 -280h-173l152 668h107l149 -390z" />
    <glyph glyph-name="N" unicode="N" horiz-adv-x="717" 
d="M30 0l95 669h83l272 -323h3l46 323h177l-96 -669h-81l-269 334h-3l-50 -334h-177z" />
    <glyph glyph-name="O" unicode="O" horiz-adv-x="751" 
d="M363 -12q-87 0 -159.5 33.5t-119 106t-46.5 171.5q0 166 102.5 273t266.5 107q65 0 122.5 -20t103 -58t72.5 -99t27 -137q0 -165 -103 -271t-266 -106zM372 155q76 0 120.5 54.5t44.5 147.5q0 73 -36.5 114t-102.5 41q-75 0 -120 -55t-45 -150q0 -72 36 -112t103 -40z
" />
    <glyph glyph-name="P" unicode="P" horiz-adv-x="599" 
d="M349 677q258 -2 258 -199q0 -141 -85.5 -214.5t-214.5 -73.5q-32 0 -65 3l-28 -193h-184l94 663q118 15 225 14zM305 343q113 0 113 105q0 35 -22 53t-57 18q-31 0 -51 -3l-25 -171q34 -2 42 -2z" />
    <glyph glyph-name="Q" unicode="Q" horiz-adv-x="727" 
d="M827 -70l2 -4l-28 -153q-60 0 -130 21.5t-127.5 47t-145.5 47t-179 21.5v166q133 7 214.5 84t81.5 189q0 163 -143 163q-60 0 -95.5 -37.5t-35.5 -92.5q0 -94 94 -94q32 0 63 12l4 -1v-149q-50 -18 -108 -18q-105 0 -173.5 59t-68.5 171q0 135 91 226t240 91
q141 0 233.5 -81t92.5 -233q0 -107 -59.5 -204t-164.5 -144q72 -9 163.5 -41.5t178.5 -45.5z" />
    <glyph glyph-name="R" unicode="R" horiz-adv-x="630" 
d="M606 482q0 -186 -151 -251l109 -227l-2 -4h-195l-91 208h-33l-29 -208h-184l95 663q94 14 221 14q53 0 97 -9t82 -30t59.5 -61t21.5 -95zM339 519q-27 0 -52 -3l-24 -171h48q47 0 76.5 28t29.5 75q0 35 -21.5 53t-56.5 18z" />
    <glyph glyph-name="S" unicode="S" horiz-adv-x="518" 
d="M205 -11q-111 0 -194 44l26 166l4 1q72 -57 165 -57q80 0 80 52q0 22 -17 39t-65 44q-60 32 -94.5 73.5t-34.5 104.5q0 75 39.5 127t99 74.5t132.5 22.5q101 0 169 -29l-21 -156l-4 -2q-58 29 -137 31q-91 1 -91 -42q0 -8 4 -15t18.5 -17t24.5 -15.5t40 -22.5
q58 -31 91.5 -73t33.5 -108q0 -110 -74.5 -176t-194.5 -66z" />
    <glyph glyph-name="T" unicode="T" horiz-adv-x="591" 
d="M637 663l-24 -166h-187l-70 -497h-187l72 497h-195l24 166h567z" />
    <glyph glyph-name="U" unicode="U" horiz-adv-x="701" 
d="M311 -13q-124 0 -188.5 56.5t-64.5 164.5q0 36 4 64l55 391h185l-53 -368q-5 -30 -5 -65q0 -41 24 -63.5t69 -22.5q62 0 89.5 36t38.5 115l52 368h180l-56 -391q-20 -135 -106 -210t-224 -75z" />
    <glyph glyph-name="V" unicode="V" horiz-adv-x="628" 
d="M692 663l2 -4l-363 -659h-120l-157 659l2 4h195l56 -349l8 -62l24 62l171 349h182z" />
    <glyph glyph-name="W" unicode="W" horiz-adv-x="936" 
d="M992 663l2 -4l-296 -659h-141l-62 338l-4 42l-18 -42l-157 -338h-146l-120 659l2 4h196l35 -350l3 -58l22 58l153 343h137l56 -324l6 -69l24 69l131 331h177z" />
    <glyph glyph-name="X" unicode="X" horiz-adv-x="665" 
d="M700 659l-248 -320l170 -335l-2 -4h-209l-93 206l-148 -206h-201l-2 4l257 339l-160 316l2 4h212l82 -189l136 189h202z" />
    <glyph glyph-name="Y" unicode="Y" horiz-adv-x="613" 
d="M178 0l37 258l-165 401l2 4h200l80 -237l152 237h187l2 -4l-276 -414l-35 -245h-184z" />
    <glyph glyph-name="Z" unicode="Z" horiz-adv-x="598" 
d="M17 0l-7 63l330 449h-269l19 151h507l4 -63l-337 -448h285l-21 -152h-511z" />
    <glyph glyph-name="bracketleft" unicode="[" horiz-adv-x="362" 
d="M381 639h-103l-95 -661h103l-20 -135h-260l133 930h261z" />
    <glyph glyph-name="backslash" unicode="\" horiz-adv-x="514" 
d="M436 -123h-165l-178 881h165z" />
    <glyph glyph-name="bracketright" unicode="]" horiz-adv-x="362" 
d="M107 774h261l-134 -930h-260l19 134h102l95 661h-102z" />
    <glyph glyph-name="asciicircum" unicode="^" horiz-adv-x="544" 
d="M389 701l138 -377l-126 -53l-80 254l-7 25l-14 -25l-153 -254l-113 53l244 377h111z" />
    <glyph glyph-name="underscore" unicode="_" horiz-adv-x="542" 
d="M-8 -145l21 145h440l-20 -145h-441z" />
    <glyph glyph-name="grave" unicode="`" horiz-adv-x="276" 
d="M292 563l-257 100l-8 20l95 135l219 -155z" />
    <glyph glyph-name="a" unicode="a" horiz-adv-x="576" 
d="M537 170l4 -2l-23 -157q-44 -18 -97 -18q-97 0 -111 71q-63 -77 -155 -77q-74 0 -112 38.5t-38 99.5q0 92 65.5 134.5t163.5 42.5q53 0 86 -11q3 11 3 22q0 36 -22 53t-76 17q-79 0 -132 -30l-4 2l18 143q24 14 74.5 26t106.5 12q223 0 223 -190q0 -29 -4 -54l-13 -92
q-2 -14 -2 -19q0 -19 19 -19q16 0 26 8zM232 119q25 0 44 12t26 29l5 38q-19 5 -49 5q-70 0 -70 -46q0 -38 44 -38z" />
    <glyph glyph-name="b" unicode="b" horiz-adv-x="621" 
d="M404 536q85 0 137 -59.5t52 -159.5q0 -150 -82 -240.5t-233 -90.5q-154 0 -256 49l96 682h188l-32 -222q47 41 130 41zM293 144q46 0 75.5 37t29.5 103q0 44 -20.5 64t-52.5 20q-25 0 -47 -13.5t-30 -42.5l-23 -155q29 -13 68 -13z" />
    <glyph glyph-name="c" unicode="c" horiz-adv-x="474" 
d="M277 -14q-111 0 -181 61t-70 171q0 146 89.5 232t228.5 86q69 0 125 -18l-21 -157l-4 -2q-47 19 -104 19q-60 0 -91.5 -40t-31.5 -99q0 -95 100 -95q43 0 101 29l4 -2l-21 -163q-55 -22 -124 -22z" />
    <glyph glyph-name="d" unicode="d" horiz-adv-x="623" 
d="M444 717h186l-102 -717h-151l-6 58q-51 -72 -154 -72q-79 0 -136 58.5t-57 162.5q0 153 82.5 241t209.5 88q56 0 99 -19zM295 154q27 0 48.5 16t27.5 46l21 141q-29 21 -67 21q-45 0 -75 -38.5t-30 -103.5q0 -42 20.5 -62t54.5 -20z" />
    <glyph glyph-name="e" unicode="e" horiz-adv-x="573" 
d="M549 331q0 -51 -16 -120l-317 -1q15 -78 112 -78q78 0 162 35l4 -2l-20 -140q-75 -39 -192 -39q-50 0 -93.5 12.5t-81 39.5t-59.5 76t-22 115q0 136 85 221.5t216 85.5q100 0 161 -53t61 -152zM307 387q-61 0 -85 -79l149 -1v11q0 69 -64 69z" />
    <glyph glyph-name="f" unicode="f" horiz-adv-x="387" 
d="M380 725q52 0 81 -9l-22 -162l-2 -1q-18 7 -48 7q-65 0 -76 -75h87l-19 -145h-89l-74 -505h-186l74 505h-68l19 145h70v1q16 112 85.5 175.5t167.5 63.5z" />
    <glyph glyph-name="g" unicode="g" horiz-adv-x="590" 
d="M601 521l-16 -123h-76q14 -20 14 -50q0 -71 -66 -116.5t-190 -45.5q-34 0 -58 4q-9 -7 -9 -18q0 -14 25.5 -20t110.5 -12q97 -7 146 -37.5t49 -95.5q0 -90 -81.5 -136t-233.5 -46q-236 0 -236 110q0 60 76 111q-34 26 -34 64q0 69 90 112q-63 38 -63 111q0 86 75.5 137
t202.5 51h274zM350 357q0 41 -52 41q-32 0 -49.5 -13t-17.5 -36q0 -41 53 -41q32 0 49 13t17 36zM352 -32q0 17 -19 23t-82 9q-32 1 -79 7q-21 -18 -21 -36q0 -19 22 -26.5t74 -7.5q105 0 105 31z" />
    <glyph glyph-name="h" unicode="h" horiz-adv-x="621" 
d="M418 536q75 0 118.5 -46t43.5 -124q0 -22 -4 -50l-45 -316h-186l38 278q1 5 1 15q0 31 -17 47.5t-45 16.5q-61 0 -75 -60l-42 -297h-186l102 717h186l-34 -236q55 55 145 55z" />
    <glyph glyph-name="i" unicode="i" horiz-adv-x="300" 
d="M202 578q-44 0 -72.5 28.5t-28.5 71.5q0 51 34 83t81 32q44 0 72.5 -28.5t28.5 -71.5q0 -51 -34 -83t-81 -32zM19 0l74 521h186l-74 -521h-186z" />
    <glyph glyph-name="j" unicode="j" horiz-adv-x="318" 
d="M220 578q-44 0 -72.5 28.5t-28.5 71.5q0 51 34 83t81 32q44 0 72.5 -28.5t28.5 -71.5q0 -51 -34 -83t-81 -32zM-20 -172q-34 0 -81 7l23 160l4 2q16 -4 36 -4q41 0 61 23t26 67l63 438h185l-68 -482q-15 -106 -81 -158.5t-168 -52.5z" />
    <glyph glyph-name="k" unicode="k" horiz-adv-x="598" 
d="M615 517l-223 -248l161 -265l-2 -4h-205l-113 194l-28 -194h-186l102 717h186l-52 -368l145 172h213z" />
    <glyph glyph-name="l" unicode="l" horiz-adv-x="339" 
d="M204 -11q-85 0 -131.5 45.5t-32.5 144.5l77 538h185l-71 -494q-11 -69 44 -69q14 0 29 4l4 -2l-22 -157q-43 -10 -82 -10z" />
    <glyph glyph-name="m" unicode="m" horiz-adv-x="928" 
d="M734 536q72 0 114 -46t42 -124q0 -20 -3 -44l-46 -322h-186l37 270q2 18 2 33q0 25 -15 39.5t-39 14.5q-60 0 -74 -58l-43 -299h-186l37 270q2 18 2 33q0 25 -15 39.5t-39 14.5q-61 0 -75 -59l-42 -298h-186l74 521h151l7 -68q55 83 166 83q53 0 90 -25.5t53 -71.5
q55 97 174 97z" />
    <glyph glyph-name="n" unicode="n" horiz-adv-x="621" 
d="M419 536q75 0 118.5 -46t43.5 -124q0 -33 -4 -60l-45 -306h-186l37 270q2 18 2 23q1 31 -16 47.5t-46 16.5q-59 0 -75 -60l-42 -297h-187l74 521h152l7 -68q57 83 167 83z" />
    <glyph glyph-name="o" unicode="o" horiz-adv-x="618" 
d="M287 -13q-111 0 -184.5 61.5t-73.5 183.5q0 133 83.5 218t219.5 85q111 0 184 -61t73 -185q0 -132 -83 -217t-219 -85zM300 144q48 0 73 41.5t25 97.5q0 44 -20 69t-59 25q-50 0 -74.5 -40.5t-24.5 -98.5q0 -94 80 -94z" />
    <glyph glyph-name="p" unicode="p" horiz-adv-x="622" 
d="M404 536q89 0 139.5 -60.5t50.5 -162.5q0 -147 -84.5 -237t-221.5 -90q-50 0 -84 11l-23 -162h-186l98 686h151l5 -54q59 69 155 69zM291 144q49 0 78.5 37t29.5 101q0 45 -20.5 65.5t-51.5 20.5q-27 0 -48 -14t-30 -39l-22 -158q26 -13 64 -13z" />
    <glyph glyph-name="q" unicode="q" horiz-adv-x="620" 
d="M449 521h151l-98 -686h-186l27 191q-45 -40 -121 -40q-91 0 -144 61t-53 169q0 143 80 231.5t199 88.5q87 0 137 -35zM299 154q22 0 41.5 13t28.5 34l22 155q-30 22 -66 22q-47 0 -76 -38.5t-29 -101.5q0 -41 20.5 -62.5t58.5 -21.5z" />
    <glyph glyph-name="r" unicode="r" horiz-adv-x="423" 
d="M390 534q27 0 52 -8l-26 -172l-4 -2q-22 8 -50 8q-97 0 -121 -103l-36 -257h-186l74 521h151l7 -70q23 42 60.5 62.5t78.5 20.5z" />
    <glyph glyph-name="s" unicode="s" horiz-adv-x="488" 
d="M194 -14q-106 0 -189 38l21 143l4 2q73 -55 177 -55q58 0 58 35q0 14 -17 24.5t-72 28.5q-124 40 -124 141q0 89 68 141t191 52q98 0 158 -27l-20 -145l-4 -2q-52 30 -146 30q-67 0 -67 -28q0 -13 14.5 -20.5t75.5 -27.5q64 -21 92.5 -53.5t28.5 -82.5q0 -90 -66.5 -142
t-182.5 -52z" />
    <glyph glyph-name="t" unicode="t" horiz-adv-x="435" 
d="M290 376l-16 -111q-7 -56 -7 -63q0 -44 60 -44q25 0 59 12l2 -1l-21 -156q-39 -20 -103 -20q-90 0 -139.5 41.5t-49.5 120.5q0 20 3 44l25 177h-77l21 145h77l17 121l190 35l1 -3l-22 -153h128l-18 -145h-130z" />
    <glyph glyph-name="u" unicode="u" horiz-adv-x="611" 
d="M405 521h186l-75 -521h-151l-7 72q-65 -85 -177 -85q-66 0 -105.5 37t-39.5 98q0 30 3 51l50 348h186l-42 -292q-3 -24 -3 -34q-2 -50 50 -50t77 46z" />
    <glyph glyph-name="v" unicode="v" horiz-adv-x="557" 
d="M594 521l2 -4l-287 -517h-142l-132 517l2 4h202l42 -263l123 263h190z" />
    <glyph glyph-name="w" unicode="w" horiz-adv-x="790" 
d="M823 521l2 -4l-237 -517h-134l-43 295l-2 30l-9 -30l-131 -295h-136l-97 517l1 4h187l23 -252v-37l10 36l104 253h153l31 -251l3 -34l9 34l93 251h173z" />
    <glyph glyph-name="x" unicode="x" horiz-adv-x="558" 
d="M578 517l-194 -249l135 -264l-2 -4h-207l-57 133l-96 -133h-191l-2 4l203 252l-131 261l2 4h208l52 -128l88 128h190z" />
    <glyph glyph-name="y" unicode="y" horiz-adv-x="536" 
d="M574 517l-217 -418l-31 -61q-61 -120 -116.5 -165t-151.5 -45q-42 0 -70 11l21 149l4 2q16 -6 40 -6q83 0 114 70l-131 463l2 4h197l45 -247l104 247h188z" />
    <glyph glyph-name="z" unicode="z" horiz-adv-x="519" 
d="M497 423l-245 -279h227l-21 -144h-437l-7 92l238 280h-199l18 149h420z" />
    <glyph glyph-name="braceleft" unicode="{" horiz-adv-x="392" 
d="M369 795h62l-19 -137h-39q-49 0 -56 -42l-26 -175q-8 -56 -46.5 -92t-73.5 -36l-2 -9q35 0 64 -36.5t21 -92.5l-26 -175q-3 -22 9 -31.5t35 -9.5h39l-19 -137h-61q-86 0 -129 45.5t-32 123.5l21 144q7 48 -17 74.5t-48 26.5l22 152q23 0 54.5 24t37.5 69l20 145
q11 78 66.5 123.5t142.5 45.5z" />
    <glyph glyph-name="bar" unicode="|" horiz-adv-x="301" 
d="M12 -116l120 849h168l-120 -849h-168z" />
    <glyph glyph-name="braceright" unicode="}" horiz-adv-x="392" 
d="M376 380l-21 -152q-23 0 -53.5 -24t-37.5 -68l-22 -145q-12 -78 -67 -123.5t-141 -45.5h-62l19 137h39q52 0 57 40l25 177q8 56 46 92t74 36l2 9q-36 0 -64.5 36t-20.5 93l26 175q3 22 -9 31.5t-35 9.5h-39l20 137h61q86 0 128.5 -46t31.5 -124l-20 -144
q-7 -48 16.5 -74.5t46.5 -26.5z" />
    <glyph glyph-name="asciitilde" unicode="~" horiz-adv-x="545" 
d="M148 215l-100 14q9 66 51 107.5t100 41.5q43 0 93 -17t78 -17q34 0 41 36l6 3l91 -19q-8 -63 -49 -103t-100 -40q-33 0 -86 17t-76 17q-39 0 -46 -37z" />
    <glyph glyph-name="exclamdown" unicode="&#xa1;" horiz-adv-x="293" 
d="M168 354q-44 0 -67 22.5t-23 59.5q0 41 28 71t73 30q44 0 67 -22.5t23 -59.5q0 -41 -28 -71t-73 -30zM-9 -183l77 463h158l-53 -463h-182z" />
    <glyph glyph-name="cent" unicode="&#xa2;" horiz-adv-x="511" 
d="M433 610q41 -4 78 -18l-23 -155l-6 -4q-56 22 -103 22q-69 0 -106 -38t-37 -103q0 -48 27.5 -76.5t79.5 -28.5q49 0 110 23l5 -4l-22 -158q-42 -13 -83 -17l-14 -96h-174l16 112q-69 24 -106.5 79t-37.5 136q0 119 58.5 201t161.5 112l15 111h174z" />
    <glyph glyph-name="sterling" unicode="&#xa3;" horiz-adv-x="572" 
d="M415 683q87 0 159 -22l-22 -154l-7 -3q-59 28 -122 28q-48 0 -75.5 -21.5t-34.5 -73.5q-2 -10 -4 -32h146l-20 -151h-145q-10 -48 -33 -101h256l-22 -153h-472l-4 8q67 109 92 246h-68l21 151h66l3 25q8 69 34.5 119t66 78.5t85.5 42t100 13.5z" />
    <glyph glyph-name="currency" unicode="&#xa4;" horiz-adv-x="700" 
d="M612 371q0 -79 -39 -147l75 -90l-140 -122l-71 86q-47 -21 -96 -21q-66 0 -118 27l-102 -92l-105 122l102 92q-13 36 -13 81q0 82 41 151l-73 85l140 123l71 -85q48 20 96 20q66 0 117 -28l103 93l105 -123l-105 -94q12 -37 12 -78zM263 323q0 -40 21.5 -65.5t63.5 -25.5
q48 0 77.5 36t29.5 87q0 40 -21 65.5t-62 25.5q-49 0 -79 -36t-30 -87z" />
    <glyph glyph-name="yen" unicode="&#xa5;" horiz-adv-x="702" 
d="M678 670l-204 -365h102v-199h-131v-106h-184v106h-129v199h100l-208 365h204l130 -268l127 268h193z" />
    <glyph glyph-name="brokenbar" unicode="&#xa6;" horiz-adv-x="308" 
d="M90 405l46 328h168l-46 -328h-168zM16 -116l47 329h168l-47 -329h-168z" />
    <glyph glyph-name="section" unicode="&#xa7;" horiz-adv-x="547" 
d="M519 306q0 -91 -89 -162q29 -33 29 -79q0 -94 -79 -155.5t-192 -61.5q-104 0 -172 34l23 155l5 2q24 -15 66.5 -28.5t87.5 -13.5q67 0 67 38q0 14 -17.5 24.5t-79.5 36.5q-69 29 -101.5 60.5t-32.5 88.5q0 98 95 161q-36 37 -36 90q0 95 77.5 153t191.5 58q89 0 153 -22
l-21 -154l-5 -2q-50 27 -128 27q-79 0 -79 -41q0 -14 17.5 -24.5t75.5 -31.5q71 -26 107.5 -61.5t36.5 -91.5zM195 294q0 -19 19.5 -34t76.5 -37q31 -12 49 -21q17 25 17 51q0 19 -21 36t-84 43q-5 2 -12.5 5.5t-13.5 6t-11 5.5q-20 -29 -20 -55z" />
    <glyph glyph-name="dieresis" unicode="&#xa8;" horiz-adv-x="450" 
d="M155 583q-42 0 -69 27t-27 68q0 49 32 79t77 30q42 0 69 -27t27 -68q0 -48 -32.5 -78.5t-76.5 -30.5zM391 583q-42 0 -69 27t-27 68q0 49 32 79t77 30q42 0 69 -27t27 -68q0 -48 -32.5 -78.5t-76.5 -30.5z" />
    <glyph glyph-name="copyright" unicode="&#xa9;" horiz-adv-x="668" 
d="M294 -20q-123 0 -192 73.5t-69 189.5q0 145 97.5 246.5t252.5 101.5q121 0 189.5 -74t68.5 -189q0 -145 -97 -246.5t-250 -101.5zM307 77q109 0 166 70.5t57 172.5q0 78 -42.5 126t-119.5 48q-100 0 -161.5 -69t-61.5 -172q0 -79 42 -127.5t120 -48.5zM340 131
q-64 0 -105.5 34t-41.5 95q0 81 54 130t134 49q44 0 70 -13l-14 -99l-4 -2q-20 9 -47 9q-29 0 -44 -16t-15 -43q0 -20 13 -31.5t34 -11.5q32 0 47 9l3 -2l-14 -100q-26 -8 -70 -8z" />
    <glyph glyph-name="ordfeminine" unicode="&#xaa;" horiz-adv-x="465" 
d="M453 470l2 -1l-16 -114q-26 -11 -71 -11q-61 0 -76 52q-52 -57 -116 -57q-59 0 -88.5 29.5t-29.5 77.5q0 69 47 102t119 33q44 0 78 -9q1 28 -15 41t-50 13q-67 0 -117 -20l-2 2l15 109q54 26 145 26q183 0 155 -180l-11 -72q-4 -24 13 -24q11 0 18 3zM229 438
q33 0 57 27l4 25q-28 6 -43 6q-47 0 -47 -32q0 -26 29 -26z" />
    <glyph glyph-name="guillemotleft" unicode="&#xab;" horiz-adv-x="585" 
d="M186 93l-79 206l133 193h171l-2 -14l-132 -189l76 -186l-2 -10h-165zM429 93l-79 206l133 193h171l-2 -14l-132 -189l76 -186l-2 -10h-165z" />
    <glyph glyph-name="registered" unicode="&#xae;" horiz-adv-x="640" 
d="M392 757q114 0 178 -69.5t64 -176.5q0 -136 -90.5 -231.5t-233.5 -95.5q-116 0 -181.5 69.5t-65.5 177.5q0 136 91.5 231t237.5 95zM320 278q103 0 155 64.5t52 160.5q0 72 -39.5 116.5t-111.5 44.5q-92 0 -149 -64t-57 -158q0 -60 27 -101l38 266q62 3 124 3
q52 0 89.5 -22t37.5 -71q0 -72 -52 -102l35 -78h-114l-25 58h-19l-8 -58h-104q40 -59 121 -59zM337 464q17 0 27 10.5t10 27.5q0 26 -28 26q-10 0 -16 -1l-9 -63h16z" />
    <glyph glyph-name="macron" unicode="&#xaf;" horiz-adv-x="356" 
d="M73 611l16 108h308l-16 -108h-308z" />
    <glyph glyph-name="degree" unicode="&#xb0;" horiz-adv-x="376" 
d="M226 364q-68 0 -113.5 44t-45.5 111t45.5 111t113.5 44q67 0 112.5 -44.5t45.5 -110.5t-45.5 -110.5t-112.5 -44.5zM226 463q23 0 36.5 16t13.5 40t-13.5 40t-36.5 16t-37 -16t-14 -40t14 -40t37 -16z" />
    <glyph glyph-name="plusminus" unicode="&#xb1;" horiz-adv-x="563" 
d="M521 255h-181l-19 -133h170l-17 -121h-461l17 121h170l20 133h-180l17 118h180l24 170h120l-24 -170h181z" />
    <glyph glyph-name="acute" unicode="&#xb4;" horiz-adv-x="275" 
d="M92 559l-52 99l213 162l100 -132l-7 -20z" />
    <glyph glyph-name="paragraph" unicode="&#xb6;" horiz-adv-x="624" 
d="M624 607l-23 -165h-59l-79 -555h-42l79 555h-54l-79 -555h-176l42 301q-88 0 -139 41.5t-51 127.5q0 125 81 187.5t198 62.5h302z" />
    <glyph glyph-name="periodcentered" unicode="&#xb7;" horiz-adv-x="284" 
d="M130 151q-44 0 -67 22.5t-23 58.5q0 43 29 72t82 29q42 0 64 -23t22 -58q0 -44 -27.5 -72.5t-79.5 -28.5z" />
    <glyph glyph-name="cedilla" unicode="&#xb8;" horiz-adv-x="220" 
d="M3 -247q-40 0 -65 7l10 71l3 1q20 -7 37 -7q55 0 55 40q0 26 -34 26q-15 0 -31 -2l-2 1l9 65l39 46h95l-41 -42q10 0 16 -1q80 -9 80 -81q0 -67 -48.5 -95.5t-122.5 -28.5z" />
    <glyph glyph-name="ordmasculine" unicode="&#xba;" horiz-adv-x="489" 
d="M262 330q-86 0 -140.5 46t-54.5 135q0 110 68.5 176.5t168.5 66.5q86 0 141.5 -47.5t55.5 -138.5q0 -109 -68 -173.5t-171 -64.5zM274 463q33 0 51 28t18 67q0 62 -45 62q-33 0 -51.5 -29.5t-18.5 -69.5q0 -58 46 -58z" />
    <glyph glyph-name="guillemotright" unicode="&#xbb;" horiz-adv-x="586" 
d="M236 492l79 -206l-133 -193h-171l2 14l132 189l-76 186l2 10h165zM486 492l79 -206l-133 -193h-171l2 14l132 189l-76 186l2 10h165z" />
    <glyph glyph-name="onequarter" unicode="&#xbc;" horiz-adv-x="734" 
d="M106 303l31 205l-74 -16l18 131l196 55h12l-54 -375h-129zM532 669h132l-479 -680h-130zM684 372l-34 -242h34l-12 -81h-34l-7 -49h-117l7 49h-177l9 58l221 265h110zM479 130h54l14 90z" />
    <glyph glyph-name="onehalf" unicode="&#xbd;" horiz-adv-x="765" 
d="M105 303l31 205l-74 -16l18 131l196 55h12l-54 -375h-129zM43 -11l477 680h132l-479 -680h-130zM388 0q16 108 124 183q50 35 62 46t12 24q0 15 -27 15q-70 0 -128 -35l-1 1l16 109q63 34 139 34q59 0 99.5 -23.5t40.5 -74.5q0 -48 -22 -76.5t-75 -62.5q-42 -27 -45 -39
h125l-14 -101h-306z" />
    <glyph glyph-name="threequarters" unicode="&#xbe;" horiz-adv-x="759" 
d="M349 436q0 -64 -51 -103t-136 -39q-70 0 -114 18l14 99l1 1q38 -18 96 -18q73 0 73 35q0 20 -31 20h-86l13 85h74q33 0 33 24q0 21 -51 21q-64 0 -94 -13l-2 1l14 100q60 13 117 13q141 0 141 -90q0 -54 -47 -88q36 -23 36 -66zM580 669h132l-479 -680h-130zM600 372h110
l-34 -242h34l-12 -81h-34l-7 -49h-117l7 49h-177l9 58zM505 130h54l14 90z" />
    <glyph glyph-name="questiondown" unicode="&#xbf;" horiz-adv-x="439" 
d="M371 540q44 0 68 -22.5t24 -59.5q0 -41 -28.5 -71t-74.5 -30q-44 0 -68 22.5t-24 59.5q0 41 28.5 71t74.5 30zM430 301q-6 -66 -33.5 -109.5t-84.5 -82.5q-36 -24 -49.5 -40.5t-13.5 -39.5q0 -52 66 -52q65 0 119 28l2 -1l-22 -159q-65 -27 -149 -27q-87 0 -145.5 42.5
t-58.5 125.5q0 72 31.5 116t101.5 92q43 30 57 53t19 52z" />
    <glyph glyph-name="Agrave" unicode="&#xc0;" horiz-adv-x="634" 
d="M477 699l-251 82l-13 18l70 130l229 -143zM419 0l-19 74h-225l-38 -74h-184l376 670h84l198 -670h-192zM239 199h128l-32 124l-10 52l-23 -52z" />
    <glyph glyph-name="Aacute" unicode="&#xc1;" horiz-adv-x="634" 
d="M527 776l-254 -73l-32 88l239 137l60 -134zM419 0l-19 74h-225l-38 -74h-184l376 670h84l198 -670h-192zM239 199h128l-32 124l-10 52l-23 -52z" />
    <glyph glyph-name="Acircumflex" unicode="&#xc2;" horiz-adv-x="634" 
d="M387 786l-130 -77l-50 67l154 143h83l118 -141l-64 -69zM419 0l-19 74h-225l-38 -74h-184l376 670h84l198 -670h-192zM239 199h128l-32 124l-10 52l-23 -52z" />
    <glyph glyph-name="Atilde" unicode="&#xc3;" horiz-adv-x="634" 
d="M287 715l-3 -2l-98 29q8 60 45 101.5t84 41.5q40 0 81 -15.5t59 -15.5q13 0 25 10t14 24l3 2l99 -28q-8 -62 -44.5 -102t-83.5 -40q-33 0 -77.5 14.5t-61.5 14.5q-16 0 -28 -10.5t-14 -23.5zM419 0l-19 74h-225l-38 -74h-184l376 670h84l198 -670h-192zM239 199h128
l-32 124l-10 52l-23 -52z" />
    <glyph glyph-name="Adieresis" unicode="&#xc4;" horiz-adv-x="634" 
d="M259 720q-37 0 -60.5 24t-23.5 60q0 42 28.5 69t67.5 27q37 0 60.5 -24t23.5 -60q0 -42 -28.5 -69t-67.5 -27zM511 720q-37 0 -60.5 24t-23.5 60q0 42 28.5 69t67.5 27q37 0 60.5 -24t23.5 -60q0 -42 -28.5 -69t-67.5 -27zM419 0l-19 74h-225l-38 -74h-184l376 670h84
l198 -670h-192zM239 199h128l-32 124l-10 52l-23 -52z" />
    <glyph glyph-name="Aring" unicode="&#xc5;" horiz-adv-x="634" 
d="M382 695q-55 0 -87.5 30t-32.5 79q0 59 39 95.5t99 36.5q56 0 88.5 -30t32.5 -79q0 -59 -39 -95.5t-100 -36.5zM396 859q-20 0 -33 -13t-13 -36q0 -16 11 -26.5t28 -10.5q20 0 33 13t13 36q0 16 -11 26.5t-28 10.5zM419 0l-19 74h-225l-38 -74h-184l376 670h84l198 -670
h-192zM239 199h128l-32 124l-10 52l-23 -52z" />
    <glyph glyph-name="AE" unicode="&#xc6;" horiz-adv-x="860" 
d="M844 513h-220l-14 -93h200l-20 -148h-201l-18 -122h227l-21 -150h-415l18 123h-169l-80 -123h-187l459 663h463zM295 253h104l30 206l-102 -156z" />
    <glyph glyph-name="Ccedilla" unicode="&#xc7;" horiz-adv-x="581" 
d="M436 679q87 0 153 -21l-23 -173l-4 -2q-53 29 -124 29q-97 0 -150.5 -56t-53.5 -147q0 -154 168 -154q61 0 118 24l4 -2l-22 -167q-59 -19 -129 -22l-29 -29q10 0 16 -1q80 -9 80 -81q0 -67 -48.5 -95.5t-122.5 -28.5q-40 0 -65 7l10 71l3 1q20 -7 37 -7q55 0 55 40
q0 26 -34 26q-15 0 -31 -2l-2 1l9 65l32 38q-116 18 -180.5 93.5t-64.5 201.5q0 180 112.5 285.5t285.5 105.5z" />
    <glyph glyph-name="Egrave" unicode="&#xc8;" horiz-adv-x="554" 
d="M450 693l-251 82l-13 18l70 130l229 -143zM537 516h-249l-15 -106h229l-20 -144h-230l-17 -118h256l-20 -148h-441l94 663h434z" />
    <glyph glyph-name="Eacute" unicode="&#xc9;" horiz-adv-x="554" 
d="M500 770l-254 -73l-32 88l239 137l60 -134zM537 516h-249l-15 -106h229l-20 -144h-230l-17 -118h256l-20 -148h-441l94 663h434z" />
    <glyph glyph-name="Ecircumflex" unicode="&#xca;" horiz-adv-x="554" 
d="M360 780l-130 -77l-50 67l154 143h83l118 -141l-64 -69zM537 516h-249l-15 -106h229l-20 -144h-230l-17 -118h256l-20 -148h-441l94 663h434z" />
    <glyph glyph-name="Edieresis" unicode="&#xcb;" horiz-adv-x="554" 
d="M232 714q-37 0 -60.5 24t-23.5 60q0 42 28.5 69t67.5 27q37 0 60.5 -24t23.5 -60q0 -42 -28.5 -69t-67.5 -27zM484 714q-37 0 -60.5 24t-23.5 60q0 42 28.5 69t67.5 27q37 0 60.5 -24t23.5 -60q0 -42 -28.5 -69t-67.5 -27zM30 0l94 663h434l-21 -147h-249l-15 -106h229
l-20 -144h-230l-17 -118h256l-20 -148h-441z" />
    <glyph glyph-name="Igrave" unicode="&#xcc;" horiz-adv-x="323" 
d="M326 693l-251 82l-13 18l70 130l229 -143zM30 0l89 663h187l-90 -663h-186z" />
    <glyph glyph-name="Iacute" unicode="&#xcd;" horiz-adv-x="323" 
d="M122 697l-32 88l239 137l60 -134l-13 -18zM30 0l89 663h187l-90 -663h-186z" />
    <glyph glyph-name="Icircumflex" unicode="&#xce;" horiz-adv-x="323" 
d="M106 703l-50 67l154 143h83l118 -141l-64 -69l-111 77zM30 0l89 663h187l-90 -663h-186z" />
    <glyph glyph-name="Idieresis" unicode="&#xcf;" horiz-adv-x="323" 
d="M108 714q-37 0 -60.5 24t-23.5 60q0 42 28.5 69t67.5 27q37 0 60.5 -24t23.5 -60q0 -42 -28.5 -69t-67.5 -27zM360 714q-37 0 -60.5 24t-23.5 60q0 42 28.5 69t67.5 27q37 0 60.5 -24t23.5 -60q0 -42 -28.5 -69t-67.5 -27zM30 0l89 663h187l-90 -663h-186z" />
    <glyph glyph-name="Eth" unicode="&#xd0;" horiz-adv-x="709" 
d="M354 673q167 0 251 -73.5t84 -206.5q0 -185 -115.5 -290.5t-306.5 -105.5q-214 2 -237 3l39 282h-78l15 109h78l38 272q94 10 232 10zM310 161q87 0 137 55t50 148q0 72 -39.5 107t-103.5 35q-42 0 -70 -4l-16 -111h85l-15 -109h-85l-16 -119q26 -2 73 -2z" />
    <glyph glyph-name="Ntilde" unicode="&#xd1;" horiz-adv-x="717" 
d="M330 713l-98 29q8 60 45 101.5t84 41.5q40 0 81 -15.5t59 -15.5q13 0 25 10t14 24l3 2l99 -28q-8 -62 -44.5 -102t-83.5 -40q-33 0 -77.5 14.5t-61.5 14.5q-16 0 -28 -10.5t-14 -23.5zM30 0l95 669h83l272 -323h3l46 323h177l-96 -669h-81l-269 334h-3l-50 -334h-177z
" />
    <glyph glyph-name="Ograve" unicode="&#xd2;" horiz-adv-x="751" 
d="M535 700l-251 82l-13 18l70 130l229 -143zM363 -12q-87 0 -159.5 33.5t-119 106t-46.5 171.5q0 166 102.5 273t266.5 107q65 0 122.5 -20t103 -58t72.5 -99t27 -137q0 -165 -103 -271t-266 -106zM372 155q76 0 120.5 54.5t44.5 147.5q0 73 -36.5 114t-102.5 41
q-75 0 -120 -55t-45 -150q0 -72 36 -112t103 -40z" />
    <glyph glyph-name="Oacute" unicode="&#xd3;" horiz-adv-x="751" 
d="M331 704l-32 88l239 137l60 -134l-13 -18zM363 -12q-87 0 -159.5 33.5t-119 106t-46.5 171.5q0 166 102.5 273t266.5 107q65 0 122.5 -20t103 -58t72.5 -99t27 -137q0 -165 -103 -271t-266 -106zM372 155q76 0 120.5 54.5t44.5 147.5q0 73 -36.5 114t-102.5 41
q-75 0 -120 -55t-45 -150q0 -72 36 -112t103 -40z" />
    <glyph glyph-name="Ocircumflex" unicode="&#xd4;" horiz-adv-x="751" 
d="M315 710l-50 67l154 143h83l118 -141l-64 -69l-111 77zM363 -12q-87 0 -159.5 33.5t-119 106t-46.5 171.5q0 166 102.5 273t266.5 107q65 0 122.5 -20t103 -58t72.5 -99t27 -137q0 -165 -103 -271t-266 -106zM372 155q76 0 120.5 54.5t44.5 147.5q0 73 -36.5 114
t-102.5 41q-75 0 -120 -55t-45 -150q0 -72 36 -112t103 -40z" />
    <glyph glyph-name="Otilde" unicode="&#xd5;" horiz-adv-x="751" 
d="M342 714l-98 29q8 60 45 101.5t84 41.5q40 0 81 -15.5t59 -15.5q13 0 25 10t14 24l3 2l99 -28q-8 -62 -44.5 -102t-83.5 -40q-33 0 -77.5 14.5t-61.5 14.5q-16 0 -28 -10.5t-14 -23.5zM363 -12q-87 0 -159.5 33.5t-119 106t-46.5 171.5q0 166 102.5 273t266.5 107
q65 0 122.5 -20t103 -58t72.5 -99t27 -137q0 -165 -103 -271t-266 -106zM372 155q76 0 120.5 54.5t44.5 147.5q0 73 -36.5 114t-102.5 41q-75 0 -120 -55t-45 -150q0 -72 36 -112t103 -40z" />
    <glyph glyph-name="Odieresis" unicode="&#xd6;" horiz-adv-x="751" 
d="M317 721q-37 0 -60.5 24t-23.5 60q0 42 28.5 69t67.5 27q37 0 60.5 -24t23.5 -60q0 -42 -28.5 -69t-67.5 -27zM569 721q-37 0 -60.5 24t-23.5 60q0 42 28.5 69t67.5 27q37 0 60.5 -24t23.5 -60q0 -42 -28.5 -69t-67.5 -27zM363 -12q-87 0 -159.5 33.5t-119 106
t-46.5 171.5q0 166 102.5 273t266.5 107q65 0 122.5 -20t103 -58t72.5 -99t27 -137q0 -165 -103 -271t-266 -106zM372 155q76 0 120.5 54.5t44.5 147.5q0 73 -36.5 114t-102.5 41q-75 0 -120 -55t-45 -150q0 -72 36 -112t103 -40z" />
    <glyph glyph-name="multiply" unicode="&#xd7;" horiz-adv-x="518" 
d="M508 436l-163 -147l115 -142l-94 -76l-111 137l-156 -140l-81 89l161 145l-113 139l94 76l109 -134l158 142z" />
    <glyph glyph-name="Oslash" unicode="&#xd8;" horiz-adv-x="751" 
d="M635 599q97 -85 97 -234q0 -165 -103 -271t-266 -106q-85 0 -156 33l-54 -72h-104v15l80 109q-91 86 -91 226q0 166 102.5 273t266.5 107q80 0 145 -28l48 65h113v-12zM233 307q0 -44 13 -74l200 272q-21 7 -48 7q-75 0 -120 -55t-45 -150zM372 155q76 0 120.5 54.5
t44.5 147.5q0 51 -18 86l-206 -278q24 -10 59 -10z" />
    <glyph glyph-name="Ugrave" unicode="&#xd9;" horiz-adv-x="701" 
d="M516 693l-251 82l-13 18l70 130l229 -143zM311 -13q-124 0 -188.5 56.5t-64.5 164.5q0 36 4 64l55 391h185l-53 -368q-5 -30 -5 -65q0 -41 24 -63.5t69 -22.5q62 0 89.5 36t38.5 115l52 368h180l-56 -391q-20 -135 -106 -210t-224 -75z" />
    <glyph glyph-name="Uacute" unicode="&#xda;" horiz-adv-x="701" 
d="M312 697l-32 88l239 137l60 -134l-13 -18zM311 -13q-124 0 -188.5 56.5t-64.5 164.5q0 36 4 64l55 391h185l-53 -368q-5 -30 -5 -65q0 -41 24 -63.5t69 -22.5q62 0 89.5 36t38.5 115l52 368h180l-56 -391q-20 -135 -106 -210t-224 -75z" />
    <glyph glyph-name="Ucircumflex" unicode="&#xdb;" horiz-adv-x="701" 
d="M296 703l-50 67l154 143h83l118 -141l-64 -69l-111 77zM311 -13q-124 0 -188.5 56.5t-64.5 164.5q0 36 4 64l55 391h185l-53 -368q-5 -30 -5 -65q0 -41 24 -63.5t69 -22.5q62 0 89.5 36t38.5 115l52 368h180l-56 -391q-20 -135 -106 -210t-224 -75z" />
    <glyph glyph-name="Udieresis" unicode="&#xdc;" horiz-adv-x="701" 
d="M298 714q-37 0 -60.5 24t-23.5 60q0 42 28.5 69t67.5 27q37 0 60.5 -24t23.5 -60q0 -42 -28.5 -69t-67.5 -27zM550 714q-37 0 -60.5 24t-23.5 60q0 42 28.5 69t67.5 27q37 0 60.5 -24t23.5 -60q0 -42 -28.5 -69t-67.5 -27zM311 -13q-124 0 -188.5 56.5t-64.5 164.5
q0 36 4 64l55 391h185l-53 -368q-5 -30 -5 -65q0 -41 24 -63.5t69 -22.5q62 0 89.5 36t38.5 115l52 368h180l-56 -391q-20 -135 -106 -210t-224 -75z" />
    <glyph glyph-name="Yacute" unicode="&#xdd;" horiz-adv-x="613" 
d="M270 697l-32 88l239 137l60 -134l-13 -18zM178 0l37 258l-165 401l2 4h200l80 -237l152 237h187l2 -4l-276 -414l-35 -245h-184z" />
    <glyph glyph-name="Thorn" unicode="&#xde;" horiz-adv-x="597" 
d="M357 577q31 0 61 -5.5t60 -20.5t52.5 -37t36.5 -58t14 -81q0 -136 -85.5 -207.5t-213.5 -71.5q-36 0 -54 1l-14 -97h-184l94 663h185l-13 -88q42 2 61 2zM286 243q49 0 78 25.5t29 74.5q0 40 -22 58.5t-57 18.5q-20 0 -40 -2l-25 -174q13 -1 37 -1z" />
    <glyph glyph-name="germandbls" unicode="&#xdf;" horiz-adv-x="649" 
d="M408 -14q-79 0 -130 28l18 134l4 2q46 -36 96 -36q43 0 43 37q0 16 -10.5 29.5t-43.5 42.5q-37 31 -51.5 53.5t-14.5 55.5q0 29 10.5 53.5t18.5 33.5t28 30q33 35 33 68q0 44 -54 44q-37 0 -57 -26t-28 -82l-66 -453h-185l63 446q20 141 96 210t195 69q55 0 103.5 -14.5
t85.5 -53t37 -96.5q0 -35 -10.5 -63.5t-20 -40.5t-26.5 -29q-29 -29 -29 -51q0 -4 1 -8t2 -7t4 -8l4.5 -7.5t7 -8t8 -8.5t10 -10.5t10.5 -11.5q22 -24 32 -37t19.5 -39.5t9.5 -58.5q0 -86 -58 -136.5t-155 -50.5z" />
    <glyph glyph-name="agrave" unicode="&#xe0;" horiz-adv-x="576" 
d="M401 563l-257 100l-8 20l95 135l219 -155zM537 170l4 -2l-23 -157q-44 -18 -97 -18q-97 0 -111 71q-63 -77 -155 -77q-74 0 -112 38.5t-38 99.5q0 92 65.5 134.5t163.5 42.5q53 0 86 -11q3 11 3 22q0 36 -22 53t-76 17q-79 0 -132 -30l-4 2l18 143q24 14 74.5 26
t106.5 12q223 0 223 -190q0 -29 -4 -54l-13 -92q-2 -14 -2 -19q0 -19 19 -19q16 0 26 8zM232 119q25 0 44 12t26 29l5 38q-19 5 -49 5q-70 0 -70 -46q0 -38 44 -38z" />
    <glyph glyph-name="aacute" unicode="&#xe1;" horiz-adv-x="576" 
d="M473 668l-254 -109l-52 99l213 162l100 -132zM537 170l4 -2l-23 -157q-44 -18 -97 -18q-97 0 -111 71q-63 -77 -155 -77q-74 0 -112 38.5t-38 99.5q0 92 65.5 134.5t163.5 42.5q53 0 86 -11q3 11 3 22q0 36 -22 53t-76 17q-79 0 -132 -30l-4 2l18 143q24 14 74.5 26
t106.5 12q223 0 223 -190q0 -29 -4 -54l-13 -92q-2 -14 -2 -19q0 -19 19 -19q16 0 26 8zM232 119q25 0 44 12t26 29l5 38q-19 5 -49 5q-70 0 -70 -46q0 -38 44 -38z" />
    <glyph glyph-name="acircumflex" unicode="&#xe2;" horiz-adv-x="576" 
d="M315 655l-117 -80l-53 58l142 157h85l105 -155l-69 -60zM537 170l4 -2l-23 -157q-44 -18 -97 -18q-97 0 -111 71q-63 -77 -155 -77q-74 0 -112 38.5t-38 99.5q0 92 65.5 134.5t163.5 42.5q53 0 86 -11q3 11 3 22q0 36 -22 53t-76 17q-79 0 -132 -30l-4 2l18 143
q24 14 74.5 26t106.5 12q223 0 223 -190q0 -29 -4 -54l-13 -92q-2 -14 -2 -19q0 -19 19 -19q16 0 26 8zM232 119q25 0 44 12t26 29l5 38q-19 5 -49 5q-70 0 -70 -46q0 -38 44 -38z" />
    <glyph glyph-name="atilde" unicode="&#xe3;" horiz-adv-x="576" 
d="M224 597l-4 -3l-111 32q7 56 48.5 99.5t98.5 43.5q34 0 67 -16t54 -16q16 0 27.5 10t13.5 24l4 2l110 -29q-9 -66 -52 -105.5t-96 -39.5q-31 0 -66.5 16.5t-51.5 16.5q-35 0 -42 -35zM537 170l4 -2l-23 -157q-44 -18 -97 -18q-97 0 -111 71q-63 -77 -155 -77
q-74 0 -112 38.5t-38 99.5q0 92 65.5 134.5t163.5 42.5q53 0 86 -11q3 11 3 22q0 36 -22 53t-76 17q-79 0 -132 -30l-4 2l18 143q24 14 74.5 26t106.5 12q223 0 223 -190q0 -29 -4 -54l-13 -92q-2 -14 -2 -19q0 -19 19 -19q16 0 26 8zM232 119q25 0 44 12t26 29l5 38
q-19 5 -49 5q-70 0 -70 -46q0 -38 44 -38z" />
    <glyph glyph-name="adieresis" unicode="&#xe4;" horiz-adv-x="576" 
d="M192 583q-42 0 -69 27t-27 68q0 49 32 79t77 30q42 0 69 -27t27 -68q0 -48 -32.5 -78.5t-76.5 -30.5zM428 583q-42 0 -69 27t-27 68q0 49 32 79t77 30q42 0 69 -27t27 -68q0 -48 -32.5 -78.5t-76.5 -30.5zM537 170l4 -2l-23 -157q-44 -18 -97 -18q-97 0 -111 71
q-63 -77 -155 -77q-74 0 -112 38.5t-38 99.5q0 92 65.5 134.5t163.5 42.5q53 0 86 -11q3 11 3 22q0 36 -22 53t-76 17q-79 0 -132 -30l-4 2l18 143q24 14 74.5 26t106.5 12q223 0 223 -190q0 -29 -4 -54l-13 -92q-2 -14 -2 -19q0 -19 19 -19q16 0 26 8zM232 119q25 0 44 12
t26 29l5 38q-19 5 -49 5q-70 0 -70 -46q0 -38 44 -38z" />
    <glyph glyph-name="aring" unicode="&#xe5;" horiz-adv-x="576" 
d="M310 556q-55 0 -87.5 33t-32.5 86q0 63 40.5 102.5t101.5 39.5q56 0 88.5 -33t32.5 -86q0 -63 -40.5 -102.5t-102.5 -39.5zM327 732q-21 0 -35 -13.5t-14 -37.5q0 -17 11.5 -28t28.5 -11q21 0 35 13.5t14 37.5q0 17 -11.5 28t-28.5 11zM537 170l4 -2l-23 -157
q-44 -18 -97 -18q-97 0 -111 71q-63 -77 -155 -77q-74 0 -112 38.5t-38 99.5q0 92 65.5 134.5t163.5 42.5q53 0 86 -11q3 11 3 22q0 36 -22 53t-76 17q-79 0 -132 -30l-4 2l18 143q24 14 74.5 26t106.5 12q223 0 223 -190q0 -29 -4 -54l-13 -92q-2 -14 -2 -19q0 -19 19 -19
q16 0 26 8zM232 119q25 0 44 12t26 29l5 38q-19 5 -49 5q-70 0 -70 -46q0 -38 44 -38z" />
    <glyph glyph-name="ae" unicode="&#xe6;" horiz-adv-x="915" 
d="M891 331q0 -51 -16 -120l-317 -1q15 -78 112 -78q78 0 162 35l4 -2l-20 -140q-75 -39 -192 -39q-151 0 -217 98q-61 -98 -186 -98q-95 0 -149.5 59.5t-54.5 150.5q0 160 86 250t210 90q105 0 173 -57q77 57 183 57q100 0 161 -52.5t61 -152.5zM649 387q-61 0 -85 -79
l149 -1v11q0 69 -64 69zM277 154q77 0 95 130q6 36 18 69q-31 25 -73 25q-46 0 -75.5 -47.5t-29.5 -102.5q0 -35 17 -54.5t48 -19.5z" />
    <glyph glyph-name="ccedilla" unicode="&#xe7;" horiz-adv-x="474" 
d="M344 536q69 0 125 -18l-21 -157l-4 -2q-47 19 -104 19q-60 0 -91.5 -40t-31.5 -99q0 -95 100 -95q43 0 101 29l4 -2l-21 -163q-55 -21 -117 -22l-26 -27q10 0 16 -1q80 -9 80 -81q0 -67 -48.5 -95.5t-122.5 -28.5q-40 0 -65 7l10 71l3 1q20 -7 37 -7q55 0 55 40
q0 26 -34 26q-15 0 -31 -2l-2 1l9 65l34 40q-80 19 -126.5 76.5t-46.5 146.5q0 146 89.5 232t228.5 86z" />
    <glyph glyph-name="egrave" unicode="&#xe8;" horiz-adv-x="573" 
d="M430 563l-257 100l-8 20l95 135l219 -155zM549 331q0 -51 -16 -120l-317 -1q15 -78 112 -78q78 0 162 35l4 -2l-20 -140q-75 -39 -192 -39q-50 0 -93.5 12.5t-81 39.5t-59.5 76t-22 115q0 136 85 221.5t216 85.5q100 0 161 -53t61 -152zM307 387q-61 0 -85 -79l149 -1v11
q0 69 -64 69z" />
    <glyph glyph-name="eacute" unicode="&#xe9;" horiz-adv-x="573" 
d="M502 668l-254 -109l-52 99l213 162l100 -132zM549 331q0 -51 -16 -120l-317 -1q15 -78 112 -78q78 0 162 35l4 -2l-20 -140q-75 -39 -192 -39q-50 0 -93.5 12.5t-81 39.5t-59.5 76t-22 115q0 136 85 221.5t216 85.5q100 0 161 -53t61 -152zM307 387q-61 0 -85 -79l149 -1
v11q0 69 -64 69z" />
    <glyph glyph-name="ecircumflex" unicode="&#xea;" horiz-adv-x="573" 
d="M344 655l-117 -80l-53 58l142 157h85l105 -155l-69 -60zM549 331q0 -51 -16 -120l-317 -1q15 -78 112 -78q78 0 162 35l4 -2l-20 -140q-75 -39 -192 -39q-50 0 -93.5 12.5t-81 39.5t-59.5 76t-22 115q0 136 85 221.5t216 85.5q100 0 161 -53t61 -152zM307 387
q-61 0 -85 -79l149 -1v11q0 69 -64 69z" />
    <glyph glyph-name="edieresis" unicode="&#xeb;" horiz-adv-x="573" 
d="M221 583q-42 0 -69 27t-27 68q0 49 32 79t77 30q42 0 69 -27t27 -68q0 -48 -32.5 -78.5t-76.5 -30.5zM457 583q-42 0 -69 27t-27 68q0 49 32 79t77 30q42 0 69 -27t27 -68q0 -48 -32.5 -78.5t-76.5 -30.5zM327 536q100 0 161 -53t61 -152q0 -51 -16 -120l-317 -1
q15 -78 112 -78q78 0 162 35l4 -2l-20 -140q-75 -39 -192 -39q-50 0 -93.5 12.5t-81 39.5t-59.5 76t-22 115q0 136 85 221.5t216 85.5zM307 387q-61 0 -85 -79l149 -1v11q0 69 -64 69z" />
    <glyph glyph-name="igrave" unicode="&#xec;" horiz-adv-x="301" 
d="M292 563l-257 100l-8 20l95 135l219 -155zM19 0l74 521h186l-74 -521h-186z" />
    <glyph glyph-name="iacute" unicode="&#xed;" horiz-adv-x="300" 
d="M96 559l-52 99l213 162l100 -132l-7 -20zM19 0l74 521h186l-74 -521h-186z" />
    <glyph glyph-name="icircumflex" unicode="&#xee;" horiz-adv-x="300" 
d="M87 575l-51 58l143 157h85l102 -157l-67 -58l-97 80zM19 0l74 521h186l-74 -521h-186z" />
    <glyph glyph-name="idieresis" unicode="&#xef;" horiz-adv-x="320" 
d="M90 583q-42 0 -69 27t-27 68q0 49 32 79t77 30q42 0 69 -27t27 -68q0 -48 -32.5 -78.5t-76.5 -30.5zM326 583q-42 0 -69 27t-27 68q0 49 32 79t77 30q42 0 69 -27t27 -68q0 -48 -32.5 -78.5t-76.5 -30.5zM29 0l74 521h186l-74 -521h-186z" />
    <glyph glyph-name="eth" unicode="&#xf0;" horiz-adv-x="633" 
d="M496 681q117 -75 117 -271q0 -195 -95 -309.5t-253 -114.5q-114 0 -178 56t-64 152q0 120 76 196t187 76q95 0 144 -54q-3 81 -36 120l-34 -50l-84 58l23 34q-5 1 -16 1q-72 0 -127 -17l-4 4l20 149q49 17 139 17q45 0 88 -8l42 62l83 -59zM291 143q88 0 122 108
q-8 33 -31 54t-60 21q-47 0 -74.5 -32t-27.5 -78q0 -31 17.5 -52t53.5 -21z" />
    <glyph glyph-name="ntilde" unicode="&#xf1;" horiz-adv-x="621" 
d="M270 597l-4 -3l-111 32q7 56 48.5 99.5t98.5 43.5q34 0 67 -16t54 -16q16 0 27.5 10t13.5 24l4 2l110 -29q-9 -66 -52 -105.5t-96 -39.5q-31 0 -66.5 16.5t-51.5 16.5q-35 0 -42 -35zM419 536q75 0 118.5 -46t43.5 -124q0 -33 -4 -60l-45 -306h-186l37 270q2 18 2 23
q1 31 -16 47.5t-46 16.5q-59 0 -75 -60l-42 -297h-187l74 521h152l7 -68q57 83 167 83z" />
    <glyph glyph-name="ograve" unicode="&#xf2;" horiz-adv-x="618" 
d="M429 553l-257 100l-8 20l95 135l219 -155zM287 -13q-111 0 -184.5 61.5t-73.5 183.5q0 133 83.5 218t219.5 85q111 0 184 -61t73 -185q0 -132 -83 -217t-219 -85zM300 144q48 0 73 41.5t25 97.5q0 44 -20 69t-59 25q-50 0 -74.5 -40.5t-24.5 -98.5q0 -94 80 -94z" />
    <glyph glyph-name="oacute" unicode="&#xf3;" horiz-adv-x="618" 
d="M247 549l-52 99l213 162l100 -132l-7 -20zM287 -13q-111 0 -184.5 61.5t-73.5 183.5q0 133 83.5 218t219.5 85q111 0 184 -61t73 -185q0 -132 -83 -217t-219 -85zM300 144q48 0 73 41.5t25 97.5q0 44 -20 69t-59 25q-50 0 -74.5 -40.5t-24.5 -98.5q0 -94 80 -94z" />
    <glyph glyph-name="ocircumflex" unicode="&#xf4;" horiz-adv-x="618" 
d="M226 565l-53 58l142 157h85l105 -155l-69 -60l-93 80zM287 -13q-111 0 -184.5 61.5t-73.5 183.5q0 133 83.5 218t219.5 85q111 0 184 -61t73 -185q0 -132 -83 -217t-219 -85zM300 144q48 0 73 41.5t25 97.5q0 44 -20 69t-59 25q-50 0 -74.5 -40.5t-24.5 -98.5
q0 -94 80 -94z" />
    <glyph glyph-name="otilde" unicode="&#xf5;" horiz-adv-x="618" 
d="M248 584l-111 32q7 56 48.5 99.5t98.5 43.5q34 0 67 -16t54 -16q16 0 27.5 10t13.5 24l4 2l110 -29q-9 -66 -52 -105.5t-96 -39.5q-31 0 -66.5 16.5t-51.5 16.5q-35 0 -42 -35zM287 -13q-111 0 -184.5 61.5t-73.5 183.5q0 133 83.5 218t219.5 85q111 0 184 -61t73 -185
q0 -132 -83 -217t-219 -85zM300 144q48 0 73 41.5t25 97.5q0 44 -20 69t-59 25q-50 0 -74.5 -40.5t-24.5 -98.5q0 -94 80 -94z" />
    <glyph glyph-name="odieresis" unicode="&#xf6;" horiz-adv-x="618" 
d="M220 573q-42 0 -69 27t-27 68q0 49 32 79t77 30q42 0 69 -27t27 -68q0 -48 -32.5 -78.5t-76.5 -30.5zM456 573q-42 0 -69 27t-27 68q0 49 32 79t77 30q42 0 69 -27t27 -68q0 -48 -32.5 -78.5t-76.5 -30.5zM287 -13q-111 0 -184.5 61.5t-73.5 183.5q0 133 83.5 218
t219.5 85q111 0 184 -61t73 -185q0 -132 -83 -217t-219 -85zM300 144q48 0 73 41.5t25 97.5q0 44 -20 69t-59 25q-50 0 -74.5 -40.5t-24.5 -98.5q0 -94 80 -94z" />
    <glyph glyph-name="divide" unicode="&#xf7;" horiz-adv-x="549" 
d="M292 394q-42 0 -63 21.5t-21 56.5q0 44 29.5 74.5t82.5 30.5q41 0 63 -22.5t22 -56.5q0 -45 -29.5 -74.5t-83.5 -29.5zM27 244l16 121h491l-16 -121h-491zM241 28q-42 0 -63.5 21.5t-21.5 56.5q0 44 29 74.5t82 30.5q42 0 63.5 -22.5t21.5 -57.5q0 -44 -28.5 -73.5
t-82.5 -29.5z" />
    <glyph glyph-name="oslash" unicode="&#xf8;" horiz-adv-x="618" 
d="M515 475q74 -66 74 -186q0 -132 -83 -217t-219 -85q-49 0 -93 12l-39 -56h-103v15l57 85q-80 64 -80 189q0 133 83.5 218t219.5 85q53 0 96 -13l35 54h112v-12zM300 144q48 0 73 41.5t25 97.5q0 44 -20 69t-59 25q-50 0 -74.5 -40.5t-24.5 -98.5q0 -94 80 -94z" />
    <glyph glyph-name="ugrave" unicode="&#xf9;" horiz-adv-x="611" 
d="M450 563l-257 100l-8 20l95 135l219 -155zM405 521h186l-75 -521h-151l-7 72q-65 -85 -177 -85q-66 0 -105.5 37t-39.5 98q0 30 3 51l50 348h186l-42 -292q-3 -24 -3 -34q-2 -50 50 -50t77 46z" />
    <glyph glyph-name="uacute" unicode="&#xfa;" horiz-adv-x="611" 
d="M522 668l-254 -109l-52 99l213 162l100 -132zM405 521h186l-75 -521h-151l-7 72q-65 -85 -177 -85q-66 0 -105.5 37t-39.5 98q0 30 3 51l50 348h186l-42 -292q-3 -24 -3 -34q-2 -50 50 -50t77 46z" />
    <glyph glyph-name="ucircumflex" unicode="&#xfb;" horiz-adv-x="611" 
d="M364 655l-117 -80l-53 58l142 157h85l105 -155l-69 -60zM405 521h186l-75 -521h-151l-7 72q-65 -85 -177 -85q-66 0 -105.5 37t-39.5 98q0 30 3 51l50 348h186l-42 -292q-3 -24 -3 -34q-2 -50 50 -50t77 46z" />
    <glyph glyph-name="udieresis" unicode="&#xfc;" horiz-adv-x="611" 
d="M241 583q-42 0 -69 27t-27 68q0 49 32 79t77 30q42 0 69 -27t27 -68q0 -48 -32.5 -78.5t-76.5 -30.5zM477 583q-42 0 -69 27t-27 68q0 49 32 79t77 30q42 0 69 -27t27 -68q0 -48 -32.5 -78.5t-76.5 -30.5zM405 521h186l-75 -521h-151l-7 72q-65 -85 -177 -85
q-66 0 -105.5 37t-39.5 98q0 30 3 51l50 348h186l-42 -292q-3 -24 -3 -34q-2 -50 50 -50t77 46z" />
    <glyph glyph-name="yacute" unicode="&#xfd;" horiz-adv-x="536" 
d="M487 668l-254 -109l-52 99l213 162l100 -132zM574 517l-217 -418l-31 -61q-61 -120 -116.5 -165t-151.5 -45q-42 0 -70 11l21 149l4 2q16 -6 40 -6q83 0 114 70l-131 463l2 4h197l45 -247l104 247h188z" />
    <glyph glyph-name="thorn" unicode="&#xfe;" horiz-adv-x="622" 
d="M414 536q88 0 135 -59t47 -157q0 -148 -89.5 -241t-213.5 -93q-53 0 -88 17l-24 -168h-186l126 882h186l-33 -230q60 49 140 49zM289 145q49 0 81 37.5t32 102.5q0 85 -73 85q-24 0 -46 -13t-32 -35l-24 -165q25 -12 62 -12z" />
    <glyph glyph-name="ydieresis" unicode="&#xff;" horiz-adv-x="536" 
d="M206 583q-42 0 -69 27t-27 68q0 49 32 79t77 30q42 0 69 -27t27 -68q0 -48 -32.5 -78.5t-76.5 -30.5zM442 583q-42 0 -69 27t-27 68q0 49 32 79t77 30q42 0 69 -27t27 -68q0 -48 -32.5 -78.5t-76.5 -30.5zM574 517l-217 -418l-31 -61q-61 -120 -116.5 -165t-151.5 -45
q-42 0 -70 11l21 149l4 2q16 -6 40 -6q83 0 114 70l-131 463l2 4h197l45 -247l104 247h188z" />
    <glyph glyph-name="Amacron" unicode="&#x100;" horiz-adv-x="634" 
d="M561 852l-14 -110h-333l15 110h332zM419 0l-19 74h-225l-38 -74h-184l376 670h84l198 -670h-192zM239 199h128l-32 124l-10 52l-23 -52z" />
    <glyph glyph-name="amacron" unicode="&#x101;" horiz-adv-x="576" 
d="M479 719l-16 -108h-308l16 108h308zM537 170l4 -2l-23 -157q-44 -18 -97 -18q-97 0 -111 71q-63 -77 -155 -77q-74 0 -112 38.5t-38 99.5q0 92 65.5 134.5t163.5 42.5q53 0 86 -11q3 11 3 22q0 36 -22 53t-76 17q-79 0 -132 -30l-4 2l18 143q24 14 74.5 26t106.5 12
q223 0 223 -190q0 -29 -4 -54l-13 -92q-2 -14 -2 -19q0 -19 19 -19q16 0 26 8zM232 119q25 0 44 12t26 29l5 38q-19 5 -49 5q-70 0 -70 -46q0 -38 44 -38z" />
    <glyph glyph-name="Abreve" unicode="&#x102;" horiz-adv-x="634" 
d="M386 720q-75 0 -122 47.5t-36 123.5l113 12q-4 -72 59 -72q28 0 48.5 20t26.5 52l101 -12q-10 -77 -62.5 -124t-127.5 -47zM419 0l-19 74h-225l-38 -74h-184l376 670h84l198 -670h-192zM239 199h128l-32 124l-10 52l-23 -52z" />
    <glyph glyph-name="abreve" unicode="&#x103;" horiz-adv-x="576" 
d="M310 579q-72 0 -115 46.5t-31 125.5l107 12l5 -4q-2 -27 11 -44.5t40 -17.5q50 0 69 62l4 3l98 -11q-12 -82 -61.5 -127t-126.5 -45zM537 170l4 -2l-23 -157q-44 -18 -97 -18q-97 0 -111 71q-63 -77 -155 -77q-74 0 -112 38.5t-38 99.5q0 92 65.5 134.5t163.5 42.5
q53 0 86 -11q3 11 3 22q0 36 -22 53t-76 17q-79 0 -132 -30l-4 2l18 143q24 14 74.5 26t106.5 12q223 0 223 -190q0 -29 -4 -54l-13 -92q-2 -14 -2 -19q0 -19 19 -19q16 0 26 8zM232 119q25 0 44 12t26 29l5 38q-19 5 -49 5q-70 0 -70 -46q0 -38 44 -38z" />
    <glyph glyph-name="Aogonek" unicode="&#x104;" horiz-adv-x="634" 
d="M567 0q-98 -52 -98 -115q0 -39 36 -39q16 0 29 4l4 -4l-11 -86q-34 -8 -71 -8q-54 0 -89 22t-35 66q0 88 126 160h-39l-19 74h-225l-38 -74h-184l376 670h84l198 -670h-44zM239 199h128l-32 124l-10 52l-23 -52z" />
    <glyph glyph-name="aogonek" unicode="&#x105;" horiz-adv-x="576" 
d="M518 11q-98 -52 -98 -115q0 -39 36 -39q16 0 29 4l4 -4l-11 -86q-34 -8 -71 -8q-54 0 -89 22t-35 66q0 79 101 145q-64 13 -74 68q-63 -77 -155 -77q-74 0 -112 38.5t-38 99.5q0 92 65.5 134.5t163.5 42.5q53 0 86 -11q3 11 3 22q0 36 -22 53t-76 17q-79 0 -132 -30l-4 2
l18 143q24 14 74.5 26t106.5 12q223 0 223 -190q0 -29 -4 -54l-13 -92q-2 -14 -2 -19q0 -19 19 -19q16 0 26 8l4 -2zM232 119q25 0 44 12t26 29l5 38q-19 5 -49 5q-70 0 -70 -46q0 -38 44 -38z" />
    <glyph glyph-name="Cacute" unicode="&#x106;" horiz-adv-x="581" 
d="M297 697l-32 88l239 137l60 -134l-13 -18zM352 -12q-146 0 -230 78t-84 222q0 180 112.5 285.5t285.5 105.5q87 0 153 -21l-23 -173l-4 -2q-53 29 -124 29q-97 0 -150.5 -56t-53.5 -147q0 -154 168 -154q61 0 118 24l4 -2l-22 -167q-66 -22 -150 -22z" />
    <glyph glyph-name="cacute" unicode="&#x107;" horiz-adv-x="474" 
d="M238 572l-52 99l213 162l100 -132l-7 -20zM277 -14q-111 0 -181 61t-70 171q0 146 89.5 232t228.5 86q69 0 125 -18l-21 -157l-4 -2q-47 19 -104 19q-60 0 -91.5 -40t-31.5 -99q0 -95 100 -95q43 0 101 29l4 -2l-21 -163q-55 -22 -124 -22z" />
    <glyph glyph-name="Cdotaccent" unicode="&#x10a;" horiz-adv-x="581" 
d="M403 701q-44 0 -72.5 28.5t-28.5 71.5q0 51 34 83t81 32q44 0 72.5 -28.5t28.5 -71.5q0 -51 -34 -83t-81 -32zM352 -12q-146 0 -230 78t-84 222q0 180 112.5 285.5t285.5 105.5q87 0 153 -21l-23 -173l-4 -2q-53 29 -124 29q-97 0 -150.5 -56t-53.5 -147q0 -154 168 -154
q61 0 118 24l4 -2l-22 -167q-66 -22 -150 -22z" />
    <glyph glyph-name="cdotaccent" unicode="&#x10b;" horiz-adv-x="474" 
d="M332 591q-44 0 -72.5 28.5t-28.5 71.5q0 51 34 83t81 32q44 0 72.5 -28.5t28.5 -71.5q0 -51 -34 -83t-81 -32zM277 -14q-111 0 -181 61t-70 171q0 146 89.5 232t228.5 86q69 0 125 -18l-21 -157l-4 -2q-47 19 -104 19q-60 0 -91.5 -40t-31.5 -99q0 -95 100 -95
q43 0 101 29l4 -2l-21 -163q-55 -22 -124 -22z" />
    <glyph glyph-name="Ccaron" unicode="&#x10c;" horiz-adv-x="581" 
d="M357 703l-118 141l64 69l111 -77l130 77l50 -67l-154 -143h-83zM352 -12q-146 0 -230 78t-84 222q0 180 112.5 285.5t285.5 105.5q87 0 153 -21l-23 -173l-4 -2q-53 29 -124 29q-97 0 -150.5 -56t-53.5 -147q0 -154 168 -154q61 0 118 24l4 -2l-22 -167q-66 -22 -150 -22
z" />
    <glyph glyph-name="ccaron" unicode="&#x10d;" horiz-adv-x="474" 
d="M283 588l-102 158l67 57l98 -80l115 80l50 -57l-143 -158h-85zM277 -14q-111 0 -181 61t-70 171q0 146 89.5 232t228.5 86q69 0 125 -18l-21 -157l-4 -2q-47 19 -104 19q-60 0 -91.5 -40t-31.5 -99q0 -95 100 -95q43 0 101 29l4 -2l-21 -163q-55 -22 -124 -22z" />
    <glyph glyph-name="Dcaron" unicode="&#x10e;" horiz-adv-x="709" 
d="M430 709h-83l-118 141l64 69l111 -77l130 77l50 -67zM354 673q167 0 251 -73.5t84 -206.5q0 -185 -115.5 -290.5t-306.5 -105.5q-214 2 -237 3l92 663q94 10 232 10zM310 161q87 0 137 55t50 148q0 72 -39.5 107t-103.5 35q-42 0 -70 -4l-47 -339q26 -2 73 -2z" />
    <glyph glyph-name="dcaron" unicode="&#x10f;" horiz-adv-x="700" 
d="M798 721l13 -15l-84 -241h-95l43 256h123zM415 517l29 200h186l-102 -717h-151l-6 58q-51 -72 -154 -72q-79 0 -136 58.5t-57 162.5q0 153 82.5 241t209.5 88q56 0 99 -19zM295 154q27 0 48.5 16t27.5 46l21 141q-29 21 -67 21q-45 0 -75 -38.5t-30 -103.5
q0 -42 20.5 -62t54.5 -20z" />
    <glyph glyph-name="Dcroat" unicode="&#x110;" horiz-adv-x="709" 
d="M354 673q167 0 251 -73.5t84 -206.5q0 -185 -115.5 -290.5t-306.5 -105.5q-214 2 -237 3l39 282h-78l15 109h78l38 272q94 10 232 10zM310 161q87 0 137 55t50 148q0 72 -39.5 107t-103.5 35q-42 0 -70 -4l-16 -111h85l-15 -109h-85l-16 -119q26 -2 73 -2z" />
    <glyph glyph-name="dcroat" unicode="&#x111;" horiz-adv-x="623" 
d="M685 679l-15 -109h-61l-81 -570h-151l-6 58q-51 -72 -154 -72q-79 0 -136 58.5t-57 162.5q0 153 82.5 241t209.5 88q56 0 99 -19l8 53h-100l15 109h100l6 38h186l-5 -38h60zM295 154q27 0 48.5 16t27.5 46l21 141q-29 21 -67 21q-45 0 -75 -38.5t-30 -103.5
q0 -42 20.5 -62t54.5 -20z" />
    <glyph glyph-name="Emacron" unicode="&#x112;" horiz-adv-x="554" 
d="M534 846l-14 -110h-333l15 110h332zM537 516h-249l-15 -106h229l-20 -144h-230l-17 -118h256l-20 -148h-441l94 663h434z" />
    <glyph glyph-name="emacron" unicode="&#x113;" horiz-adv-x="573" 
d="M508 719l-16 -108h-308l16 108h308zM549 331q0 -51 -16 -120l-317 -1q15 -78 112 -78q78 0 162 35l4 -2l-20 -140q-75 -39 -192 -39q-50 0 -93.5 12.5t-81 39.5t-59.5 76t-22 115q0 136 85 221.5t216 85.5q100 0 161 -53t61 -152zM307 387q-61 0 -85 -79l149 -1v11
q0 69 -64 69z" />
    <glyph glyph-name="Edotaccent" unicode="&#x116;" horiz-adv-x="554" 
d="M352 701q-44 0 -72.5 28.5t-28.5 71.5q0 51 34 83t81 32q44 0 72.5 -28.5t28.5 -71.5q0 -51 -34 -83t-81 -32zM537 516h-249l-15 -106h229l-20 -144h-230l-17 -118h256l-20 -148h-441l94 663h434z" />
    <glyph glyph-name="edotaccent" unicode="&#x117;" horiz-adv-x="573" 
d="M342 578q-44 0 -72.5 28.5t-28.5 71.5q0 51 34 83t81 32q44 0 72.5 -28.5t28.5 -71.5q0 -51 -34 -83t-81 -32zM549 331q0 -51 -16 -120l-317 -1q15 -78 112 -78q78 0 162 35l4 -2l-20 -140q-75 -39 -192 -39q-50 0 -93.5 12.5t-81 39.5t-59.5 76t-22 115q0 136 85 221.5
t216 85.5q100 0 161 -53t61 -152zM307 387q-61 0 -85 -79l149 -1v11q0 69 -64 69z" />
    <glyph glyph-name="Eogonek" unicode="&#x118;" horiz-adv-x="554" 
d="M537 516h-249l-15 -106h229l-20 -144h-230l-17 -118h256l-20 -148q-98 -52 -98 -115q0 -39 36 -39q16 0 29 4l4 -4l-11 -86q-34 -8 -71 -8q-54 0 -89 22t-35 66q0 88 126 160h-332l94 663h434z" />
    <glyph glyph-name="eogonek" unicode="&#x119;" horiz-adv-x="573" 
d="M549 331q0 -51 -16 -120l-317 -1q15 -78 112 -78q78 0 162 35l4 -2l-20 -140q-30 -15 -63 -24q-82 -49 -82 -106q0 -39 36 -39q16 0 29 4l4 -4l-11 -86q-34 -8 -71 -8q-54 0 -89 22t-35 66q0 75 88 136q-50 0 -93 13t-80.5 40t-59 76t-21.5 114q0 136 85 221.5t216 85.5
q100 0 161 -53t61 -152zM307 387q-61 0 -85 -79l149 -1v11q0 69 -64 69z" />
    <glyph glyph-name="Ecaron" unicode="&#x11a;" horiz-adv-x="554" 
d="M389 703h-83l-118 141l64 69l111 -77l130 77l50 -67zM537 516h-249l-15 -106h229l-20 -144h-230l-17 -118h256l-20 -148h-441l94 663h434z" />
    <glyph glyph-name="ecaron" unicode="&#x11b;" horiz-adv-x="573" 
d="M378 575h-85l-102 158l67 57l98 -80l115 80l50 -57zM549 331q0 -51 -16 -120l-317 -1q15 -78 112 -78q78 0 162 35l4 -2l-20 -140q-75 -39 -192 -39q-50 0 -93.5 12.5t-81 39.5t-59.5 76t-22 115q0 136 85 221.5t216 85.5q100 0 161 -53t61 -152zM307 387q-61 0 -85 -79
l149 -1v11q0 69 -64 69z" />
    <glyph glyph-name="Gbreve" unicode="&#x11e;" horiz-adv-x="654" 
d="M436 720q-75 0 -122 47.5t-36 123.5l113 12q-4 -72 59 -72q28 0 48.5 20t26.5 52l101 -12q-10 -77 -62.5 -124t-127.5 -47zM350 -11q-140 0 -225.5 75t-85.5 214q0 187 113.5 297t301.5 110q117 0 185 -30l-25 -169l-4 -2q-62 34 -163 34t-158 -58t-57 -158
q0 -71 38 -109t110 -38q27 0 55 5l19 143h160l-39 -281q-109 -33 -225 -33z" />
    <glyph glyph-name="gbreve" unicode="&#x11f;" horiz-adv-x="590" 
d="M318 592q-72 0 -115 46.5t-31 125.5l107 12l5 -4q-2 -27 11 -44.5t40 -17.5q50 0 69 62l4 3l98 -11q-12 -82 -61.5 -127t-126.5 -45zM601 521l-16 -123h-76q14 -20 14 -50q0 -71 -66 -116.5t-190 -45.5q-34 0 -58 4q-9 -7 -9 -18q0 -14 25.5 -20t110.5 -12
q97 -7 146 -37.5t49 -95.5q0 -90 -81.5 -136t-233.5 -46q-236 0 -236 110q0 60 76 111q-34 26 -34 64q0 69 90 112q-63 38 -63 111q0 86 75.5 137t202.5 51h274zM350 357q0 41 -52 41q-32 0 -49.5 -13t-17.5 -36q0 -41 53 -41q32 0 49 13t17 36zM352 -32q0 17 -19 23t-82 9
q-32 1 -79 7q-21 -18 -21 -36q0 -19 22 -26.5t74 -7.5q105 0 105 31z" />
    <glyph glyph-name="Gdotaccent" unicode="&#x120;" horiz-adv-x="654" 
d="M429 707q-44 0 -72.5 28.5t-28.5 71.5q0 51 34 83t81 32q44 0 72.5 -28.5t28.5 -71.5q0 -51 -34 -83t-81 -32zM350 -11q-140 0 -225.5 75t-85.5 214q0 187 113.5 297t301.5 110q117 0 185 -30l-25 -169l-4 -2q-62 34 -163 34t-158 -58t-57 -158q0 -71 38 -109t110 -38
q27 0 55 5l19 143h160l-39 -281q-109 -33 -225 -33z" />
    <glyph glyph-name="gdotaccent" unicode="&#x121;" horiz-adv-x="590" 
d="M321 591q-44 0 -72.5 28.5t-28.5 71.5q0 51 34 83t81 32q44 0 72.5 -28.5t28.5 -71.5q0 -51 -34 -83t-81 -32zM601 521l-16 -123h-76q14 -20 14 -50q0 -71 -66 -116.5t-190 -45.5q-34 0 -58 4q-9 -7 -9 -18q0 -14 25.5 -20t110.5 -12q97 -7 146 -37.5t49 -95.5
q0 -90 -81.5 -136t-233.5 -46q-236 0 -236 110q0 60 76 111q-34 26 -34 64q0 69 90 112q-63 38 -63 111q0 86 75.5 137t202.5 51h274zM350 357q0 41 -52 41q-32 0 -49.5 -13t-17.5 -36q0 -41 53 -41q32 0 49 13t17 36zM352 -32q0 17 -19 23t-82 9q-32 1 -79 7
q-21 -18 -21 -36q0 -19 22 -26.5t74 -7.5q105 0 105 31z" />
    <glyph glyph-name="Gcommaaccent" unicode="&#x122;" horiz-adv-x="654" 
d="M350 -11q-140 0 -225.5 75t-85.5 214q0 187 113.5 297t301.5 110q117 0 185 -30l-25 -169l-4 -2q-62 34 -163 34t-158 -58t-57 -158q0 -71 38 -109t110 -38q27 0 55 5l19 143h160l-39 -281q-109 -33 -225 -33zM222 -258q27 86 36 140q2 11 4 67l139 11l9 -20
q-15 -107 -87 -198h-101z" />
    <glyph glyph-name="gcommaaccent" unicode="&#x123;" horiz-adv-x="590" 
d="M388 585l-139 -11l-9 20q15 107 87 198h101q-27 -86 -36 -140q-2 -11 -4 -67zM601 521l-16 -123h-76q14 -20 14 -50q0 -71 -66 -116.5t-190 -45.5q-34 0 -58 4q-9 -7 -9 -18q0 -14 25.5 -20t110.5 -12q97 -7 146 -37.5t49 -95.5q0 -90 -81.5 -136t-233.5 -46
q-236 0 -236 110q0 60 76 111q-34 26 -34 64q0 69 90 112q-63 38 -63 111q0 86 75.5 137t202.5 51h274zM350 357q0 41 -52 41q-32 0 -49.5 -13t-17.5 -36q0 -41 53 -41q32 0 49 13t17 36zM352 -32q0 17 -19 23t-82 9q-32 1 -79 7q-21 -18 -21 -36q0 -19 22 -26.5t74 -7.5
q105 0 105 31z" />
    <glyph glyph-name="Hbar" unicode="&#x126;" horiz-adv-x="729" 
d="M765 590l-15 -111h-59l-69 -479h-184l36 253h-223l-36 -253h-185l68 479h-58l15 111h59l10 73h185l-10 -73h223l10 73h185l-10 -73h58zM498 421l8 58h-223l-8 -58h223z" />
    <glyph glyph-name="hbar" unicode="&#x127;" horiz-adv-x="620" 
d="M418 536q75 0 118.5 -46t43.5 -124q0 -22 -4 -50l-45 -316h-186l37 270q2 18 2 23q0 31 -17 47.5t-45 16.5q-61 0 -75 -60l-42 -297h-186l81 569h-70l14 110h72l5 38h186l-5 -38h89l-14 -110h-91l-13 -88q55 55 145 55z" />
    <glyph glyph-name="Itilde" unicode="&#x128;" horiz-adv-x="323" 
d="M133 707l-98 29q8 60 45 101.5t84 41.5q40 0 81 -15.5t59 -15.5q13 0 25 10t14 24l3 2l99 -28q-8 -62 -44.5 -102t-83.5 -40q-33 0 -77.5 14.5t-61.5 14.5q-16 0 -28 -10.5t-14 -23.5zM30 0l89 663h187l-90 -663h-186z" />
    <glyph glyph-name="itilde" unicode="&#x129;" horiz-adv-x="300" 
d="M109 594l-104 30q8 58 48.5 101.5t101.5 43.5q32 0 67 -15t54 -15q16 0 27.5 10.5t13.5 24.5l4 2l104 -29q-9 -66 -52.5 -105.5t-99.5 -39.5q-28 0 -65.5 15.5t-52.5 15.5q-35 0 -42 -36zM19 0l74 521h186l-74 -521h-186z" />
    <glyph glyph-name="Imacron" unicode="&#x12a;" horiz-adv-x="323" 
d="M63 736l15 110h332l-14 -110h-333zM30 0l89 663h187l-90 -663h-186z" />
    <glyph glyph-name="imacron" unicode="&#x12b;" horiz-adv-x="300" 
d="M42 610l16 110h311l-16 -110h-311zM19 0l73 521h186l-73 -521h-186z" />
    <glyph glyph-name="Iogonek" unicode="&#x12e;" horiz-adv-x="323" 
d="M187 0q-80 -48 -80 -105q0 -39 36 -39q16 0 29 4l4 -4l-11 -86q-34 -8 -71 -8q-54 0 -89 22t-35 66q0 83 109 150h-49l89 663h187l-90 -663h-29z" />
    <glyph glyph-name="iogonek" unicode="&#x12f;" horiz-adv-x="300" 
d="M194 578q-44 0 -72.5 28.5t-28.5 71.5q0 51 34 83t81 32q44 0 72.5 -28.5t28.5 -71.5q0 -51 -34 -83t-81 -32zM19 0l73 521h186l-73 -521h-20q-98 -52 -98 -115q0 -39 35 -39q17 0 30 4l3 -4l-11 -86q-34 -8 -71 -8q-54 0 -89 22.5t-35 65.5q0 88 127 160h-57z" />
    <glyph glyph-name="Idotaccent" unicode="&#x130;" horiz-adv-x="323" 
d="M228 701q-44 0 -72.5 28.5t-28.5 71.5q0 51 34 83t81 32q44 0 72.5 -28.5t28.5 -71.5q0 -51 -34 -83t-81 -32zM30 0l89 663h187l-90 -663h-186z" />
    <glyph glyph-name="dotlessi" unicode="&#x131;" horiz-adv-x="300" 
d="M19 0l74 521h186l-74 -521h-186z" />
    <glyph glyph-name="IJ" unicode="&#x132;" horiz-adv-x="713" 
d="M30 0l89 663h187l-90 -663h-186zM360 -3q-32 0 -61 4l23 155l4 2q15 -3 29 -3q95 0 114 129l55 379h186l-52 -360q-23 -155 -96.5 -230.5t-201.5 -75.5z" />
    <glyph glyph-name="ij" unicode="&#x133;" horiz-adv-x="618" 
d="M202 578q-44 0 -72.5 28.5t-28.5 71.5q0 51 34 83t81 32q44 0 72.5 -28.5t28.5 -71.5q0 -51 -34 -83t-81 -32zM520 578q-44 0 -72.5 28.5t-28.5 71.5q0 51 34 83t81 32q44 0 72.5 -28.5t28.5 -71.5q0 -51 -34 -83t-81 -32zM19 0l74 521h186l-74 -521h-186zM280 -172
q-34 0 -81 7l23 160l4 2q16 -4 36 -4q41 0 61 23t26 67l63 438h185l-68 -482q-15 -106 -81 -158.5t-168 -52.5z" />
    <glyph glyph-name="Kcommaaccent" unicode="&#x136;" horiz-adv-x="676" 
d="M726 659l-304 -322l227 -333l-2 -4h-220l-174 265l-38 -265h-185l94 663h185l-37 -258l241 258h211zM220 -51l139 11l9 -20q-15 -107 -87 -198h-101q27 86 36 140q2 11 4 67z" />
    <glyph glyph-name="kcommaaccent" unicode="&#x137;" horiz-adv-x="598" 
d="M615 517l-223 -248l161 -265l-2 -4h-205l-113 194l-28 -194h-186l102 717h186l-52 -368l145 172h213zM185 -51l139 11l9 -20q-15 -107 -87 -198h-101q27 86 36 140q2 11 4 67z" />
    <glyph glyph-name="kgreenlandic" unicode="&#x138;" horiz-adv-x="599" 
d="M627 521l-225 -246l168 -275h-227l-111 188l-27 -188h-186l74 521h186l-26 -184l163 184h211z" />
    <glyph glyph-name="Lacute" unicode="&#x139;" horiz-adv-x="496" 
d="M379 770l-254 -73l-32 88l239 137l60 -134zM236 153h233l-21 -153h-418l94 663h185z" />
    <glyph glyph-name="lacute" unicode="&#x13a;" horiz-adv-x="339" 
d="M112 751l-32 88l239 137l60 -134l-13 -18zM204 -11q-85 0 -131.5 45.5t-32.5 144.5l77 538h185l-71 -494q-11 -69 44 -69q14 0 29 4l4 -2l-22 -157q-43 -10 -82 -10z" />
    <glyph glyph-name="Lcommaaccent" unicode="&#x13b;" horiz-adv-x="496" 
d="M236 153h233l-21 -153h-418l94 663h185zM157 -51l139 11l9 -20q-15 -107 -87 -198h-101q27 86 36 140q2 11 4 67z" />
    <glyph glyph-name="lcommaaccent" unicode="&#x13c;" horiz-adv-x="339" 
d="M204 -11q-85 0 -131.5 45.5t-32.5 144.5l77 538h185l-71 -494q-11 -69 44 -69q14 0 29 4l4 -2l-22 -157q-43 -10 -82 -10zM32 -258q27 86 36 140q2 11 4 67l139 11l9 -20q-15 -107 -87 -198h-101z" />
    <glyph glyph-name="Lcaron" unicode="&#x13d;" horiz-adv-x="504" 
d="M533 665l-83 -241h-95l43 256h124zM310 663l-74 -510h233l-21 -153h-418l95 663h185z" />
    <glyph glyph-name="lcaron" unicode="&#x13e;" horiz-adv-x="372" 
d="M312 465l43 256h123l13 -15l-84 -241h-95zM204 -11q-85 0 -131.5 45.5t-32.5 144.5l77 538h185l-71 -494q-11 -69 44 -69q14 0 29 4l4 -2l-22 -157q-43 -10 -82 -10z" />
    <glyph glyph-name="Ldot" unicode="&#x13f;" horiz-adv-x="511" 
d="M309 663l-73 -510h233l-21 -153h-418l94 663h185zM446 490q43 0 65 -22.5t22 -56.5q0 -44 -29 -73.5t-82 -29.5q-43 0 -65.5 21t-22.5 56q0 44 29.5 74.5t82.5 30.5z" />
    <glyph glyph-name="ldot" unicode="&#x140;" horiz-adv-x="471" 
d="M204 -11q-85 0 -131.5 45.5t-32.5 144.5l77 538h185l-71 -494q-11 -69 44 -69q14 0 29 4l4 -2l-22 -157q-43 -10 -82 -10zM387 268q-44 0 -67 22.5t-23 58.5q0 43 29 72t82 29q42 0 64 -23t22 -58q0 -44 -27.5 -72.5t-79.5 -28.5z" />
    <glyph glyph-name="Lslash" unicode="&#x141;" horiz-adv-x="496" 
d="M236 153h233l-21 -153h-418l30 210l-65 -39l-5 2l17 125l71 42l46 323h185l-29 -203l70 41h4l-18 -126l-74 -45z" />
    <glyph glyph-name="lslash" unicode="&#x142;" horiz-adv-x="393" 
d="M277 356l-19 -133q-12 -69 44 -69q14 0 29 4l4 -2l-22 -157q-43 -10 -82 -10q-85 0 -131.5 45.5t-32.5 144.5l10 69l-67 -36l-7 4l18 121l74 41l49 339h185l-33 -230l70 38l6 -4l-18 -123z" />
    <glyph glyph-name="Nacute" unicode="&#x143;" horiz-adv-x="717" 
d="M319 703l-32 88l239 137l60 -134l-13 -18zM30 0l95 669h83l272 -323h3l46 323h177l-96 -669h-81l-269 334h-3l-50 -334h-177z" />
    <glyph glyph-name="nacute" unicode="&#x144;" horiz-adv-x="621" 
d="M519 668l-254 -109l-52 99l213 162l100 -132zM419 536q75 0 118.5 -46t43.5 -124q0 -33 -4 -60l-45 -306h-186l37 270q2 18 2 23q1 31 -16 47.5t-46 16.5q-59 0 -75 -60l-42 -297h-187l74 521h152l7 -68q57 83 167 83z" />
    <glyph glyph-name="Ncommaaccent" unicode="&#x145;" horiz-adv-x="717" 
d="M30 0l95 669h83l272 -323h3l46 323h177l-96 -669h-81l-269 334h-3l-50 -334h-177zM207 -258q27 86 36 140q2 11 4 67l139 11l9 -20q-15 -107 -87 -198h-101z" />
    <glyph glyph-name="ncommaaccent" unicode="&#x146;" horiz-adv-x="621" 
d="M419 536q75 0 118.5 -46t43.5 -124q0 -33 -4 -60l-45 -306h-186l37 270q2 18 2 23q1 31 -16 47.5t-46 16.5q-59 0 -75 -60l-42 -297h-187l74 521h152l7 -68q57 83 167 83zM192 -51l139 11l9 -20q-15 -107 -87 -198h-101q27 86 36 140q2 11 4 67z" />
    <glyph glyph-name="Ncaron" unicode="&#x147;" horiz-adv-x="717" 
d="M379 709l-118 141l64 69l111 -77l130 77l50 -67l-154 -143h-83zM30 0l95 669h83l272 -323h3l46 323h177l-96 -669h-81l-269 334h-3l-50 -334h-177z" />
    <glyph glyph-name="ncaron" unicode="&#x148;" horiz-adv-x="621" 
d="M395 575h-85l-102 158l67 57l98 -80l115 80l50 -57zM419 536q75 0 118.5 -46t43.5 -124q0 -33 -4 -60l-45 -306h-186l37 270q2 18 2 23q1 31 -16 47.5t-46 16.5q-59 0 -75 -60l-42 -297h-187l74 521h152l7 -68q57 83 167 83z" />
    <glyph glyph-name="Eng" unicode="&#x14a;" horiz-adv-x="716" 
d="M706 669l-36 -248l-44 -314q-24 -165 -98 -237t-193 -72q-33 0 -60 4l21 151l1 1q15 -4 35 -4q96 0 115 138l2 12l-189 234h-3l-50 -334h-177l95 669h83l272 -323h3l46 323h177z" />
    <glyph glyph-name="eng" unicode="&#x14b;" horiz-adv-x="620" 
d="M419 536q75 0 118.5 -46t43.5 -124q0 -33 -4 -60l-46 -315q-15 -107 -79 -159.5t-164 -52.5q-32 0 -77 7l19 151l3 2q22 -5 37 -5q66 0 79 91l34 245q2 18 2 23q1 31 -16 47.5t-46 16.5q-59 0 -75 -60l-42 -297h-187l74 521h152l7 -68q57 83 167 83z" />
    <glyph glyph-name="Omacron" unicode="&#x14c;" horiz-adv-x="751" 
d="M272 743l15 110h332l-14 -110h-333zM363 -12q-87 0 -159.5 33.5t-119 106t-46.5 171.5q0 166 102.5 273t266.5 107q65 0 122.5 -20t103 -58t72.5 -99t27 -137q0 -165 -103 -271t-266 -106zM372 155q76 0 120.5 54.5t44.5 147.5q0 73 -36.5 114t-102.5 41q-75 0 -120 -55
t-45 -150q0 -72 36 -112t103 -40z" />
    <glyph glyph-name="omacron" unicode="&#x14d;" horiz-adv-x="618" 
d="M183 601l16 108h308l-16 -108h-308zM287 -13q-111 0 -184.5 61.5t-73.5 183.5q0 133 83.5 218t219.5 85q111 0 184 -61t73 -185q0 -132 -83 -217t-219 -85zM300 144q48 0 73 41.5t25 97.5q0 44 -20 69t-59 25q-50 0 -74.5 -40.5t-24.5 -98.5q0 -94 80 -94z" />
    <glyph glyph-name="Ohungarumlaut" unicode="&#x150;" horiz-adv-x="751" 
d="M334 707l-73 32l81 199l119 -33v-24zM551 707l-73 32l81 199l119 -33l1 -24zM363 -12q-87 0 -159.5 33.5t-119 106t-46.5 171.5q0 166 102.5 273t266.5 107q65 0 122.5 -20t103 -58t72.5 -99t27 -137q0 -165 -103 -271t-266 -106zM372 155q76 0 120.5 54.5t44.5 147.5
q0 73 -36.5 114t-102.5 41q-75 0 -120 -55t-45 -150q0 -72 36 -112t103 -40z" />
    <glyph glyph-name="ohungarumlaut" unicode="&#x151;" horiz-adv-x="618" 
d="M228 551l-78 45l102 198l125 -42l-1 -24zM428 551l-77 45l102 198l125 -42l-1 -24zM287 -13q-111 0 -184.5 61.5t-73.5 183.5q0 133 83.5 218t219.5 85q111 0 184 -61t73 -185q0 -132 -83 -217t-219 -85zM300 144q48 0 73 41.5t25 97.5q0 44 -20 69t-59 25
q-50 0 -74.5 -40.5t-24.5 -98.5q0 -94 80 -94z" />
    <glyph glyph-name="OE" unicode="&#x152;" horiz-adv-x="998" 
d="M975 517h-277q23 -45 31 -105h214l-19 -144h-203q-15 -68 -51 -122h265l-20 -146h-452q-47 -12 -100 -12q-87 0 -159.5 33.5t-119 106t-46.5 171.5q0 166 102.5 273t266.5 107q60 0 111 -16h477zM233 307q0 -72 36 -112t103 -40q76 0 120.5 54.5t44.5 147.5
q0 73 -36.5 114t-102.5 41q-75 0 -120 -55t-45 -150z" />
    <glyph glyph-name="oe" unicode="&#x153;" horiz-adv-x="896" 
d="M856 207h-299q12 -80 107 -80q75 0 149 39l4 -2l-19 -137q-77 -41 -180 -41q-95 0 -164 69q-71 -69 -180 -69q-104 0 -174.5 60.5t-70.5 173.5q0 147 80.5 231.5t209.5 84.5q115 0 176 -71q74 71 160 71q101 0 159 -55t58 -156q0 -51 -16 -118zM563 305h139v17
q0 66 -57 66q-62 0 -82 -83zM374 288q2 90 -61 90q-43 0 -67 -41.5t-25 -102.5q-1 -42 15 -66t48 -24q43 0 66 41t24 103z" />
    <glyph glyph-name="Racute" unicode="&#x154;" horiz-adv-x="630" 
d="M516 770l-254 -73l-32 88l239 137l60 -134zM606 482q0 -186 -151 -251l109 -227l-2 -4h-195l-91 208h-33l-29 -208h-184l95 663q94 14 221 14q53 0 97 -9t82 -30t59.5 -61t21.5 -95zM339 519q-27 0 -52 -3l-24 -171h48q47 0 76.5 28t29.5 75q0 35 -21.5 53t-56.5 18z" />
    <glyph glyph-name="racute" unicode="&#x155;" horiz-adv-x="423" 
d="M357 820l100 -132l-7 -20l-254 -109l-52 99zM251 451q23 42 60.5 62.5t78.5 20.5q27 0 52 -8l-26 -172l-4 -2q-22 8 -50 8q-97 0 -121 -103l-36 -257h-186l74 521h151z" />
    <glyph glyph-name="Rcommaaccent" unicode="&#x156;" horiz-adv-x="630" 
d="M606 482q0 -186 -151 -251l109 -227l-2 -4h-195l-91 208h-33l-29 -208h-184l95 663q94 14 221 14q53 0 97 -9t82 -30t59.5 -61t21.5 -95zM339 519q-27 0 -52 -3l-24 -171h48q47 0 76.5 28t29.5 75q0 35 -21.5 53t-56.5 18zM185 -51l139 11l9 -20q-15 -107 -87 -198h-101
q27 86 36 140q2 11 4 67z" />
    <glyph glyph-name="rcommaaccent" unicode="&#x157;" horiz-adv-x="423" 
d="M390 534q27 0 52 -8l-26 -172l-4 -2q-22 8 -50 8q-97 0 -121 -103l-36 -257h-186l74 521h151l7 -70q23 42 60.5 62.5t78.5 20.5zM36 -51l139 11l9 -20q-15 -107 -87 -198h-101q27 86 36 140q2 11 4 67z" />
    <glyph glyph-name="Rcaron" unicode="&#x158;" horiz-adv-x="630" 
d="M405 703h-83l-118 141l64 69l111 -77l130 77l50 -67zM606 482q0 -186 -151 -251l109 -227l-2 -4h-195l-91 208h-33l-29 -208h-184l95 663q94 14 221 14q53 0 97 -9t82 -30t59.5 -61t21.5 -95zM339 519q-27 0 -52 -3l-24 -171h48q47 0 76.5 28t29.5 75q0 35 -21.5 53
t-56.5 18z" />
    <glyph glyph-name="rcaron" unicode="&#x159;" horiz-adv-x="423" 
d="M326 575h-85l-102 158l67 57l98 -80l115 80l50 -57zM251 451q23 42 60.5 62.5t78.5 20.5q27 0 52 -8l-26 -172l-4 -2q-22 8 -50 8q-97 0 -121 -103l-36 -257h-186l74 521h151z" />
    <glyph glyph-name="Sacute" unicode="&#x15a;" horiz-adv-x="518" 
d="M234 703l-32 88l239 137l60 -134l-13 -18zM205 -11q-111 0 -194 44l26 166l4 1q72 -57 165 -57q80 0 80 52q0 22 -17 39t-65 44q-60 32 -94.5 73.5t-34.5 104.5q0 75 39.5 127t99 74.5t132.5 22.5q101 0 169 -29l-21 -156l-4 -2q-58 29 -137 31q-91 1 -91 -42q0 -8 4 -15
t18.5 -17t24.5 -15.5t40 -22.5q58 -31 91.5 -73t33.5 -108q0 -110 -74.5 -176t-194.5 -66z" />
    <glyph glyph-name="sacute" unicode="&#x15b;" horiz-adv-x="488" 
d="M204 572l-52 99l213 162l100 -132l-7 -20zM194 -14q-106 0 -189 38l21 143l4 2q73 -55 177 -55q58 0 58 35q0 14 -17 24.5t-72 28.5q-124 40 -124 141q0 89 68 141t191 52q98 0 158 -27l-20 -145l-4 -2q-52 30 -146 30q-67 0 -67 -28q0 -13 14.5 -20.5t75.5 -27.5
q64 -21 92.5 -53.5t28.5 -82.5q0 -90 -66.5 -142t-182.5 -52z" />
    <glyph glyph-name="Scedilla" unicode="&#x15e;" horiz-adv-x="518" 
d="M346 680q101 0 169 -29l-21 -156l-4 -2q-58 29 -137 31q-91 1 -91 -42q0 -8 4 -15t18.5 -17t24.5 -15.5t40 -22.5q58 -31 91.5 -73t33.5 -108q0 -96 -58.5 -160t-157.5 -78l-33 -34q10 0 16 -1q80 -9 80 -81q0 -67 -48.5 -95.5t-122.5 -28.5q-40 0 -65 7l10 71l3 1
q20 -7 37 -7q55 0 55 40q0 26 -34 26q-15 0 -31 -2l-2 1l9 65l30 35q-83 7 -151 43l26 166l4 1q72 -57 165 -57q80 0 80 52q0 22 -17 39t-65 44q-60 32 -94.5 73.5t-34.5 104.5q0 75 39.5 127t99 74.5t132.5 22.5z" />
    <glyph glyph-name="scedilla" unicode="&#x15f;" horiz-adv-x="488" 
d="M311 536q98 0 158 -27l-20 -145l-4 -2q-52 30 -146 30q-67 0 -67 -28q0 -13 14.5 -20.5t75.5 -27.5q64 -21 92.5 -53.5t28.5 -82.5q0 -79 -52.5 -129.5t-145.5 -61.5l-29 -30q10 0 16 -1q80 -9 80 -81q0 -67 -48.5 -95.5t-122.5 -28.5q-40 0 -65 7l10 71l3 1q20 -7 37 -7
q55 0 55 40q0 26 -34 26q-15 0 -31 -2l-2 1l9 65l28 32q-76 6 -146 37l21 143l4 2q73 -55 177 -55q58 0 58 35q0 14 -17 24.5t-72 28.5q-124 40 -124 141q0 89 68 141t191 52z" />
    <glyph glyph-name="Scaron" unicode="&#x160;" horiz-adv-x="518" 
d="M294 709l-118 141l64 69l111 -77l130 77l50 -67l-154 -143h-83zM205 -11q-111 0 -194 44l26 166l4 1q72 -57 165 -57q80 0 80 52q0 22 -17 39t-65 44q-60 32 -94.5 73.5t-34.5 104.5q0 75 39.5 127t99 74.5t132.5 22.5q101 0 169 -29l-21 -156l-4 -2q-58 29 -137 31
q-91 1 -91 -42q0 -8 4 -15t18.5 -17t24.5 -15.5t40 -22.5q58 -31 91.5 -73t33.5 -108q0 -110 -74.5 -176t-194.5 -66z" />
    <glyph glyph-name="scaron" unicode="&#x161;" horiz-adv-x="488" 
d="M249 588l-102 158l67 57l98 -80l115 80l50 -57l-143 -158h-85zM194 -14q-106 0 -189 38l21 143l4 2q73 -55 177 -55q58 0 58 35q0 14 -17 24.5t-72 28.5q-124 40 -124 141q0 89 68 141t191 52q98 0 158 -27l-20 -145l-4 -2q-52 30 -146 30q-67 0 -67 -28
q0 -13 14.5 -20.5t75.5 -27.5q64 -21 92.5 -53.5t28.5 -82.5q0 -90 -66.5 -142t-182.5 -52z" />
    <glyph glyph-name="uni0162" unicode="&#x162;" horiz-adv-x="591" 
d="M356 0h-52l-40 -41q10 0 16 -1q80 -9 80 -81q0 -67 -48.5 -95.5t-122.5 -28.5q-40 0 -65 7l10 71l3 1q20 -7 37 -7q55 0 55 40q0 26 -34 26q-15 0 -31 -2l-2 1l9 65l38 45h-40l72 497h-195l24 166h567l-24 -166h-187z" />
    <glyph glyph-name="uni0163" unicode="&#x163;" horiz-adv-x="435" 
d="M290 376l-16 -111q-7 -56 -7 -63q0 -44 60 -44q25 0 59 12l2 -1l-21 -156q-36 -18 -92 -20l-33 -34q10 0 16 -1q80 -9 80 -81q0 -67 -48.5 -95.5t-122.5 -28.5q-40 0 -65 7l10 71l3 1q20 -7 37 -7q55 0 55 40q0 26 -34 26q-15 0 -31 -2l-2 1l9 65l39 46h5
q-118 30 -118 154q0 20 3 44l25 177h-77l21 145h77l17 121l190 35l1 -3l-22 -153h128l-18 -145h-130z" />
    <glyph glyph-name="Tcaron" unicode="&#x164;" horiz-adv-x="591" 
d="M399 703h-83l-118 141l64 69l111 -77l130 77l50 -67zM637 663l-24 -166h-187l-70 -497h-187l72 497h-195l24 166h567z" />
    <glyph glyph-name="tcaron" unicode="&#x165;" horiz-adv-x="435" 
d="M523 830l13 -15l-84 -241h-95l43 256h123zM332 674l-22 -153h128l-18 -145h-130l-16 -111q-7 -56 -7 -63q0 -44 60 -44q25 0 59 12l2 -1l-21 -156q-39 -20 -103 -20q-90 0 -139.5 41.5t-49.5 120.5q0 20 3 44l25 177h-77l21 145h77l17 121l190 35z" />
    <glyph glyph-name="Tbar" unicode="&#x166;" horiz-adv-x="597" 
d="M616 497h-187l-20 -146h74l-15 -111h-75l-34 -240h-187l35 240h-87l16 111h87l21 146h-195l24 166h567z" />
    <glyph glyph-name="tbar" unicode="&#x167;" horiz-adv-x="436" 
d="M422 376h-130l-8 -53h84l-15 -109h-83q-1 -4 -1 -12q0 -44 60 -44q25 0 59 12l2 -1l-21 -156q-39 -20 -103 -20q-90 0 -139.5 41.5t-49.5 120.5q0 20 3 44l2 15h-76l15 109h77l7 53h-77l21 145h77l17 121l190 35l1 -3l-22 -153h128z" />
    <glyph glyph-name="Utilde" unicode="&#x168;" horiz-adv-x="701" 
d="M323 707l-98 29q8 60 45 101.5t84 41.5q40 0 81 -15.5t59 -15.5q13 0 25 10t14 24l3 2l99 -28q-8 -62 -44.5 -102t-83.5 -40q-33 0 -77.5 14.5t-61.5 14.5q-16 0 -28 -10.5t-14 -23.5zM311 -13q-124 0 -188.5 56.5t-64.5 164.5q0 36 4 64l55 391h185l-53 -368
q-5 -30 -5 -65q0 -41 24 -63.5t69 -22.5q62 0 89.5 36t38.5 115l52 368h180l-56 -391q-20 -135 -106 -210t-224 -75z" />
    <glyph glyph-name="utilde" unicode="&#x169;" horiz-adv-x="611" 
d="M273 597l-4 -3l-111 32q7 56 48.5 99.5t98.5 43.5q34 0 67 -16t54 -16q16 0 27.5 10t13.5 24l4 2l110 -29q-9 -66 -52 -105.5t-96 -39.5q-31 0 -66.5 16.5t-51.5 16.5q-35 0 -42 -35zM405 521h186l-75 -521h-151l-7 72q-65 -85 -177 -85q-66 0 -105.5 37t-39.5 98
q0 30 3 51l50 348h186l-42 -292q-3 -24 -3 -34q-2 -50 50 -50t77 46z" />
    <glyph glyph-name="Umacron" unicode="&#x16a;" horiz-adv-x="701" 
d="M253 736l15 110h332l-14 -110h-333zM311 -13q-124 0 -188.5 56.5t-64.5 164.5q0 36 4 64l55 391h185l-53 -368q-5 -30 -5 -65q0 -41 24 -63.5t69 -22.5q62 0 89.5 36t38.5 115l52 368h180l-56 -391q-20 -135 -106 -210t-224 -75z" />
    <glyph glyph-name="umacron" unicode="&#x16b;" horiz-adv-x="611" 
d="M528 719l-16 -108h-308l16 108h308zM405 521h186l-75 -521h-151l-7 72q-65 -85 -177 -85q-66 0 -105.5 37t-39.5 98q0 30 3 51l50 348h186l-42 -292q-3 -24 -3 -34q-2 -50 50 -50t77 46z" />
    <glyph glyph-name="Uring" unicode="&#x16e;" horiz-adv-x="701" 
d="M421 689q-55 0 -87.5 30t-32.5 79q0 59 39 95.5t99 36.5q56 0 88.5 -30t32.5 -79q0 -59 -39 -95.5t-100 -36.5zM428 767q20 0 33 13t13 36q0 16 -11 26.5t-28 10.5q-20 0 -33 -13t-13 -36q0 -16 11 -26.5t28 -10.5zM311 -13q-124 0 -188.5 56.5t-64.5 164.5q0 36 4 64
l55 391h185l-53 -368q-5 -30 -5 -65q0 -41 24 -63.5t69 -22.5q62 0 89.5 36t38.5 115l52 368h180l-56 -391q-20 -135 -106 -210t-224 -75z" />
    <glyph glyph-name="uring" unicode="&#x16f;" horiz-adv-x="611" 
d="M359 556q-55 0 -87.5 33t-32.5 86q0 63 40.5 102.5t101.5 39.5q56 0 88.5 -33t32.5 -86q0 -63 -40.5 -102.5t-102.5 -39.5zM376 732q-21 0 -35 -13.5t-14 -37.5q0 -17 11.5 -28t28.5 -11q21 0 35 13.5t14 37.5q0 17 -11.5 28t-28.5 11zM405 521h186l-75 -521h-151l-7 72
q-65 -85 -177 -85q-66 0 -105.5 37t-39.5 98q0 30 3 51l50 348h186l-42 -292q-3 -24 -3 -34q-2 -50 50 -50t77 46z" />
    <glyph glyph-name="Uhungarumlaut" unicode="&#x170;" horiz-adv-x="701" 
d="M315 700l-73 32l81 199l119 -33v-24zM532 700l-73 32l81 199l119 -33l1 -24zM311 -13q-124 0 -188.5 56.5t-64.5 164.5q0 36 4 64l55 391h185l-53 -368q-5 -30 -5 -65q0 -41 24 -63.5t69 -22.5q62 0 89.5 36t38.5 115l52 368h180l-56 -391q-20 -135 -106 -210t-224 -75z
" />
    <glyph glyph-name="uhungarumlaut" unicode="&#x171;" horiz-adv-x="611" 
d="M397 738l-148 -177l-78 45l102 198l125 -42zM474 804l125 -42l-1 -24l-149 -177l-77 45zM357 191l48 330h186l-75 -521h-151l-7 72q-65 -85 -177 -85q-66 0 -105.5 37t-39.5 98q0 30 3 51l50 348h186l-42 -292q-3 -24 -3 -34q-2 -50 50 -50t77 46z" />
    <glyph glyph-name="Uogonek" unicode="&#x172;" horiz-adv-x="701" 
d="M517 663h180l-56 -391q-15 -105 -71.5 -174.5t-147.5 -95.5q-83 -49 -83 -107q0 -39 36 -39q16 0 29 4l4 -4l-11 -86q-34 -8 -71 -8q-54 0 -89 22t-35 66q0 76 90 137q-115 4 -174.5 61t-59.5 160q0 36 4 64l55 391h185l-53 -368q-5 -30 -5 -65q0 -41 24 -63.5t69 -22.5
q62 0 89.5 36t38.5 115z" />
    <glyph glyph-name="uogonek" unicode="&#x173;" horiz-adv-x="611" 
d="M514 0q-96 -52 -96 -114q0 -39 36 -39q16 0 29 4l4 -4l-11 -86q-34 -8 -71 -8q-54 0 -89 22t-35 66q0 87 124 159h-40l-7 72q-65 -85 -177 -85q-66 0 -105.5 37t-39.5 98q0 30 3 51l50 348h186l-42 -292q-3 -24 -3 -34q-2 -50 50 -50t77 46l48 330h186l-75 -521h-2z" />
    <glyph glyph-name="Wcircumflex" unicode="&#x174;" horiz-adv-x="936" 
d="M546 790l-130 -77l-50 67l154 143h83l118 -141l-64 -69zM992 663l2 -4l-296 -659h-141l-62 338l-4 42l-18 -42l-157 -338h-146l-120 659l2 4h196l35 -350l3 -58l22 58l153 343h137l56 -324l6 -69l24 69l131 331h177z" />
    <glyph glyph-name="wcircumflex" unicode="&#x175;" horiz-adv-x="790" 
d="M453 669l-117 -80l-53 58l142 157h85l105 -155l-69 -60zM823 521l2 -4l-237 -517h-134l-43 295l-2 30l-9 -30l-131 -295h-136l-97 517l1 4h187l23 -252v-37l10 36l104 253h153l31 -251l3 -34l9 34l93 251h173z" />
    <glyph glyph-name="Ycircumflex" unicode="&#x176;" horiz-adv-x="613" 
d="M254 703l-50 67l154 143h83l118 -141l-64 -69l-111 77zM178 0l37 258l-165 401l2 4h200l80 -237l152 237h187l2 -4l-276 -414l-35 -245h-184z" />
    <glyph glyph-name="ycircumflex" unicode="&#x177;" horiz-adv-x="536" 
d="M329 655l-117 -80l-53 58l142 157h85l105 -155l-69 -60zM574 517l-217 -418l-31 -61q-61 -120 -116.5 -165t-151.5 -45q-42 0 -70 11l21 149l4 2q16 -6 40 -6q83 0 114 70l-131 463l2 4h197l45 -247l104 247h188z" />
    <glyph glyph-name="Ydieresis" unicode="&#x178;" horiz-adv-x="613" 
d="M256 714q-37 0 -60.5 24t-23.5 60q0 42 28.5 69t67.5 27q37 0 60.5 -24t23.5 -60q0 -42 -28.5 -69t-67.5 -27zM508 714q-37 0 -60.5 24t-23.5 60q0 42 28.5 69t67.5 27q37 0 60.5 -24t23.5 -60q0 -42 -28.5 -69t-67.5 -27zM178 0l37 258l-165 401l2 4h200l80 -237
l152 237h187l2 -4l-276 -414l-35 -245h-184z" />
    <glyph glyph-name="Zacute" unicode="&#x179;" horiz-adv-x="598" 
d="M256 697l-32 88l239 137l60 -134l-13 -18zM17 0l-7 63l330 449h-269l19 151h507l4 -63l-337 -448h285l-21 -152h-511z" />
    <glyph glyph-name="zacute" unicode="&#x17a;" horiz-adv-x="519" 
d="M470 668l-254 -109l-52 99l213 162l100 -132zM497 423l-245 -279h227l-21 -144h-437l-7 92l238 280h-199l18 149h420z" />
    <glyph glyph-name="Zdotaccent" unicode="&#x17b;" horiz-adv-x="598" 
d="M362 701q-44 0 -72.5 28.5t-28.5 71.5q0 51 34 83t81 32q44 0 72.5 -28.5t28.5 -71.5q0 -51 -34 -83t-81 -32zM17 0l-7 63l330 449h-269l19 151h507l4 -63l-337 -448h285l-21 -152h-511z" />
    <glyph glyph-name="zdotaccent" unicode="&#x17c;" horiz-adv-x="519" 
d="M310 578q-44 0 -72.5 28.5t-28.5 71.5q0 51 34 83t81 32q44 0 72.5 -28.5t28.5 -71.5q0 -51 -34 -83t-81 -32zM497 423l-245 -279h227l-21 -144h-437l-7 92l238 280h-199l18 149h420z" />
    <glyph glyph-name="Zcaron" unicode="&#x17d;" horiz-adv-x="598" 
d="M316 703l-118 141l64 69l111 -77l130 77l50 -67l-154 -143h-83zM17 0l-7 63l330 449h-269l19 151h507l4 -63l-337 -448h285l-21 -152h-511z" />
    <glyph glyph-name="zcaron" unicode="&#x17e;" horiz-adv-x="519" 
d="M346 575h-85l-102 158l67 57l98 -80l115 80l50 -57zM497 423l-245 -279h227l-21 -144h-437l-7 92l238 280h-199l18 149h420z" />
    <glyph glyph-name="uni01EA" unicode="&#x1ea;" horiz-adv-x="751" 
d="M444 -4q-73 -47 -73 -101q0 -39 36 -39q16 0 29 4l4 -4l-11 -86q-34 -8 -71 -8q-54 0 -89 22t-35 66q0 75 93 140q-124 10 -206.5 91t-82.5 218q0 166 102.5 273t266.5 107q65 0 122.5 -20t103 -58t72.5 -99t27 -137q0 -143 -78.5 -243t-209.5 -126zM233 307
q0 -72 36 -112t103 -40q76 0 120.5 54.5t44.5 147.5q0 73 -36.5 114t-102.5 41q-75 0 -120 -55t-45 -150z" />
    <glyph glyph-name="uni01EB" unicode="&#x1eb;" horiz-adv-x="618" 
d="M412 10q-98 -52 -98 -115q0 -39 36 -39q16 0 29 4l4 -4l-11 -86q-34 -8 -71 -8q-54 0 -89 22t-35 66q0 75 90 138q-104 5 -171 66t-67 178q0 133 83.5 218t219.5 85q111 0 184 -61t73 -185q0 -97 -47 -171.5t-130 -107.5zM220 238q0 -94 80 -94q48 0 73 41.5t25 97.5
q0 44 -20 69t-59 25q-50 0 -74.5 -40.5t-24.5 -98.5z" />
    <glyph glyph-name="AEacute" unicode="&#x1fc;" horiz-adv-x="860" 
d="M690 770l-254 -73l-32 88l239 137l60 -134zM844 513h-220l-14 -93h200l-20 -148h-201l-18 -122h227l-21 -150h-415l18 123h-169l-80 -123h-187l459 663h463zM295 253h104l30 206l-102 -156z" />
    <glyph glyph-name="aeacute" unicode="&#x1fd;" horiz-adv-x="915" 
d="M660 668l-254 -109l-52 99l213 162l100 -132zM891 331q0 -51 -16 -120l-317 -1q15 -78 112 -78q78 0 162 35l4 -2l-20 -140q-75 -39 -192 -39q-151 0 -217 98q-61 -98 -186 -98q-95 0 -149.5 59.5t-54.5 150.5q0 160 86 250t210 90q105 0 173 -57q77 57 183 57
q100 0 161 -52.5t61 -152.5zM649 387q-61 0 -85 -79l149 -1v11q0 69 -64 69zM277 154q77 0 95 130q6 36 18 69q-31 25 -73 25q-46 0 -75.5 -47.5t-29.5 -102.5q0 -35 17 -54.5t48 -19.5z" />
    <glyph glyph-name="Oslashacute" unicode="&#x1fe;" horiz-adv-x="751" 
d="M586 770l-254 -73l-32 88l239 137l60 -134zM635 599q97 -85 97 -234q0 -165 -103 -271t-266 -106q-85 0 -156 33l-54 -72h-104v15l80 109q-91 86 -91 226q0 166 102.5 273t266.5 107q80 0 145 -28l48 65h113v-12zM233 307q0 -44 13 -74l200 272q-21 7 -48 7
q-75 0 -120 -55t-45 -150zM372 155q76 0 120.5 54.5t44.5 147.5q0 51 -18 86l-206 -278q24 -10 59 -10z" />
    <glyph glyph-name="oslashacute" unicode="&#x1ff;" horiz-adv-x="618" 
d="M481 668l-254 -109l-52 99l213 162l100 -132zM515 475q74 -66 74 -186q0 -132 -83 -217t-219 -85q-49 0 -93 12l-39 -56h-103v15l57 85q-80 64 -80 189q0 133 83.5 218t219.5 85q53 0 96 -13l35 54h112v-12zM300 144q48 0 73 41.5t25 97.5q0 44 -20 69t-59 25
q-50 0 -74.5 -40.5t-24.5 -98.5q0 -94 80 -94z" />
    <glyph glyph-name="Scommaaccent" unicode="&#x218;" horiz-adv-x="518" 
d="M205 -11q-111 0 -194 44l26 166l4 1q72 -57 165 -57q80 0 80 52q0 22 -17 39t-65 44q-60 32 -94.5 73.5t-34.5 104.5q0 75 39.5 127t99 74.5t132.5 22.5q101 0 169 -29l-21 -156l-4 -2q-58 29 -137 31q-91 1 -91 -42q0 -8 4 -15t18.5 -17t24.5 -15.5t40 -22.5
q58 -31 91.5 -73t33.5 -108q0 -110 -74.5 -176t-194.5 -66zM95 -258q27 86 36 140q2 11 4 67l139 11l9 -20q-15 -107 -87 -198h-101z" />
    <glyph glyph-name="scommaaccent" unicode="&#x219;" horiz-adv-x="488" 
d="M194 -14q-106 0 -189 38l21 143l4 2q73 -55 177 -55q58 0 58 35q0 14 -17 24.5t-72 28.5q-124 40 -124 141q0 89 68 141t191 52q98 0 158 -27l-20 -145l-4 -2q-52 30 -146 30q-67 0 -67 -28q0 -13 14.5 -20.5t75.5 -27.5q64 -21 92.5 -53.5t28.5 -82.5q0 -90 -66.5 -142
t-182.5 -52zM86 -258q27 86 36 140q2 11 4 67l139 11l9 -20q-15 -107 -87 -198h-101z" />
    <glyph glyph-name="uni021A" unicode="&#x21a;" horiz-adv-x="591" 
d="M637 663l-24 -166h-187l-70 -497h-187l72 497h-195l24 166h567zM174 -51l139 11l9 -20q-15 -107 -87 -198h-101q27 86 36 140q2 11 4 67z" />
    <glyph glyph-name="uni021B" unicode="&#x21b;" horiz-adv-x="435" 
d="M290 376l-16 -111q-7 -56 -7 -63q0 -44 60 -44q25 0 59 12l2 -1l-21 -156q-39 -20 -103 -20q-90 0 -139.5 41.5t-49.5 120.5q0 20 3 44l25 177h-77l21 145h77l17 121l190 35l1 -3l-22 -153h128l-18 -145h-130zM152 -51l139 11l9 -20q-15 -107 -87 -198h-101q27 86 36 140
q2 11 4 67z" />
    <glyph glyph-name="uni0237" unicode="&#x237;" horiz-adv-x="318" 
d="M-20 -172q-34 0 -81 7l23 160l4 2q16 -4 36 -4q41 0 61 23t26 67l63 438h185l-68 -482q-15 -106 -81 -158.5t-168 -52.5z" />
    <glyph glyph-name="circumflex" unicode="&#x2c6;" horiz-adv-x="426" 
d="M153 575l-53 58l142 157h85l105 -155l-69 -60l-93 80z" />
    <glyph glyph-name="caron" unicode="&#x2c7;" horiz-adv-x="426" 
d="M216 575l-102 158l67 57l98 -80l115 80l50 -57l-143 -158h-85z" />
    <glyph glyph-name="breve" unicode="&#x2d8;" horiz-adv-x="383" 
d="M239 579q-72 0 -115 46.5t-31 125.5l107 12l5 -4q-2 -27 11 -44.5t40 -17.5q50 0 69 62l4 3l98 -11q-12 -82 -61.5 -127t-126.5 -45z" />
    <glyph glyph-name="dotaccent" unicode="&#x2d9;" horiz-adv-x="308" 
d="M206 578q-44 0 -72.5 28.5t-28.5 71.5q0 51 34 83t81 32q44 0 72.5 -28.5t28.5 -71.5q0 -51 -34 -83t-81 -32z" />
    <glyph glyph-name="ring" unicode="&#x2da;" horiz-adv-x="317" 
d="M200 556q-55 0 -87.5 33t-32.5 86q0 63 40.5 102.5t101.5 39.5q56 0 88.5 -33t32.5 -86q0 -63 -40.5 -102.5t-102.5 -39.5zM208 642q21 0 35 13.5t14 37.5q0 17 -11.5 28t-28.5 11q-21 0 -35 -13.5t-14 -37.5q0 -17 11.5 -28t28.5 -11z" />
    <glyph glyph-name="ogonek" unicode="&#x2db;" horiz-adv-x="230" 
d="M90 -238q-54 0 -89 22t-35 66q0 88 129 162l106 -2q-98 -52 -98 -115q0 -39 36 -39q16 0 29 4l4 -4l-11 -86q-34 -8 -71 -8z" />
    <glyph glyph-name="tilde" unicode="&#x2dc;" horiz-adv-x="423" 
d="M169 594l-111 32q7 56 48.5 99.5t98.5 43.5q34 0 67 -16t54 -16q16 0 27.5 10t13.5 24l4 2l110 -29q-9 -66 -52 -105.5t-96 -39.5q-31 0 -66.5 16.5t-51.5 16.5q-35 0 -42 -35z" />
    <glyph glyph-name="hungarumlaut" unicode="&#x2dd;" horiz-adv-x="451" 
d="M140 561l-78 45l102 198l125 -42l-1 -24zM340 561l-77 45l102 198l125 -42l-1 -24z" />
    <glyph glyph-name="gravecomb" unicode="&#x300;" 
d="M15 563l-257 100l-8 20l95 135l219 -155z" />
    <glyph glyph-name="acutecomb" unicode="&#x301;" 
d="M-183 559l-52 99l213 162l100 -132l-7 -20z" />
    <glyph glyph-name="uni0302" unicode="&#x302;" 
d="M-272 575l-53 58l142 157h85l105 -155l-69 -60l-93 80z" />
    <glyph glyph-name="tildecomb" unicode="&#x303;" 
d="M-252 594l-111 32q7 56 48.5 99.5t98.5 43.5q34 0 67 -16t54 -16q16 0 27.5 10t13.5 24l4 2l110 -29q-9 -66 -52 -105.5t-96 -39.5q-31 0 -66.5 16.5t-51.5 16.5q-35 0 -42 -35z" />
    <glyph glyph-name="uni0304" unicode="&#x304;" 
d="M-283 611l16 108h308l-16 -108h-308z" />
    <glyph glyph-name="uni0306" unicode="&#x306;" 
d="M-143 579q-72 0 -115 46.5t-31 125.5l107 12l5 -4q-2 -27 11 -44.5t40 -17.5q50 0 69 62l4 3l98 -11q-12 -82 -61.5 -127t-126.5 -45z" />
    <glyph glyph-name="uni0307" unicode="&#x307;" 
d="M-102 578q-44 0 -72.5 28.5t-28.5 71.5q0 51 34 83t81 32q44 0 72.5 -28.5t28.5 -71.5q0 -51 -34 -83t-81 -32z" />
    <glyph glyph-name="uni0308" unicode="&#x308;" 
d="M-295 583q-42 0 -69 27t-27 68q0 49 32 79t77 30q42 0 69 -27t27 -68q0 -48 -32.5 -78.5t-76.5 -30.5zM-59 583q-42 0 -69 27t-27 68q0 49 32 79t77 30q42 0 69 -27t27 -68q0 -48 -32.5 -78.5t-76.5 -30.5z" />
    <glyph glyph-name="uni030A" unicode="&#x30a;" 
d="M-103 556q-55 0 -87.5 33t-32.5 86q0 63 40.5 102.5t101.5 39.5q56 0 88.5 -33t32.5 -86q0 -63 -40.5 -102.5t-102.5 -39.5zM-95 642q21 0 35 13.5t14 37.5q0 17 -11.5 28t-28.5 11q-21 0 -35 -13.5t-14 -37.5q0 -17 11.5 -28t28.5 -11z" />
    <glyph glyph-name="uni030B" unicode="&#x30b;" 
d="M-312 561l-78 45l102 198l125 -42l-1 -24zM-112 561l-77 45l102 198l125 -42l-1 -24z" />
    <glyph glyph-name="uni030C" unicode="&#x30c;" 
d="M-209 575l-102 158l67 57l98 -80l115 80l50 -57l-143 -158h-85z" />
    <glyph glyph-name="uni0326" unicode="&#x326;" 
d="M-264 -258q27 86 36 140q2 11 4 67l139 11l9 -20q-15 -107 -87 -198h-101z" />
    <glyph glyph-name="uni0327" unicode="&#x327;" 
d="M-216 -247q-40 0 -65 7l10 71l3 1q20 -7 37 -7q55 0 55 40q0 26 -34 26q-15 0 -31 -2l-2 1l9 65l39 46h95l-41 -42q10 0 16 -1q80 -9 80 -81q0 -67 -48.5 -95.5t-122.5 -28.5z" />
    <glyph glyph-name="uni0328" unicode="&#x328;" 
d="M-165 -238q-54 0 -89 22t-35 66q0 88 129 162l106 -2q-98 -52 -98 -115q0 -39 36 -39q16 0 29 4l4 -4l-11 -86q-34 -8 -71 -8z" />
    <glyph glyph-name="uni0335" unicode="&#x335;" 
d="M-400 124l15 109h347l-15 -109h-347z" />
    <glyph glyph-name="uni0336" unicode="&#x336;" 
d="M-678 344l15 111h710l-15 -111h-710z" />
    <glyph glyph-name="uni0337" unicode="&#x337;" 
d="M-343 206l18 121l345 188l6 -4l-18 -123l-344 -186z" />
    <glyph glyph-name="uni0338" unicode="&#x338;" 
d="M-558 -42v15l411 618h112v-12l-420 -621h-103z" />
    <glyph glyph-name="Wgrave" unicode="&#x1e80;" horiz-adv-x="936" 
d="M636 703l-251 82l-13 18l70 130l229 -143zM992 663l2 -4l-296 -659h-141l-62 338l-4 42l-18 -42l-157 -338h-146l-120 659l2 4h196l35 -350l3 -58l22 58l153 343h137l56 -324l6 -69l24 69l131 331h177z" />
    <glyph glyph-name="wgrave" unicode="&#x1e81;" horiz-adv-x="790" 
d="M539 577l-257 100l-8 20l95 135l219 -155zM823 521l2 -4l-237 -517h-134l-43 295l-2 30l-9 -30l-131 -295h-136l-97 517l1 4h187l23 -252v-37l10 36l104 253h153l31 -251l3 -34l9 34l93 251h173z" />
    <glyph glyph-name="Wacute" unicode="&#x1e82;" horiz-adv-x="936" 
d="M686 780l-254 -73l-32 88l239 137l60 -134zM992 663l2 -4l-296 -659h-141l-62 338l-4 42l-18 -42l-157 -338h-146l-120 659l2 4h196l35 -350l3 -58l22 58l153 343h137l56 -324l6 -69l24 69l131 331h177z" />
    <glyph glyph-name="wacute" unicode="&#x1e83;" horiz-adv-x="790" 
d="M611 682l-254 -109l-52 99l213 162l100 -132zM823 521l2 -4l-237 -517h-134l-43 295l-2 30l-9 -30l-131 -295h-136l-97 517l1 4h187l23 -252v-37l10 36l104 253h153l31 -251l3 -34l9 34l93 251h173z" />
    <glyph glyph-name="Wdieresis" unicode="&#x1e84;" horiz-adv-x="936" 
d="M418 724q-37 0 -60.5 24t-23.5 60q0 42 28.5 69t67.5 27q37 0 60.5 -24t23.5 -60q0 -42 -28.5 -69t-67.5 -27zM670 724q-37 0 -60.5 24t-23.5 60q0 42 28.5 69t67.5 27q37 0 60.5 -24t23.5 -60q0 -42 -28.5 -69t-67.5 -27zM992 663l2 -4l-296 -659h-141l-62 338l-4 42
l-18 -42l-157 -338h-146l-120 659l2 4h196l35 -350l3 -58l22 58l153 343h137l56 -324l6 -69l24 69l131 331h177z" />
    <glyph glyph-name="wdieresis" unicode="&#x1e85;" horiz-adv-x="790" 
d="M330 597q-42 0 -69 27t-27 68q0 49 32 79t77 30q42 0 69 -27t27 -68q0 -48 -32.5 -78.5t-76.5 -30.5zM566 597q-42 0 -69 27t-27 68q0 49 32 79t77 30q42 0 69 -27t27 -68q0 -48 -32.5 -78.5t-76.5 -30.5zM823 521l2 -4l-237 -517h-134l-43 295l-2 30l-9 -30l-131 -295
h-136l-97 517l1 4h187l23 -252v-37l10 36l104 253h153l31 -251l3 -34l9 34l93 251h173z" />
    <glyph glyph-name="Ygrave" unicode="&#x1ef2;" horiz-adv-x="613" 
d="M474 693l-251 82l-13 18l70 130l229 -143zM178 0l37 258l-165 401l2 4h200l80 -237l152 237h187l2 -4l-276 -414l-35 -245h-184z" />
    <glyph glyph-name="ygrave" unicode="&#x1ef3;" horiz-adv-x="536" 
d="M415 563l-257 100l-8 20l95 135l219 -155zM574 517l-217 -418l-31 -61q-61 -120 -116.5 -165t-151.5 -45q-42 0 -70 11l21 149l4 2q16 -6 40 -6q83 0 114 70l-131 463l2 4h197l45 -247l104 247h188z" />
    <glyph glyph-name="uni1EF8" unicode="&#x1ef8;" horiz-adv-x="613" 
d="M281 707l-98 29q8 60 45 101.5t84 41.5q40 0 81 -15.5t59 -15.5q13 0 25 10t14 24l3 2l99 -28q-8 -62 -44.5 -102t-83.5 -40q-33 0 -77.5 14.5t-61.5 14.5q-16 0 -28 -10.5t-14 -23.5zM178 0l37 258l-165 401l2 4h200l80 -237l152 237h187l2 -4l-276 -414l-35 -245h-184z
" />
    <glyph glyph-name="uni1EF9" unicode="&#x1ef9;" horiz-adv-x="536" 
d="M238 597l-4 -3l-111 32q7 56 48.5 99.5t98.5 43.5q34 0 67 -16t54 -16q16 0 27.5 10t13.5 24l4 2l110 -29q-9 -66 -52 -105.5t-96 -39.5q-31 0 -66.5 16.5t-51.5 16.5q-35 0 -42 -35zM574 517l-217 -418l-31 -61q-61 -120 -116.5 -165t-151.5 -45q-42 0 -70 11l21 149
l4 2q16 -6 40 -6q83 0 114 70l-131 463l2 4h197l45 -247l104 247h188z" />
    <glyph glyph-name="endash" unicode="&#x2013;" horiz-adv-x="548" 
d="M47 206l21 151h438l-21 -151h-438z" />
    <glyph glyph-name="emdash" unicode="&#x2014;" horiz-adv-x="866" 
d="M47 206l21 151h756l-19 -151h-758z" />
    <glyph glyph-name="quoteleft" unicode="&#x2018;" horiz-adv-x="250" 
d="M271 713q-33 -101 -39 -147q-7 -50 -14 -132l-136 -24l-19 26q19 125 115 277h93z" />
    <glyph glyph-name="quoteright" unicode="&#x2019;" horiz-adv-x="248" 
d="M67 410q23 80 36 147q8 41 17 133l135 24l19 -26q-19 -128 -115 -278h-92z" />
    <glyph glyph-name="quotesinglbase" unicode="&#x201a;" horiz-adv-x="255" 
d="M-28 -188q29 101 37 148q10 59 16 132l135 24l20 -26q-19 -125 -116 -278h-92z" />
    <glyph glyph-name="quotedblleft" unicode="&#x201c;" horiz-adv-x="441" 
d="M271 713q-33 -101 -39 -147q-7 -50 -14 -132l-136 -24l-19 26q19 125 115 277h93zM461 713q-29 -93 -37 -147q-11 -66 -14 -132l-137 -24l-19 26q19 125 115 277h92z" />
    <glyph glyph-name="quotedblright" unicode="&#x201d;" horiz-adv-x="436" 
d="M67 410q23 80 36 147q8 41 17 133l135 24l19 -26q-19 -128 -115 -278h-92zM257 410q27 93 36 147q10 63 16 133l136 24l19 -26q-21 -128 -116 -278h-91z" />
    <glyph glyph-name="quotedblbase" unicode="&#x201e;" horiz-adv-x="441" 
d="M-29 -188q29 101 37 148q10 59 16 132l135 24l20 -26q-19 -125 -116 -278h-92zM160 -188q26 87 37 148q10 61 16 132l136 24l19 -26q-19 -125 -116 -278h-92z" />
    <glyph glyph-name="dagger" unicode="&#x2020;" horiz-adv-x="615" 
d="M407 517l197 28l-23 -172l-172 19l-92 -505h-126l50 508l-172 -22l24 172l186 -25l8 207h172z" />
    <glyph glyph-name="daggerdbl" unicode="&#x2021;" horiz-adv-x="614" 
d="M168 -110l55 198l-202 -25l24 172l171 -24l35 99l-9 95l-171 -22l23 172l188 -26l6 198h172l-50 -201l195 29l-23 -172l-171 24l-34 -97l8 -97l171 22l-23 -172l-190 23l-3 -196h-172z" />
    <glyph glyph-name="bullet" unicode="&#x2022;" horiz-adv-x="412" 
d="M194 95q-63 0 -102.5 38.5t-39.5 96.5q0 73 45.5 120.5t112.5 47.5t105 -39t38 -97q0 -71 -44.5 -119t-114.5 -48z" />
    <glyph glyph-name="ellipsis" unicode="&#x2026;" horiz-adv-x="735" 
d="M100 -15q-43 0 -65.5 22.5t-22.5 59.5q0 41 27 71t72 30q43 0 65.5 -22.5t22.5 -59.5q0 -41 -27 -71t-72 -30zM335 -15q-43 0 -65.5 22.5t-22.5 59.5q0 41 27 71t72 30q43 0 65.5 -22.5t22.5 -59.5q0 -41 -27 -71t-72 -30zM568 -15q-43 0 -65.5 22.5t-22.5 59.5
q0 41 27 71t72 30q43 0 65.5 -22.5t22.5 -59.5q0 -41 -27 -71t-72 -30z" />
    <glyph glyph-name="perthousand" unicode="&#x2030;" horiz-adv-x="1185" 
d="M223 311q-72 0 -119 39.5t-47 118.5q0 91 55.5 146t140.5 55q72 0 119.5 -40.5t47.5 -115.5q0 -94 -55.5 -148.5t-141.5 -54.5zM82 13l539 642h134l-538 -642h-135zM235 419q27 0 41.5 23t14.5 61q0 29 -12.5 44.5t-33.5 15.5q-28 0 -43.5 -24t-15.5 -63q0 -57 49 -57z
M581 -6q-72 0 -119 39.5t-47 118.5q0 91 55.5 146t140.5 55q72 0 119.5 -40.5t47.5 -115.5q0 -94 -55.5 -148.5t-141.5 -54.5zM951 -6q-72 0 -119 39.5t-47 118.5q0 91 55.5 146t140.5 55q72 0 119.5 -40.5t47.5 -115.5q0 -94 -55.5 -148.5t-141.5 -54.5zM593 102
q27 0 41.5 23t14.5 61q0 29 -12.5 44.5t-33.5 15.5q-28 0 -43.5 -24t-15.5 -63q0 -57 49 -57zM963 102q27 0 41.5 23t14.5 61q0 29 -12.5 44.5t-33.5 15.5q-28 0 -43.5 -24t-15.5 -63q0 -57 49 -57z" />
    <glyph glyph-name="guilsinglleft" unicode="&#x2039;" horiz-adv-x="340" 
d="M190 93l-79 206l133 193h171l-2 -14l-132 -189l76 -186l-2 -10h-165z" />
    <glyph glyph-name="guilsinglright" unicode="&#x203a;" horiz-adv-x="340" 
d="M232 492l79 -206l-133 -193h-171l2 14l132 189l-76 186l2 10h165z" />
    <glyph glyph-name="fraction" unicode="&#x2044;" horiz-adv-x="237" 
d="M-178 -11l477 680h132l-479 -680h-130z" />
    <glyph glyph-name="Euro" unicode="&#x20ac;" horiz-adv-x="624" 
d="M542 685q74 0 133 -14l-23 -170l-3 -2q-47 19 -102 19q-120 0 -172 -84h150l-55 -186h-117q14 -45 51 -69t91 -24q50 0 107 25l3 -3l-23 -165q-50 -24 -124 -24q-130 0 -213.5 68.5t-94.5 191.5h-113l55 186h80q41 117 140.5 184t229.5 67z" />
    <glyph glyph-name="trademark" unicode="&#x2122;" horiz-adv-x="860" 
d="M404 537h-94l-28 -200h-141l28 200h-95l19 133h329zM699 670h139l-19 -333h-132l10 114h-1l-57 -115h-86l-22 116h-2l-24 -115h-133l77 333h145l31 -152z" />
    <glyph glyph-name="minus" unicode="&#x2212;" horiz-adv-x="572" 
d="M51 235l17 121h461l-17 -121h-461z" />
    <glyph glyph-name="approxequal" unicode="&#x2248;" horiz-adv-x="530" 
d="M164 317l-100 14q9 65 51 106t101 41q38 0 82 -17t69 -17q35 0 42 36l5 3l92 -19q-9 -63 -50 -102t-100 -39q-28 0 -75 16.5t-68 16.5q-18 0 -30.5 -10.5t-14.5 -25.5zM133 100l-100 14q10 66 52 107.5t101 41.5q37 0 81 -17t68 -17q35 0 43 36l6 3l91 -19
q-9 -63 -50 -103t-100 -40q-29 0 -75 17t-67 17q-39 0 -46 -37z" />
    <glyph glyph-name="notequal" unicode="&#x2260;" horiz-adv-x="603" 
d="M559 349h-136l-68 -114h187l-16 -119h-242l-57 -96h-140l57 96h-109l16 119h164l68 114h-215l17 119h268l52 87h141l-52 -87h82z" />
    <glyph glyph-name="uniF8FF" unicode="&#xf8ff;" horiz-adv-x="1480" 
d="M727 517q-26 0 -44 17.5t-18 42.5q0 26 18 44t44 18q27 0 45 -18t18 -44t-18 -43t-45 -17zM63 267q0 155 8 311h102q11 -215 11 -311h-121zM577 261q-84 0 -84 66q0 13 2 49t2 37h-22l-1 78l122 30l1 -17h181q11 -62 11 -237h-120q0 91 3 146h-63l4 -65q6 -3 15 -3
q13 0 18 4v-73q-14 -15 -69 -15zM296 262q-95 0 -95 114q0 133 137 133q126 0 126 -116v-126h-84l-8 61q-6 -33 -23.5 -49.5t-52.5 -16.5zM812 267q-2 166 9 237h82q6 -44 6 -75q1 10 4.5 20.5t11.5 25.5t25 24.5t41 9.5q43 0 59.5 -25t18.5 -80l4 -137h-116q-1 27 0 58
t1 33q0 17 -3 23.5t-12 6.5q-18 0 -18 -28q0 -7 1.5 -37t1.5 -56h-116zM1214 262q-125 0 -125 123q0 124 126 124q124 0 124 -123q0 -124 -125 -124zM334 342q25 0 25 29q0 26 -25 26q-22 0 -22 -26q0 -29 22 -29zM1213 342q24 0 24 29q0 26 -24 26q-21 0 -21 -26
q0 -29 21 -29zM360 -50q-63 0 -90 17v83q24 -16 71 -16q21 0 34.5 6t17 11.5t3.5 9.5q-16 -11 -50 -11q-92 0 -92 83v13h-56l3 -65q6 -4 16 -4q13 0 18 5v-72q-19 -15 -69 -15q-46 0 -64.5 17t-18.5 54q0 38 3 80h-19v79l119 28l-1 -17h182v-118q0 -16 3 -21.5t12 -5.5
q16 0 16 27v118h106q10 -52 10 -138q0 -80 -34 -114t-120 -34zM531 -44q0 154 9 280h80q7 -42 7 -76q17 81 82 81q38 0 60 -29.5t22 -84.5q0 -132 -140 -132q1 -15 1 -39h-121zM951 -5q-144 0 -144 121q0 58 33.5 91.5t93.5 33.5q57 0 88 -30t31 -85q0 -22 -3 -35h-127
q11 -18 51 -18q35 0 56 12l1 -74q-25 -16 -80 -16zM918 108h41q3 27 -17 27q-24 0 -24 -27zM645 71q5 0 13 2.5t16.5 11.5t8.5 23q0 23 -21 23q-22 0 -22 -31q0 -14 5 -29zM1082 -10q-25 0 -25 23t25 23q24 0 24 -23t-24 -23zM1082 -5q18 0 18 18t-18 18q-19 0 -19 -18
t19 -18zM1071 2v23h12q10 0 10 -7t-7 -7l6 -9h-6l-4 9h-5v-9h-6zM1077 15h7q4 0 4 3t-4 3h-7v-6z" />
    <glyph glyph-name="i.loclTRK" horiz-adv-x="300" 
d="M202 578q-44 0 -72.5 28.5t-28.5 71.5q0 51 34 83t81 32q44 0 72.5 -28.5t28.5 -71.5q0 -51 -34 -83t-81 -32zM19 0l74 521h186l-74 -521h-186z" />
    <glyph glyph-name="caroncomb.alt" 
d="M-151 465l43 256h123l13 -15l-84 -241h-95z" />
    <glyph glyph-name="uni0308.case" 
d="M-304 720q-37 0 -60.5 24t-23.5 60q0 42 28.5 69t67.5 27q37 0 60.5 -24t23.5 -60q0 -42 -28.5 -69t-67.5 -27zM-52 720q-37 0 -60.5 24t-23.5 60q0 42 28.5 69t67.5 27q37 0 60.5 -24t23.5 -60q0 -42 -28.5 -69t-67.5 -27z" />
    <glyph glyph-name="uni0307.case" 
d="M-59 707q-44 0 -72.5 28.5t-28.5 71.5q0 51 34 83t81 32q44 0 72.5 -28.5t28.5 -71.5q0 -51 -34 -83t-81 -32z" />
    <glyph glyph-name="gravecomb.case" 
d="M-6 699l-251 82l-13 18l70 130l229 -143z" />
    <glyph glyph-name="acutecomb.case" 
d="M-210 703l-32 88l239 137l60 -134l-13 -18z" />
    <glyph glyph-name="uni030B.case" 
d="M-282 706l-73 32l81 199l119 -33v-24zM-65 706l-73 32l81 199l119 -33l1 -24z" />
    <glyph glyph-name="uni0302.case" 
d="M-254 709l-50 67l154 143h83l118 -141l-64 -69l-111 77z" />
    <glyph glyph-name="uni030C.case" 
d="M-177 709l-118 141l64 69l111 -77l130 77l50 -67l-154 -143h-83z" />
    <glyph glyph-name="uni0306.case" 
d="M-119 720q-75 0 -122 47.5t-36 123.5l113 12q-4 -72 59 -72q29 0 49 20t26 52l101 -12q-10 -77 -62.5 -124t-127.5 -47z" />
    <glyph glyph-name="uni030A.case" 
d="M-86 695q-55 0 -87.5 30t-32.5 79q0 59 39 95.5t99 36.5q56 0 88.5 -30t32.5 -79q0 -59 -39 -95.5t-100 -36.5zM-79 773q20 0 33 13t13 36q0 16 -11 26.5t-28 10.5q-20 0 -33 -13t-13 -36q0 -16 11 -26.5t28 -10.5z" />
    <glyph glyph-name="tildecomb.case" 
d="M-245 713l-98 29q8 60 45 101.5t84 41.5q40 0 81 -15.5t59 -15.5q13 0 25 10t14 24l3 2l99 -28q-8 -62 -44.5 -102t-83.5 -40q-33 0 -77.5 14.5t-61.5 14.5q-16 0 -28 -10.5t-14 -23.5z" />
    <glyph glyph-name="uni0304.case" 
d="M-283 742l15 110h332l-14 -110h-333z" />
    <glyph glyph-name="uni0337.case" 
d="M-350 170l17 125l343 203h4l-18 -126l-341 -204z" />
    <glyph glyph-name="uni0338.case" 
d="M-693 -57v15l551 752h113v-12l-560 -755h-104z" />
    <glyph glyph-name="caron.alt" horiz-adv-x="212" 
d="M63 465l43 256h123l13 -15l-84 -241h-95z" />
    <glyph glyph-name="acute.case" horiz-adv-x="341" 
d="M131 703l-32 88l239 137l60 -134l-13 -18z" />
    <glyph glyph-name="breve.case" horiz-adv-x="382" 
d="M263 720q-75 0 -122 47.5t-36 123.5l113 12q-4 -72 59 -72q29 0 49 20t26 52l101 -12q-10 -77 -62.5 -124t-127.5 -47z" />
    <glyph glyph-name="caron.case" horiz-adv-x="396" 
d="M220 709l-118 141l64 69l111 -77l130 77l50 -67l-154 -143h-83z" />
    <glyph glyph-name="circumflex.case" horiz-adv-x="396" 
d="M143 709l-50 67l154 143h83l118 -141l-64 -69l-111 77z" />
    <glyph glyph-name="dieresis.case" horiz-adv-x="500" 
d="M196 720q-37 0 -60.5 24t-23.5 60q0 42 28.5 69t67.5 27q37 0 60.5 -24t23.5 -60q0 -42 -28.5 -69t-67.5 -27zM448 720q-37 0 -60.5 24t-23.5 60q0 42 28.5 69t67.5 27q37 0 60.5 -24t23.5 -60q0 -42 -28.5 -69t-67.5 -27z" />
    <glyph glyph-name="dotaccent.case" horiz-adv-x="252" 
d="M192 707q-44 0 -72.5 28.5t-28.5 71.5q0 51 34 83t81 32q44 0 72.5 -28.5t28.5 -71.5q0 -51 -34 -83t-81 -32z" />
    <glyph glyph-name="grave.case" horiz-adv-x="340" 
d="M335 699l-251 82l-13 18l70 130l229 -143z" />
    <glyph glyph-name="hungarumlaut.case" horiz-adv-x="497" 
d="M215 706l-73 32l81 199l119 -33v-24zM432 706l-73 32l81 199l119 -33l1 -24z" />
    <glyph glyph-name="macron.case" horiz-adv-x="388" 
d="M88 742l15 110h332l-14 -110h-333z" />
    <glyph glyph-name="ring.case" horiz-adv-x="308" 
d="M222 695q-55 0 -87.5 30t-32.5 79q0 59 39 95.5t99 36.5q56 0 88.5 -30t32.5 -79q0 -59 -39 -95.5t-100 -36.5zM229 773q20 0 33 13t13 36q0 16 -11 26.5t-28 10.5q-20 0 -33 -13t-13 -36q0 -16 11 -26.5t28 -10.5z" />
    <glyph glyph-name="tilde.case" horiz-adv-x="434" 
d="M188 713l-98 29q8 60 45 101.5t84 41.5q40 0 81 -15.5t59 -15.5q13 0 25 10t14 24l3 2l99 -28q-8 -62 -44.5 -102t-83.5 -40q-33 0 -77.5 14.5t-61.5 14.5q-16 0 -28 -10.5t-14 -23.5z" />
    <glyph glyph-name="IJacute" horiz-adv-x="713" 
d="M121 703l-32 88l239 137l60 -134l-13 -18zM515 703l-32 88l239 137l60 -134l-13 -18zM30 0l89 663h187l-90 -663h-186zM360 -3q-32 0 -61 4l23 155l4 2q15 -3 29 -3q95 0 114 129l55 379h186l-52 -360q-23 -155 -96.5 -230.5t-201.5 -75.5z" />
    <glyph glyph-name="ijacute" horiz-adv-x="618" 
d="M116 559l-49 74l190 165l88 -110l-7 -20zM436 559l-49 74l190 165l88 -110l-7 -20zM19 0l74 521h186l-74 -521h-186zM280 -172q-34 0 -81 7l23 161l2 1q28 -4 38 -4q41 0 61 23t26 67l63 438h185l-68 -482q-15 -106 -81 -158.5t-168 -52.5z" />
    </font>
</defs>
</svg>
