<?xml version="1.0" standalone="no"?>
<!DOCTYPE svg PUBLIC "-//W3C//DTD SVG 1.1//EN" "http://www.w3.org/Graphics/SVG/1.1/DTD/svg11.dtd" >
<svg xmlns="http://www.w3.org/2000/svg" xmlns:xlink="http://www.w3.org/1999/xlink" version="1.1">
<metadata>
Created by FontForge 20170731 at Thu Mar  2 15:41:47 2017
 By Aleksey,,,
Copyright (c) 2017 by Alfonso Garci'a - Latinotype Team. All rights reserved.
</metadata>
<defs>
<font id="RawsonAlt-Bold" horiz-adv-x="0" >
  <font-face 
    font-family="Rawson Alt Bold"
    font-weight="650"
    font-stretch="normal"
    units-per-em="1100"
    panose-1="0 0 7 0 0 0 0 0 0 0"
    ascent="880"
    descent="-220"
    x-height="516"
    cap-height="662"
    bbox="-721 -243 1351 942"
    underline-thickness="50"
    underline-position="-200"
    unicode-range="U+0020-FB02"
  />
<missing-glyph horiz-adv-x="500" 
 />
    <glyph glyph-name="fi" unicode="fi" horiz-adv-x="628" 
d="M487 591q-35 0 -59.5 24.5t-24.5 60.5q0 34 24.5 59t59.5 25t60 -24.5t25 -59.5q0 -36 -25 -60.5t-60 -24.5zM101 516q4 95 60 148t141 53q38 0 69 -9v-123l-3 -1q-17 7 -43 7q-75 0 -81 -75h98v-110h-99v-406h-142v406h-71v110h71zM417 0v516h141v-516h-141z" />
    <glyph glyph-name="fl" unicode="fl" horiz-adv-x="628" 
d="M101 516q4 95 60 148t141 53q41 0 69 -9v-123l-3 -2q-19 8 -43 8q-75 0 -81 -75h98v-110h-99v-406h-142v406h-71v110h71zM417 710h141v-710h-141v710z" />
    <glyph glyph-name=".notdef" horiz-adv-x="500" 
 />
    <glyph glyph-name=".null" 
 />
    <glyph glyph-name="nonmarkingreturn" horiz-adv-x="366" 
 />
    <glyph glyph-name="space" unicode=" " horiz-adv-x="241" 
 />
    <glyph glyph-name="exclam" unicode="!" horiz-adv-x="287" 
d="M85 221l-10 471h139l-10 -471h-119zM143 -12q-38 0 -58 21t-20 52q0 32 20 51.5t58 19.5q37 0 57 -20t20 -51t-20 -52t-57 -21z" />
    <glyph glyph-name="quotedbl" unicode="&#x22;" horiz-adv-x="381" 
d="M68 412l-7 248h106l12 -11l-32 -237h-79zM226 412l-7 248h106l12 -11l-32 -237h-79z" />
    <glyph glyph-name="numbersign" unicode="#" horiz-adv-x="609" 
d="M557 352h-83l-19 -112h96v-93h-111l-18 -107h-93l18 107h-127l-18 -107h-94l18 107h-75v93h90l19 112h-104v93h119l18 106h94l-18 -106h127l18 106h93l-18 -106h68v-93zM362 240l19 112h-127l-19 -112h127z" />
    <glyph glyph-name="dollar" unicode="$" horiz-adv-x="504" 
d="M460 228q0 -64 -36.5 -105.5t-104.5 -55.5v-99h-132v94q-71 7 -138 35v116l2 1q81 -51 179 -51q104 0 104 54q0 26 -25 39.5t-101 34.5q-82 24 -119 62.5t-37 96.5q0 63 41 104t113 55v101h132v-97q65 -6 104 -23v-117l-2 -1q-60 30 -152 30t-92 -48q0 -23 22.5 -34.5
t88.5 -30.5q78 -25 115.5 -63t37.5 -98z" />
    <glyph glyph-name="percent" unicode="%" horiz-adv-x="813" 
d="M207 321q-78 0 -125.5 43t-47.5 126q0 82 48.5 128t124.5 46q78 0 127 -45.5t49 -128.5t-48.5 -126t-127.5 -43zM127 12l455 638h109l-456 -638h-108zM207 407q71 0 71 83q0 87 -71 87q-69 0 -69 -87q0 -83 69 -83zM604 -4q-77 0 -125 43t-48 125q0 83 48.5 129t124.5 46
q79 0 127 -45.5t48 -129.5q0 -82 -48 -125t-127 -43zM604 82q71 0 71 82q0 87 -71 87q-69 0 -69 -87q0 -82 69 -82z" />
    <glyph glyph-name="ampersand" unicode="&#x26;" horiz-adv-x="686" 
d="M685 326h-71q-15 -101 -62 -181l132 -145h-155l-53 56q-89 -73 -210 -73q-97 0 -161.5 48.5t-64.5 143.5q0 133 131 205q-53 67 -53 140t53.5 119t142.5 46q83 0 140 -28v-114h-2q-59 27 -119 27q-37 0 -59.5 -14.5t-22.5 -42.5q0 -27 19 -53.5t83 -96.5l119 -131
q16 37 26 94h-67v101h254v-101zM287 101q65 0 113 34l-144 151q-2 3 -5 5.5t-6 5.5l-5 5q-35 -21 -51 -45t-16 -58q0 -46 30.5 -72t83.5 -26z" />
    <glyph glyph-name="quotesingle" unicode="'" horiz-adv-x="224" 
d="M68 412l-7 248h106l12 -11l-32 -237h-79z" />
    <glyph glyph-name="parenleft" unicode="(" horiz-adv-x="338" 
d="M259 -180q-36 16 -73 53.5t-70.5 95t-54.5 143.5t-21 185q0 186 69 312.5t150 163.5l53 -101q-54 -37 -95.5 -133t-41.5 -241q0 -146 41.5 -243.5t95.5 -134.5z" />
    <glyph glyph-name="parenright" unicode=")" horiz-adv-x="338" 
d="M79 780q36 -16 73 -53.5t70.5 -95t54.5 -143.5t21 -185q0 -186 -69 -312.5t-150 -163.5l-53 101q54 37 95.5 133t41.5 241q0 146 -41.5 243.5t-95.5 134.5z" />
    <glyph glyph-name="asterisk" unicode="*" horiz-adv-x="500" 
d="M236 566l-10 5l-73 139l4 10l84 24l14 -10l6 -154l-6 -8zM296 552l-11 2l-13 14l-2 11l85 133l11 2l62 -63l-2 -16zM209 530l-157 6l-6 8l22 86l16 7l135 -72l5 -10l-6 -19zM424 437l-136 70l-4 11l5 19l8 7l158 -7l7 -9l-23 -85zM143 360l-63 63l2 16l129 82l11 -2
l15 -13l1 -11l-84 -133zM266 330l-14 9l-6 153l7 8l19 6l10 -5l74 -139l-5 -10z" />
    <glyph glyph-name="plus" unicode="+" horiz-adv-x="532" 
d="M496 340v-96h-180v-186h-99v186h-181v96h181v186h99v-186h180z" />
    <glyph glyph-name="comma" unicode="," horiz-adv-x="239" 
d="M41 -147q20 90 20 168q0 39 -4 88l115 11l17 -19q0 -137 -67 -248h-81z" />
    <glyph glyph-name="hyphen" unicode="-" horiz-adv-x="424" 
d="M63 231v115h297v-115h-297z" />
    <glyph glyph-name="period" unicode="." horiz-adv-x="253" 
d="M126 -11q-37 0 -58 21t-21 54q0 32 21 54.5t58 22.5t58 -22t21 -55t-20.5 -54t-58.5 -21z" />
    <glyph glyph-name="slash" unicode="/" horiz-adv-x="495" 
d="M28 -121l313 870h126l-313 -870h-126z" />
    <glyph glyph-name="zero" unicode="0" horiz-adv-x="657" 
d="M327 -15q-125 0 -202 87.5t-77 253.5q0 168 77.5 259.5t202.5 91.5q126 0 203.5 -91t77.5 -260q0 -167 -77.5 -254t-204.5 -87zM328 103q63 0 98.5 57.5t35.5 165.5q0 111 -36 171t-98 60t-97.5 -60t-35.5 -171q0 -108 35.5 -165.5t97.5 -57.5z" />
    <glyph glyph-name="one" unicode="1" horiz-adv-x="406" 
d="M180 0v478l-147 -61h-6v143l265 114h24v-674h-136z" />
    <glyph glyph-name="two" unicode="2" horiz-adv-x="570" 
d="M39 0q-1 88 49 161.5t152 160.5q75 59 100.5 89.5t25.5 63.5q0 79 -115 79q-61 0 -112.5 -21t-80.5 -44h-2l-1 124q86 64 215 64q99 0 167 -47.5t68 -139.5q0 -71 -33 -116t-130 -125q-114 -93 -118 -131h302v-118h-487z" />
    <glyph glyph-name="three" unicode="3" horiz-adv-x="547" 
d="M502 200q1 -97 -70.5 -156.5t-188.5 -59.5q-112 0 -196 42v124l2 1q72 -49 176 -49q63 0 102.5 25.5t39.5 75.5q0 45 -37 65.5t-125 21.5l-59 1v108h59q132 0 132 81q0 78 -110 78q-107 0 -164 -35l-2 1v116q94 38 187 38q100 0 162.5 -43.5t62.5 -133.5q0 -88 -75 -142
q99 -46 104 -159z" />
    <glyph glyph-name="four" unicode="4" horiz-adv-x="613" 
d="M578 231v-110h-97v-121h-127v121h-338v63l355 484h110v-437h97zM185 231h169v234z" />
    <glyph glyph-name="five" unicode="5" horiz-adv-x="559" 
d="M263 -16q-112 0 -208 35v128h2q95 -42 192 -42q127 0 127 106q0 46 -33.5 72.5t-95.5 26.5q-98 0 -182 -23l-3 2l23 376h397v-117h-283l-8 -128q37 8 86 8q111 0 174.5 -53t63.5 -156q0 -52 -15.5 -93.5t-41 -67.5t-59 -43t-67.5 -24t-69 -7z" />
    <glyph glyph-name="six" unicode="6" horiz-adv-x="605" 
d="M349 434q95 0 153.5 -56t58.5 -153q0 -105 -69 -173.5t-189 -68.5q-124 0 -190 80t-66 230q0 179 91.5 281.5t238.5 102.5q84 0 133 -18v-114l-4 -3q-50 17 -125 17q-166 0 -195 -194q59 69 163 69zM307 102q57 0 88 30.5t31 80.5q0 45 -28 74t-83 29q-48 0 -83 -29
t-42 -79q26 -106 117 -106z" />
    <glyph glyph-name="seven" unicode="7" horiz-adv-x="515" 
d="M100 0l236 534h-311v128h470v-71l-249 -591h-146z" />
    <glyph glyph-name="eight" unicode="8" horiz-adv-x="609" 
d="M441 350q64 -35 91.5 -74t28.5 -98q0 -85 -69 -139.5t-186 -54.5q-126 0 -192.5 47t-66.5 134q0 108 111 182q-87 59 -87 147q0 86 68 134.5t171 48.5q100 0 167 -43t67 -127q0 -96 -103 -157zM305 560q-48 0 -73 -17.5t-25 -47.5q0 -29 28.5 -50t104.5 -49q71 40 71 94
q0 70 -106 70zM312 97q59 0 87.5 21.5t27.5 57.5q-1 34 -31 55t-122 57l-21 9q-70 -45 -68 -114q0 -86 127 -86z" />
    <glyph glyph-name="nine" unicode="9" horiz-adv-x="604" 
d="M295 678q123 0 192.5 -84t69.5 -242q0 -182 -78.5 -274t-221.5 -92q-104 0 -171 26v123l4 3q70 -33 153 -33q86 -1 125.5 45t48.5 129q-60 -53 -153 -53q-100 0 -162 57t-62 158q0 106 69.5 171.5t185.5 65.5zM289 343q83 0 130 58q-7 76 -40.5 116.5t-87.5 40.5
q-51 0 -82 -29.5t-31 -79.5q0 -48 29 -77t82 -29z" />
    <glyph glyph-name="colon" unicode=":" horiz-adv-x="278" 
d="M139 367q-37 0 -57 19.5t-20 51.5q0 31 20 52t57 21t57 -21t20 -52q0 -32 -20 -51.5t-57 -19.5zM139 -11q-37 0 -57 20t-20 51q0 32 20 53t57 21t57 -21t20 -53q0 -31 -20 -51t-57 -20z" />
    <glyph glyph-name="semicolon" unicode=";" horiz-adv-x="281" 
d="M145 367q-37 0 -58 21t-21 54q0 32 21 54.5t58 22.5t58 -22t21 -55t-20.5 -54t-58.5 -21zM62 -147q20 90 20 168q0 39 -4 88l115 11l17 -19q0 -137 -67 -248h-81z" />
    <glyph glyph-name="less" unicode="&#x3c;" horiz-adv-x="487" 
d="M153 297l21 -9l265 -154l-49 -89l-357 206v90l357 206l49 -88l-266 -154z" />
    <glyph glyph-name="equal" unicode="=" horiz-adv-x="596" 
d="M64 351v97h468v-97h-468zM64 129v98h468v-98h-468z" />
    <glyph glyph-name="greater" unicode="&#x3e;" horiz-adv-x="487" 
d="M97 548l357 -206v-90l-357 -206l-49 88l266 154l20 8l-21 9l-265 154z" />
    <glyph glyph-name="question" unicode="?" horiz-adv-x="446" 
d="M114 209q-1 70 18.5 110t73.5 76q35 27 49 48t14 54q0 77 -95 77q-75 0 -127 -36l-2 1l-1 121q61 35 149 35q92 0 153.5 -47t61.5 -135q0 -63 -26.5 -102.5t-81.5 -82.5q-64 -47 -64 -118zM178 -9q-37 0 -57 20.5t-20 51.5q0 32 20 52.5t57 20.5t57 -20.5t20 -52.5
q0 -31 -20 -51.5t-57 -20.5z" />
    <glyph glyph-name="at" unicode="@" horiz-adv-x="832" 
d="M602 433v-239q0 -29 25 -29q53 0 53 135q0 105 -66 167.5t-175 62.5q-128 0 -204 -78t-76 -202q0 -126 74 -198.5t201 -72.5q115 0 182 57h4l51 -76q-84 -81 -237 -81q-181 0 -285 101t-104 270q0 167 108 273t286 106q156 0 256 -90.5t100 -231.5q0 -106 -44 -171.5
t-136 -65.5q-87 0 -104 62q-36 -67 -118 -67q-71 0 -116 49.5t-45 135.5q0 88 50.5 140.5t128.5 52.5q61 0 102 -32l5 22h84zM498 214v115q-29 26 -72 26q-38 0 -62.5 -27t-24.5 -72q0 -46 22.5 -71t59.5 -25q56 0 77 54z" />
    <glyph glyph-name="A" unicode="A" horiz-adv-x="644" 
d="M503 0l-48 111h-271l-45 -111h-139l288 666h62l299 -666h-146zM225 212h186l-81 186l-15 43l-14 -43z" />
    <glyph glyph-name="B" unicode="B" horiz-adv-x="603" 
d="M449 358q114 -44 114 -161q0 -94 -65.5 -145.5t-187.5 -51.5h-227v662q75 8 188 8q252 0 252 -175q0 -94 -74 -137zM289 559q-37 0 -70 -3v-169h72q49 0 75.5 23.5t26.5 64.5q0 39 -26 61.5t-78 22.5zM297 104q130 0 130 95q0 40 -30.5 64.5t-84.5 24.5h-93v-184h78z" />
    <glyph glyph-name="C" unicode="C" horiz-adv-x="616" 
d="M397 -12q-157 0 -255.5 90.5t-98.5 245.5q0 162 97.5 257t254.5 95q96 0 177 -28v-132l-3 -1q-70 34 -154 34q-107 0 -167 -57.5t-60 -160.5q0 -102 60 -159t170 -57q80 0 151 31l3 -2v-127q-74 -29 -175 -29z" />
    <glyph glyph-name="D" unicode="D" horiz-adv-x="733" 
d="M323 672q173 0 269.5 -89.5t96.5 -244.5q0 -162 -100.5 -250.5t-277.5 -88.5q-195 0 -228 2v661q150 10 240 10zM326 122q217 2 217 214q0 101 -59 154.5t-163 53.5q-66 0 -98 -4v-415q43 -3 103 -3z" />
    <glyph glyph-name="E" unicode="E" horiz-adv-x="563" 
d="M224 118h291v-118h-432v662h422v-118h-281v-147h262v-115h-262v-164z" />
    <glyph glyph-name="F" unicode="F" horiz-adv-x="528" 
d="M498 536h-274v-169h234v-124h-234v-243h-141v662h415v-126z" />
    <glyph glyph-name="G" unicode="G" horiz-adv-x="685" 
d="M397 -11q-168 0 -260.5 88t-92.5 252q0 159 102 253t276 94q106 0 183 -30l-1 -135l-4 -2q-74 40 -182 40t-168.5 -59t-60.5 -161q0 -101 56 -157t159 -56q58 0 102 16v186h126v-285q-107 -44 -235 -44z" />
    <glyph glyph-name="H" unicode="H" horiz-adv-x="749" 
d="M525 662h140v-662h-140v268h-301v-268h-141v662h141v-266h301v266z" />
    <glyph glyph-name="I" unicode="I" horiz-adv-x="308" 
d="M83 0v662h141v-662h-141z" />
    <glyph glyph-name="J" unicode="J" horiz-adv-x="382" 
d="M72 -3q-29 0 -57 4v118l3 1q16 -3 36 -3q112 0 112 140v405h141v-391q0 -274 -235 -274z" />
    <glyph glyph-name="K" unicode="K" horiz-adv-x="663" 
d="M339 337l335 -333l-1 -4h-175l-274 268v-268h-141v662h141v-277l268 277h162l2 -3z" />
    <glyph glyph-name="L" unicode="L" horiz-adv-x="507" 
d="M224 117h272v-117h-413v662h141v-545z" />
    <glyph glyph-name="M" unicode="M" horiz-adv-x="847" 
d="M730 662l62 -662h-133l-30 363h-3l-178 -359h-47l-179 356h-3l-32 -360h-132l63 662h82l229 -446l222 446h79z" />
    <glyph glyph-name="N" unicode="N" horiz-adv-x="740" 
d="M83 0v662h62l374 -393h3v393h134v-662h-61l-374 398h-3v-398h-135z" />
    <glyph glyph-name="O" unicode="O" horiz-adv-x="781" 
d="M390 -13q-145 0 -246 91t-101 253q0 159 98 252.5t249 93.5q69 0 131 -22.5t111 -64.5t77.5 -109t28.5 -150q0 -157 -98 -250.5t-250 -93.5zM390 114q92 0 147 58.5t55 158.5q0 102 -55 160.5t-147 58.5q-91 0 -146 -58.5t-55 -160.5q0 -100 55 -158.5t146 -58.5z" />
    <glyph glyph-name="P" unicode="P" horiz-adv-x="589" 
d="M562 449q1 -117 -70 -176.5t-191 -59.5q-43 0 -78 4v-217h-140v662q123 8 202 7q131 0 203.5 -54t73.5 -166zM283 330q139 0 139 112q0 50 -33.5 78.5t-93.5 28.5q-40 0 -72 -2v-213q31 -4 60 -4z" />
    <glyph glyph-name="Q" unicode="Q" horiz-adv-x="781" 
d="M738 331q0 -130 -69 -218t-183 -115q18 -40 52.5 -65t95.5 -41l1 -4l-51 -100q-179 36 -233 201q-132 12 -220 101.5t-88 240.5q0 159 98 252.5t249 93.5q69 0 131 -22.5t111 -64.5t77.5 -109t28.5 -150zM390 114q92 0 147 58.5t55 158.5q0 102 -55 160.5t-147 58.5
q-91 0 -146 -58.5t-55 -160.5q0 -100 55 -158.5t146 -58.5z" />
    <glyph glyph-name="R" unicode="R" horiz-adv-x="621" 
d="M433 248l155 -244l-1 -4h-151l-139 227h-74v-227h-140v662q95 7 202 7q58 0 105.5 -11t86.5 -35t60.5 -67.5t21.5 -102.5q0 -79 -34 -130t-92 -75zM223 546v-212h66q57 0 92.5 28t35.5 78q0 53 -31 81t-88 28q-48 0 -75 -3z" />
    <glyph glyph-name="S" unicode="S" horiz-adv-x="532" 
d="M247 -12q-112 0 -195 44v132l3 1q82 -57 177 -57q51 0 80.5 19.5t29.5 55.5q0 34 -24 57t-93 53q-75 32 -120 75.5t-45 114.5q0 95 65.5 144.5t164.5 49.5q104 0 171 -30v-123l-3 -2q-56 32 -149 34q-51 1 -80 -15t-29 -47q0 -34 49 -61q16 -9 72 -34q77 -35 119 -82.5
t42 -127.5q0 -92 -64 -146.5t-171 -54.5z" />
    <glyph glyph-name="T" unicode="T" horiz-adv-x="585" 
d="M572 662v-126h-205v-536h-141v536h-213v126h559z" />
    <glyph glyph-name="U" unicode="U" horiz-adv-x="719" 
d="M360 -13q-137 0 -211 71.5t-74 204.5v399h139v-382q0 -174 148 -174q146 0 146 174v382h136v-399q0 -132 -74.5 -204t-209.5 -72z" />
    <glyph glyph-name="V" unicode="V" horiz-adv-x="637" 
d="M637 662l1 -3l-278 -665h-88l-269 665l1 3h148l158 -423l13 -51l12 51l163 423h139z" />
    <glyph glyph-name="W" unicode="W" horiz-adv-x="965" 
d="M955 662l2 -3l-215 -664h-106l-141 413l-9 36l-10 -36l-141 -413h-109l-223 664l1 3h149l124 -422l10 -51l12 51l137 417h103l137 -404l13 -58l13 58l118 409h135z" />
    <glyph glyph-name="X" unicode="X" horiz-adv-x="655" 
d="M418 347l234 -343l-2 -4h-165l-165 248l-156 -248h-152l-2 4l224 337l-218 318l2 3h167l147 -224l143 224h153l2 -3z" />
    <glyph glyph-name="Y" unicode="Y" horiz-adv-x="614" 
d="M238 0v263l-237 396l1 3h151l158 -271l156 271h142l2 -3l-234 -397v-262h-139z" />
    <glyph glyph-name="Z" unicode="Z" horiz-adv-x="602" 
d="M37 0v48l331 499h-330l-2 115h522v-48l-337 -498h346v-116h-530z" />
    <glyph glyph-name="bracketleft" unicode="[" horiz-adv-x="342" 
d="M308 655h-108v-709h108v-103h-228v915h228v-103z" />
    <glyph glyph-name="backslash" unicode="\" horiz-adv-x="495" 
d="M467 -121h-126l-313 870h126z" />
    <glyph glyph-name="bracketright" unicode="]" horiz-adv-x="342" 
d="M35 758h227v-914h-227v102h107v709h-107v103z" />
    <glyph glyph-name="asciicircum" unicode="^" horiz-adv-x="532" 
d="M309 686l187 -354l-91 -41l-130 259l-8 20l-9 -20l-129 -259l-92 41l187 354h85z" />
    <glyph glyph-name="underscore" unicode="_" horiz-adv-x="522" 
d="M45 -111v111h432v-111h-432z" />
    <glyph glyph-name="grave" unicode="`" horiz-adv-x="264" 
d="M215 559l-210 105l-3 16l86 98l171 -154z" />
    <glyph glyph-name="a" unicode="a" horiz-adv-x="650" 
d="M619 130l4 -1v-119q-37 -17 -83 -17q-87 0 -107 69q-55 -75 -167 -75q-101 0 -163.5 69t-62.5 191q0 127 74 204.5t190 77.5q82 0 134 -38l5 25h115v-358q0 -37 31 -37q17 0 30 9zM307 113q36 0 66.5 18t43.5 48v198q-39 32 -98 32q-58 0 -96 -42.5t-38 -110.5
q0 -70 34 -106.5t88 -36.5z" />
    <glyph glyph-name="b" unicode="b" horiz-adv-x="629" 
d="M361 529q104 0 165.5 -69t61.5 -189q0 -130 -78.5 -207t-202.5 -77q-142 0 -239 47v676h141v-239q54 58 152 58zM307 108q60 0 98 39t38 111q0 73 -34.5 109t-88.5 36q-35 0 -66.5 -18t-44.5 -48v-209q42 -20 98 -20z" />
    <glyph glyph-name="c" unicode="c" horiz-adv-x="496" 
d="M323 -13q-125 0 -204.5 72t-79.5 197q0 127 77.5 200.5t202.5 73.5q75 0 135 -23v-118l-5 -3q-55 23 -113 23q-71 0 -111.5 -39.5t-40.5 -108.5q0 -70 40.5 -111.5t111.5 -41.5q58 0 114 29l5 -3v-120q-56 -27 -132 -27z" />
    <glyph glyph-name="d" unicode="d" horiz-adv-x="652" 
d="M620 132l3 -1v-120q-36 -18 -83 -18q-88 0 -107 69q-24 -33 -67 -54t-99 -21q-99 0 -163 68t-64 193q0 124 74.5 202.5t189.5 78.5q68 0 113 -21v202h142v-552q0 -37 32 -37q14 0 29 11zM307 113q36 0 66.5 18t43.5 48v204q-42 26 -95 26q-61 0 -99 -41t-38 -111
q0 -72 34 -108t88 -36z" />
    <glyph glyph-name="e" unicode="e" horiz-adv-x="581" 
d="M301 529q111 0 176 -64.5t66 -182.5q0 -40 -1 -60h-357q10 -59 52.5 -89.5t110.5 -30.5q80 0 159 36l4 -1v-111q-77 -40 -190 -40q-54 0 -102.5 15t-89.5 46t-65.5 85.5t-24.5 125.5q0 121 74 196t188 75zM186 308h221q-11 107 -107 107q-44 0 -74 -27.5t-40 -79.5z" />
    <glyph glyph-name="f" unicode="f" horiz-adv-x="370" 
d="M302 717q48 0 78 -10v-123l-3 -1q-21 8 -52 8q-75 0 -81 -75h106v-110h-107v-406h-142v406h-71v110h71q5 96 60.5 148.5t140.5 52.5z" />
    <glyph glyph-name="g" unicode="g" horiz-adv-x="628" 
d="M462 527h97v-452q0 -120 -78 -183.5t-209 -63.5q-113 0 -199 38v125l3 1q81 -48 178 -48q89 0 126.5 30.5t37.5 96.5v8q-54 -52 -147 -52q-106 0 -168.5 63t-62.5 179q0 120 75.5 190t184.5 70q93 0 148 -43zM418 213v166q-40 30 -101 30q-58 0 -95 -36t-37 -98t33 -96
t86 -34q82 0 114 68z" />
    <glyph glyph-name="h" unicode="h" horiz-adv-x="628" 
d="M368 529q89 0 142.5 -56.5t53.5 -158.5v-314h-141v278q0 117 -102 117q-39 0 -68.5 -20t-41.5 -57v-318h-141v710h141v-249q57 68 157 68z" />
    <glyph glyph-name="i" unicode="i" horiz-adv-x="281" 
d="M140 587q-35 0 -60.5 25t-25.5 61q0 35 25.5 60.5t60.5 25.5t60.5 -25.5t25.5 -60.5q0 -36 -25.5 -61t-60.5 -25zM70 0v516h141v-516h-141z" />
    <glyph glyph-name="j" unicode="j" horiz-adv-x="299" 
d="M159 587q-35 0 -60.5 25t-25.5 61q0 35 25.5 60.5t60.5 25.5t60.5 -25.5t25.5 -60.5q0 -36 -25.5 -61t-60.5 -25zM29 -170q-32 0 -69 6v122l4 1q18 -3 36 -3q88 0 88 105v455h141v-488q0 -99 -52 -148.5t-148 -49.5z" />
    <glyph glyph-name="k" unicode="k" horiz-adv-x="578" 
d="M338 273l239 -269l-2 -4h-170l-194 215v-215h-141v710h141v-400l189 206h160l2 -4z" />
    <glyph glyph-name="l" unicode="l" horiz-adv-x="316" 
d="M227 -10q-161 0 -161 160v560h141v-526q0 -68 52 -68q22 0 37 9l3 -2v-121q-32 -12 -72 -12z" />
    <glyph glyph-name="m" unicode="m" horiz-adv-x="949" 
d="M695 529q83 0 136.5 -55t53.5 -154v-320h-141v278q0 115 -95 115q-73 0 -100 -71v-2v-320h-142v278q0 61 -26.5 88t-68.5 27q-35 0 -63 -20t-38 -58v-315h-141v516h115l13 -69q53 82 162 82q113 0 163 -93q22 39 65 66t107 27z" />
    <glyph glyph-name="n" unicode="n" horiz-adv-x="628" 
d="M368 529q88 0 142.5 -57.5t54.5 -159.5v-312h-141v273q0 120 -105 120q-38 0 -67.5 -21t-40.5 -57v-315h-141v516h115l13 -70q56 83 170 83z" />
    <glyph glyph-name="o" unicode="o" horiz-adv-x="635" 
d="M317 -14q-118 0 -198 70.5t-80 201.5q0 123 79 197t199 74q119 0 199 -70t80 -200q0 -124 -79 -198.5t-200 -74.5zM317 107q62 0 98 42t36 110q0 67 -36 108t-98 41q-61 0 -97 -41t-36 -108q0 -69 35.5 -110.5t97.5 -41.5z" />
    <glyph glyph-name="p" unicode="p" horiz-adv-x="630" 
d="M364 529q104 0 164.5 -71t60.5 -188q0 -128 -74 -205.5t-190 -77.5q-68 0 -114 23v-174h-141v680h115l12 -60q24 32 68 52.5t99 20.5zM309 108q64 0 100 40t36 114q0 70 -33.5 105.5t-89.5 35.5q-36 0 -67 -18.5t-44 -47.5v-206q43 -23 98 -23z" />
    <glyph glyph-name="q" unicode="q" horiz-adv-x="628" 
d="M444 516h115v-680h-142v207q-58 -56 -150 -56q-102 0 -164.5 69.5t-62.5 194.5q0 126 74 202t185 76q87 0 140 -37zM307 113q36 0 66.5 18t43.5 49v199q-40 30 -98 30q-59 0 -96 -40.5t-37 -110.5q0 -72 33 -108.5t88 -36.5z" />
    <glyph glyph-name="r" unicode="r" horiz-adv-x="412" 
d="M336 528q31 0 56 -8v-128l-3 -1q-22 8 -53 8q-49 0 -84 -31t-41 -101v-267h-141v516h115l13 -72q21 41 58 62.5t80 21.5z" />
    <glyph glyph-name="s" unicode="s" horiz-adv-x="491" 
d="M232 -14q-108 0 -189 38v118l4 2q34 -23 83.5 -37.5t94.5 -14.5q94 0 94 48q0 24 -22.5 37.5t-93.5 33.5q-82 24 -119.5 60.5t-37.5 96.5q0 73 61.5 117t162.5 44t159 -24v-116l-3 -2q-58 29 -150 29q-42 0 -67.5 -11.5t-25.5 -31.5q0 -21 21.5 -32.5t89.5 -30.5
q84 -23 122 -60t38 -99q0 -79 -59 -122t-163 -43z" />
    <glyph glyph-name="t" unicode="t" horiz-adv-x="420" 
d="M396 404h-152v-197q0 -88 77 -88q37 0 71 17l4 -1v-119q-43 -22 -117 -22q-84 0 -130.5 47t-46.5 136v227h-88v112h88v125l139 27l3 -2v-150h152v-112z" />
    <glyph glyph-name="u" unicode="u" horiz-adv-x="617" 
d="M406 516h141v-516h-114l-14 70q-50 -83 -172 -83q-87 0 -135 51.5t-48 143.5v334h142v-302q0 -106 95 -106q82 0 105 72v336z" />
    <glyph glyph-name="v" unicode="v" horiz-adv-x="562" 
d="M555 516l1 -4l-223 -514h-106l-220 514l2 4h153l123 -333l125 333h145z" />
    <glyph glyph-name="w" unicode="w" horiz-adv-x="809" 
d="M798 516l1 -4l-174 -512h-99l-113 329l-5 20l-6 -20l-117 -329h-101l-175 512l2 4h140l89 -309l3 -25l6 24l103 310h116l100 -308l6 -27l4 28l90 307h130z" />
    <glyph glyph-name="x" unicode="x" horiz-adv-x="560" 
d="M366 265l184 -261l-1 -4h-159l-114 172l-116 -172h-147l-2 4l184 258l-177 250l2 4h159l106 -161l108 161h145l2 -4z" />
    <glyph glyph-name="y" unicode="y" horiz-adv-x="542" 
d="M534 516l2 -4l-217 -518l-65 -157h-147l-2 3l102 202l-197 470l2 4h149l115 -329l117 329h141z" />
    <glyph glyph-name="z" unicode="z" horiz-adv-x="531" 
d="M219 114h278v-114h-461v69l265 331h-262v116h449v-73z" />
    <glyph glyph-name="braceleft" unicode="{" horiz-adv-x="367" 
d="M238 423q0 -53 -34 -86t-68 -33v-6q34 0 68 -33.5t34 -86.5v-193q0 -30 16 -41.5t47 -11.5h30v-105h-49q-79 0 -122 39t-43 112v170q0 46 -28.5 71.5t-54.5 25.5v117q26 0 54.5 23.5t28.5 67.5v169q0 74 43 112.5t122 38.5h49v-104h-30q-31 0 -47 -11.5t-16 -41.5v-193z
" />
    <glyph glyph-name="bar" unicode="|" horiz-adv-x="287" 
d="M80 -108v833h128v-833h-128z" />
    <glyph glyph-name="braceright" unicode="}" horiz-adv-x="367" 
d="M249 453q0 -46 28.5 -71.5t54.5 -25.5v-117q-26 0 -54.5 -24t-28.5 -67v-170q0 -73 -42.5 -112t-121.5 -39h-49v105h31q62 0 62 53v193q0 53 34 86.5t69 33.5v6q-35 0 -69 33t-34 86v193q0 53 -62 53h-31v104h49q79 0 121.5 -38.5t42.5 -112.5v-169z" />
    <glyph glyph-name="asciitilde" unicode="~" horiz-adv-x="549" 
d="M145 222l-84 11q0 58 34 94t89 36q41 0 96 -18.5t83 -18.5q42 0 45 39l4 3l77 -16q0 -55 -33.5 -89.5t-87.5 -34.5q-33 0 -90.5 18t-83.5 18q-21 0 -33.5 -11t-13.5 -28z" />
    <glyph glyph-name="exclamdown" unicode="&#xa1;" horiz-adv-x="276" 
d="M139 388q-37 0 -57 20t-20 51t20 52t57 21q38 0 57.5 -21t19.5 -52q0 -32 -19.5 -51.5t-57.5 -19.5zM68 -172l9 471h120l9 -471h-138z" />
    <glyph glyph-name="cent" unicode="&#xa2;" horiz-adv-x="548" 
d="M494 200v-121q-48 -22 -113 -27v-93h-133v102q-97 23 -152 91t-55 170q0 109 55 180.5t153 94.5v104h133v-96q54 -4 109 -22v-120l-5 -3q-67 25 -130 25q-78 0 -122.5 -41t-44.5 -112t44.5 -114.5t121.5 -43.5q74 0 134 30z" />
    <glyph glyph-name="sterling" unicode="&#xa3;" horiz-adv-x="584" 
d="M238 117h301v-117h-474l-4 7q65 114 65 267v1h-86v114h74q-3 24 -3 47q0 116 74 177.5t180 61.5q89 0 156 -28v-121l-4 -3q-68 34 -141 34q-60 0 -92.5 -28t-32.5 -83q0 -19 4 -57h182v-114h-171v-3q0 -79 -28 -155z" />
    <glyph glyph-name="currency" unicode="&#xa4;" horiz-adv-x="718" 
d="M619 335q0 -71 -36 -132l85 -85l-93 -93l-85 85q-60 -37 -133 -37q-69 0 -131 35l-82 -83l-93 93l81 81q-38 62 -38 136t37 134l-80 80l93 93l81 -80q62 35 132 35q71 0 135 -37l83 82l93 -93l-84 -84q35 -60 35 -130zM214 335q0 -60 41.5 -102.5t101.5 -42.5t101.5 42.5
t41.5 102.5t-41.5 102t-101.5 42t-101.5 -42t-41.5 -102z" />
    <glyph glyph-name="yen" unicode="&#xa5;" horiz-adv-x="673" 
d="M645 669l-231 -394h142v-131h-149v-144h-139v144h-146v131h140l-235 394h156l158 -289l157 289h147z" />
    <glyph glyph-name="brokenbar" unicode="&#xa6;" horiz-adv-x="295" 
d="M84 410v315h128v-315h-128zM84 -108v318h128v-318h-128z" />
    <glyph glyph-name="section" unicode="&#xa7;" horiz-adv-x="547" 
d="M440 128q42 -38 42 -99q0 -80 -65.5 -129t-165.5 -49q-104 0 -176 35v118l4 2q75 -41 165 -41q95 0 95 57q0 10 -2.5 17t-11 15t-15.5 13t-26.5 14t-32.5 14.5t-44 17.5q-86 34 -125 69.5t-39 102.5q0 75 72 127q-49 43 -49 112q0 78 65 124.5t165 46.5q99 0 161 -27
v-118l-3 -2q-55 31 -143 31q-43 0 -73 -14t-30 -45q0 -27 24.5 -42t102.5 -44q87 -32 129.5 -71t42.5 -102q0 -72 -67 -133zM287 209q44 -17 83 -36q18 27 18 58q0 30 -26.5 52t-106.5 54q-49 20 -71 32q-21 -30 -21 -59q0 -31 24.5 -51.5t99.5 -49.5z" />
    <glyph glyph-name="dieresis" unicode="&#xa8;" horiz-adv-x="398" 
d="M89 591q-34 0 -58 23.5t-24 57.5q0 33 24 57.5t58 24.5q33 0 57 -24.5t24 -57.5q0 -34 -24 -57.5t-57 -23.5zM312 591q-34 0 -58 23.5t-24 57.5q0 33 24 57.5t58 24.5q33 0 57 -24.5t24 -57.5q0 -34 -24 -57.5t-57 -23.5z" />
    <glyph glyph-name="copyright" unicode="&#xa9;" horiz-adv-x="691" 
d="M347 -17q-137 0 -220.5 85.5t-83.5 214.5t83.5 214.5t220.5 85.5q136 0 219 -85.5t83 -214.5t-83 -214.5t-219 -85.5zM346 59q104 0 160.5 62t56.5 163q0 99 -59.5 161.5t-157.5 62.5q-99 0 -158 -62.5t-59 -161.5t59.5 -162t157.5 -63zM367 130q-73 0 -120.5 39.5
t-47.5 108.5q0 73 46.5 114.5t119.5 41.5q46 0 78 -13v-80l-3 -1q-25 11 -61 11q-37 0 -57.5 -19t-20.5 -51t22 -51t58 -19q37 0 61 13l2 -2v-79q-26 -13 -77 -13z" />
    <glyph glyph-name="ordfeminine" unicode="&#xaa;" horiz-adv-x="477" 
d="M433 442l2 -1v-88q-22 -11 -64 -11q-54 0 -70 54q-51 -59 -134 -59q-56 0 -89.5 32.5t-33.5 80.5q0 63 45 93t109 30q54 0 89 -12q-1 81 -94 81q-67 0 -114 -21l-2 2v85q41 26 133 26t136 -45t44 -125v-97q0 -30 22 -30q11 0 21 5zM200 420q27 0 51 12t36 29v33
q-32 9 -66 9q-69 0 -69 -42q0 -41 48 -41z" />
    <glyph glyph-name="guillemotleft" unicode="&#xab;" horiz-adv-x="579" 
d="M169 94l-139 191l142 188h129v-11l-130 -174l130 -186v-8h-132zM403 94l-139 191l142 188h129v-11l-130 -174l130 -186v-8h-132z" />
    <glyph glyph-name="registered" unicode="&#xae;" horiz-adv-x="651" 
d="M327 740q124 0 199.5 -77.5t75.5 -196.5t-75.5 -196.5t-199.5 -77.5q-126 0 -203 78t-77 196t77 196t203 78zM325 264q93 0 143.5 56.5t50.5 146.5q0 88 -53 144.5t-141 56.5t-141.5 -56.5t-53.5 -144.5t53.5 -145.5t141.5 -57.5zM446 504q0 -61 -45 -85l54 -81h-90
l-43 66h-36v-66h-83v261q49 3 115 3q54 0 91 -23t37 -75zM286 534v-70h31q43 0 43 35q0 36 -43 36q-24 0 -31 -1z" />
    <glyph glyph-name="macron" unicode="&#xaf;" horiz-adv-x="359" 
d="M24 611v90h306v-90h-306z" />
    <glyph glyph-name="degree" unicode="&#xb0;" horiz-adv-x="374" 
d="M188 389q-62 0 -104 40.5t-42 101.5t42 101.5t104 40.5q61 0 102 -40.5t41 -101.5t-41 -101.5t-102 -40.5zM188 465q26 0 43 19t17 47t-17 47t-43 19q-28 0 -45 -19t-17 -47t17 -47t45 -19z" />
    <glyph glyph-name="plusminus" unicode="&#xb1;" horiz-adv-x="563" 
d="M511 259h-180v-139h172v-98h-443v98h172v139h-180v96h181v171h98v-171h180v-96z" />
    <glyph glyph-name="acute" unicode="&#xb4;" horiz-adv-x="264" 
d="M50 559l-43 65l171 154l86 -98l-4 -16z" />
    <glyph glyph-name="paragraph" unicode="&#xb6;" horiz-adv-x="615" 
d="M565 601v-126h-62v-587h-36v587h-61v-587h-133v311q-242 0 -242 200q0 99 67.5 150.5t184.5 51.5h282z" />
    <glyph glyph-name="periodcentered" unicode="&#xb7;" horiz-adv-x="267" 
d="M133 169q-37 0 -57 19.5t-20 50.5q0 32 20 53t57 21q38 0 57.5 -21t19.5 -53q0 -31 -19.5 -50.5t-57.5 -19.5z" />
    <glyph glyph-name="cedilla" unicode="&#xb8;" horiz-adv-x="217" 
d="M78 -240q-36 0 -66 8v63l4 2q20 -7 41 -7q57 0 57 38q0 33 -42 33q-21 0 -38 -5l-1 3v54l34 52h79l-32 -45h15q41 -2 67 -24.5t26 -65.5q0 -56 -41 -81t-103 -25z" />
    <glyph glyph-name="ordmasculine" unicode="&#xba;" horiz-adv-x="504" 
d="M252 328q-89 0 -151 54.5t-62 152.5q0 93 60 151t153 58q90 0 152 -54.5t62 -153.5q0 -94 -60 -151t-154 -57zM252 430q43 0 67.5 29t24.5 77q0 47 -24.5 76.5t-67.5 29.5q-42 0 -67 -29.5t-25 -76.5q0 -48 24.5 -77t67.5 -29z" />
    <glyph glyph-name="guillemotright" unicode="&#xbb;" horiz-adv-x="579" 
d="M176 473l139 -191l-142 -188h-129v11l130 174l-130 186v8h132zM410 473l139 -191l-142 -188h-129v11l130 174l-130 186v8h132z" />
    <glyph glyph-name="onequarter" unicode="&#xbc;" horiz-adv-x="750" 
d="M107 300v234l-79 -22v106l171 54h12v-372h-104zM496 662h105l-409 -673h-104zM719 125v-67h-46v-58h-96v58h-190v45l198 268h88v-246h46zM490 125h87v121z" />
    <glyph glyph-name="onehalf" unicode="&#xbd;" horiz-adv-x="767" 
d="M113 300v234l-79 -22v106l171 54h12v-372h-104zM68 -11l408 673h105l-409 -673h-104zM435 0q-2 100 102 175q49 35 63.5 49.5t14.5 29.5q0 14 -13 23t-36 9q-70 0 -122 -36l-1 1v87q60 36 134 36q61 0 103.5 -27t42.5 -80q0 -42 -20.5 -70t-66.5 -58q-52 -36 -57 -57h156
v-82h-300z" />
    <glyph glyph-name="threequarters" unicode="&#xbe;" horiz-adv-x="781" 
d="M319 416q0 -58 -43 -91.5t-117 -33.5q-68 0 -119 22v81l1 1q41 -22 105 -22q79 0 79 44q0 37 -50 37h-78v70h69q43 0 43 33q0 35 -66 35q-64 0 -96 -16h-1v81q47 17 112 17q148 0 148 -100q0 -48 -41 -76q54 -25 54 -82zM550 662h105l-409 -673h-103zM750 125v-67h-46
v-58h-96v58h-190v45l198 268h88v-246h46zM521 125h87v121z" />
    <glyph glyph-name="questiondown" unicode="&#xbf;" horiz-adv-x="439" 
d="M264 529q37 0 57 -20.5t20 -51.5q0 -32 -20 -52.5t-57 -20.5t-57 20.5t-20 52.5q0 31 20 51.5t57 20.5zM328 311q1 -70 -18.5 -110t-73.5 -76q-35 -27 -49 -48t-14 -54q0 -77 95 -77q75 0 127 36l2 -1l1 -121q-61 -35 -149 -35q-92 0 -153.5 47t-61.5 135
q0 63 26.5 102.5t81.5 82.5q64 47 64 118z" />
    <glyph glyph-name="Agrave" unicode="&#xc0;" horiz-adv-x="644" 
d="M412 700l-229 75l-8 15l66 106l198 -126zM503 0l-48 111h-271l-45 -111h-139l288 666h62l299 -666h-146zM225 212h186l-81 186l-15 43l-14 -43z" />
    <glyph glyph-name="Aacute" unicode="&#xc1;" horiz-adv-x="644" 
d="M448 775l-229 -75l-27 69l198 127l66 -106zM503 0l-48 111h-271l-45 -111h-139l288 666h62l299 -666h-146zM225 212h186l-81 186l-15 43l-14 -43z" />
    <glyph glyph-name="Acircumflex" unicode="&#xc2;" horiz-adv-x="644" 
d="M314 778l-114 -76l-43 56l127 128h64l132 -127l-45 -57zM503 0l-48 111h-271l-45 -111h-139l288 666h62l299 -666h-146zM225 212h186l-81 186l-15 43l-14 -43z" />
    <glyph glyph-name="Atilde" unicode="&#xc3;" horiz-adv-x="644" 
d="M221 710l-3 -1l-83 23q1 53 33 88.5t82 35.5q30 0 71.5 -16.5t60.5 -16.5q14 0 26 10.5t12 26.5l2 2l84 -24q-2 -54 -33.5 -88t-82.5 -34q-24 0 -67.5 16t-62.5 16q-18 0 -28.5 -11t-10.5 -27zM503 0l-48 111h-271l-45 -111h-139l288 666h62l299 -666h-146zM225 212h186
l-81 186l-15 43l-14 -43z" />
    <glyph glyph-name="Adieresis" unicode="&#xc4;" horiz-adv-x="644" 
d="M203 720q-30 0 -51 21t-21 51t21 51t51 21t51 -21t21 -51t-21 -51t-51 -21zM437 720q-30 0 -51 21t-21 51t21 51t51 21q31 0 52 -21t21 -51t-21 -51t-52 -21zM503 0l-48 111h-271l-45 -111h-139l288 666h62l299 -666h-146zM225 212h186l-81 186l-15 43l-14 -43z" />
    <glyph glyph-name="Aring" unicode="&#xc5;" horiz-adv-x="644" 
d="M319 686q-51 0 -83 30.5t-32 76.5q0 45 32.5 75.5t82.5 30.5q51 0 83.5 -30t32.5 -76t-32.5 -76.5t-83.5 -30.5zM319 835q-18 0 -30 -12t-12 -30t12 -30.5t30 -12.5q19 0 31 12.5t12 30.5t-12 30t-31 12zM503 0l-48 111h-271l-45 -111h-139l288 666h62l299 -666h-146z
M225 212h186l-81 186l-15 43l-14 -43z" />
    <glyph glyph-name="AE" unicode="&#xc6;" horiz-adv-x="855" 
d="M550 115h257v-115h-398v154h-200l-90 -154h-142l390 662h430v-114h-247v-149h228v-113h-228v-171zM267 253h142v256l-69 -130z" />
    <glyph glyph-name="Ccedilla" unicode="&#xc7;" horiz-adv-x="616" 
d="M415 549q-107 0 -167 -57.5t-60 -160.5q0 -102 60 -159t170 -57q80 0 151 31l3 -2v-127q-67 -25 -148 -28l-23 -33h15q41 -2 67 -24.5t26 -65.5q0 -56 -41 -81t-103 -25q-36 0 -66 8v63l4 2q20 -7 41 -7q57 0 57 38q0 33 -42 33q-21 0 -38 -5l-1 3v54l27 42
q-137 14 -220.5 102.5t-83.5 230.5q0 162 97.5 257t254.5 95q96 0 177 -28v-132l-3 -1q-70 34 -154 34z" />
    <glyph glyph-name="Egrave" unicode="&#xc8;" horiz-adv-x="563" 
d="M397 700l-229 75l-8 15l66 106l198 -126zM224 118h291v-118h-432v662h422v-118h-281v-147h262v-115h-262v-164z" />
    <glyph glyph-name="Eacute" unicode="&#xc9;" horiz-adv-x="563" 
d="M433 775l-229 -75l-27 69l198 127l66 -106zM224 118h291v-118h-432v662h422v-118h-281v-147h262v-115h-262v-164z" />
    <glyph glyph-name="Ecircumflex" unicode="&#xca;" horiz-adv-x="563" 
d="M299 778l-114 -76l-43 56l127 128h64l132 -127l-45 -57zM224 118h291v-118h-432v662h422v-118h-281v-147h262v-115h-262v-164z" />
    <glyph glyph-name="Edieresis" unicode="&#xcb;" horiz-adv-x="563" 
d="M188 720q-30 0 -51 21t-21 51t21 51t51 21t51 -21t21 -51t-21 -51t-51 -21zM422 720q-30 0 -51 21t-21 51t21 51t51 21q31 0 52 -21t21 -51t-21 -51t-52 -21zM224 118h291v-118h-432v662h422v-118h-281v-147h262v-115h-262v-164z" />
    <glyph glyph-name="Igrave" unicode="&#xcc;" horiz-adv-x="308" 
d="M248 700l-229 75l-8 15l66 106l198 -126zM83 0v662h141v-662h-141z" />
    <glyph glyph-name="Iacute" unicode="&#xcd;" horiz-adv-x="308" 
d="M55 700l-27 69l198 127l66 -106l-8 -15zM83 0v662h141v-662h-141z" />
    <glyph glyph-name="Icircumflex" unicode="&#xce;" horiz-adv-x="308" 
d="M36 702l-43 56l127 128h64l132 -127l-45 -57l-121 76zM83 0v662h141v-662h-141z" />
    <glyph glyph-name="Idieresis" unicode="&#xcf;" horiz-adv-x="308" 
d="M39 720q-30 0 -51 21t-21 51t21 51t51 21t51 -21t21 -51t-21 -51t-51 -21zM273 720q-30 0 -51 21t-21 51t21 51t51 21q31 0 52 -21t21 -51t-21 -51t-52 -21zM83 0v662h141v-662h-141z" />
    <glyph glyph-name="Eth" unicode="&#xd0;" horiz-adv-x="748" 
d="M338 672q173 0 269.5 -89.5t96.5 -244.5q0 -162 -100.5 -250.5t-277.5 -88.5q-195 0 -228 2v283h-81v90h81v288q150 10 240 10zM341 122q217 2 217 214q0 101 -59 154.5t-163 53.5q-66 0 -98 -4v-166h100v-90h-100v-159q44 -3 103 -3z" />
    <glyph glyph-name="Ntilde" unicode="&#xd1;" horiz-adv-x="740" 
d="M270 709l-83 23q1 53 33 88.5t82 35.5q30 0 71.5 -16.5t60.5 -16.5q14 0 26 10.5t12 26.5l2 2l84 -24q-2 -54 -33.5 -88t-82.5 -34q-24 0 -67.5 16t-62.5 16q-18 0 -28.5 -11t-10.5 -27zM83 0v662h62l374 -393h3v393h134v-662h-61l-374 398h-3v-398h-135z" />
    <glyph glyph-name="Ograve" unicode="&#xd2;" horiz-adv-x="781" 
d="M483 700l-229 75l-8 15l66 106l198 -126zM390 -13q-145 0 -246 91t-101 253q0 159 98 252.5t249 93.5q69 0 131 -22.5t111 -64.5t77.5 -109t28.5 -150q0 -157 -98 -250.5t-250 -93.5zM390 114q92 0 147 58.5t55 158.5q0 102 -55 160.5t-147 58.5q-91 0 -146 -58.5
t-55 -160.5q0 -100 55 -158.5t146 -58.5z" />
    <glyph glyph-name="Oacute" unicode="&#xd3;" horiz-adv-x="781" 
d="M290 700l-27 69l198 127l66 -106l-8 -15zM390 -13q-145 0 -246 91t-101 253q0 159 98 252.5t249 93.5q69 0 131 -22.5t111 -64.5t77.5 -109t28.5 -150q0 -157 -98 -250.5t-250 -93.5zM390 114q92 0 147 58.5t55 158.5q0 102 -55 160.5t-147 58.5q-91 0 -146 -58.5
t-55 -160.5q0 -100 55 -158.5t146 -58.5z" />
    <glyph glyph-name="Ocircumflex" unicode="&#xd4;" horiz-adv-x="781" 
d="M271 702l-43 56l127 128h64l132 -127l-45 -57l-121 76zM390 -13q-145 0 -246 91t-101 253q0 159 98 252.5t249 93.5q69 0 131 -22.5t111 -64.5t77.5 -109t28.5 -150q0 -157 -98 -250.5t-250 -93.5zM390 114q92 0 147 58.5t55 158.5q0 102 -55 160.5t-147 58.5
q-91 0 -146 -58.5t-55 -160.5q0 -100 55 -158.5t146 -58.5z" />
    <glyph glyph-name="Otilde" unicode="&#xd5;" horiz-adv-x="781" 
d="M289 709l-83 23q1 53 33 88.5t82 35.5q30 0 71.5 -16.5t60.5 -16.5q14 0 26 10.5t12 26.5l2 2l84 -24q-2 -54 -33.5 -88t-82.5 -34q-24 0 -67.5 16t-62.5 16q-18 0 -28.5 -11t-10.5 -27zM390 -13q-145 0 -246 91t-101 253q0 159 98 252.5t249 93.5q69 0 131 -22.5
t111 -64.5t77.5 -109t28.5 -150q0 -157 -98 -250.5t-250 -93.5zM390 114q92 0 147 58.5t55 158.5q0 102 -55 160.5t-147 58.5q-91 0 -146 -58.5t-55 -160.5q0 -100 55 -158.5t146 -58.5z" />
    <glyph glyph-name="Odieresis" unicode="&#xd6;" horiz-adv-x="781" 
d="M274 720q-30 0 -51 21t-21 51t21 51t51 21t51 -21t21 -51t-21 -51t-51 -21zM508 720q-30 0 -51 21t-21 51t21 51t51 21q31 0 52 -21t21 -51t-21 -51t-52 -21zM390 -13q-145 0 -246 91t-101 253q0 159 98 252.5t249 93.5q69 0 131 -22.5t111 -64.5t77.5 -109t28.5 -150
q0 -157 -98 -250.5t-250 -93.5zM390 114q92 0 147 58.5t55 158.5q0 102 -55 160.5t-147 58.5q-91 0 -146 -58.5t-55 -160.5q0 -100 55 -158.5t146 -58.5z" />
    <glyph glyph-name="multiply" unicode="&#xd7;" horiz-adv-x="525" 
d="M477 436l-144 -144l144 -144l-69 -70l-145 144l-144 -144l-70 70l144 144l-144 144l70 70l144 -144l145 144z" />
    <glyph glyph-name="Oslash" unicode="&#xd8;" horiz-adv-x="781" 
d="M738 680v-10l-86 -100q86 -92 86 -239q0 -157 -98 -250.5t-250 -93.5q-108 0 -195 52l-47 -54h-106v12l84 99q-83 93 -83 235q0 159 98 252.5t249 93.5q107 0 190 -49l44 52h114zM189 331q0 -73 31 -126l273 321q-45 24 -103 24q-91 0 -146 -58.5t-55 -160.5zM592 331
q0 76 -33 131l-276 -321q48 -27 107 -27q92 0 147 58.5t55 158.5z" />
    <glyph glyph-name="Ugrave" unicode="&#xd9;" horiz-adv-x="719" 
d="M453 700l-229 75l-8 15l66 106l198 -126zM360 -13q-137 0 -211 71.5t-74 204.5v399h139v-382q0 -174 148 -174q146 0 146 174v382h136v-399q0 -132 -74.5 -204t-209.5 -72z" />
    <glyph glyph-name="Uacute" unicode="&#xda;" horiz-adv-x="719" 
d="M260 700l-27 69l198 127l66 -106l-8 -15zM360 -13q-137 0 -211 71.5t-74 204.5v399h139v-382q0 -174 148 -174q146 0 146 174v382h136v-399q0 -132 -74.5 -204t-209.5 -72z" />
    <glyph glyph-name="Ucircumflex" unicode="&#xdb;" horiz-adv-x="719" 
d="M241 702l-43 56l127 128h64l132 -127l-45 -57l-121 76zM360 -13q-137 0 -211 71.5t-74 204.5v399h139v-382q0 -174 148 -174q146 0 146 174v382h136v-399q0 -132 -74.5 -204t-209.5 -72z" />
    <glyph glyph-name="Udieresis" unicode="&#xdc;" horiz-adv-x="719" 
d="M244 720q-30 0 -51 21t-21 51t21 51t51 21t51 -21t21 -51t-21 -51t-51 -21zM478 720q-30 0 -51 21t-21 51t21 51t51 21q31 0 52 -21t21 -51t-21 -51t-52 -21zM360 -13q-137 0 -211 71.5t-74 204.5v399h139v-382q0 -174 148 -174q146 0 146 174v382h136v-399
q0 -132 -74.5 -204t-209.5 -72z" />
    <glyph glyph-name="Yacute" unicode="&#xdd;" horiz-adv-x="614" 
d="M208 700l-27 69l198 127l66 -106l-8 -15zM238 0v263l-237 396l1 3h151l158 -271l156 271h142l2 -3l-234 -397v-262h-139z" />
    <glyph glyph-name="Thorn" unicode="&#xde;" horiz-adv-x="592" 
d="M553 348q1 -118 -70.5 -179.5t-191.5 -61.5q-22 0 -68 2v-109h-140v662h140v-106q35 3 76 3q107 0 180 -51.5t74 -159.5zM274 220q138 0 138 113q0 51 -33.5 78.5t-95.5 27.5q-32 0 -60 -2v-215q40 -2 51 -2z" />
    <glyph glyph-name="germandbls" unicode="&#xdf;" horiz-adv-x="647" 
d="M533 295q50 -38 70.5 -67.5t20.5 -82.5q0 -72 -54 -115.5t-126 -43.5q-80 0 -136 29v118l3 1q48 -42 112 -42t64 43q0 24 -14.5 40t-62.5 47q-36 26 -51.5 39.5t-28 37t-12.5 53.5q0 31 13 56t28 39.5t28 34.5t13 42q0 35 -23 51.5t-60 16.5q-106 0 -106 -126v-466h-141
v479q0 113 67 175.5t177 62.5q42 0 79.5 -8.5t71.5 -27.5t54.5 -56t20.5 -87q0 -33 -12 -59.5t-26 -40.5t-26 -30.5t-12 -30.5q0 -21 14.5 -36.5t54.5 -45.5z" />
    <glyph glyph-name="agrave" unicode="&#xe0;" horiz-adv-x="650" 
d="M387 559l-210 105l-3 16l86 98l171 -154zM619 130l4 -1v-119q-37 -17 -83 -17q-87 0 -107 69q-55 -75 -167 -75q-101 0 -163.5 69t-62.5 191q0 127 74 204.5t190 77.5q82 0 134 -38l5 25h115v-358q0 -37 31 -37q17 0 30 9zM307 113q36 0 66.5 18t43.5 48v198
q-39 32 -98 32q-58 0 -96 -42.5t-38 -110.5q0 -70 34 -106.5t88 -36.5z" />
    <glyph glyph-name="aacute" unicode="&#xe1;" horiz-adv-x="650" 
d="M451 664l-210 -105l-43 65l171 154l86 -98zM619 130l4 -1v-119q-37 -17 -83 -17q-87 0 -107 69q-55 -75 -167 -75q-101 0 -163.5 69t-62.5 191q0 127 74 204.5t190 77.5q82 0 134 -38l5 25h115v-358q0 -37 31 -37q17 0 30 9zM307 113q36 0 66.5 18t43.5 48v198
q-39 32 -98 32q-58 0 -96 -42.5t-38 -110.5q0 -70 34 -106.5t88 -36.5z" />
    <glyph glyph-name="acircumflex" unicode="&#xe2;" horiz-adv-x="650" 
d="M315 652l-102 -83l-51 48l122 147h65l126 -147l-51 -48zM619 130l4 -1v-119q-37 -17 -83 -17q-87 0 -107 69q-55 -75 -167 -75q-101 0 -163.5 69t-62.5 191q0 127 74 204.5t190 77.5q82 0 134 -38l5 25h115v-358q0 -37 31 -37q17 0 30 9zM307 113q36 0 66.5 18t43.5 48
v198q-39 32 -98 32q-58 0 -96 -42.5t-38 -110.5q0 -70 34 -106.5t88 -36.5z" />
    <glyph glyph-name="atilde" unicode="&#xe3;" horiz-adv-x="650" 
d="M223 596l-3 -2l-86 22q0 50 30.5 87.5t81.5 37.5q32 0 74.5 -16.5t62.5 -16.5q17 0 28 10.5t11 26.5l4 2l85 -22q0 -58 -32.5 -91.5t-82.5 -33.5q-29 -1 -73 16.5t-61 17.5q-37 0 -39 -38zM619 130l4 -1v-119q-37 -17 -83 -17q-87 0 -107 69q-55 -75 -167 -75
q-101 0 -163.5 69t-62.5 191q0 127 74 204.5t190 77.5q82 0 134 -38l5 25h115v-358q0 -37 31 -37q17 0 30 9zM307 113q36 0 66.5 18t43.5 48v198q-39 32 -98 32q-58 0 -96 -42.5t-38 -110.5q0 -70 34 -106.5t88 -36.5z" />
    <glyph glyph-name="adieresis" unicode="&#xe4;" horiz-adv-x="650" 
d="M208 591q-34 0 -58 23.5t-24 57.5q0 33 24 57.5t58 24.5q33 0 57 -24.5t24 -57.5q0 -34 -24 -57.5t-57 -23.5zM431 591q-34 0 -58 23.5t-24 57.5q0 33 24 57.5t58 24.5q33 0 57 -24.5t24 -57.5q0 -34 -24 -57.5t-57 -23.5zM619 130l4 -1v-119q-37 -17 -83 -17
q-87 0 -107 69q-55 -75 -167 -75q-101 0 -163.5 69t-62.5 191q0 127 74 204.5t190 77.5q82 0 134 -38l5 25h115v-358q0 -37 31 -37q17 0 30 9zM307 113q36 0 66.5 18t43.5 48v198q-39 32 -98 32q-58 0 -96 -42.5t-38 -110.5q0 -70 34 -106.5t88 -36.5z" />
    <glyph glyph-name="aring" unicode="&#xe5;" horiz-adv-x="650" 
d="M318 554q-52 0 -85 33.5t-33 82.5t33 82t85 33q53 0 86.5 -33t33.5 -82q0 -50 -33.5 -83t-86.5 -33zM319 717q-21 0 -34.5 -13.5t-13.5 -33.5t13.5 -33.5t34.5 -13.5t34.5 13.5t13.5 33.5t-13.5 33.5t-34.5 13.5zM619 130l4 -1v-119q-37 -17 -83 -17q-87 0 -107 69
q-55 -75 -167 -75q-101 0 -163.5 69t-62.5 191q0 127 74 204.5t190 77.5q82 0 134 -38l5 25h115v-358q0 -37 31 -37q17 0 30 9zM307 113q36 0 66.5 18t43.5 48v198q-39 32 -98 32q-58 0 -96 -42.5t-38 -110.5q0 -70 34 -106.5t88 -36.5z" />
    <glyph glyph-name="ae" unicode="&#xe6;" horiz-adv-x="885" 
d="M601 529q111 0 175.5 -63.5t65.5 -185.5q0 -40 -1 -60h-350q10 -59 47.5 -89.5t94.5 -30.5q96 0 172 42l3 -2v-111q-78 -43 -187 -43q-144 0 -219 95q-84 -94 -201 -94q-82 0 -127 39.5t-45 106.5q0 51 24.5 86t72 52.5t98.5 24.5t122 8q-7 106 -124 106q-90 0 -144 -32
l-4 2v112q21 15 68 26t106 11q122 0 180 -67q69 67 173 67zM491 304h215q-9 112 -106 112q-43 0 -71.5 -28.5t-37.5 -83.5zM232 95q41 0 76 16.5t55 41.5q-11 32 -14 67q-59 -1 -96 -7t-61 -22t-24 -43q0 -24 17 -38.5t47 -14.5z" />
    <glyph glyph-name="ccedilla" unicode="&#xe7;" horiz-adv-x="496" 
d="M455 14q-49 -24 -118 -27l-22 -31h15q41 -2 67 -24.5t26 -65.5q0 -56 -41 -81t-103 -25q-36 0 -66 8v63l4 2q20 -7 41 -7q57 0 57 38q0 33 -42 33q-21 0 -38 -5l-1 3v54l28 43q-101 17 -162 86t-61 178q0 127 77.5 200.5t202.5 73.5q75 0 135 -23v-118l-5 -3
q-55 23 -113 23q-71 0 -111.5 -39.5t-40.5 -108.5q0 -70 40.5 -111.5t111.5 -41.5q58 0 114 29l5 -3v-120z" />
    <glyph glyph-name="egrave" unicode="&#xe8;" horiz-adv-x="581" 
d="M366 559l-210 105l-3 16l86 98l171 -154zM301 529q111 0 176 -64.5t66 -182.5q0 -40 -1 -60h-357q10 -59 52.5 -89.5t110.5 -30.5q80 0 159 36l4 -1v-111q-77 -40 -190 -40q-54 0 -102.5 15t-89.5 46t-65.5 85.5t-24.5 125.5q0 121 74 196t188 75zM186 308h221
q-11 107 -107 107q-44 0 -74 -27.5t-40 -79.5z" />
    <glyph glyph-name="eacute" unicode="&#xe9;" horiz-adv-x="581" 
d="M430 664l-210 -105l-43 65l171 154l86 -98zM301 529q111 0 176 -64.5t66 -182.5q0 -40 -1 -60h-357q10 -59 52.5 -89.5t110.5 -30.5q80 0 159 36l4 -1v-111q-77 -40 -190 -40q-54 0 -102.5 15t-89.5 46t-65.5 85.5t-24.5 125.5q0 121 74 196t188 75zM186 308h221
q-11 107 -107 107q-44 0 -74 -27.5t-40 -79.5z" />
    <glyph glyph-name="ecircumflex" unicode="&#xea;" horiz-adv-x="581" 
d="M294 652l-102 -83l-51 48l122 147h65l126 -147l-51 -48zM301 529q111 0 176 -64.5t66 -182.5q0 -40 -1 -60h-357q10 -59 52.5 -89.5t110.5 -30.5q80 0 159 36l4 -1v-111q-77 -40 -190 -40q-54 0 -102.5 15t-89.5 46t-65.5 85.5t-24.5 125.5q0 121 74 196t188 75zM186 308
h221q-11 107 -107 107q-44 0 -74 -27.5t-40 -79.5z" />
    <glyph glyph-name="edieresis" unicode="&#xeb;" horiz-adv-x="581" 
d="M187 591q-34 0 -58 23.5t-24 57.5q0 33 24 57.5t58 24.5q33 0 57 -24.5t24 -57.5q0 -34 -24 -57.5t-57 -23.5zM410 591q-34 0 -58 23.5t-24 57.5q0 33 24 57.5t58 24.5q33 0 57 -24.5t24 -57.5q0 -34 -24 -57.5t-57 -23.5zM301 529q111 0 176 -64.5t66 -182.5
q0 -40 -1 -60h-357q10 -59 52.5 -89.5t110.5 -30.5q80 0 159 36l4 -1v-111q-77 -40 -190 -40q-54 0 -102.5 15t-89.5 46t-65.5 85.5t-24.5 125.5q0 121 74 196t188 75zM186 308h221q-11 107 -107 107q-44 0 -74 -27.5t-40 -79.5z" />
    <glyph glyph-name="igrave" unicode="&#xec;" horiz-adv-x="281" 
d="M209 559l-210 105l-3 16l86 98l171 -154zM70 0v516h141v-516h-141z" />
    <glyph glyph-name="iacute" unicode="&#xed;" horiz-adv-x="281" 
d="M63 559l-43 65l171 154l86 -98l-4 -16zM70 0v516h141v-516h-141z" />
    <glyph glyph-name="icircumflex" unicode="&#xee;" horiz-adv-x="281" 
d="M35 569l-51 48l122 147h65l126 -147l-51 -48l-109 83zM70 0v516h141v-516h-141z" />
    <glyph glyph-name="idieresis" unicode="&#xef;" horiz-adv-x="281" 
d="M46 591q-34 0 -57.5 23.5t-23.5 57.5q0 33 23.5 57.5t57.5 24.5q33 0 57 -24.5t24 -57.5q0 -34 -24 -57.5t-57 -23.5zM237 591q-34 0 -57.5 23.5t-23.5 57.5q0 33 24 57.5t57 24.5q34 0 58 -24.5t24 -57.5q0 -34 -24 -57.5t-58 -23.5zM70 0v516h141v-516h-141z" />
    <glyph glyph-name="eth" unicode="&#xf0;" horiz-adv-x="648" 
d="M436 681q163 -90 163 -361q0 -156 -76.5 -245t-211.5 -89q-123 0 -196.5 65.5t-73.5 179.5q0 108 70.5 174.5t179.5 66.5q92 0 151 -44q-20 114 -92 153l-62 -73l-69 57l32 37q-74 0 -131 -21l-4 4v116q57 20 143 20q44 0 87 -8l63 73l69 -56zM315 107q127 0 136 165
q-12 35 -48 61t-86 26q-59 0 -94 -36t-35 -89q0 -55 33.5 -91t93.5 -36z" />
    <glyph glyph-name="ntilde" unicode="&#xf1;" horiz-adv-x="628" 
d="M215 596l-3 -2l-86 22q0 50 30.5 87.5t81.5 37.5q32 0 74.5 -16.5t62.5 -16.5q17 0 28 10.5t11 26.5l4 2l85 -22q0 -58 -32.5 -91.5t-82.5 -33.5q-29 -1 -73 16.5t-61 17.5q-37 0 -39 -38zM368 529q88 0 142.5 -57.5t54.5 -159.5v-312h-141v273q0 120 -105 120
q-38 0 -67.5 -21t-40.5 -57v-315h-141v516h115l13 -70q56 83 170 83z" />
    <glyph glyph-name="ograve" unicode="&#xf2;" horiz-adv-x="635" 
d="M387 559l-210 105l-3 16l86 98l171 -154zM317 -14q-118 0 -198 70.5t-80 201.5q0 123 79 197t199 74q119 0 199 -70t80 -200q0 -124 -79 -198.5t-200 -74.5zM317 107q62 0 98 42t36 110q0 67 -36 108t-98 41q-61 0 -97 -41t-36 -108q0 -69 35.5 -110.5t97.5 -41.5z" />
    <glyph glyph-name="oacute" unicode="&#xf3;" horiz-adv-x="635" 
d="M241 559l-43 65l171 154l86 -98l-4 -16zM317 -14q-118 0 -198 70.5t-80 201.5q0 123 79 197t199 74q119 0 199 -70t80 -200q0 -124 -79 -198.5t-200 -74.5zM317 107q62 0 98 42t36 110q0 67 -36 108t-98 41q-61 0 -97 -41t-36 -108q0 -69 35.5 -110.5t97.5 -41.5z" />
    <glyph glyph-name="ocircumflex" unicode="&#xf4;" horiz-adv-x="635" 
d="M213 569l-51 48l122 147h65l126 -147l-51 -48l-109 83zM317 -14q-118 0 -198 70.5t-80 201.5q0 123 79 197t199 74q119 0 199 -70t80 -200q0 -124 -79 -198.5t-200 -74.5zM317 107q62 0 98 42t36 110q0 67 -36 108t-98 41q-61 0 -97 -41t-36 -108q0 -69 35.5 -110.5
t97.5 -41.5z" />
    <glyph glyph-name="otilde" unicode="&#xf5;" horiz-adv-x="635" 
d="M220 594l-86 22q0 50 30.5 87.5t81.5 37.5q32 0 74.5 -16.5t62.5 -16.5q17 0 28 10.5t11 26.5l4 2l85 -22q0 -58 -32.5 -91.5t-82.5 -33.5q-29 -1 -73 16.5t-61 17.5q-37 0 -39 -38zM317 -14q-118 0 -198 70.5t-80 201.5q0 123 79 197t199 74q119 0 199 -70t80 -200
q0 -124 -79 -198.5t-200 -74.5zM317 107q62 0 98 42t36 110q0 67 -36 108t-98 41q-61 0 -97 -41t-36 -108q0 -69 35.5 -110.5t97.5 -41.5z" />
    <glyph glyph-name="odieresis" unicode="&#xf6;" horiz-adv-x="635" 
d="M208 591q-34 0 -58 23.5t-24 57.5q0 33 24 57.5t58 24.5q33 0 57 -24.5t24 -57.5q0 -34 -24 -57.5t-57 -23.5zM431 591q-34 0 -58 23.5t-24 57.5q0 33 24 57.5t58 24.5q33 0 57 -24.5t24 -57.5q0 -34 -24 -57.5t-57 -23.5zM317 -14q-118 0 -198 70.5t-80 201.5
q0 123 79 197t199 74q119 0 199 -70t80 -200q0 -124 -79 -198.5t-200 -74.5zM317 107q62 0 98 42t36 110q0 67 -36 108t-98 41q-61 0 -97 -41t-36 -108q0 -69 35.5 -110.5t97.5 -41.5z" />
    <glyph glyph-name="divide" unicode="&#xf7;" horiz-adv-x="552" 
d="M276 395q-39 0 -59.5 21t-20.5 54t20.5 55t59.5 22t60 -22t21 -55t-21 -54t-60 -21zM43 251v98h467v-98h-467zM276 49q-39 0 -59.5 21t-20.5 53q0 33 20.5 55t59.5 22t60 -22t21 -55t-20.5 -53.5t-60.5 -20.5z" />
    <glyph glyph-name="oslash" unicode="&#xf8;" horiz-adv-x="636" 
d="M605 536v-10l-72 -84q63 -71 63 -183q0 -124 -79 -198.5t-199 -74.5q-81 0 -145 33l-33 -39h-101v12l67 79q-66 72 -66 187q0 123 78.5 197t199.5 74q82 0 145 -33l34 40h108zM185 259q0 -43 14 -77l179 213q-25 13 -60 13q-61 0 -97 -41t-36 -108zM451 259q0 41 -13 71
l-179 -211q25 -12 59 -12q61 0 97 42t36 110z" />
    <glyph glyph-name="ugrave" unicode="&#xf9;" horiz-adv-x="617" 
d="M380 559l-210 105l-3 16l86 98l171 -154zM406 516h141v-516h-114l-14 70q-50 -83 -172 -83q-87 0 -135 51.5t-48 143.5v334h142v-302q0 -106 95 -106q82 0 105 72v336z" />
    <glyph glyph-name="uacute" unicode="&#xfa;" horiz-adv-x="617" 
d="M444 664l-210 -105l-43 65l171 154l86 -98zM406 516h141v-516h-114l-14 70q-50 -83 -172 -83q-87 0 -135 51.5t-48 143.5v334h142v-302q0 -106 95 -106q82 0 105 72v336z" />
    <glyph glyph-name="ucircumflex" unicode="&#xfb;" horiz-adv-x="617" 
d="M308 652l-102 -83l-51 48l122 147h65l126 -147l-51 -48zM406 516h141v-516h-114l-14 70q-50 -83 -172 -83q-87 0 -135 51.5t-48 143.5v334h142v-302q0 -106 95 -106q82 0 105 72v336z" />
    <glyph glyph-name="udieresis" unicode="&#xfc;" horiz-adv-x="617" 
d="M201 591q-34 0 -58 23.5t-24 57.5q0 33 24 57.5t58 24.5q33 0 57 -24.5t24 -57.5q0 -34 -24 -57.5t-57 -23.5zM424 591q-34 0 -58 23.5t-24 57.5q0 33 24 57.5t58 24.5q33 0 57 -24.5t24 -57.5q0 -34 -24 -57.5t-57 -23.5zM406 516h141v-516h-114l-14 70
q-50 -83 -172 -83q-87 0 -135 51.5t-48 143.5v334h142v-302q0 -106 95 -106q82 0 105 72v336z" />
    <glyph glyph-name="yacute" unicode="&#xfd;" horiz-adv-x="542" 
d="M410 664l-210 -105l-43 65l171 154l86 -98zM534 516l2 -4l-217 -518l-65 -157h-147l-2 3l102 202l-197 470l2 4h149l115 -329l117 329h141z" />
    <glyph glyph-name="thorn" unicode="&#xfe;" horiz-adv-x="630" 
d="M366 529q103 0 163 -71t60 -190q0 -127 -74.5 -204t-186.5 -77q-68 0 -117 23v-174h-141v874h141v-239q60 58 155 58zM312 108q59 0 96 40.5t37 112.5t-34 107t-88 35q-37 0 -67.5 -18.5t-44.5 -47.5v-206q41 -23 101 -23z" />
    <glyph glyph-name="ydieresis" unicode="&#xff;" horiz-adv-x="542" 
d="M167 591q-34 0 -58 23.5t-24 57.5q0 33 24 57.5t58 24.5q33 0 57 -24.5t24 -57.5q0 -34 -24 -57.5t-57 -23.5zM390 591q-34 0 -58 23.5t-24 57.5q0 33 24 57.5t58 24.5q33 0 57 -24.5t24 -57.5q0 -34 -24 -57.5t-57 -23.5zM534 516l2 -4l-217 -518l-65 -157h-147l-2 3
l102 202l-197 470l2 4h149l115 -329l117 329h141z" />
    <glyph glyph-name="Amacron" unicode="&#x100;" horiz-adv-x="644" 
d="M476 834v-94h-316v94h316zM503 0l-48 111h-271l-45 -111h-139l288 666h62l299 -666h-146zM225 212h186l-81 186l-15 43l-14 -43z" />
    <glyph glyph-name="amacron" unicode="&#x101;" horiz-adv-x="650" 
d="M470 701v-90h-306v90h306zM619 130l4 -1v-119q-37 -17 -83 -17q-87 0 -107 69q-55 -75 -167 -75q-101 0 -163.5 69t-62.5 191q0 127 74 204.5t190 77.5q82 0 134 -38l5 25h115v-358q0 -37 31 -37q17 0 30 9zM307 113q36 0 66.5 18t43.5 48v198q-39 32 -98 32
q-58 0 -96 -42.5t-38 -110.5q0 -70 34 -106.5t88 -36.5z" />
    <glyph glyph-name="Abreve" unicode="&#x102;" horiz-adv-x="644" 
d="M318 711q-67 0 -113 42.5t-46 111.5l87 9q3 -33 22 -53t52 -20q34 0 55 20.5t23 52.5l83 -9q0 -69 -47.5 -111.5t-115.5 -42.5zM503 0l-48 111h-271l-45 -111h-139l288 666h62l299 -666h-146zM225 212h186l-81 186l-15 43l-14 -43z" />
    <glyph glyph-name="abreve" unicode="&#x103;" horiz-adv-x="650" 
d="M317 574q-66 0 -110.5 42.5t-44.5 115.5l86 10l4 -3q2 -31 19.5 -50t47.5 -19q31 0 50.5 19t22.5 49l3 3l81 -9q0 -73 -46 -115.5t-113 -42.5zM619 130l4 -1v-119q-37 -17 -83 -17q-87 0 -107 69q-55 -75 -167 -75q-101 0 -163.5 69t-62.5 191q0 127 74 204.5t190 77.5
q82 0 134 -38l5 25h115v-358q0 -37 31 -37q17 0 30 9zM307 113q36 0 66.5 18t43.5 48v198q-39 32 -98 32q-58 0 -96 -42.5t-38 -110.5q0 -70 34 -106.5t88 -36.5z" />
    <glyph glyph-name="Aogonek" unicode="&#x104;" horiz-adv-x="644" 
d="M618 0q-85 -53 -85 -115q0 -17 10.5 -30t33.5 -13q20 0 30 3l5 -3v-73q-29 -8 -67 -8q-54 0 -89.5 23.5t-35.5 68.5q0 83 108 147h-25l-48 111h-271l-45 -111h-139l288 666h62l299 -666h-31zM225 212h186l-81 186l-15 43l-14 -43z" />
    <glyph glyph-name="aogonek" unicode="&#x105;" horiz-adv-x="650" 
d="M613 6q-80 -53 -80 -112q0 -17 10.5 -30t33.5 -13q20 0 30 3l5 -3v-73q-29 -8 -67 -8q-54 0 -89.5 23.5t-35.5 68.5q0 75 87 134q-57 11 -74 66q-55 -75 -167 -75q-101 0 -163.5 69t-62.5 191q0 127 74 204.5t190 77.5q82 0 134 -38l5 25h115v-358q0 -37 31 -37
q17 0 30 9l4 -1v-119q-2 -1 -10 -4zM307 113q36 0 66.5 18t43.5 48v198q-39 32 -98 32q-58 0 -96 -42.5t-38 -110.5q0 -70 34 -106.5t88 -36.5z" />
    <glyph glyph-name="Cacute" unicode="&#x106;" horiz-adv-x="616" 
d="M271 700l-27 69l198 127l66 -106l-8 -15zM397 -12q-157 0 -255.5 90.5t-98.5 245.5q0 162 97.5 257t254.5 95q96 0 177 -28v-132l-3 -1q-70 34 -154 34q-107 0 -167 -57.5t-60 -160.5q0 -102 60 -159t170 -57q80 0 151 31l3 -2v-127q-74 -29 -175 -29z" />
    <glyph glyph-name="cacute" unicode="&#x107;" horiz-adv-x="496" 
d="M214 569l-43 65l171 154l86 -98l-4 -16zM323 -13q-125 0 -204.5 72t-79.5 197q0 127 77.5 200.5t202.5 73.5q75 0 135 -23v-118l-5 -3q-55 23 -113 23q-71 0 -111.5 -39.5t-40.5 -108.5q0 -70 40.5 -111.5t111.5 -41.5q58 0 114 29l5 -3v-120q-56 -27 -132 -27z" />
    <glyph glyph-name="Cdotaccent" unicode="&#x10a;" horiz-adv-x="616" 
d="M371 715q-34 0 -58 24t-24 59q0 34 24 58t58 24t58 -24t24 -58t-24 -58.5t-58 -24.5zM397 -12q-157 0 -255.5 90.5t-98.5 245.5q0 162 97.5 257t254.5 95q96 0 177 -28v-132l-3 -1q-70 34 -154 34q-107 0 -167 -57.5t-60 -160.5q0 -102 60 -159t170 -57q80 0 151 31l3 -2
v-127q-74 -29 -175 -29z" />
    <glyph glyph-name="cdotaccent" unicode="&#x10b;" horiz-adv-x="496" 
d="M291 597q-35 0 -60.5 25t-25.5 61q0 35 25.5 60.5t60.5 25.5t60.5 -25.5t25.5 -60.5q0 -36 -25.5 -61t-60.5 -25zM323 -13q-125 0 -204.5 72t-79.5 197q0 127 77.5 200.5t202.5 73.5q75 0 135 -23v-118l-5 -3q-55 23 -113 23q-71 0 -111.5 -39.5t-40.5 -108.5
q0 -70 40.5 -111.5t111.5 -41.5q58 0 114 29l5 -3v-120q-56 -27 -132 -27z" />
    <glyph glyph-name="Ccaron" unicode="&#x10c;" horiz-adv-x="616" 
d="M341 702l-132 124l45 58l120 -77l115 77l43 -57l-127 -125h-64zM397 -12q-157 0 -255.5 90.5t-98.5 245.5q0 162 97.5 257t254.5 95q96 0 177 -28v-132l-3 -1q-70 34 -154 34q-107 0 -167 -57.5t-60 -160.5q0 -102 60 -159t170 -57q80 0 151 31l3 -2v-127
q-74 -29 -175 -29z" />
    <glyph glyph-name="ccaron" unicode="&#x10d;" horiz-adv-x="496" 
d="M261 579l-126 146l51 49l108 -84l103 84l51 -49l-122 -146h-65zM323 -13q-125 0 -204.5 72t-79.5 197q0 127 77.5 200.5t202.5 73.5q75 0 135 -23v-118l-5 -3q-55 23 -113 23q-71 0 -111.5 -39.5t-40.5 -108.5q0 -70 40.5 -111.5t111.5 -41.5q58 0 114 29l5 -3v-120
q-56 -27 -132 -27z" />
    <glyph glyph-name="Dcaron" unicode="&#x10e;" horiz-adv-x="733" 
d="M368 702h-64l-132 124l45 58l120 -77l115 77l43 -57zM323 672q173 0 269.5 -89.5t96.5 -244.5q0 -162 -100.5 -250.5t-277.5 -88.5q-195 0 -228 2v661q150 10 240 10zM326 122q217 2 217 214q0 101 -59 154.5t-163 53.5q-66 0 -98 -4v-415q43 -3 103 -3z" />
    <glyph glyph-name="dcaron" unicode="&#x10f;" horiz-adv-x="692" 
d="M719 714l12 -13l-40 -224h-79l7 237h100zM590 121q16 0 31 11l2 -1v-120q-36 -18 -83 -18q-88 0 -107 69q-24 -33 -67 -54t-99 -21q-99 0 -163 68t-64 193q0 124 74.5 202.5t189.5 78.5q68 0 113 -21v202h142v-552q0 -37 31 -37zM307 113q36 0 66.5 18t43.5 48v204
q-42 26 -95 26q-61 0 -99 -41t-38 -111q0 -72 34 -108t88 -36z" />
    <glyph glyph-name="Dcroat" unicode="&#x110;" horiz-adv-x="748" 
d="M338 672q173 0 269.5 -89.5t96.5 -244.5q0 -162 -100.5 -250.5t-277.5 -88.5q-195 0 -228 2v283h-81v90h81v288q150 10 240 10zM341 122q217 2 217 214q0 101 -59 154.5t-163 53.5q-66 0 -98 -4v-166h100v-90h-100v-159q44 -3 103 -3z" />
    <glyph glyph-name="dcroat" unicode="&#x111;" horiz-adv-x="652" 
d="M559 569v-411q0 -37 32 -37q14 0 29 11l3 -1v-120q-36 -18 -83 -18q-88 0 -107 69q-24 -33 -67 -54t-99 -21q-99 0 -163 68t-64 193q0 124 74.5 202.5t189.5 78.5q68 0 113 -21v61h-102v90h102v51h142v-51h77v-90h-77zM417 179v204q-42 26 -95 26q-61 0 -99 -41t-38 -111
q0 -72 34 -108t88 -36q36 0 66.5 18t43.5 48z" />
    <glyph glyph-name="Emacron" unicode="&#x112;" horiz-adv-x="563" 
d="M461 834v-94h-316v94h316zM224 118h291v-118h-432v662h422v-118h-281v-147h262v-115h-262v-164z" />
    <glyph glyph-name="emacron" unicode="&#x113;" horiz-adv-x="581" 
d="M449 701v-90h-306v90h306zM301 529q111 0 176 -64.5t66 -182.5q0 -40 -1 -60h-357q10 -59 52.5 -89.5t110.5 -30.5q80 0 159 36l4 -1v-111q-77 -40 -190 -40q-54 0 -102.5 15t-89.5 46t-65.5 85.5t-24.5 125.5q0 121 74 196t188 75zM186 308h221q-11 107 -107 107
q-44 0 -74 -27.5t-40 -79.5z" />
    <glyph glyph-name="Edotaccent" unicode="&#x116;" horiz-adv-x="563" 
d="M304 715q-34 0 -58 24t-24 59q0 34 24 58t58 24t58 -24t24 -58t-24 -58.5t-58 -24.5zM224 118h291v-118h-432v662h422v-118h-281v-147h262v-115h-262v-164z" />
    <glyph glyph-name="edotaccent" unicode="&#x117;" horiz-adv-x="581" 
d="M297 587q-35 0 -60.5 25t-25.5 61q0 35 25.5 60.5t60.5 25.5t60.5 -25.5t25.5 -60.5q0 -36 -25.5 -61t-60.5 -25zM301 529q111 0 176 -64.5t66 -182.5q0 -40 -1 -60h-357q10 -59 52.5 -89.5t110.5 -30.5q80 0 159 36l4 -1v-111q-77 -40 -190 -40q-54 0 -102.5 15
t-89.5 46t-65.5 85.5t-24.5 125.5q0 121 74 196t188 75zM186 308h221q-11 107 -107 107q-44 0 -74 -27.5t-40 -79.5z" />
    <glyph glyph-name="Eogonek" unicode="&#x118;" horiz-adv-x="563" 
d="M515 0q-85 -53 -85 -115q0 -17 10.5 -30t33.5 -13q20 0 30 3l5 -3v-73q-29 -8 -67 -8q-54 0 -89.5 23.5t-35.5 68.5q0 83 108 147h-342v662h422v-118h-281v-147h262v-115h-262v-164h291v-118z" />
    <glyph glyph-name="eogonek" unicode="&#x119;" horiz-adv-x="581" 
d="M301 529q111 0 176 -64.5t66 -182.5q0 -40 -1 -60h-357q10 -59 52.5 -89.5t110.5 -30.5q80 0 159 36l4 -1v-111q-25 -13 -58 -23q-77 -50 -77 -110q0 -17 10.5 -30t33.5 -13q20 0 30 3l5 -3v-73q-29 -8 -67 -8q-54 0 -89.5 23.5t-35.5 68.5q0 69 75 125h-17
q-54 0 -102.5 15t-89.5 46t-65.5 85.5t-24.5 125.5q0 121 74 196t188 75zM186 308h221q-11 107 -107 107q-44 0 -74 -27.5t-40 -79.5z" />
    <glyph glyph-name="Ecaron" unicode="&#x11a;" horiz-adv-x="563" 
d="M338 702h-64l-132 124l45 58l120 -77l115 77l43 -57zM224 118h291v-118h-432v662h422v-118h-281v-147h262v-115h-262v-164z" />
    <glyph glyph-name="ecaron" unicode="&#x11b;" horiz-adv-x="581" 
d="M332 569h-65l-126 146l51 49l108 -84l103 84l51 -49zM301 529q111 0 176 -64.5t66 -182.5q0 -40 -1 -60h-357q10 -59 52.5 -89.5t110.5 -30.5q80 0 159 36l4 -1v-111q-77 -40 -190 -40q-54 0 -102.5 15t-89.5 46t-65.5 85.5t-24.5 125.5q0 121 74 196t188 75zM186 308
h221q-11 107 -107 107q-44 0 -74 -27.5t-40 -79.5z" />
    <glyph glyph-name="Gbreve" unicode="&#x11e;" horiz-adv-x="685" 
d="M382 711q-67 0 -113 42.5t-46 111.5l87 9q3 -33 22 -53t52 -20q34 0 55 20.5t23 52.5l83 -9q0 -69 -47.5 -111.5t-115.5 -42.5zM397 -11q-168 0 -260.5 88t-92.5 252q0 159 102 253t276 94q106 0 183 -30l-1 -135l-4 -2q-74 40 -182 40t-168.5 -59t-60.5 -161
q0 -101 56 -157t159 -56q58 0 102 16v186h126v-285q-107 -44 -235 -44z" />
    <glyph glyph-name="gbreve" unicode="&#x11f;" horiz-adv-x="628" 
d="M303 574q-66 0 -110.5 42.5t-44.5 115.5l86 10l4 -3q2 -31 19.5 -50t47.5 -19q31 0 50.5 19t22.5 49l3 3l81 -9q0 -73 -46 -115.5t-113 -42.5zM462 527h97v-452q0 -120 -78 -183.5t-209 -63.5q-113 0 -199 38v125l3 1q81 -48 178 -48q89 0 126.5 30.5t37.5 96.5v8
q-54 -52 -147 -52q-106 0 -168.5 63t-62.5 179q0 120 75.5 190t184.5 70q93 0 148 -43zM418 213v166q-40 30 -101 30q-58 0 -95 -36t-37 -98t33 -96t86 -34q82 0 114 68z" />
    <glyph glyph-name="Gdotaccent" unicode="&#x120;" horiz-adv-x="685" 
d="M383 715q-34 0 -58 24t-24 59q0 34 24 58t58 24t58 -24t24 -58t-24 -58.5t-58 -24.5zM397 -11q-168 0 -260.5 88t-92.5 252q0 159 102 253t276 94q106 0 183 -30l-1 -135l-4 -2q-74 40 -182 40t-168.5 -59t-60.5 -161q0 -101 56 -157t159 -56q58 0 102 16v186h126v-285
q-107 -44 -235 -44z" />
    <glyph glyph-name="gdotaccent" unicode="&#x121;" horiz-adv-x="628" 
d="M304 587q-35 0 -60.5 25t-25.5 61q0 35 25.5 60.5t60.5 25.5t60.5 -25.5t25.5 -60.5q0 -36 -25.5 -61t-60.5 -25zM462 527h97v-452q0 -120 -78 -183.5t-209 -63.5q-113 0 -199 38v125l3 1q81 -48 178 -48q89 0 126.5 30.5t37.5 96.5v8q-54 -52 -147 -52q-106 0 -168.5 63
t-62.5 179q0 120 75.5 190t184.5 70q93 0 148 -43zM418 213v166q-40 30 -101 30q-58 0 -95 -36t-37 -98t33 -96t86 -34q82 0 114 68z" />
    <glyph glyph-name="Gcommaaccent" unicode="&#x122;" horiz-adv-x="685" 
d="M397 -11q-168 0 -260.5 88t-92.5 252q0 159 102 253t276 94q106 0 183 -30l-1 -135l-4 -2q-74 40 -182 40t-168.5 -59t-60.5 -161q0 -101 56 -157t159 -56q58 0 102 16v186h126v-285q-107 -44 -235 -44zM317 -243q17 67 17 134q0 27 -3 58l113 9l11 -16q0 -99 -54 -185
h-84z" />
    <glyph glyph-name="gcommaaccent" unicode="&#x123;" horiz-adv-x="628" 
d="M369 567l-113 -9l-11 16q0 99 54 185h84q-17 -67 -17 -134q0 -27 3 -58zM462 527h97v-452q0 -120 -78 -183.5t-209 -63.5q-113 0 -199 38v125l3 1q81 -48 178 -48q89 0 126.5 30.5t37.5 96.5v8q-54 -52 -147 -52q-106 0 -168.5 63t-62.5 179q0 120 75.5 190t184.5 70
q93 0 148 -43zM418 213v166q-40 30 -101 30q-58 0 -95 -36t-37 -98t33 -96t86 -34q82 0 114 68z" />
    <glyph glyph-name="Hbar" unicode="&#x126;" horiz-adv-x="805" 
d="M760 565v-91h-66v-474h-141v268h-301v-268h-141v474h-65v91h65v97h141v-97h301v97h141v-97h66zM553 396v78h-301v-78h301z" />
    <glyph glyph-name="hbar" unicode="&#x127;" horiz-adv-x="628" 
d="M368 529q89 0 142.5 -56.5t53.5 -158.5v-314h-141v278q0 117 -102 117q-39 0 -68.5 -20t-41.5 -57v-318h-141v569h-78v90h78v51h141v-51h102v-90h-102v-108q57 68 157 68z" />
    <glyph glyph-name="Itilde" unicode="&#x128;" horiz-adv-x="308" 
d="M54 709l-83 23q1 53 33 88.5t82 35.5q30 0 71.5 -16.5t60.5 -16.5q14 0 26 10.5t12 26.5l2 2l84 -24q-2 -54 -33.5 -88t-82.5 -34q-24 0 -67.5 16t-62.5 16q-18 0 -28.5 -11t-10.5 -27zM83 0v662h141v-662h-141z" />
    <glyph glyph-name="itilde" unicode="&#x129;" horiz-adv-x="281" 
d="M42 594l-86 22q0 50 30.5 87.5t81.5 37.5q32 0 74.5 -16.5t62.5 -16.5q17 0 28 10.5t11 26.5l4 2l85 -22q0 -58 -32.5 -91.5t-82.5 -33.5q-29 -1 -73 16.5t-61 17.5q-37 0 -39 -38zM70 0v516h141v-516h-141z" />
    <glyph glyph-name="Imacron" unicode="&#x12a;" horiz-adv-x="308" 
d="M28 743v98h253v-98h-253zM83 0v662h141v-662h-141z" />
    <glyph glyph-name="imacron" unicode="&#x12b;" horiz-adv-x="281" 
d="M-6 611v90h290v-90h-290zM70 0v516h141v-516h-141z" />
    <glyph glyph-name="Iogonek" unicode="&#x12e;" horiz-adv-x="308" 
d="M204 0q-73 -48 -73 -107q0 -17 10.5 -30t33.5 -13q20 0 30 3l5 -3v-73q-29 -8 -67 -8q-54 0 -89.5 23.5t-35.5 68.5q0 79 95 139h-30v662h141v-662h-20z" />
    <glyph glyph-name="iogonek" unicode="&#x12f;" horiz-adv-x="281" 
d="M140 587q-35 0 -60.5 25t-25.5 61q0 35 25.5 60.5t60.5 25.5t60.5 -25.5t25.5 -60.5q0 -36 -25.5 -61t-60.5 -25zM70 0v516h141v-516h-14q-85 -53 -85 -115q0 -17 10.5 -30t33.5 -13q20 0 30 3l5 -3v-73q-29 -8 -67 -8q-54 0 -89.5 23.5t-35.5 68.5q0 83 108 147h-37z
" />
    <glyph glyph-name="Idotaccent" unicode="&#x130;" horiz-adv-x="308" 
d="M155 715q-34 0 -58 24t-24 59q0 34 24 58t58 24t58 -24t24 -58t-24 -58.5t-58 -24.5zM83 0v662h141v-662h-141z" />
    <glyph glyph-name="dotlessi" unicode="&#x131;" horiz-adv-x="281" 
d="M70 0v516h141v-516h-141z" />
    <glyph glyph-name="IJ" unicode="&#x132;" horiz-adv-x="690" 
d="M83 0v662h141v-662h-141zM380 -3q-29 0 -57 4v118l3 1q16 -3 36 -3q112 0 112 140v405h141v-391q0 -274 -235 -274z" />
    <glyph glyph-name="ij" unicode="&#x133;" horiz-adv-x="572" 
d="M140 587q-35 0 -60.5 25t-25.5 61q0 35 25.5 60.5t60.5 25.5q36 0 61 -25.5t25 -60.5q0 -36 -25 -61t-61 -25zM432 587q-35 0 -60.5 25t-25.5 61q0 35 25.5 60.5t60.5 25.5t60.5 -25.5t25.5 -60.5q0 -36 -25.5 -61t-60.5 -25zM70 71v445h141v-445h-141zM277 -170
q-68 0 -127 18v122l2 1q49 -15 102 -15q61 0 84 36.5t23 133.5v390h141v-411q0 -146 -58 -210.5t-167 -64.5z" />
    <glyph glyph-name="Kcommaaccent" unicode="&#x136;" horiz-adv-x="663" 
d="M339 337l335 -333l-1 -4h-175l-274 268v-268h-141v662h141v-277l268 277h162l2 -3zM274 -51l113 9l11 -16q0 -99 -54 -185h-84q17 67 17 134q0 27 -3 58z" />
    <glyph glyph-name="kcommaaccent" unicode="&#x137;" horiz-adv-x="578" 
d="M338 273l239 -269l-2 -4h-170l-194 215v-215h-141v710h141v-400l189 206h160l2 -4zM235 -51l113 9l11 -16q0 -99 -54 -185h-84q17 67 17 134q0 27 -3 58z" />
    <glyph glyph-name="kgreenlandic" unicode="&#x138;" horiz-adv-x="578" 
d="M338 273l239 -269l-2 -4h-170l-194 215v-215h-141v516h141v-207l191 207h162l1 -4z" />
    <glyph glyph-name="Lacute" unicode="&#x139;" horiz-adv-x="507" 
d="M307 790l-8 -15l-229 -75l-27 69l198 127zM224 117h272v-117h-413v662h141v-545z" />
    <glyph glyph-name="lacute" unicode="&#x13a;" horiz-adv-x="316" 
d="M36 746l-27 69l198 127l66 -106l-8 -15zM227 -10q-161 0 -161 160v560h141v-526q0 -68 52 -68q22 0 37 9l3 -2v-121q-32 -12 -72 -12z" />
    <glyph glyph-name="Lcommaaccent" unicode="&#x13b;" horiz-adv-x="507" 
d="M224 117h272v-117h-413v662h141v-545zM230 -51l113 9l11 -16q0 -99 -54 -185h-84q17 67 17 134q0 27 -3 58z" />
    <glyph glyph-name="lcommaaccent" unicode="&#x13c;" horiz-adv-x="316" 
d="M227 -10q-161 0 -161 160v560h141v-526q0 -68 52 -68q22 0 37 9l3 -2v-121q-32 -12 -72 -12zM110 -243q17 67 17 134q0 27 -3 58l113 9l11 -16q0 -99 -54 -185h-84z" />
    <glyph glyph-name="Lcaron" unicode="&#x13d;" horiz-adv-x="513" 
d="M462 664l-41 -225h-78l7 237h100zM224 117h272v-117h-413v662h141v-545z" />
    <glyph glyph-name="lcaron" unicode="&#x13e;" horiz-adv-x="339" 
d="M261 477l7 237h100l12 -13l-40 -224h-79zM227 -10q-161 0 -161 160v560h141v-526q0 -68 52 -68q21 0 38 8l2 -1v-121q-32 -12 -72 -12z" />
    <glyph glyph-name="Ldot" unicode="&#x13f;" horiz-adv-x="537" 
d="M224 117h272v-117h-413v662h141v-545zM410 324q-37 0 -57 20t-20 51q0 32 20 53t57 21q38 0 57.5 -21t19.5 -53q0 -31 -19.5 -51t-57.5 -20z" />
    <glyph glyph-name="ldot" unicode="&#x140;" horiz-adv-x="412" 
d="M227 -10q-161 0 -161 160v560h141v-526q0 -68 52 -68q21 0 38 8l2 -1v-121q-32 -12 -72 -12zM345 285q-38 0 -57.5 19.5t-19.5 51.5t19.5 52.5t57.5 20.5q37 0 57 -20.5t20 -52.5t-20 -51.5t-57 -19.5z" />
    <glyph glyph-name="Lslash" unicode="&#x141;" horiz-adv-x="520" 
d="M237 117h272v-117h-412v234l-68 -43l-4 2v104l72 46v319h140v-231l68 43h5v-106l-73 -46v-205z" />
    <glyph glyph-name="lslash" unicode="&#x142;" horiz-adv-x="367" 
d="M330 124l2 -1v-121q-32 -12 -71 -12q-162 0 -162 160v107l-65 -42h-4v104l69 45v346h141v-255l70 45h4v-104l-74 -48v-164q0 -68 52 -68q21 0 38 8z" />
    <glyph glyph-name="Nacute" unicode="&#x143;" horiz-adv-x="740" 
d="M271 700l-27 69l198 127l66 -106l-8 -15zM83 0v662h62l374 -393h3v393h134v-662h-61l-374 398h-3v-398h-135z" />
    <glyph glyph-name="nacute" unicode="&#x144;" horiz-adv-x="628" 
d="M443 664l-210 -105l-43 65l171 154l86 -98zM368 529q88 0 142.5 -57.5t54.5 -159.5v-312h-141v273q0 120 -105 120q-38 0 -67.5 -21t-40.5 -57v-315h-141v516h115l13 -70q56 83 170 83z" />
    <glyph glyph-name="Ncommaaccent" unicode="&#x145;" horiz-adv-x="740" 
d="M83 0v662h62l374 -393h3v393h134v-662h-61l-374 398h-3v-398h-135zM301 -243q17 67 17 134q0 27 -3 58l113 9l11 -16q0 -99 -54 -185h-84z" />
    <glyph glyph-name="ncommaaccent" unicode="&#x146;" horiz-adv-x="628" 
d="M368 529q88 0 142.5 -57.5t54.5 -159.5v-312h-141v273q0 120 -105 120q-38 0 -67.5 -21t-40.5 -57v-315h-141v516h115l13 -70q56 83 170 83zM249 -51l113 9l11 -16q0 -99 -54 -185h-84q17 67 17 134q0 27 -3 58z" />
    <glyph glyph-name="Ncaron" unicode="&#x147;" horiz-adv-x="740" 
d="M341 702l-132 124l45 58l120 -77l115 77l43 -57l-127 -125h-64zM83 0v662h62l374 -393h3v393h134v-662h-61l-374 398h-3v-398h-135z" />
    <glyph glyph-name="ncaron" unicode="&#x148;" horiz-adv-x="628" 
d="M345 569h-65l-126 146l51 49l108 -84l103 84l51 -49zM368 529q88 0 142.5 -57.5t54.5 -159.5v-312h-141v273q0 120 -105 120q-38 0 -67.5 -21t-40.5 -57v-315h-141v516h115l13 -70q56 83 170 83z" />
    <glyph glyph-name="Eng" unicode="&#x14a;" horiz-adv-x="739" 
d="M522 662h134v-584q0 -275 -230 -275q-31 0 -58 4v115l1 1q17 -4 39 -4q114 0 114 146v13l-301 320h-3v-398h-135v662h62l374 -393h3v393z" />
    <glyph glyph-name="eng" unicode="&#x14b;" horiz-adv-x="624" 
d="M369 529q88 0 140 -54.5t52 -154.5v-340q0 -99 -50.5 -146.5t-140.5 -47.5q-21 0 -56 5v115l2 2q15 -3 23 -3q43 0 62 23.5t19 76.5v272q0 61 -28.5 88.5t-74.5 27.5q-37 0 -66 -20t-40 -57v-316h-141v516h115l15 -76q54 89 169 89z" />
    <glyph glyph-name="Omacron" unicode="&#x14c;" horiz-adv-x="781" 
d="M231 740v94h316v-94h-316zM390 -13q-145 0 -246 91t-101 253q0 159 98 252.5t249 93.5q69 0 131 -22.5t111 -64.5t77.5 -109t28.5 -150q0 -157 -98 -250.5t-250 -93.5zM390 114q92 0 147 58.5t55 158.5q0 102 -55 160.5t-147 58.5q-91 0 -146 -58.5t-55 -160.5
q0 -100 55 -158.5t146 -58.5z" />
    <glyph glyph-name="omacron" unicode="&#x14d;" horiz-adv-x="635" 
d="M164 611v90h306v-90h-306zM317 -14q-118 0 -198 70.5t-80 201.5q0 123 79 197t199 74q119 0 199 -70t80 -200q0 -124 -79 -198.5t-200 -74.5zM317 107q62 0 98 42t36 110q0 67 -36 108t-98 41q-61 0 -97 -41t-36 -108q0 -69 35.5 -110.5t97.5 -41.5z" />
    <glyph glyph-name="Ohungarumlaut" unicode="&#x150;" horiz-adv-x="781" 
d="M301 704l-65 26l73 178l99 -25l3 -19zM506 704l-66 26l74 178l98 -25l3 -19zM390 -13q-145 0 -246 91t-101 253q0 159 98 252.5t249 93.5q69 0 131 -22.5t111 -64.5t77.5 -109t28.5 -150q0 -157 -98 -250.5t-250 -93.5zM390 114q92 0 147 58.5t55 158.5q0 102 -55 160.5
t-147 58.5q-91 0 -146 -58.5t-55 -160.5q0 -100 55 -158.5t146 -58.5z" />
    <glyph glyph-name="ohungarumlaut" unicode="&#x151;" horiz-adv-x="635" 
d="M232 560l-59 35l86 180l94 -33l2 -19zM418 560l-59 35l85 180l95 -33l1 -19zM317 -14q-118 0 -198 70.5t-80 201.5q0 123 79 197t199 74q119 0 199 -70t80 -200q0 -124 -79 -198.5t-200 -74.5zM317 107q62 0 98 42t36 110q0 67 -36 108t-98 41q-61 0 -97 -41t-36 -108
q0 -69 35.5 -110.5t97.5 -41.5z" />
    <glyph glyph-name="OE" unicode="&#x152;" horiz-adv-x="938" 
d="M888 112v-112h-424q-40 -10 -88 -10q-136 0 -232.5 90.5t-96.5 251.5q0 158 93.5 251t235.5 93q49 0 94 -12h408v-112h-238q50 -65 63 -156h156v-110h-154q-10 -102 -65 -174h248zM192 332q0 -99 51 -157t133 -58q86 0 136 58t50 157q0 100 -50 159t-136 59
q-82 0 -133 -58.5t-51 -159.5z" />
    <glyph glyph-name="oe" unicode="&#x153;" horiz-adv-x="952" 
d="M682 529q107 0 169 -63.5t64 -185.5q0 -20 -2 -60h-340q20 -121 155 -121q73 0 151 38l3 -1v-109q-74 -41 -173 -41q-136 0 -208 90q-71 -90 -199 -90q-113 0 -188 71t-75 200q0 121 74.5 196.5t188.5 75.5q128 0 198 -87q67 87 182 87zM574 307h211q-10 109 -104 109
q-42 0 -70.5 -27.5t-36.5 -81.5zM306 107q56 0 88.5 41.5t32.5 110.5q0 68 -32.5 109t-88.5 41q-54 0 -88 -42.5t-34 -108.5q0 -68 33.5 -109.5t88.5 -41.5z" />
    <glyph glyph-name="Racute" unicode="&#x154;" horiz-adv-x="621" 
d="M432 775l-229 -75l-27 69l198 127l66 -106zM433 248l155 -244l-1 -4h-151l-139 227h-74v-227h-140v662q95 7 202 7q58 0 105.5 -11t86.5 -35t60.5 -67.5t21.5 -102.5q0 -79 -34 -130t-92 -75zM223 546v-212h66q57 0 92.5 28t35.5 78q0 53 -31 81t-88 28q-48 0 -75 -3z
" />
    <glyph glyph-name="racute" unicode="&#x155;" horiz-adv-x="412" 
d="M368 664l-210 -105l-43 65l171 154l86 -98zM336 528q31 0 56 -8v-128l-3 -1q-22 8 -53 8q-49 0 -84 -31t-41 -101v-267h-141v516h115l13 -72q21 41 58 62.5t80 21.5z" />
    <glyph glyph-name="Rcommaaccent" unicode="&#x156;" horiz-adv-x="621" 
d="M433 248l155 -244l-1 -4h-151l-139 227h-74v-227h-140v662q95 7 202 7q58 0 105.5 -11t86.5 -35t60.5 -67.5t21.5 -102.5q0 -79 -34 -130t-92 -75zM223 546v-212h66q57 0 92.5 28t35.5 78q0 53 -31 81t-88 28q-48 0 -75 -3zM251 -51l113 9l11 -16q0 -99 -54 -185h-84
q17 67 17 134q0 27 -3 58z" />
    <glyph glyph-name="rcommaaccent" unicode="&#x157;" horiz-adv-x="412" 
d="M336 528q31 0 56 -8v-128l-3 -1q-22 8 -53 8q-49 0 -84 -31t-41 -101v-267h-141v516h115l13 -72q21 41 58 62.5t80 21.5zM82 -51l113 9l11 -16q0 -99 -54 -185h-84q17 67 17 134q0 27 -3 58z" />
    <glyph glyph-name="Rcaron" unicode="&#x158;" horiz-adv-x="621" 
d="M337 702h-64l-132 124l45 58l120 -77l115 77l43 -57zM433 248l155 -244l-1 -4h-151l-139 227h-74v-227h-140v662q95 7 202 7q58 0 105.5 -11t86.5 -35t60.5 -67.5t21.5 -102.5q0 -79 -34 -130t-92 -75zM223 546v-212h66q57 0 92.5 28t35.5 78q0 53 -31 81t-88 28
q-48 0 -75 -3z" />
    <glyph glyph-name="rcaron" unicode="&#x159;" horiz-adv-x="412" 
d="M270 569h-65l-126 146l51 49l108 -84l103 84l51 -49zM198 444q21 41 58 62.5t80 21.5q31 0 56 -8v-128l-3 -1q-22 8 -53 8q-49 0 -84 -31t-41 -101v-267h-141v516h115z" />
    <glyph glyph-name="Sacute" unicode="&#x15a;" horiz-adv-x="532" 
d="M178 700l-27 69l198 127l66 -106l-8 -15zM247 -12q-112 0 -195 44v132l3 1q82 -57 177 -57q51 0 80.5 19.5t29.5 55.5q0 34 -24 57t-93 53q-75 32 -120 75.5t-45 114.5q0 95 65.5 144.5t164.5 49.5q104 0 171 -30v-123l-3 -2q-56 32 -149 34q-51 1 -80 -15t-29 -47
q0 -34 49 -61q16 -9 72 -34q77 -35 119 -82.5t42 -127.5q0 -92 -64 -146.5t-171 -54.5z" />
    <glyph glyph-name="sacute" unicode="&#x15b;" horiz-adv-x="491" 
d="M169 569l-43 65l171 154l86 -98l-4 -16zM232 -14q-108 0 -189 38v118l4 2q34 -23 83.5 -37.5t94.5 -14.5q94 0 94 48q0 24 -22.5 37.5t-93.5 33.5q-82 24 -119.5 60.5t-37.5 96.5q0 73 61.5 117t162.5 44t159 -24v-116l-3 -2q-58 29 -150 29q-42 0 -67.5 -11.5
t-25.5 -31.5q0 -21 21.5 -32.5t89.5 -30.5q84 -23 122 -60t38 -99q0 -79 -59 -122t-163 -43z" />
    <glyph glyph-name="Scedilla" unicode="&#x15e;" horiz-adv-x="532" 
d="M482 189q0 -80 -48.5 -132t-132.5 -65l-26 -36h15q41 -2 67 -24.5t26 -65.5q0 -56 -41 -81t-103 -25q-36 0 -66 8v63l4 2q20 -7 41 -7q57 0 57 38q0 33 -42 33q-21 0 -38 -5l-1 3v54l26 40q-96 4 -168 43v132l3 1q82 -57 177 -57q51 0 80.5 19.5t29.5 55.5q0 34 -24 57
t-93 53q-75 32 -120 75.5t-45 114.5q0 95 65.5 144.5t164.5 49.5q104 0 171 -30v-123l-3 -2q-56 32 -149 34q-51 1 -80 -15t-29 -47q0 -34 49 -61q16 -9 72 -34q77 -35 119 -82.5t42 -127.5z" />
    <glyph glyph-name="scedilla" unicode="&#x15f;" horiz-adv-x="491" 
d="M454 151q0 -69 -45.5 -110.5t-127.5 -51.5l-23 -33h15q41 -2 67 -24.5t26 -65.5q0 -56 -41 -81t-103 -25q-36 0 -66 8v63l4 2q20 -7 41 -7q57 0 57 38q0 33 -42 33q-21 0 -38 -5l-1 3v54l25 38q-87 4 -159 37v118l4 2q34 -23 83.5 -37.5t94.5 -14.5q94 0 94 48
q0 24 -22.5 37.5t-93.5 33.5q-82 24 -119.5 60.5t-37.5 96.5q0 73 61.5 117t162.5 44t159 -24v-116l-3 -2q-58 29 -150 29q-42 0 -67.5 -11.5t-25.5 -31.5q0 -21 21.5 -32.5t89.5 -30.5q84 -23 122 -60t38 -99z" />
    <glyph glyph-name="Scaron" unicode="&#x160;" horiz-adv-x="532" 
d="M248 702l-132 124l45 58l120 -77l115 77l43 -57l-127 -125h-64zM247 -12q-112 0 -195 44v132l3 1q82 -57 177 -57q51 0 80.5 19.5t29.5 55.5q0 34 -24 57t-93 53q-75 32 -120 75.5t-45 114.5q0 95 65.5 144.5t164.5 49.5q104 0 171 -30v-123l-3 -2q-56 32 -149 34
q-51 1 -80 -15t-29 -47q0 -34 49 -61q16 -9 72 -34q77 -35 119 -82.5t42 -127.5q0 -92 -64 -146.5t-171 -54.5z" />
    <glyph glyph-name="scaron" unicode="&#x161;" horiz-adv-x="491" 
d="M216 579l-126 146l51 49l108 -84l103 84l51 -49l-122 -146h-65zM232 -14q-108 0 -189 38v118l4 2q34 -23 83.5 -37.5t94.5 -14.5q94 0 94 48q0 24 -22.5 37.5t-93.5 33.5q-82 24 -119.5 60.5t-37.5 96.5q0 73 61.5 117t162.5 44t159 -24v-116l-3 -2q-58 29 -150 29
q-42 0 -67.5 -11.5t-25.5 -31.5q0 -21 21.5 -32.5t89.5 -30.5q84 -23 122 -60t38 -99q0 -79 -59 -122t-163 -43z" />
    <glyph glyph-name="uni0162" unicode="&#x162;" horiz-adv-x="585" 
d="M367 0h-35l-31 -44h15q41 -2 67 -24.5t26 -65.5q0 -56 -41 -81t-103 -25q-36 0 -66 8v63l4 2q20 -7 41 -7q57 0 57 38q0 33 -42 33q-21 0 -38 -5l-1 3v54l33 51h-27v536h-213v126h559v-126h-205v-536z" />
    <glyph glyph-name="uni0163" unicode="&#x163;" horiz-adv-x="420" 
d="M396 404h-152v-197q0 -88 77 -88q37 0 71 17l4 -1v-119q-34 -17 -89 -21l-28 -39h15q41 -2 67 -24.5t26 -65.5q0 -56 -41 -81t-103 -25q-36 0 -66 8v63l4 2q20 -7 41 -7q57 0 57 38q0 33 -42 33q-21 0 -38 -5l-1 3v54l32 50q-61 12 -94.5 57.5t-33.5 120.5v227h-88v112
h88v125l139 27l3 -2v-150h152v-112z" />
    <glyph glyph-name="Tcaron" unicode="&#x164;" horiz-adv-x="585" 
d="M327 702h-64l-132 124l45 58l120 -77l115 77l43 -57zM572 662v-126h-205v-536h-141v536h-213v126h559z" />
    <glyph glyph-name="tcaron" unicode="&#x165;" horiz-adv-x="417" 
d="M431 791l-43 -196h-73l7 208h98zM244 666v-150h152v-112h-152v-197q0 -88 77 -88q37 0 71 17l4 -1v-119q-43 -22 -117 -22q-84 0 -130.5 47t-46.5 136v227h-88v112h88v125l139 27z" />
    <glyph glyph-name="Tbar" unicode="&#x166;" horiz-adv-x="591" 
d="M575 536h-205v-191h86v-90h-86v-255h-141v255h-94v90h94v191h-212v126h558v-126z" />
    <glyph glyph-name="tbar" unicode="&#x167;" horiz-adv-x="420" 
d="M396 404h-152v-87h94v-90h-94v-20q0 -88 77 -88q37 0 71 17l4 -1v-119q-43 -22 -117 -22q-84 0 -130.5 47t-46.5 136v50h-85v90h85v87h-88v112h88v125l139 27l3 -2v-150h152v-112z" />
    <glyph glyph-name="Utilde" unicode="&#x168;" horiz-adv-x="719" 
d="M259 709l-83 23q1 53 33 88.5t82 35.5q30 0 71.5 -16.5t60.5 -16.5q14 0 26 10.5t12 26.5l2 2l84 -24q-2 -54 -33.5 -88t-82.5 -34q-24 0 -67.5 16t-62.5 16q-18 0 -28.5 -11t-10.5 -27zM360 -13q-137 0 -211 71.5t-74 204.5v399h139v-382q0 -174 148 -174q146 0 146 174
v382h136v-399q0 -132 -74.5 -204t-209.5 -72z" />
    <glyph glyph-name="utilde" unicode="&#x169;" horiz-adv-x="617" 
d="M216 596l-3 -2l-86 22q0 50 30.5 87.5t81.5 37.5q32 0 74.5 -16.5t62.5 -16.5q17 0 28 10.5t11 26.5l4 2l85 -22q0 -58 -32.5 -91.5t-82.5 -33.5q-29 -1 -73 16.5t-61 17.5q-37 0 -39 -38zM406 516h141v-516h-114l-14 70q-50 -83 -172 -83q-87 0 -135 51.5t-48 143.5v334
h142v-302q0 -106 95 -106q82 0 105 72v336z" />
    <glyph glyph-name="Umacron" unicode="&#x16a;" horiz-adv-x="719" 
d="M201 740v94h316v-94h-316zM360 -13q-137 0 -211 71.5t-74 204.5v399h139v-382q0 -174 148 -174q146 0 146 174v382h136v-399q0 -132 -74.5 -204t-209.5 -72z" />
    <glyph glyph-name="umacron" unicode="&#x16b;" horiz-adv-x="617" 
d="M463 701v-90h-306v90h306zM406 516h141v-516h-114l-14 70q-50 -83 -172 -83q-87 0 -135 51.5t-48 143.5v334h142v-302q0 -106 95 -106q82 0 105 72v336z" />
    <glyph glyph-name="Uring" unicode="&#x16e;" horiz-adv-x="719" 
d="M360 686q-51 0 -83 30.5t-32 76.5q0 45 32.5 75.5t82.5 30.5q51 0 83.5 -30t32.5 -76t-32.5 -76.5t-83.5 -30.5zM360 750q19 0 31 12.5t12 30.5t-12 30t-31 12q-18 0 -30 -12t-12 -30t12 -30.5t30 -12.5zM360 -13q-137 0 -211 71.5t-74 204.5v399h139v-382
q0 -174 148 -174q146 0 146 174v382h136v-399q0 -132 -74.5 -204t-209.5 -72z" />
    <glyph glyph-name="uring" unicode="&#x16f;" horiz-adv-x="617" 
d="M311 554q-52 0 -85 33.5t-33 82.5t33 82t85 33q53 0 86.5 -33t33.5 -82q0 -50 -33.5 -83t-86.5 -33zM312 717q-21 0 -34.5 -13.5t-13.5 -33.5t13.5 -33.5t34.5 -13.5t34.5 13.5t13.5 33.5t-13.5 33.5t-34.5 13.5zM406 516h141v-516h-114l-14 70q-50 -83 -172 -83
q-87 0 -135 51.5t-48 143.5v334h142v-302q0 -106 95 -106q82 0 105 72v336z" />
    <glyph glyph-name="Uhungarumlaut" unicode="&#x170;" horiz-adv-x="719" 
d="M271 704l-65 26l73 178l99 -25l3 -19zM476 704l-66 26l74 178l98 -25l3 -19zM360 -13q-137 0 -211 71.5t-74 204.5v399h139v-382q0 -174 148 -174q146 0 146 174v382h136v-399q0 -132 -74.5 -204t-209.5 -72z" />
    <glyph glyph-name="uhungarumlaut" unicode="&#x171;" horiz-adv-x="617" 
d="M348 723l-123 -163l-59 35l86 180l94 -33zM533 723l-122 -163l-59 35l85 180l95 -33zM406 516h141v-516h-114l-14 70q-50 -83 -172 -83q-87 0 -135 51.5t-48 143.5v334h142v-302q0 -106 95 -106q82 0 105 72v336z" />
    <glyph glyph-name="Uogonek" unicode="&#x172;" horiz-adv-x="719" 
d="M508 662h136v-399q0 -103 -46 -170t-132 -92q-74 -50 -74 -108q0 -17 10.5 -30t33.5 -13q20 0 30 3l5 -3v-73q-29 -8 -67 -8q-54 0 -89.5 23.5t-35.5 68.5q0 71 76 126q-135 2 -207.5 73t-72.5 203v399h139v-382q0 -174 148 -174q146 0 146 174v382z" />
    <glyph glyph-name="uogonek" unicode="&#x173;" horiz-adv-x="617" 
d="M406 516h141v-516h-2q-83 -53 -83 -114q0 -17 10.5 -30t33.5 -13q20 0 30 3l5 -3v-73q-29 -8 -67 -8q-54 0 -89.5 23.5t-35.5 68.5q0 83 106 146h-22l-14 70q-50 -83 -172 -83q-87 0 -135 51.5t-48 143.5v334h142v-302q0 -106 95 -106q82 0 105 72v336z" />
    <glyph glyph-name="Wcircumflex" unicode="&#x174;" horiz-adv-x="965" 
d="M479 781l-114 -76l-43 56l127 128h64l132 -127l-45 -57zM955 662l2 -3l-215 -664h-106l-141 413l-9 36l-10 -36l-141 -413h-109l-223 664l1 3h149l124 -422l10 -51l12 51l137 417h103l137 -404l13 -58l13 58l118 409h135z" />
    <glyph glyph-name="wcircumflex" unicode="&#x175;" horiz-adv-x="809" 
d="M403 663l-102 -83l-51 48l122 147h65l126 -147l-51 -48zM798 516l1 -4l-174 -512h-99l-113 329l-5 20l-6 -20l-117 -329h-101l-175 512l2 4h140l89 -309l3 -25l6 24l103 310h116l100 -308l6 -27l4 28l90 307h130z" />
    <glyph glyph-name="Ycircumflex" unicode="&#x176;" horiz-adv-x="614" 
d="M189 702l-43 56l127 128h64l132 -127l-45 -57l-121 76zM238 0v263l-237 396l1 3h151l158 -271l156 271h142l2 -3l-234 -397v-262h-139z" />
    <glyph glyph-name="ycircumflex" unicode="&#x177;" horiz-adv-x="542" 
d="M274 652l-102 -83l-51 48l122 147h65l126 -147l-51 -48zM534 516l2 -4l-217 -518l-65 -157h-147l-2 3l102 202l-197 470l2 4h149l115 -329l117 329h141z" />
    <glyph glyph-name="Ydieresis" unicode="&#x178;" horiz-adv-x="614" 
d="M192 720q-30 0 -51 21t-21 51t21 51t51 21t51 -21t21 -51t-21 -51t-51 -21zM426 720q-30 0 -51 21t-21 51t21 51t51 21q31 0 52 -21t21 -51t-21 -51t-52 -21zM238 0v263l-237 396l1 3h151l158 -271l156 271h142l2 -3l-234 -397v-262h-139z" />
    <glyph glyph-name="Zacute" unicode="&#x179;" horiz-adv-x="602" 
d="M198 700l-27 69l198 127l66 -106l-8 -15zM37 0v48l331 499h-330l-2 115h522v-48l-337 -498h346v-116h-530z" />
    <glyph glyph-name="zacute" unicode="&#x17a;" horiz-adv-x="531" 
d="M395 664l-210 -105l-43 65l171 154l86 -98zM219 114h278v-114h-461v69l265 331h-262v116h449v-73z" />
    <glyph glyph-name="Zdotaccent" unicode="&#x17b;" horiz-adv-x="602" 
d="M298 715q-34 0 -58 24t-24 59q0 34 24 58t58 24t58 -24t24 -58t-24 -58.5t-58 -24.5zM37 0v48l331 499h-330l-2 115h522v-48l-337 -498h346v-116h-530z" />
    <glyph glyph-name="zdotaccent" unicode="&#x17c;" horiz-adv-x="531" 
d="M262 587q-35 0 -60.5 25t-25.5 61q0 35 25.5 60.5t60.5 25.5t60.5 -25.5t25.5 -60.5q0 -36 -25.5 -61t-60.5 -25zM219 114h278v-114h-461v69l265 331h-262v116h449v-73z" />
    <glyph glyph-name="Zcaron" unicode="&#x17d;" horiz-adv-x="602" 
d="M268 702l-132 124l45 58l120 -77l115 77l43 -57l-127 -125h-64zM37 0v48l331 499h-330l-2 115h522v-48l-337 -498h346v-116h-530z" />
    <glyph glyph-name="zcaron" unicode="&#x17e;" horiz-adv-x="531" 
d="M297 569h-65l-126 146l51 49l108 -84l103 84l51 -49zM219 114h278v-114h-461v69l265 331h-262v116h449v-73z" />
    <glyph glyph-name="uni01EA" unicode="&#x1ea;" horiz-adv-x="781" 
d="M500 2q-78 -53 -78 -111q0 -17 10.5 -30t33.5 -13q20 0 30 3l5 -3v-73q-29 -8 -67 -8q-54 0 -89.5 23.5t-35.5 68.5q0 71 78 128q-93 1 -169.5 38.5t-125.5 117t-49 188.5q0 159 98 252.5t249 93.5q69 0 131 -22.5t111 -64.5t77.5 -109t28.5 -150q0 -126 -65 -212.5
t-173 -116.5zM189 331q0 -100 55 -158.5t146 -58.5q92 0 147 58.5t55 158.5q0 102 -55 160.5t-147 58.5q-91 0 -146 -58.5t-55 -160.5z" />
    <glyph glyph-name="uni01EB" unicode="&#x1eb;" horiz-adv-x="635" 
d="M408 -1q-71 -50 -71 -106q0 -17 10.5 -30t33.5 -13q20 0 30 3l5 -3v-73q-29 -8 -67 -8q-54 0 -89.5 23.5t-35.5 68.5q0 69 75 125q-112 6 -186 76.5t-74 195.5q0 123 79 197t199 74q119 0 199 -70t80 -200q0 -99 -51.5 -167t-136.5 -93zM184 259q0 -69 35.5 -110.5
t97.5 -41.5t98 42t36 110q0 67 -36 108t-98 41q-61 0 -97 -41t-36 -108z" />
    <glyph glyph-name="AEacute" unicode="&#x1fc;" horiz-adv-x="855" 
d="M641 778l-229 -75l-27 69l198 127l66 -106zM550 115h257v-115h-398v154h-200l-90 -154h-142l390 662h430v-114h-247v-149h228v-113h-228v-171zM267 253h142v256l-69 -130z" />
    <glyph glyph-name="aeacute" unicode="&#x1fd;" horiz-adv-x="885" 
d="M572 664l-210 -105l-43 65l171 154l86 -98zM601 529q111 0 175.5 -63.5t65.5 -185.5q0 -40 -1 -60h-350q10 -59 47.5 -89.5t94.5 -30.5q96 0 172 42l3 -2v-111q-78 -43 -187 -43q-144 0 -219 95q-84 -94 -201 -94q-82 0 -127 39.5t-45 106.5q0 51 24.5 86t72 52.5
t98.5 24.5t122 8q-7 106 -124 106q-90 0 -144 -32l-4 2v112q21 15 68 26t106 11q122 0 180 -67q69 67 173 67zM491 304h215q-9 112 -106 112q-43 0 -71.5 -28.5t-37.5 -83.5zM232 95q41 0 76 16.5t55 41.5q-11 32 -14 67q-59 -1 -96 -7t-61 -22t-24 -43q0 -24 17 -38.5
t47 -14.5z" />
    <glyph glyph-name="Oslashacute" unicode="&#x1fe;" horiz-adv-x="781" 
d="M517 775l-229 -75l-27 69l198 127l66 -106zM738 680v-10l-86 -100q86 -92 86 -239q0 -157 -98 -250.5t-250 -93.5q-108 0 -195 52l-47 -54h-106v12l84 99q-83 93 -83 235q0 159 98 252.5t249 93.5q107 0 190 -49l44 52h114zM189 331q0 -73 31 -126l273 321
q-45 24 -103 24q-91 0 -146 -58.5t-55 -160.5zM592 331q0 76 -33 131l-276 -321q48 -27 107 -27q92 0 147 58.5t55 158.5z" />
    <glyph glyph-name="oslashacute" unicode="&#x1ff;" horiz-adv-x="636" 
d="M451 664l-210 -105l-43 65l171 154l86 -98zM605 536v-10l-72 -84q63 -71 63 -183q0 -124 -79 -198.5t-199 -74.5q-81 0 -145 33l-33 -39h-101v12l67 79q-66 72 -66 187q0 123 78.5 197t199.5 74q82 0 145 -33l34 40h108zM185 259q0 -43 14 -77l179 213q-25 13 -60 13
q-61 0 -97 -41t-36 -108zM451 259q0 41 -13 71l-179 -211q25 -12 59 -12q61 0 97 42t36 110z" />
    <glyph glyph-name="Scommaaccent" unicode="&#x218;" horiz-adv-x="532" 
d="M247 -12q-112 0 -195 44v132l3 1q82 -57 177 -57q51 0 80.5 19.5t29.5 55.5q0 34 -24 57t-93 53q-75 32 -120 75.5t-45 114.5q0 95 65.5 144.5t164.5 49.5q104 0 171 -30v-123l-3 -2q-56 32 -149 34q-51 1 -80 -15t-29 -47q0 -34 49 -61q16 -9 72 -34q77 -35 119 -82.5
t42 -127.5q0 -92 -64 -146.5t-171 -54.5zM189 -243q17 67 17 134q0 27 -3 58l113 9l11 -16q0 -99 -54 -185h-84z" />
    <glyph glyph-name="scommaaccent" unicode="&#x219;" horiz-adv-x="491" 
d="M232 -14q-108 0 -189 38v118l4 2q34 -23 83.5 -37.5t94.5 -14.5q94 0 94 48q0 24 -22.5 37.5t-93.5 33.5q-82 24 -119.5 60.5t-37.5 96.5q0 73 61.5 117t162.5 44t159 -24v-116l-3 -2q-58 29 -150 29q-42 0 -67.5 -11.5t-25.5 -31.5q0 -21 21.5 -32.5t89.5 -30.5
q84 -23 122 -60t38 -99q0 -79 -59 -122t-163 -43zM172 -243q17 67 17 134q0 27 -3 58l113 9l11 -16q0 -99 -54 -185h-84z" />
    <glyph glyph-name="uni021A" unicode="&#x21a;" horiz-adv-x="585" 
d="M572 662v-126h-205v-536h-141v536h-213v126h559zM229 -51l113 9l11 -16q0 -99 -54 -185h-84q17 67 17 134q0 27 -3 58z" />
    <glyph glyph-name="uni021B" unicode="&#x21b;" horiz-adv-x="420" 
d="M396 404h-152v-197q0 -88 77 -88q37 0 71 17l4 -1v-119q-43 -22 -117 -22q-84 0 -130.5 47t-46.5 136v227h-88v112h88v125l139 27l3 -2v-150h152v-112zM207 -51l113 9l11 -16q0 -99 -54 -185h-84q17 67 17 134q0 27 -3 58z" />
    <glyph glyph-name="uni0237" unicode="&#x237;" horiz-adv-x="299" 
d="M29 -170q-32 0 -69 6v122l4 1q18 -3 36 -3q88 0 88 105v455h141v-488q0 -99 -52 -148.5t-148 -49.5z" />
    <glyph glyph-name="circumflex" unicode="&#x2c6;" horiz-adv-x="394" 
d="M92 569l-51 48l122 147h65l126 -147l-51 -48l-109 83z" />
    <glyph glyph-name="caron" unicode="&#x2c7;" horiz-adv-x="394" 
d="M175 520l-131 153l45 48l110 -92l109 92l46 -48l-132 -153h-47z" />
    <glyph glyph-name="breve" unicode="&#x2d8;" horiz-adv-x="361" 
d="M179 574q-66 0 -110.5 42.5t-44.5 115.5l86 10l4 -3q2 -31 19.5 -50t47.5 -19q31 0 50.5 19t22.5 49l3 3l81 -9q0 -73 -46 -115.5t-113 -42.5z" />
    <glyph glyph-name="dotaccent" unicode="&#x2d9;" horiz-adv-x="298" 
d="M149 587q-35 0 -60.5 25t-25.5 61q0 35 25.5 60.5t60.5 25.5t60.5 -25.5t25.5 -60.5q0 -36 -25.5 -61t-60.5 -25z" />
    <glyph glyph-name="ring" unicode="&#x2da;" horiz-adv-x="328" 
d="M150 554q-52 0 -85 33.5t-33 82.5t33 82t85 33q53 0 86.5 -33t33.5 -82q0 -50 -33.5 -83t-86.5 -33zM151 623q21 0 34.5 13.5t13.5 33.5t-13.5 33.5t-34.5 13.5t-34.5 -13.5t-13.5 -33.5t13.5 -33.5t34.5 -13.5z" />
    <glyph glyph-name="ogonek" unicode="&#x2db;" horiz-adv-x="216" 
d="M143 -231q-54 0 -89.5 23.5t-35.5 68.5q0 85 111 149l87 -2q-85 -53 -85 -115q0 -17 10.5 -30t33.5 -13q20 0 30 3l5 -3v-73q-29 -8 -67 -8z" />
    <glyph glyph-name="tilde" unicode="&#x2dc;" horiz-adv-x="398" 
d="M100 594l-86 22q0 50 30.5 87.5t81.5 37.5q32 0 74.5 -16.5t62.5 -16.5q17 0 28 10.5t11 26.5l4 2l85 -22q0 -58 -32.5 -91.5t-82.5 -33.5q-29 -1 -73 16.5t-61 17.5q-37 0 -39 -38z" />
    <glyph glyph-name="hungarumlaut" unicode="&#x2dd;" horiz-adv-x="418" 
d="M85 560l-59 35l86 180l94 -33l2 -19zM271 560l-59 35l85 180l95 -33l1 -19z" />
    <glyph glyph-name="gravecomb" unicode="&#x300;" 
d="M-49 559l-210 105l-3 16l86 98l171 -154z" />
    <glyph glyph-name="acutecomb" unicode="&#x301;" 
d="M-214 559l-43 65l171 154l86 -98l-4 -16z" />
    <glyph glyph-name="uni0302" unicode="&#x302;" 
d="M-302 569l-51 48l122 147h65l126 -147l-51 -48l-109 83z" />
    <glyph glyph-name="tildecomb" unicode="&#x303;" 
d="M-298 594l-86 22q0 50 30.5 87.5t81.5 37.5q32 0 74.5 -16.5t62.5 -16.5q17 0 28 10.5t11 26.5l4 2l85 -22q0 -58 -32.5 -91.5t-82.5 -33.5q-29 -1 -73 16.5t-61 17.5q-37 0 -39 -38z" />
    <glyph glyph-name="uni0304" unicode="&#x304;" 
d="M-330 611v90h306v-90h-306z" />
    <glyph glyph-name="uni0306" unicode="&#x306;" 
d="M-182 574q-66 0 -110.5 42.5t-44.5 115.5l86 10l4 -3q2 -31 19.5 -50t47.5 -19q31 0 50.5 19t22.5 49l3 3l81 -9q0 -73 -46 -115.5t-113 -42.5z" />
    <glyph glyph-name="uni0307" unicode="&#x307;" 
d="M-149 587q-35 0 -60.5 25t-25.5 61q0 35 25.5 60.5t60.5 25.5t60.5 -25.5t25.5 -60.5q0 -36 -25.5 -61t-60.5 -25z" />
    <glyph glyph-name="uni0308" unicode="&#x308;" 
d="M-309 591q-34 0 -58 23.5t-24 57.5q0 33 24 57.5t58 24.5q33 0 57 -24.5t24 -57.5q0 -34 -24 -57.5t-57 -23.5zM-86 591q-34 0 -58 23.5t-24 57.5q0 33 24 57.5t58 24.5q33 0 57 -24.5t24 -57.5q0 -34 -24 -57.5t-57 -23.5z" />
    <glyph glyph-name="uni030A" unicode="&#x30a;" 
d="M-151 554q-52 0 -85 33.5t-33 82.5t33 82t85 33q53 0 86.5 -33t33.5 -82q0 -50 -33.5 -83t-86.5 -33zM-150 623q21 0 34.5 13.5t13.5 33.5t-13.5 33.5t-34.5 13.5t-34.5 -13.5t-13.5 -33.5t13.5 -33.5t34.5 -13.5z" />
    <glyph glyph-name="uni030B" unicode="&#x30b;" 
d="M-333 560l-59 35l86 180l94 -33l2 -19zM-147 560l-59 35l85 180l95 -33l1 -19z" />
    <glyph glyph-name="uni030C" unicode="&#x30c;" 
d="M-227 569l-126 146l51 49l108 -84l103 84l51 -49l-122 -146h-65z" />
    <glyph glyph-name="uni0326" unicode="&#x326;" 
d="M-172 -243q17 67 17 134q0 27 -3 58l113 9l11 -16q0 -99 -54 -185h-84z" />
    <glyph glyph-name="uni0327" unicode="&#x327;" 
d="M-139 -240q-36 0 -66 8v63l4 2q20 -7 41 -7q57 0 57 38q0 33 -42 33q-21 0 -38 -5l-1 3v54l34 52h79l-32 -45h15q41 -2 67 -24.5t26 -65.5q0 -56 -41 -81t-103 -25z" />
    <glyph glyph-name="uni0328" unicode="&#x328;" 
d="M-91 -231q-54 0 -89.5 23.5t-35.5 68.5q0 85 111 149l87 -2q-85 -53 -85 -115q0 -17 10.5 -30t33.5 -13q20 0 30 3l5 -3v-73q-29 -8 -67 -8z" />
    <glyph glyph-name="uni0335" unicode="&#x335;" 
d="M-353 147v90h321v-90h-321z" />
    <glyph glyph-name="uni0336" unicode="&#x336;" 
d="M-623 333v92h600v-92h-600z" />
    <glyph glyph-name="uni0337" unicode="&#x337;" 
d="M-298 208v104l280 181h4v-104l-280 -181h-4z" />
    <glyph glyph-name="uni0338" unicode="&#x338;" 
d="M-591 -13v12l458 544h108v-10l-465 -546h-101z" />
    <glyph glyph-name="Wgrave" unicode="&#x1e80;" horiz-adv-x="965" 
d="M577 703l-229 75l-8 15l66 106l198 -126zM955 662l2 -3l-215 -664h-106l-141 413l-9 36l-10 -36l-141 -413h-109l-223 664l1 3h149l124 -422l10 -51l12 51l137 417h103l137 -404l13 -58l13 58l118 409h135z" />
    <glyph glyph-name="wgrave" unicode="&#x1e81;" horiz-adv-x="809" 
d="M475 570l-210 105l-3 16l86 98l171 -154zM798 516l1 -4l-174 -512h-99l-113 329l-5 20l-6 -20l-117 -329h-101l-175 512l2 4h140l89 -309l3 -25l6 24l103 310h116l100 -308l6 -27l4 28l90 307h130z" />
    <glyph glyph-name="Wacute" unicode="&#x1e82;" horiz-adv-x="965" 
d="M613 778l-229 -75l-27 69l198 127l66 -106zM955 662l2 -3l-215 -664h-106l-141 413l-9 36l-10 -36l-141 -413h-109l-223 664l1 3h149l124 -422l10 -51l12 51l137 417h103l137 -404l13 -58l13 58l118 409h135z" />
    <glyph glyph-name="wacute" unicode="&#x1e83;" horiz-adv-x="809" 
d="M539 675l-210 -105l-43 65l171 154l86 -98zM798 516l1 -4l-174 -512h-99l-113 329l-5 20l-6 -20l-117 -329h-101l-175 512l2 4h140l89 -309l3 -25l6 24l103 310h116l100 -308l6 -27l4 28l90 307h130z" />
    <glyph glyph-name="Wdieresis" unicode="&#x1e84;" horiz-adv-x="965" 
d="M368 723q-30 0 -51 21t-21 51t21 51t51 21t51 -21t21 -51t-21 -51t-51 -21zM602 723q-30 0 -51 21t-21 51t21 51t51 21q31 0 52 -21t21 -51t-21 -51t-52 -21zM955 662l2 -3l-215 -664h-106l-141 413l-9 36l-10 -36l-141 -413h-109l-223 664l1 3h149l124 -422l10 -51
l12 51l137 417h103l137 -404l13 -58l13 58l118 409h135z" />
    <glyph glyph-name="wdieresis" unicode="&#x1e85;" horiz-adv-x="809" 
d="M296 602q-34 0 -58 23.5t-24 57.5q0 33 24 57.5t58 24.5q33 0 57 -24.5t24 -57.5q0 -34 -24 -57.5t-57 -23.5zM519 602q-34 0 -58 23.5t-24 57.5q0 33 24 57.5t58 24.5q33 0 57 -24.5t24 -57.5q0 -34 -24 -57.5t-57 -23.5zM798 516l1 -4l-174 -512h-99l-113 329l-5 20
l-6 -20l-117 -329h-101l-175 512l2 4h140l89 -309l3 -25l6 24l103 310h116l100 -308l6 -27l4 28l90 307h130z" />
    <glyph glyph-name="Ygrave" unicode="&#x1ef2;" horiz-adv-x="614" 
d="M401 700l-229 75l-8 15l66 106l198 -126zM238 0v263l-237 396l1 3h151l158 -271l156 271h142l2 -3l-234 -397v-262h-139z" />
    <glyph glyph-name="ygrave" unicode="&#x1ef3;" horiz-adv-x="542" 
d="M346 559l-210 105l-3 16l86 98l171 -154zM534 516l2 -4l-217 -518l-65 -157h-147l-2 3l102 202l-197 470l2 4h149l115 -329l117 329h141z" />
    <glyph glyph-name="uni1EF8" unicode="&#x1ef8;" horiz-adv-x="614" 
d="M207 709l-83 23q1 53 33 88.5t82 35.5q30 0 71.5 -16.5t60.5 -16.5q14 0 26 10.5t12 26.5l2 2l84 -24q-2 -54 -33.5 -88t-82.5 -34q-24 0 -67.5 16t-62.5 16q-18 0 -28.5 -11t-10.5 -27zM238 0v263l-237 396l1 3h151l158 -271l156 271h142l2 -3l-234 -397v-262h-139z" />
    <glyph glyph-name="uni1EF9" unicode="&#x1ef9;" horiz-adv-x="542" 
d="M182 596l-3 -2l-86 22q0 50 30.5 87.5t81.5 37.5q32 0 74.5 -16.5t62.5 -16.5q17 0 28 10.5t11 26.5l4 2l85 -22q0 -58 -32.5 -91.5t-82.5 -33.5q-29 -1 -73 16.5t-61 17.5q-37 0 -39 -38zM534 516l2 -4l-217 -518l-65 -157h-147l-2 3l102 202l-197 470l2 4h149l115 -329
l117 329h141z" />
    <glyph glyph-name="endash" unicode="&#x2013;" horiz-adv-x="544" 
d="M63 221v115h417v-115h-417z" />
    <glyph glyph-name="emdash" unicode="&#x2014;" horiz-adv-x="879" 
d="M63 221v115h752v-115h-752z" />
    <glyph glyph-name="quoteleft" unicode="&#x2018;" horiz-adv-x="233" 
d="M189 701q-12 -70 -15 -147q-1 -48 3 -103l-110 -19l-17 21q1 112 63 248h76z" />
    <glyph glyph-name="quoteright" unicode="&#x2019;" horiz-adv-x="227" 
d="M48 433q12 70 15 147q1 48 -3 103l110 19l17 -21q-1 -112 -63 -248h-76z" />
    <glyph glyph-name="quotesinglbase" unicode="&#x201a;" horiz-adv-x="234" 
d="M38 -170q12 70 15 147q1 48 -3 103l110 19l17 -21q-1 -112 -63 -248h-76z" />
    <glyph glyph-name="quotedblleft" unicode="&#x201c;" horiz-adv-x="407" 
d="M189 701q-12 -70 -15 -147q-1 -48 3 -103l-110 -19l-17 21q1 112 63 248h76zM362 701q-12 -70 -15 -147q-1 -48 3 -103l-110 -19l-17 21q1 112 63 248h76z" />
    <glyph glyph-name="quotedblright" unicode="&#x201d;" horiz-adv-x="402" 
d="M48 433q12 70 15 147q1 48 -3 103l110 19l17 -21q-1 -112 -63 -248h-76zM220 433q12 70 15 147q1 48 -3 103l110 19l17 -21q-1 -112 -63 -248h-76z" />
    <glyph glyph-name="quotedblbase" unicode="&#x201e;" horiz-adv-x="404" 
d="M37 -170q12 70 15 147q1 48 -3 103l110 19l17 -21q-1 -112 -63 -248h-76zM209 -170q12 70 15 147q1 48 -3 103l110 19l17 -21q-1 -112 -63 -248h-76z" />
    <glyph glyph-name="dagger" unicode="&#x2020;" horiz-adv-x="583" 
d="M335 512l192 19v-131l-173 18l-16 -507h-95l-18 506l-169 -17v131l188 -21l-19 198h131z" />
    <glyph glyph-name="daggerdbl" unicode="&#x2021;" horiz-adv-x="583" 
d="M226 -86l19 188l-191 -18v131l174 -18l16 114l-18 113l-169 -17v132l188 -21l-19 190h131l-21 -188l191 19v-132l-173 18l-15 -114l17 -113l169 17v-131l-188 20l20 -190h-131z" />
    <glyph glyph-name="bullet" unicode="&#x2022;" horiz-adv-x="404" 
d="M202 125q-54 0 -92 38t-38 92t38 92t92 38t92 -38t38 -92t-38 -92t-92 -38z" />
    <glyph glyph-name="ellipsis" unicode="&#x2026;" horiz-adv-x="676" 
d="M126 -11q-37 0 -58 21t-21 54q0 32 21 54.5t58 22.5t58 -22t21 -55t-20.5 -54t-58.5 -21zM343 -11q-37 0 -58 21t-21 54q0 32 21 54.5t58 22.5t58 -22t21 -55t-20.5 -54t-58.5 -21zM557 -11q-37 0 -58 21t-21 54q0 32 21 54.5t58 22.5t58 -22t21 -55t-20.5 -54t-58.5 -21
z" />
    <glyph glyph-name="perthousand" unicode="&#x2030;" horiz-adv-x="1168" 
d="M208 321q-77 0 -125 43t-48 126t48.5 128.5t125.5 45.5q78 0 126.5 -45t48.5 -129q0 -83 -48.5 -126t-127.5 -43zM120 12l455 638h109l-455 -638h-109zM208 407q72 0 72 85q0 41 -19 63t-53 22q-33 0 -51 -22t-18 -63q0 -85 69 -85zM590 -4q-78 0 -126 43t-48 125
q0 84 48.5 129.5t125.5 45.5q78 0 126 -45.5t48 -129.5q0 -82 -48 -125t-126 -43zM961 -4q-77 0 -125 43t-48 125q0 84 48.5 129.5t125.5 45.5q79 0 127 -45t48 -130q0 -83 -48 -125.5t-128 -42.5zM590 82q70 0 70 82q0 43 -18.5 65t-51.5 22t-51.5 -22t-18.5 -65
q0 -82 70 -82zM962 82q71 0 71 82q0 87 -71 87q-32 0 -50.5 -22t-18.5 -65q0 -82 69 -82z" />
    <glyph glyph-name="guilsinglleft" unicode="&#x2039;" horiz-adv-x="345" 
d="M169 94l-139 191l142 188h129v-11l-130 -174l130 -186v-8h-132z" />
    <glyph glyph-name="guilsinglright" unicode="&#x203a;" horiz-adv-x="345" 
d="M176 473l139 -191l-142 -188h-129v11l130 174l-130 186v8h132z" />
    <glyph glyph-name="fraction" unicode="&#x2044;" horiz-adv-x="136" 
d="M-164 -11l408 673h105l-409 -673h-104z" />
    <glyph glyph-name="Euro" unicode="&#x20ac;" horiz-adv-x="674" 
d="M480 119q68 0 135 29l3 -2l-22 -125q-57 -27 -136 -27q-133 0 -225 76t-109 207h-87l22 137h70q24 124 113.5 194.5t216.5 70.5q87 0 157 -22l-23 -122l-3 -2q-49 20 -116 20q-76 0 -127 -36t-69 -103h207l-22 -137h-190q15 -76 67.5 -117t137.5 -41z" />
    <glyph glyph-name="trademark" unicode="&#x2122;" horiz-adv-x="855" 
d="M38 557v103h314v-103h-101v-219h-109v219h-104zM763 660l30 -322h-101l-14 150h-1l-66 -150h-64l-65 151h-1l-14 -151h-102l31 322h109l78 -180l75 180h105z" />
    <glyph glyph-name="minus" unicode="&#x2212;" horiz-adv-x="573" 
d="M64 244v98h444v-98h-444z" />
    <glyph glyph-name="approxequal" unicode="&#x2248;" horiz-adv-x="534" 
d="M147 319l-84 11q0 57 33 93t87 36q39 0 89 -18t77 -18q41 0 42 39l4 2l78 -15q0 -55 -32.5 -89.5t-86.5 -34.5q-30 0 -83 18t-77 18q-43 0 -45 -40zM147 114l-84 11q0 57 33 93t87 36q39 0 89 -18t77 -18q40 0 42 38l4 3l78 -15q0 -55 -32.5 -89.5t-86.5 -34.5
q-30 0 -83 17.5t-77 17.5q-43 0 -45 -39z" />
    <glyph glyph-name="notequal" unicode="&#x2260;" horiz-adv-x="596" 
d="M532 353h-133l-60 -128h193v-96h-239l-51 -109h-115l51 109h-114v96h160l60 128h-220v96h265l48 101h115l-48 -101h88v-96z" />
    <glyph glyph-name="uniF8FF" unicode="&#xf8ff;" horiz-adv-x="1451" 
d="M752 522q-26 0 -43.5 18t-17.5 43q0 26 17.5 44t43.5 18t44 -18t18 -44t-18 -43.5t-44 -17.5zM100 270q0 134 9 314h100q10 -200 10 -314h-119zM604 264q-82 0 -82 66q0 12 2 49t2 38h-22v79l119 30l1 -17h178q10 -64 10 -239h-118q0 92 3 147h-61l3 -65q4 -4 15 -4
q13 0 18 5v-74q-14 -15 -68 -15zM328 265q-92 0 -92 114q0 135 134 135q124 0 124 -117v-127h-83l-8 61q-6 -33 -23.5 -49.5t-51.5 -16.5zM834 270q0 175 10 239h80q6 -44 6 -76q2 15 6.5 30t24 33t49.5 18q42 0 58.5 -25t18.5 -81l3 -138h-114q0 26 1 56t1 37q0 29 -15 29
q-18 0 -18 -29q0 -7 1.5 -37t1.5 -56h-114zM1228 265q-122 0 -122 124q0 125 124 125q121 0 121 -123q0 -126 -123 -126zM366 345q24 0 24 30q0 26 -24 26q-22 0 -22 -26q0 -30 22 -30zM1228 345q23 0 23 30q0 26 -23 26q-21 0 -21 -26q0 -30 21 -30zM390 -50q-61 0 -88 17
v83q24 -16 70 -16q21 0 34 6t16.5 11.5t3.5 10.5q-16 -11 -49 -11q-90 0 -90 83v13h-55l3 -65q6 -4 15 -4q13 0 18 5v-73q-19 -15 -68 -15q-45 0 -63 17t-18 54q0 39 3 81h-18v80l117 29l-1 -18h177v-119q0 -16 3 -21.5t12 -5.5q16 0 16 27v119h104q10 -52 10 -138
q0 -81 -33.5 -115.5t-118.5 -34.5zM558 -44q0 142 10 282h78q7 -42 7 -76q17 81 80 81q37 0 58.5 -29t21.5 -84q0 -135 -137 -135q1 -15 1 -39h-119zM970 -5q-141 0 -141 122q0 59 32.5 92.5t92.5 33.5q55 0 85.5 -30t30.5 -86q0 -21 -3 -35h-124q11 -18 50 -18q34 0 55 12
v-75q-23 -16 -78 -16zM938 109h40q3 27 -17 27q-23 0 -23 -27zM670 72q5 0 12.5 2.5t16 11.5t8.5 23q0 23 -20 23q-22 0 -22 -31q0 -14 5 -29zM1098 -10q-24 0 -24 23t24 23t24 -23t-24 -23zM1098 -5q18 0 18 18t-18 18t-18 -18t18 -18zM1088 2v23h11q10 0 10 -7t-7 -7l6 -9
h-6l-4 9h-5v-9h-5zM1093 15h7q4 0 4 3t-4 3h-7v-6z" />
    <glyph glyph-name="i.loclTRK" horiz-adv-x="281" 
d="M140 587q-35 0 -60.5 25t-25.5 61q0 35 25.5 60.5t60.5 25.5t60.5 -25.5t25.5 -60.5q0 -36 -25.5 -61t-60.5 -25zM70 0v516h141v-516h-141z" />
    <glyph glyph-name="caroncomb.alt" 
d="M-148 477l7 237h100l12 -13l-41 -224h-78z" />
    <glyph glyph-name="uni0308.case" 
d="M-338 720q-30 0 -51 21t-21 51t21 51t51 21t51 -21t21 -51t-21 -51t-51 -21zM-104 720q-30 0 -51 21t-21 51t21 51t51 21q31 0 52 -21t21 -51t-21 -51t-52 -21z" />
    <glyph glyph-name="uni0307.case" 
d="M-128 715q-34 0 -58 24t-24 59q0 34 24 58t58 24t58 -24t24 -58t-24 -58.5t-58 -24.5z" />
    <glyph glyph-name="gravecomb.case" 
d="M-63 700l-229 75l-8 15l66 106l198 -126z" />
    <glyph glyph-name="acutecomb.case" 
d="M-259 700l-27 69l198 127l66 -106l-8 -15z" />
    <glyph glyph-name="uni030B.case" 
d="M-337 704l-65 26l73 178l99 -25l3 -19zM-132 704l-66 26l74 178l98 -25l3 -19z" />
    <glyph glyph-name="uni0302.case" 
d="M-307 702l-43 56l127 128h64l132 -127l-45 -57l-121 76z" />
    <glyph glyph-name="uni030C.case" 
d="M-218 702l-132 124l45 58l120 -77l115 77l43 -57l-127 -125h-64z" />
    <glyph glyph-name="uni0306.case" 
d="M-182 711q-67 0 -113 42.5t-46 111.5l87 9q3 -33 22 -53t52 -20q34 0 55 20.5t23 52.5l83 -9q0 -69 -47.5 -111.5t-115.5 -42.5z" />
    <glyph glyph-name="uni030A.case" 
d="M-141 686q-51 0 -83 30.5t-32 76.5q0 45 32.5 75.5t82.5 30.5q51 0 83.5 -30t32.5 -76t-32.5 -76.5t-83.5 -30.5zM-141 750q19 0 31 12.5t12 30.5t-12 30t-31 12q-18 0 -30 -12t-12 -30t12 -30.5t30 -12.5z" />
    <glyph glyph-name="tildecomb.case" 
d="M-304 709l-83 23q1 53 33 88.5t82 35.5q30 0 71.5 -16.5t60.5 -16.5q14 0 26 10.5t12 26.5l2 2l84 -24q-2 -54 -33.5 -88t-82.5 -34q-24 0 -67.5 16t-62.5 16q-18 0 -28.5 -11t-10.5 -27z" />
    <glyph glyph-name="uni0304.case" 
d="M-336 740v94h316v-94h-316z" />
    <glyph glyph-name="uni0337.case" 
d="M-307 188v104l281 177h4v-106l-280 -177z" />
    <glyph glyph-name="uni0338.case" 
d="M-721 -14v12l582 683h114v-10l-590 -685h-106z" />
    <glyph glyph-name="caron.alt" horiz-adv-x="182" 
d="M34 424l7 243h95l11 -13l-40 -230h-73z" />
    <glyph glyph-name="acute.case" horiz-adv-x="317" 
d="M58 700l-27 69l198 127l66 -106l-8 -15z" />
    <glyph glyph-name="breve.case" horiz-adv-x="361" 
d="M179 711q-67 0 -113 42.5t-46 111.5l87 9q3 -33 22 -53t52 -20q34 0 55 20.5t23 52.5l83 -9q0 -69 -47.5 -111.5t-115.5 -42.5z" />
    <glyph glyph-name="caron.case" horiz-adv-x="377" 
d="M159 702l-132 124l45 58l120 -77l115 77l43 -57l-127 -125h-64z" />
    <glyph glyph-name="circumflex.case" horiz-adv-x="377" 
d="M70 702l-43 56l127 128h64l132 -127l-45 -57l-121 76z" />
    <glyph glyph-name="dieresis.case" horiz-adv-x="443" 
d="M105 720q-30 0 -51 21t-21 51t21 51t51 21t51 -21t21 -51t-21 -51t-51 -21zM339 720q-30 0 -51 21t-21 51t21 51t51 21q31 0 52 -21t21 -51t-21 -51t-52 -21z" />
    <glyph glyph-name="dotaccent.case" horiz-adv-x="257" 
d="M129 715q-34 0 -58 24t-24 59q0 34 24 58t58 24t58 -24t24 -58t-24 -58.5t-58 -24.5z" />
    <glyph glyph-name="grave.case" horiz-adv-x="317" 
d="M254 700l-229 75l-8 15l66 106l198 -126z" />
    <glyph glyph-name="hungarumlaut.case" horiz-adv-x="456" 
d="M119 704l-65 26l73 178l99 -25l3 -19zM324 704l-66 26l74 178l98 -25l3 -19z" />
    <glyph glyph-name="macron.case" horiz-adv-x="388" 
d="M20 740v94h316v-94h-316z" />
    <glyph glyph-name="ring.case" horiz-adv-x="281" 
d="M140 686q-51 0 -83 30.5t-32 76.5q0 45 32.5 75.5t82.5 30.5q51 0 83.5 -30t32.5 -76t-32.5 -76.5t-83.5 -30.5zM140 750q19 0 31 12.5t12 30.5t-12 30t-31 12q-18 0 -30 -12t-12 -30t12 -30.5t30 -12.5z" />
    <glyph glyph-name="tilde.case" horiz-adv-x="406" 
d="M102 709l-83 23q1 53 33 88.5t82 35.5q30 0 71.5 -16.5t60.5 -16.5q14 0 26 10.5t12 26.5l2 2l84 -24q-2 -54 -33.5 -88t-82.5 -34q-24 0 -67.5 16t-62.5 16q-18 0 -28.5 -11t-10.5 -27z" />
    <glyph glyph-name="IJacute" horiz-adv-x="696" 
d="M73 695l-27 69l198 127l66 -106l-8 -15zM463 695l-27 69l198 127l66 -106l-8 -15zM83 0v662h141v-662h-141zM387 -3q-29 0 -57 4v118l3 1q17 -3 36 -3q112 0 112 140v405h141v-391q0 -274 -235 -274z" />
    <glyph glyph-name="ijacute" horiz-adv-x="572" 
d="M61 559l-44 65l166 154l86 -88l-3 -17zM362 559l-43 65l165 154l87 -88l-4 -17zM70 71v445h141v-445h-141zM277 -170q-68 0 -127 18v122l2 1q49 -15 102 -15q61 0 84 36.5t23 133.5v390h141v-411q0 -146 -58 -210.5t-167 -64.5z" />
    </font>
</defs>
</svg>
