<?xml version="1.0" standalone="no"?>
<!DOCTYPE svg PUBLIC "-//W3C//DTD SVG 1.1//EN" "http://www.w3.org/Graphics/SVG/1.1/DTD/svg11.dtd" >
<svg xmlns="http://www.w3.org/2000/svg" xmlns:xlink="http://www.w3.org/1999/xlink" version="1.1">
<metadata>
Created by FontForge 20170731 at Tue Mar  7 13:07:39 2017
 By Aleksey,,,
Copyright (c) 2017 by Alfonso Garci'a - Latinotype Team. All rights reserved.
</metadata>
<defs>
<font id="RawsonAlt-BoldIt" horiz-adv-x="0" >
  <font-face 
    font-family="Rawson Alt Bold It"
    font-weight="650"
    font-style="italic"
    font-stretch="normal"
    units-per-em="1100"
    panose-1="0 0 7 0 0 0 0 0 0 0"
    ascent="880"
    descent="-220"
    x-height="520"
    cap-height="662"
    bbox="-673 -245 1328 945"
    underline-thickness="50"
    underline-position="-200"
    slope="-7.5"
    unicode-range="U+0020-FB02"
  />
<missing-glyph horiz-adv-x="482" 
 />
    <glyph glyph-name="fi" unicode="fi" horiz-adv-x="613" 
d="M540 764q35 0 57 -22.5t22 -55.5q0 -40 -26.5 -65.5t-62.5 -25.5q-35 0 -57.5 22t-22.5 57q0 40 26.5 65t63.5 25zM370 520l-16 -110h-93l-82 -575h-142l82 575h-68l16 110h68q18 96 79 149t145 53q36 0 66 -9l-18 -123l-2 -1q-15 7 -40 7q-71 0 -88 -76h93zM367 0
l74 520h141l-75 -520h-140z" />
    <glyph glyph-name="fl" unicode="fl" horiz-adv-x="566" 
d="M370 520l-16 -111h-93l-82 -574h-141l81 574h-68l16 111h68q18 96 79 149t145 53q39 0 66 -8l-18 -124l-2 -1q-21 7 -40 7q-71 0 -88 -76h93zM469 715h140l-101 -715h-142z" />
    <glyph glyph-name=".notdef" horiz-adv-x="482" 
 />
    <glyph glyph-name=".null" 
 />
    <glyph glyph-name="nonmarkingreturn" horiz-adv-x="366" 
 />
    <glyph glyph-name="space" unicode=" " horiz-adv-x="230" 
 />
    <glyph glyph-name="exclam" unicode="!" horiz-adv-x="280" 
d="M76 222l57 475h140l-78 -475h-119zM107 -13q-34 0 -52.5 18t-18.5 47q0 33 22 56t58 23q35 0 53 -18.5t18 -47.5q0 -32 -22 -55t-58 -23z" />
    <glyph glyph-name="quotedbl" unicode="&#x22;" horiz-adv-x="372" 
d="M88 415l29 251h104l11 -12l-67 -239h-77zM242 415l29 251h105l9 -12l-66 -239h-77z" />
    <glyph glyph-name="numbersign" unicode="#" horiz-adv-x="589" 
d="M553 355h-80l-34 -114h93l-13 -93h-108l-32 -107h-93l32 107h-120l-32 -107h-93l32 107h-72l14 93h86l35 114h-101l14 93h115l32 107h93l-32 -107h119l32 107h93l-32 -107h65zM346 241l34 114h-119l-35 -114h120z" />
    <glyph glyph-name="dollar" unicode="$" horiz-adv-x="486" 
d="M372 618q63 -6 102 -24l-15 -117l-1 -1q-57 31 -143 31q-93 0 -93 -55q0 -20 19.5 -31t75.5 -30q125 -42 125 -140q0 -73 -42.5 -120.5t-118.5 -63.5l-14 -100h-125l13 95q-67 7 -131 36l17 116l2 1q72 -52 165 -52q105 0 105 63q0 22 -22.5 35.5t-85.5 32.5
q-130 40 -130 138q0 70 46 117.5t124 63.5l14 102h127z" />
    <glyph glyph-name="percent" unicode="%" horiz-adv-x="787" 
d="M215 323q-67 0 -109.5 37.5t-42.5 110.5q0 90 54 144.5t136 54.5q67 0 110 -39.5t43 -110.5q0 -92 -54 -144.5t-137 -52.5zM87 12l530 643h107l-529 -643h-108zM225 410q36 0 56.5 27.5t20.5 74.5q0 33 -15.5 52t-41.5 19q-36 0 -57 -28.5t-21 -76.5q0 -68 58 -68z
M551 -6q-66 0 -108 37.5t-42 110.5q0 91 53.5 145t135.5 54q68 0 110.5 -39t42.5 -110q0 -93 -54 -145.5t-138 -52.5zM562 82q36 0 56.5 27t20.5 74q0 34 -15 52.5t-42 18.5q-36 0 -57 -28.5t-21 -76.5q0 -67 58 -67z" />
    <glyph glyph-name="ampersand" unicode="&#x26;" horiz-adv-x="663" 
d="M623 0h-154l-40 53q-89 -70 -206 -70q-87 0 -143 44.5t-56 129.5q0 148 162 227q-38 65 -38 124q0 82 60 132.5t156 50.5q74 0 131 -29l-15 -114h-3q-53 27 -115 27q-34 0 -56.5 -16t-22.5 -48q0 -20 16 -49t60 -92l86 -121q32 68 46 167h121q-25 -161 -96 -266zM255 101
q61 0 110 38l-115 155l-7 9q-82 -49 -82 -119q0 -39 24.5 -61t69.5 -22z" />
    <glyph glyph-name="quotesingle" unicode="'" horiz-adv-x="219" 
d="M88 415l29 251h104l11 -12l-67 -239h-77z" />
    <glyph glyph-name="parenleft" unicode="(" horiz-adv-x="329" 
d="M189 -181q-62 39 -108 137t-46 244q0 118 27 220.5t71.5 172t93 115.5t98.5 70l38 -101q-73 -49 -132.5 -171t-59.5 -303q0 -107 24.5 -181t59.5 -103z" />
    <glyph glyph-name="parenright" unicode=")" horiz-adv-x="330" 
d="M153 786q60 -31 106.5 -131.5t46.5 -249.5q0 -95 -19.5 -182.5t-50.5 -151t-70.5 -115.5t-76.5 -83.5t-72 -46.5l-38 101q72 49 132 171.5t60 302.5q0 107 -25 182t-60 102z" />
    <glyph glyph-name="asterisk" unicode="*" horiz-adv-x="485" 
d="M272 571l-9 5l-51 139l5 11l87 23l13 -9l-17 -155l-8 -9zM330 557l-11 1l-11 14v12l100 134l11 1l52 -63l-3 -16zM236 534l-151 6v9l34 85l20 7l121 -71l-2 -10l-9 -20zM437 441l-121 71l-3 10l7 19l10 7l151 -7l6 -9l-35 -85zM154 364l-53 63l3 16l137 82l11 -1l13 -13
l-1 -12l-99 -134zM266 333l-12 9l18 155l8 8l19 6l10 -5l52 -140l-6 -11z" />
    <glyph glyph-name="plus" unicode="+" horiz-adv-x="515" 
d="M492 342l-14 -96h-173l-27 -187h-98l27 187h-174l14 96h174l27 188h97l-27 -188h174z" />
    <glyph glyph-name="comma" unicode="," horiz-adv-x="235" 
d="M-18 -148q36 101 45 180q4 37 7 77l115 11l14 -19q-19 -140 -100 -249h-81z" />
    <glyph glyph-name="hyphen" unicode="-" horiz-adv-x="409" 
d="M57 234l17 115h286l-16 -115h-287z" />
    <glyph glyph-name="period" unicode="." horiz-adv-x="247" 
d="M90 -11q-35 0 -54 19.5t-19 49.5q0 34 23 58.5t61 24.5q35 0 53.5 -19.5t18.5 -50.5q0 -34 -22.5 -58t-60.5 -24z" />
    <glyph glyph-name="slash" unicode="/" horiz-adv-x="482" 
d="M-26 -121l424 876h126l-424 -876h-126z" />
    <glyph glyph-name="zero" unicode="0" horiz-adv-x="634" 
d="M291 -15q-114 0 -177.5 68t-63.5 203q0 197 91 311.5t220 114.5q117 0 180.5 -70.5t63.5 -207.5q0 -199 -90 -309t-224 -110zM302 103q69 0 112.5 82t43.5 221q0 74 -26.5 115t-74.5 41q-71 0 -115.5 -85t-44.5 -223q0 -73 27 -112t78 -39z" />
    <glyph glyph-name="one" unicode="1" horiz-adv-x="394" 
d="M135 0l69 483l-151 -59l-3 2l20 138l274 115h23l-96 -679h-136z" />
    <glyph glyph-name="two" unicode="2" horiz-adv-x="552" 
d="M0 0q12 89 71 164t170 160q87 66 114 97t27 70q0 68 -98 68q-59 0 -111.5 -21t-81.5 -44l-3 1l16 125q89 62 212 62q89 0 148.5 -41.5t59.5 -123.5q0 -28 -2.5 -48.5t-13.5 -42t-19 -34.5t-35 -38t-44 -39.5t-63 -51.5q-3 -3 -5 -4.5t-5 -4t-6 -4.5q-118 -94 -128 -132
h286l-17 -118h-472z" />
    <glyph glyph-name="three" unicode="3" horiz-adv-x="528" 
d="M397 358q79 -43 79 -137q0 -111 -71 -174t-209 -63q-107 0 -183 44l18 122l4 2q55 -50 162 -50q66 0 106.5 27t40.5 81q0 41 -26 60.5t-82 21.5l-72 1l14 109h54q59 0 90.5 23t31.5 67q0 71 -95 71q-92 0 -158 -37l-4 1l16 117q75 39 183 39q88 0 142.5 -39.5
t54.5 -117.5q0 -113 -96 -168z" />
    <glyph glyph-name="four" unicode="4" horiz-adv-x="592" 
d="M554 233l-15 -111h-92l-18 -122h-127l17 122h-312l-1 63l410 488h110l-63 -440h91zM185 233h150l32 225z" />
    <glyph glyph-name="five" unicode="5" horiz-adv-x="540" 
d="M215 -16q-108 0 -196 35l18 127l4 1q83 -42 176 -42q65 0 100.5 30t35.5 86q0 92 -108 92q-94 0 -177 -24l-3 3l75 378h384l-16 -117h-271l-26 -130q35 8 82 8q96 0 149 -45.5t53 -135.5q0 -73 -26.5 -127t-70 -83t-89.5 -42.5t-94 -13.5z" />
    <glyph glyph-name="six" unicode="6" horiz-adv-x="584" 
d="M353 437q86 0 136.5 -49.5t50.5 -147.5q0 -106 -72 -181.5t-194 -75.5q-109 0 -169.5 67.5t-60.5 188.5q0 208 106 325.5t274 117.5q82 0 126 -18l-16 -115l-4 -2q-47 17 -118 17q-90 0 -144 -53t-76 -141q64 67 161 67zM283 102q58 0 88.5 34t30.5 90q0 43 -21.5 68
t-66.5 25q-47 0 -83.5 -29t-50.5 -81q6 -50 33 -78.5t70 -28.5z" />
    <glyph glyph-name="seven" unicode="7" horiz-adv-x="499" 
d="M57 0l297 539h-289l17 128h431l14 -71l-324 -596h-146z" />
    <glyph glyph-name="eight" unicode="8" horiz-adv-x="583" 
d="M436 352q48 -29 70 -64t22 -83q0 -96 -73 -158.5t-197 -62.5q-108 0 -166.5 44.5t-58.5 123.5q0 121 129 200q-64 53 -64 132q0 90 71 144t175 54q92 0 152.5 -40.5t60.5 -119.5q0 -101 -121 -170zM337 565q-47 0 -72.5 -20.5t-25.5 -53.5q0 -26 22.5 -47t77.5 -44
q83 42 83 99q0 30 -22 48t-63 18zM277 97q54 0 84.5 23.5t30.5 61.5q0 33 -24 54.5t-84 47.5q-4 2 -15 6.5t-17 7.5q-81 -45 -81 -121q0 -40 28 -60t78 -20z" />
    <glyph glyph-name="nine" unicode="9" horiz-adv-x="585" 
d="M337 683q103 0 162 -68t59 -197q0 -205 -93 -318.5t-254 -113.5q-103 0 -163 26l18 123l4 3q62 -33 142 -33q163 0 199 182q-67 -59 -158 -59q-86 0 -138.5 50.5t-52.5 138.5q0 120 75.5 193t199.5 73zM292 345q76 0 130 59v6q0 74 -26.5 113.5t-75.5 39.5
q-51 0 -84.5 -33.5t-33.5 -91.5q0 -44 23.5 -68.5t66.5 -24.5z" />
    <glyph glyph-name="colon" unicode=":" horiz-adv-x="273" 
d="M153 370q-34 0 -52 18.5t-18 46.5q0 34 22 57t63 23q33 0 51.5 -18.5t18.5 -46.5q0 -34 -22 -57t-63 -23zM100 -11q-33 0 -51.5 18t-18.5 46q0 34 22 57.5t63 23.5q34 0 52 -18.5t18 -46.5q0 -34 -22 -57t-63 -23z" />
    <glyph glyph-name="semicolon" unicode=";" horiz-adv-x="274" 
d="M161 370q-35 0 -54 19.5t-19 49.5q0 34 23 58.5t61 24.5q35 0 53.5 -19.5t18.5 -50.5q0 -34 -22.5 -58t-60.5 -24zM2 -148q34 94 45 180q2 19 6 77l116 11l14 -19q-19 -138 -101 -249h-80z" />
    <glyph glyph-name="less" unicode="&#x3c;" horiz-adv-x="471" 
d="M156 300l20 -9l232 -155l-61 -89l-315 207l13 90l373 208l37 -88l-277 -155z" />
    <glyph glyph-name="equal" unicode="=" horiz-adv-x="578" 
d="M76 354l14 97h453l-14 -97h-453zM44 130l13 98h454l-14 -98h-453z" />
    <glyph glyph-name="greater" unicode="&#x3e;" horiz-adv-x="471" 
d="M135 552l317 -208l-14 -90l-374 -208l-37 89l278 155l20 8l-19 9l-231 155z" />
    <glyph glyph-name="question" unicode="?" horiz-adv-x="431" 
d="M101 210q7 65 33 107t82 82q41 30 58 52.5t17 58.5q0 70 -79 70q-70 0 -126 -38l-2 1l17 122q66 36 147 36q80 0 133 -41t53 -118q0 -73 -31 -117t-99 -94q-44 -33 -60.5 -60.5t-20.5 -59.5zM140 -11q-35 0 -53.5 18.5t-18.5 46.5q0 33 22.5 56.5t58.5 23.5
q35 0 53.5 -18.5t18.5 -47.5q0 -32 -22.5 -55.5t-58.5 -23.5z" />
    <glyph glyph-name="at" unicode="@" horiz-adv-x="802" 
d="M521 437h84l-23 -165l-10 -77q-4 -29 18 -29q28 0 49 42t21 128q0 92 -54.5 145t-152.5 53q-135 0 -218.5 -91t-83.5 -230q0 -109 61.5 -172t164.5 -63q108 0 181 58h4l42 -78q-96 -80 -241 -80q-151 0 -239.5 88t-88.5 235q0 186 120.5 309t310.5 123q142 0 226.5 -79.5
t84.5 -209.5q0 -50 -12 -96.5t-36 -87t-66.5 -65t-98.5 -24.5q-40 0 -64 17t-29 44q-41 -66 -117 -66q-61 0 -97.5 43t-36.5 113q0 102 58.5 163.5t143.5 61.5q55 0 92 -32zM392 161q51 0 78 54l13 90l4 27q-23 26 -62 26q-41 0 -69 -33.5t-28 -86.5q0 -37 17.5 -57
t46.5 -20z" />
    <glyph glyph-name="A" unicode="A" horiz-adv-x="622" 
d="M444 0l-29 114h-252l-60 -114h-140l372 671h63l192 -671h-146zM215 214h174l-48 188l-8 42l-19 -42z" />
    <glyph glyph-name="B" unicode="B" horiz-adv-x="583" 
d="M453 360q85 -39 85 -140t-73 -160.5t-203 -59.5h-220l94 662q70 8 181 8q119 0 171 -42.5t52 -111.5q0 -109 -87 -156zM318 559q-20 0 -60 -2l-24 -169h60q55 0 84 26.5t29 72.5q0 72 -89 72zM266 104q135 0 135 109q0 79 -91 79h-90l-27 -188h73z" />
    <glyph glyph-name="C" unicode="C" horiz-adv-x="591" 
d="M360 -12q-144 0 -228.5 78t-84.5 221q0 177 107.5 284t275.5 107q93 0 165 -28l-17 -132l-4 -1q-65 35 -147 35q-107 0 -170 -70t-63 -177q0 -93 52.5 -142.5t145.5 -49.5q73 0 135 33l3 -2l-17 -128q-66 -28 -153 -28z" />
    <glyph glyph-name="D" unicode="D" horiz-adv-x="704" 
d="M356 672q159 0 240.5 -74t81.5 -206q0 -184 -112.5 -289t-303.5 -105q-174 0 -220 3l93 661q102 10 221 10zM295 122q113 0 174.5 67t61.5 184q0 84 -48 128t-133 44q-60 0 -92 -4l-59 -416q42 -3 96 -3z" />
    <glyph glyph-name="E" unicode="E" horiz-adv-x="543" 
d="M527 545h-267l-21 -148h248l-16 -116h-249l-23 -163h276l-16 -118h-417l94 662h408z" />
    <glyph glyph-name="F" unicode="F" horiz-adv-x="510" 
d="M519 536h-261l-23 -166h222l-17 -124h-222l-35 -246h-141l94 662h401z" />
    <glyph glyph-name="G" unicode="G" horiz-adv-x="658" 
d="M350 -11q-139 0 -221 75.5t-82 211.5q0 183 113 294t296 111q112 0 181 -33l-20 -131l-3 -1q-65 38 -169 38q-115 0 -183 -70.5t-68 -188.5q0 -84 46.5 -131.5t132.5 -47.5q51 0 92 16l23 165h125l-38 -264q-105 -44 -225 -44z" />
    <glyph glyph-name="H" unicode="H" horiz-adv-x="721" 
d="M557 662h141l-94 -662h-140l38 274h-281l-38 -274h-141l94 662h140l-37 -261h281z" />
    <glyph glyph-name="I" unicode="I" horiz-adv-x="300" 
d="M42 0l91 662h142l-92 -662h-141z" />
    <glyph glyph-name="J" unicode="J" horiz-adv-x="371" 
d="M34 -3q-29 0 -57 4l18 118l4 1q13 -3 32 -3q105 0 126 141l58 404h142l-56 -390q-39 -275 -267 -275z" />
    <glyph glyph-name="K" unicode="K" horiz-adv-x="641" 
d="M685 659l-332 -325l258 -330l-1 -4h-169l-218 283l-40 -283h-141l94 662h140l-39 -277l285 277h162z" />
    <glyph glyph-name="L" unicode="L" horiz-adv-x="489" 
d="M199 117h257l-16 -117h-398l94 662h141z" />
    <glyph glyph-name="M" unicode="M" horiz-adv-x="815" 
d="M682 667h78l-36 -667h-133l26 364h-3l-218 -360h-47l-116 361h-3l-82 -365h-132l155 667h82l154 -444z" />
    <glyph glyph-name="N" unicode="N" horiz-adv-x="712" 
d="M42 0l95 667h62l297 -399h3l56 397h134l-95 -666h-60l-296 404h-3l-58 -403h-135z" />
    <glyph glyph-name="O" unicode="O" horiz-adv-x="751" 
d="M365 -13q-137 0 -227 84t-90 227q0 167 100 274t259 107q137 0 227 -85t90 -228q0 -166 -100 -272.5t-259 -106.5zM375 113q93 0 147.5 69t54.5 175q0 91 -48 143.5t-132 52.5q-93 0 -147.5 -69.5t-54.5 -176.5q0 -91 47.5 -142.5t132.5 -51.5z" />
    <glyph glyph-name="P" unicode="P" horiz-adv-x="571" 
d="M335 672q114 0 176.5 -46.5t62.5 -142.5q0 -131 -80.5 -200.5t-208.5 -69.5q-40 0 -72 4l-31 -217h-140l94 662q109 11 199 10zM285 330q146 0 146 130q0 43 -27 67.5t-77 24.5q-45 0 -67 -3l-31 -216q33 -3 56 -3z" />
    <glyph glyph-name="Q" unicode="Q" horiz-adv-x="731" 
d="M795 -108l1 -4l-23 -114q-83 2 -160 24t-127.5 48t-124 52t-146.5 34l6 127q165 12 250.5 89t85.5 207q0 96 -47.5 146.5t-132.5 50.5q-77 0 -125 -51t-48 -128q0 -64 35.5 -98.5t105.5 -34.5q23 0 54 9l4 -1l-3 -117q-40 -12 -85 -12q-117 0 -186.5 63t-69.5 177
q0 138 91 229t238 91q137 0 226.5 -81t89.5 -231q0 -131 -74 -232.5t-205 -139.5q54 -15 115 -40t117 -40.5t138 -22.5z" />
    <glyph glyph-name="R" unicode="R" horiz-adv-x="601" 
d="M572 487q0 -94 -42.5 -154t-112.5 -86l114 -243l-1 -4h-148l-101 228h-67l-32 -228h-140l94 662q83 11 198 11q107 0 172.5 -44t65.5 -142zM260 549l-30 -214h61q60 0 98.5 33.5t38.5 93.5q0 44 -26 67t-73 23q-43 0 -69 -3z" />
    <glyph glyph-name="S" unicode="S" horiz-adv-x="526" 
d="M208 -12q-113 0 -189 44l19 132l4 1q71 -57 165 -57q56 0 87.5 21.5t31.5 59.5q0 31 -20.5 52.5t-80.5 51.5q-64 32 -101 72.5t-37 102.5q0 103 73.5 157t182.5 54q101 0 165 -30l-17 -124l-3 -1q-59 34 -142 34q-54 1 -85 -16.5t-31 -50.5q0 -25 19 -40.5t75 -45.5
q7 -4 11 -6q63 -32 98 -74.5t35 -108.5q0 -104 -71.5 -166t-188.5 -62z" />
    <glyph glyph-name="T" unicode="T" horiz-adv-x="567" 
d="M611 662l-18 -126h-196l-76 -536h-142l77 536h-202l18 126h539z" />
    <glyph glyph-name="U" unicode="U" horiz-adv-x="693" 
d="M310 -13q-116 0 -178.5 56t-62.5 156q0 45 3 66l56 397h140l-54 -380q-4 -24 -4 -58q0 -56 31 -86.5t86 -30.5q74 0 111.5 42t49.5 133l54 380h136l-56 -397q-19 -136 -99.5 -207t-212.5 -71z" />
    <glyph glyph-name="V" unicode="V" horiz-adv-x="615" 
d="M670 662l2 -3l-361 -665h-89l-160 665l1 3h148l83 -417l6 -52l20 52l212 417h138z" />
    <glyph glyph-name="W" unicode="W" horiz-adv-x="928" 
d="M977 662l1 -3l-299 -664h-106l-74 409l-4 35l-14 -35l-192 -409h-110l-118 664l1 3h149l53 -422l3 -51l19 51l189 417h101l72 -404l5 -55l19 55l170 409h135z" />
    <glyph glyph-name="X" unicode="X" horiz-adv-x="634" 
d="M663 659l-251 -319l174 -336l-1 -4h-160l-116 236l-177 -236h-157l-2 4l264 340l-163 315l1 3h162l103 -217l163 217h158z" />
    <glyph glyph-name="Y" unicode="Y" horiz-adv-x="593" 
d="M191 0l38 267l-168 392l2 3h151l104 -265l182 265h142l2 -3l-277 -399l-37 -260h-139z" />
    <glyph glyph-name="Z" unicode="Z" horiz-adv-x="581" 
d="M14 0l-6 48l381 499h-311l15 115h491l5 -48l-387 -498h325l-16 -116h-497z" />
    <glyph glyph-name="bracketleft" unicode="[" horiz-adv-x="334" 
d="M357 661h-104l-102 -716h104l-15 -103h-223l131 921h223z" />
    <glyph glyph-name="backslash" unicode="\" horiz-adv-x="481" 
d="M400 -121h-126l-176 876h126z" />
    <glyph glyph-name="bracketright" unicode="]" horiz-adv-x="334" 
d="M106 764h223l-131 -921h-223l15 102h102l102 716h-103z" />
    <glyph glyph-name="asciicircum" unicode="^" horiz-adv-x="516" 
d="M361 691l131 -356l-97 -41l-86 261l-6 20l-11 -20l-160 -261l-86 41l230 356h85z" />
    <glyph glyph-name="underscore" unicode="_" horiz-adv-x="507" 
d="M-8 -111l17 111h416l-15 -111h-418z" />
    <glyph glyph-name="grave" unicode="`" horiz-adv-x="258" 
d="M270 567l-216 101l-5 16l80 104l183 -143z" />
    <glyph glyph-name="a" unicode="a" horiz-adv-x="561" 
d="M518 132l4 -2l-18 -119q-38 -18 -83 -18q-89 0 -96 72q-68 -78 -163 -78q-70 0 -110 39t-40 101t33.5 103t82.5 57.5t109 16.5t105 -15l1 6q3 16 3 31q0 46 -27 68t-84 22q-77 0 -139 -41l-4 2l15 114q23 17 71 29.5t102 12.5q209 0 209 -180q0 -28 -4 -52l-19 -135
q-1 -6 -1 -17q0 -27 24 -27q17 0 29 10zM215 93q33 0 62.5 17.5t46.5 46.5l7 49q-29 11 -76 11q-102 0 -102 -69q0 -26 17 -40.5t45 -14.5z" />
    <glyph glyph-name="b" unicode="b" horiz-adv-x="606" 
d="M377 533q89 0 142 -58t53 -158q0 -150 -81 -240t-224 -90q-141 0 -234 48l95 680h143l-33 -233q54 51 139 51zM279 108q64 0 104.5 50t40.5 135q0 57 -26.5 84.5t-71.5 27.5q-40 0 -72 -24.5t-40 -68.5l-26 -185q38 -19 91 -19z" />
    <glyph glyph-name="c" unicode="c" horiz-adv-x="476" 
d="M274 -13q-106 0 -173 61.5t-67 170.5q0 143 85 228.5t219 85.5q78 0 131 -22l-17 -122l-4 -1q-54 24 -115 24q-72 0 -112.5 -50t-40.5 -124q0 -60 31.5 -95t92.5 -35q51 0 111 31l3 -1l-17 -126q-55 -25 -127 -25z" />
    <glyph glyph-name="d" unicode="d" horiz-adv-x="607" 
d="M464 715h141l-101 -715h-115l-4 58q-55 -71 -158 -71q-82 0 -138.5 58t-56.5 161q0 149 84 238t208 89q64 0 110 -24zM281 113q35 0 66.5 23t41.5 61l27 187q-38 28 -88 28q-63 0 -105.5 -50.5t-42.5 -134.5q0 -56 27 -85t74 -29z" />
    <glyph glyph-name="e" unicode="e" horiz-adv-x="561" 
d="M319 533q97 0 154.5 -54t57.5 -146q0 -48 -14 -108h-339q3 -60 37 -91.5t93 -31.5q85 0 164 43l3 -2l-16 -115q-70 -41 -179 -41q-106 0 -176 59t-70 180q0 137 81.5 222t203.5 85zM188 311l207 -1v13q0 93 -90 93q-42 0 -72.5 -28t-44.5 -77z" />
    <glyph glyph-name="f" unicode="f" horiz-adv-x="361" 
d="M357 722q46 0 77 -10l-17 -122l-4 -2q-17 8 -48 8q-71 0 -88 -76h100l-15 -111h-101l-82 -574h-142l83 574h-69l16 111h69q19 98 79 150t142 52z" />
    <glyph glyph-name="g" unicode="g" horiz-adv-x="572" 
d="M581 520l-13 -98h-87q25 -27 25 -67q0 -76 -63 -123.5t-175 -47.5q-39 0 -76 8q-11 -9 -11 -23q0 -16 26.5 -24.5t107.5 -15.5q98 -8 143.5 -38t45.5 -91q0 -85 -75 -129.5t-214 -44.5q-224 0 -224 112q0 68 88 123q-35 23 -35 61q0 61 74 102q-54 40 -54 109
q0 86 68.5 136.5t181.5 50.5h267zM281 283q45 0 68.5 19.5t23.5 55.5q0 28 -19.5 45t-56.5 17q-43 0 -68.5 -19.5t-25.5 -54.5q0 -30 20.5 -46.5t57.5 -16.5zM369 -28q0 23 -23.5 32.5t-90.5 14.5q-37 2 -85 10q-47 -27 -47 -62q0 -48 116 -48q130 0 130 53z" />
    <glyph glyph-name="h" unicode="h" horiz-adv-x="606" 
d="M388 533q77 0 123 -46t46 -124q0 -24 -4 -49l-44 -314h-142l39 278q3 18 3 32q0 45 -23 67.5t-62 22.5q-37 0 -66 -21t-42 -66l-45 -313h-141l101 715h142l-35 -242q55 60 150 60z" />
    <glyph glyph-name="i" unicode="i" horiz-adv-x="275" 
d="M192 595q-35 0 -57.5 22t-22.5 57q0 40 26.5 65t63.5 25q35 0 57 -22.5t22 -55.5q0 -40 -26.5 -65.5t-62.5 -25.5zM30 0l74 520h141l-74 -520h-141z" />
    <glyph glyph-name="j" unicode="j" horiz-adv-x="292" 
d="M210 595q-35 0 -57.5 22t-22.5 57q0 40 26.5 65t63.5 25q35 0 57 -22.5t22 -55.5q0 -40 -26.5 -65.5t-62.5 -25.5zM-31 -171q-33 0 -67 6l18 122l3 1q17 -3 34 -3q45 0 68 27t31 79l66 459h140l-70 -492q-14 -100 -72 -149.5t-151 -49.5z" />
    <glyph glyph-name="k" unicode="k" horiz-adv-x="561" 
d="M574 516l-245 -247l192 -265l-1 -4h-163l-155 217l-31 -217h-141l101 715h142l-56 -394l191 199h164z" />
    <glyph glyph-name="l" unicode="l" horiz-adv-x="307" 
d="M184 -10q-72 0 -110 39t-27 122l81 564h140l-75 -529q-11 -70 42 -70q19 0 34 7l3 -2l-17 -120q-34 -11 -71 -11z" />
    <glyph glyph-name="m" unicode="m" horiz-adv-x="915" 
d="M708 533q71 0 115 -44.5t44 -127.5q0 -23 -3 -47l-45 -314h-142l38 275q3 22 3 50q0 37 -21 55.5t-53 18.5q-40 0 -68 -24t-37 -68l-44 -307h-141l38 275q3 23 3 50q0 37 -21.5 55.5t-52.5 18.5q-40 0 -68.5 -24t-38.5 -68l-43 -307h-141l74 520h115l3 -66q56 79 162 79
q53 0 92 -25.5t56 -74.5q58 100 176 100z" />
    <glyph glyph-name="n" unicode="n" horiz-adv-x="607" 
d="M389 533q75 0 121.5 -45.5t46.5 -128.5q0 -26 -3 -53l-44 -306h-142l38 275q3 23 3 35q1 47 -23 68.5t-61 21.5q-39 0 -69.5 -24.5t-40.5 -69.5l-43 -306h-142l74 520h115l4 -69q57 82 166 82z" />
    <glyph glyph-name="o" unicode="o" horiz-adv-x="611" 
d="M282 -13q-107 0 -176.5 62t-69.5 179q0 133 81.5 219t210.5 86q108 0 177.5 -62t69.5 -181q0 -132 -82 -217.5t-211 -85.5zM294 108q63 0 99.5 52t36.5 124q0 59 -29.5 93t-82.5 34q-65 0 -101 -51.5t-36 -123.5q0 -59 29.5 -93.5t83.5 -34.5z" />
    <glyph glyph-name="p" unicode="p" horiz-adv-x="607" 
d="M378 533q89 0 141.5 -57.5t52.5 -159.5q0 -149 -82.5 -239t-213.5 -90q-63 0 -105 18l-24 -170h-141l97 685h116l2 -53q56 66 157 66zM278 108q65 0 106 49.5t41 135.5q0 58 -27 86t-72 28q-35 0 -67.5 -22.5t-42.5 -62.5l-27 -192q35 -22 89 -22z" />
    <glyph glyph-name="q" unicode="q" horiz-adv-x="606" 
d="M462 520h115l-97 -685h-142l29 204q-55 -52 -144 -52q-87 0 -138.5 59t-51.5 164q0 144 83.5 233.5t200.5 89.5q89 0 136 -37zM280 113q32 0 61 17.5t46 47.5l29 205q-36 29 -89 29q-63 0 -104.5 -51t-41.5 -133q0 -56 26.5 -85.5t72.5 -29.5z" />
    <glyph glyph-name="r" unicode="r" horiz-adv-x="400" 
d="M365 532q27 0 53 -9l-20 -129l-3 -2q-23 9 -50 9q-47 0 -82 -26t-53 -103l-39 -272h-141l74 520h115l3 -66q51 78 143 78z" />
    <glyph glyph-name="s" unicode="s" horiz-adv-x="475" 
d="M186 -14q-103 0 -177 38l17 118l4 2q67 -52 171 -52q87 0 87 53q0 22 -20 35t-79 34q-68 23 -99 56.5t-31 85.5q0 82 64.5 129.5t178.5 47.5q93 0 148 -26l-15 -115l-3 -1q-56 29 -141 29q-93 0 -93 -48q0 -19 18.5 -30.5t76.5 -30.5q68 -22 100 -54t32 -84
q0 -88 -64 -137.5t-175 -49.5z" />
    <glyph glyph-name="t" unicode="t" horiz-adv-x="405" 
d="M260 409l-26 -188q-5 -33 -5 -48q0 -54 71 -54q24 0 63 13l2 -1l-17 -118q-37 -19 -94 -19q-80 0 -125 38t-45 106q0 16 2 42l33 229h-87l16 111h87l17 121l143 27l1 -3l-20 -145h140l-15 -111h-141z" />
    <glyph glyph-name="u" unicode="u" horiz-adv-x="596" 
d="M425 520h142l-75 -520h-115l-3 66q-62 -79 -171 -79q-73 0 -114 40t-41 107q0 25 3 52l48 334h141l-43 -300q-3 -33 -3 -40q0 -72 74 -72q35 0 64 19t45 55z" />
    <glyph glyph-name="v" unicode="v" horiz-adv-x="543" 
d="M573 520l1 -4l-288 -518h-107l-135 518l1 4h153l65 -335l165 335h145z" />
    <glyph glyph-name="w" unicode="w" horiz-adv-x="779" 
d="M805 520l2 -4l-237 -516h-110l-48 340l-2 26l-9 -26l-150 -340h-111l-95 516l1 4h142l38 -315v-29l9 28l134 316h126l42 -314l2 -27l8 27l127 314h131z" />
    <glyph glyph-name="x" unicode="x" horiz-adv-x="537" 
d="M552 516l-203 -250l139 -262l-2 -4h-154l-81 168l-129 -168h-149l-1 4l212 257l-134 255l1 4h156l75 -160l120 160h148z" />
    <glyph glyph-name="y" unicode="y" horiz-adv-x="525" 
d="M555 516l-249 -477l-7 -14q-56 -109 -108.5 -152.5t-135.5 -43.5q-39 0 -66 10l18 114l3 1q23 -7 47 -7q75 0 120 93l1 3l-134 473l2 4h150l69 -318l146 318h143z" />
    <glyph glyph-name="z" unicode="z" horiz-adv-x="508" 
d="M486 447l-291 -334h263l-16 -113h-425l-6 69l285 335h-235l14 116h406z" />
    <glyph glyph-name="braceleft" unicode="{" horiz-adv-x="358" 
d="M347 779h49l-15 -105h-30q-28 0 -44.5 -12t-21.5 -42l-28 -194q-8 -53 -45 -86t-70 -33l-2 -7q33 0 61.5 -33.5t20.5 -87.5l-28 -194q-4 -31 9 -42.5t42 -11.5h30l-14 -105h-49q-77 0 -113.5 39.5t-26.5 113.5l25 170q7 47 -17 72.5t-49 25.5l17 118q25 0 56 23.5
t37 67.5l24 171q10 74 57.5 113t124.5 39z" />
    <glyph glyph-name="bar" unicode="|" horiz-adv-x="280" 
d="M24 -109l118 840h128l-118 -840h-128z" />
    <glyph glyph-name="braceright" unicode="}" horiz-adv-x="359" 
d="M338 358l-16 -117q-25 0 -55.5 -24t-37.5 -68l-25 -171q-11 -75 -57.5 -113.5t-123.5 -38.5h-49l15 105h30q58 0 66 53l27 196q8 53 45.5 86.5t71.5 33.5l1 7q-34 0 -62 33t-20 87l28 194q4 30 -9.5 41.5t-41.5 11.5h-31l16 105h47q78 0 113.5 -39t25.5 -113l-23 -171
q-7 -47 16.5 -72.5t48.5 -25.5z" />
    <glyph glyph-name="asciitilde" unicode="~" horiz-adv-x="530" 
d="M137 224l-81 11q8 58 46 94t91 36q40 0 89.5 -18t77.5 -18q40 0 47 39l5 2l74 -15q-8 -55 -45.5 -90t-89.5 -35q-32 0 -84 18t-77 18q-44 0 -51 -39z" />
    <glyph glyph-name="exclamdown" unicode="&#xa1;" horiz-adv-x="269" 
d="M160 391q-34 0 -52 18t-18 47q0 33 22 56.5t58 23.5q34 0 52 -18.5t18 -47.5q0 -33 -22 -56t-58 -23zM3 -173l76 474h121l-59 -474h-138z" />
    <glyph glyph-name="cent" unicode="&#xa2;" horiz-adv-x="525" 
d="M418 610q53 -4 99 -23l-17 -118l-5 -4q-57 26 -116 26q-85 0 -134 -50t-49 -132q0 -62 35.5 -99t100.5 -37q62 0 128 30l4 -4l-16 -120q-51 -21 -110 -25l-13 -95h-133l15 105q-77 21 -119.5 78t-42.5 143q0 124 64.5 208t175.5 109l14 104h133z" />
    <glyph glyph-name="sterling" unicode="&#xa3;" horiz-adv-x="564" 
d="M406 680q92 0 153 -29l-18 -121l-5 -2q-56 33 -129 33q-117 0 -133 -117q-3 -18 -5 -55h171l-15 -114h-162q-14 -90 -49 -158h284l-16 -117h-456l-3 7q84 119 98 268h-79l16 114h72q0 4 0.5 10t0.5 9q4 72 28 125.5t63 85t85 46.5t99 15z" />
    <glyph glyph-name="currency" unicode="&#xa4;" horiz-adv-x="691" 
d="M609 370q0 -94 -52 -171l68 -81l-107 -92l-65 78q-57 -31 -121 -31q-76 0 -132 36l-92 -83l-80 92l93 83q-21 46 -21 104q0 93 53 172l-64 76l107 94l62 -75q58 30 122 30q75 0 134 -38l92 83l80 -94l-95 -86q18 -43 18 -97zM220 318q0 -58 32 -92.5t89 -34.5
q68 0 108 49t40 117q0 58 -31 92.5t-88 34.5q-69 0 -109.5 -49t-40.5 -117z" />
    <glyph glyph-name="yen" unicode="&#xa5;" horiz-adv-x="673" 
d="M645 669l-225 -384h136v-146h-149v-139h-139v139h-146v146h134l-229 384h156l158 -289l157 289h147z" />
    <glyph glyph-name="brokenbar" unicode="&#xa6;" horiz-adv-x="287" 
d="M102 414l44 317h128l-44 -317h-128zM28 -109l45 321h128l-45 -321h-128z" />
    <glyph glyph-name="section" unicode="&#xa7;" horiz-adv-x="529" 
d="M493 282q0 -85 -86 -153q29 -32 29 -78q0 -89 -73.5 -145t-178.5 -56t-165 35l18 119l4 2q23 -16 65 -29t87 -13q96 0 96 66q0 23 -21.5 37.5t-89.5 46.5q-70 32 -102.5 63.5t-32.5 86.5q0 90 91 151q-35 36 -35 88q0 90 72 143.5t178 53.5q96 0 150 -27l-16 -118l-3 -2
q-50 32 -133 32q-42 0 -73.5 -16.5t-31.5 -52.5q0 -23 22.5 -38t86.5 -41q70 -28 106 -64.5t36 -90.5zM271 210q46 -20 72 -34q25 31 25 67q0 25 -23.5 46t-87.5 50q-41 19 -63 31q-27 -33 -27 -69q0 -26 22 -45.5t82 -45.5z" />
    <glyph glyph-name="dieresis" unicode="&#xa8;" horiz-adv-x="391" 
d="M138 599q-34 0 -55.5 21t-21.5 54q0 38 25.5 62t60.5 24q34 0 55 -21t21 -54q0 -38 -25 -62t-60 -24zM354 599q-33 0 -54.5 21t-21.5 54q0 38 25.5 62t60.5 24q34 0 55 -21t21 -54q0 -38 -25.5 -62t-60.5 -24z" />
    <glyph glyph-name="copyright" unicode="&#xa9;" horiz-adv-x="666" 
d="M294 -17q-117 0 -185 72.5t-68 187.5q0 144 96 244t244 100q117 0 184 -72.5t67 -186.5q0 -145 -96 -245t-242 -100zM304 59q113 0 177.5 75t64.5 187q0 86 -47 138.5t-130 52.5q-105 0 -173 -75t-68 -186q0 -86 47 -139t129 -53zM335 131q-63 0 -102.5 34t-39.5 95
q0 80 52.5 128.5t131.5 48.5q44 0 73 -13l-12 -80l-3 -1q-22 11 -56 11q-39 0 -61 -22t-22 -59q0 -28 17.5 -44.5t47.5 -16.5q35 0 59 13l2 -1l-12 -80q-26 -13 -75 -13z" />
    <glyph glyph-name="ordfeminine" unicode="&#xaa;" horiz-adv-x="459" 
d="M441 445l2 -1l-12 -88q-25 -12 -57 -12q-59 0 -69 53q-56 -58 -124 -58q-55 0 -85.5 29.5t-30.5 75.5q0 68 48 101t117 33q52 0 88 -13q13 84 -77 84q-64 0 -113 -21l-2 2l12 83q43 26 129 26q178 0 152 -170l-15 -99q-4 -30 16 -30q14 0 21 5zM217 420q49 0 86 41l5 35
q-31 9 -62 9q-71 0 -71 -47q0 -38 42 -38z" />
    <glyph glyph-name="guillemotleft" unicode="&#xab;" horiz-adv-x="560" 
d="M209 94l-100 198l153 185h134l-2 -12l-149 -180l94 -182l-2 -9h-128zM435 94l-100 198l153 185h134l-2 -12l-149 -180l94 -182l-2 -9h-128z" />
    <glyph glyph-name="registered" unicode="&#xae;" horiz-adv-x="627" 
d="M384 745q107 0 168.5 -66t61.5 -170q0 -133 -87 -224.5t-221 -91.5q-109 0 -171.5 67t-62.5 171q0 132 88 223t224 91zM313 266q102 0 160 67.5t58 168.5q0 77 -42 124t-117 47q-94 0 -155.5 -67.5t-61.5 -166.5q0 -77 42.5 -125t115.5 -48zM355 606q112 0 112 -85
q0 -70 -55 -98l40 -82h-90l-32 67h-31l-10 -67h-83l37 263q68 2 112 2zM317 538l-10 -70h28q45 0 45 41q0 30 -35 30q-21 0 -28 -1z" />
    <glyph glyph-name="macron" unicode="&#xaf;" horiz-adv-x="347" 
d="M74 616l13 89h295l-13 -89h-295z" />
    <glyph glyph-name="degree" unicode="&#xb0;" horiz-adv-x="362" 
d="M223 389q-62 0 -104 40.5t-42 101.5t42 101.5t104 40.5q61 0 102 -40.5t41 -101.5t-41 -101.5t-102 -40.5zM223 465q26 0 43 19t17 47t-17 47t-43 19q-28 0 -45 -19t-17 -47t17 -47t45 -19z" />
    <glyph glyph-name="plusminus" unicode="&#xb1;" horiz-adv-x="545" 
d="M496 262h-175l-20 -141h167l-15 -98h-429l14 98h167l20 141h-174l13 95h174l25 173h96l-24 -173h174z" />
    <glyph glyph-name="acute" unicode="&#xb4;" horiz-adv-x="257" 
d="M101 563l-45 77l176 150l85 -101l-4 -16z" />
    <glyph glyph-name="paragraph" unicode="&#xb6;" horiz-adv-x="596" 
d="M596 605l-18 -125h-59l-85 -592h-35l85 592h-59l-84 -592h-134l45 313q-217 0 -203 182q7 109 81.5 165.5t191.5 56.5h274z" />
    <glyph glyph-name="periodcentered" unicode="&#xb7;" horiz-adv-x="261" 
d="M120 171q-35 0 -52.5 17t-17.5 45q0 35 23 58.5t65 23.5q33 0 50 -18t17 -46q0 -35 -22 -57.5t-63 -22.5z" />
    <glyph glyph-name="cedilla" unicode="&#xb8;" horiz-adv-x="211" 
d="M5 -242q-36 0 -62 9l9 64l3 1q19 -8 40 -8q60 0 60 43q0 29 -36 29q-21 0 -38 -5l-2 1l8 56l41 53h78l-38 -46q4 1 19 1q75 -7 75 -78q0 -64 -44.5 -92t-112.5 -28z" />
    <glyph glyph-name="ordmasculine" unicode="&#xba;" horiz-adv-x="485" 
d="M262 330q-83 0 -135 46t-52 135q0 108 65 173.5t164 65.5q82 0 134.5 -46.5t52.5 -135.5q0 -107 -66.5 -172.5t-162.5 -65.5zM273 432q43 0 69.5 36.5t26.5 91.5q0 41 -19 64.5t-53 23.5q-46 0 -73 -37t-27 -96q0 -38 19.5 -60.5t56.5 -22.5z" />
    <glyph glyph-name="guillemotright" unicode="&#xbb;" horiz-adv-x="560" 
d="M206 477l100 -198l-153 -185h-134l2 12l149 180l-94 182l2 9h128zM435 477l100 -198l-153 -185h-134l2 12l149 180l-94 182l2 9h128z" />
    <glyph glyph-name="onequarter" unicode="&#xbc;" horiz-adv-x="722" 
d="M108 303l35 236l-79 -23l15 107l175 54h11l-53 -374h-104zM535 667h103l-490 -678h-101zM673 125l-10 -67h-44l-8 -58h-94l9 58h-182l6 46l228 270h87l-36 -249h44zM458 125h78l18 123z" />
    <glyph glyph-name="onehalf" unicode="&#xbd;" horiz-adv-x="740" 
d="M114 303l35 236l-79 -23l14 107l175 54h11l-53 -374h-103zM31 -11l488 678h102l-490 -678h-100zM386 0q8 100 117 176q55 37 70 52t15 33q0 28 -44 28q-64 0 -119 -37l-1 1l13 87q55 37 131 37q55 0 93 -24.5t38 -71.5q0 -46 -23.5 -77.5t-78.5 -65.5q-58 -37 -64 -56
h149l-12 -82h-284z" />
    <glyph glyph-name="threequarters" unicode="&#xbe;" horiz-adv-x="751" 
d="M334 431q0 -62 -47 -99.5t-127 -37.5q-70 0 -112 22l12 81l1 1q33 -23 100 -23q79 0 79 52q0 31 -43 31h-75l11 70h60q52 0 52 37q0 32 -58 32q-63 0 -94 -17l-1 1l11 81q45 17 106 17q135 0 135 -91q0 -55 -50 -87q40 -23 40 -70zM587 667h103l-490 -678h-101zM701 125
l-10 -67h-43l-8 -58h-94l9 58h-183l7 46l227 270h87l-35 -249h43zM487 125h78l18 124z" />
    <glyph glyph-name="questiondown" unicode="&#xbf;" horiz-adv-x="425" 
d="M361 536q35 0 53.5 -18.5t18.5 -46.5q0 -33 -22.5 -56.5t-58.5 -23.5q-35 0 -53.5 18.5t-18.5 47.5q0 32 22.5 55.5t58.5 23.5zM400 315q-7 -65 -33 -107t-82 -82q-41 -30 -58 -53t-17 -58q0 -70 79 -70q70 0 126 38l2 -1l-17 -122q-66 -36 -147 -36q-80 0 -133 41
t-53 118q0 73 31 117t99 94q44 33 60.5 60.5t20.5 59.5z" />
    <glyph glyph-name="Agrave" unicode="&#xc0;" horiz-adv-x="622" 
d="M464 699l-221 83l-8 15l65 103l194 -130zM444 0l-29 114h-252l-60 -114h-140l372 671h63l192 -671h-146zM215 214h174l-48 188l-8 42l-19 -42z" />
    <glyph glyph-name="Aacute" unicode="&#xc1;" horiz-adv-x="622" 
d="M503 775l-225 -74l-28 71l204 125l57 -107zM444 0l-29 114h-252l-60 -114h-140l372 671h63l192 -671h-146zM215 214h174l-48 188l-8 42l-19 -42z" />
    <glyph glyph-name="Acircumflex" unicode="&#xc2;" horiz-adv-x="622" 
d="M381 783l-122 -78l-41 56l144 129h64l110 -128l-51 -57zM444 0l-29 114h-252l-60 -114h-140l372 671h63l192 -671h-146zM215 214h174l-48 188l-8 42l-19 -42z" />
    <glyph glyph-name="Atilde" unicode="&#xc3;" horiz-adv-x="622" 
d="M278 713l-2 -1l-79 24q8 53 42 88.5t78 35.5q34 0 73.5 -16.5t57.5 -16.5q14 0 26.5 10.5t15.5 26.5l2 2l80 -24q-8 -54 -41.5 -88.5t-78.5 -34.5q-28 0 -70 16.5t-60 16.5q-17 0 -29.5 -11.5t-14.5 -27.5zM444 0l-29 114h-252l-60 -114h-140l372 671h63l192 -671h-146z
M215 214h174l-48 188l-8 42l-19 -42z" />
    <glyph glyph-name="Adieresis" unicode="&#xc4;" horiz-adv-x="622" 
d="M266 723q-30 0 -49 19t-19 48q0 35 23 56t54 21q30 0 48.5 -19t18.5 -48q0 -34 -22.5 -55.5t-53.5 -21.5zM494 723q-30 0 -49 19t-19 48q0 35 23 56t54 21q30 0 48.5 -19t18.5 -48q0 -34 -22.5 -55.5t-53.5 -21.5zM444 0l-29 114h-252l-60 -114h-140l372 671h63l192 -671
h-146zM215 214h174l-48 188l-8 42l-19 -42z" />
    <glyph glyph-name="Aring" unicode="&#xc5;" horiz-adv-x="622" 
d="M373 688q-47 0 -76.5 27t-29.5 71q0 51 34.5 84t88.5 33q47 0 76.5 -27t29.5 -71q0 -52 -34.5 -84.5t-88.5 -32.5zM385 839q-20 0 -33.5 -13t-13.5 -35q0 -18 11.5 -28.5t29.5 -10.5q20 0 33.5 13t13.5 35q0 18 -11.5 28.5t-29.5 10.5zM444 0l-29 114h-252l-60 -114h-140
l372 671h63l192 -671h-146zM215 214h174l-48 188l-8 42l-19 -42z" />
    <glyph glyph-name="AE" unicode="&#xc6;" horiz-adv-x="826" 
d="M811 548h-234l-21 -147h215l-16 -113h-215l-25 -173h243l-16 -115h-386l23 156h-187l-107 -156h-143l468 662h418zM260 255h133l37 252l-85 -128z" />
    <glyph glyph-name="Ccedilla" unicode="&#xc7;" horiz-adv-x="591" 
d="M430 678q93 0 165 -28l-17 -132l-4 -1q-65 35 -147 35q-107 0 -170 -70t-63 -177q0 -93 52.5 -142.5t145.5 -49.5q73 0 135 33l3 -2l-17 -128q-61 -27 -142 -28l-27 -33q4 1 19 1q75 -7 75 -78q0 -64 -44.5 -92t-112.5 -28q-37 0 -62 9l9 64l3 1q19 -8 40 -8q60 0 60 43
q0 29 -36 29q-21 0 -38 -5l-2 1l8 56l34 44q-117 16 -183.5 92t-66.5 203q0 177 107.5 284t275.5 107z" />
    <glyph glyph-name="Egrave" unicode="&#xc8;" horiz-adv-x="543" 
d="M442 696l-221 83l-8 15l65 103l194 -130zM527 545h-267l-21 -148h248l-16 -116h-249l-23 -163h276l-16 -118h-417l94 662h408z" />
    <glyph glyph-name="Eacute" unicode="&#xc9;" horiz-adv-x="543" 
d="M481 772l-225 -74l-28 71l204 125l57 -107zM527 545h-267l-21 -148h248l-16 -116h-249l-23 -163h276l-16 -118h-417l94 662h408z" />
    <glyph glyph-name="Ecircumflex" unicode="&#xca;" horiz-adv-x="543" 
d="M359 780l-122 -78l-41 56l144 129h64l110 -128l-51 -57zM527 545h-267l-21 -148h248l-16 -116h-249l-23 -163h276l-16 -118h-417l94 662h408z" />
    <glyph glyph-name="Edieresis" unicode="&#xcb;" horiz-adv-x="543" 
d="M244 720q-30 0 -49 19t-19 48q0 35 23 56t54 21q30 0 48.5 -19t18.5 -48q0 -34 -22.5 -55.5t-53.5 -21.5zM472 720q-30 0 -49 19t-19 48q0 35 23 56t54 21q30 0 48.5 -19t18.5 -48q0 -34 -22.5 -55.5t-53.5 -21.5zM42 0l94 662h408l-17 -117h-267l-21 -148h248l-16 -116
h-249l-23 -163h276l-16 -118h-417z" />
    <glyph glyph-name="Igrave" unicode="&#xcc;" horiz-adv-x="300" 
d="M307 696l-221 83l-8 15l65 103l194 -130zM42 0l91 662h142l-92 -662h-141z" />
    <glyph glyph-name="Iacute" unicode="&#xcd;" horiz-adv-x="300" 
d="M121 698l-28 71l204 125l57 -107l-8 -15zM42 0l91 662h142l-92 -662h-141z" />
    <glyph glyph-name="Icircumflex" unicode="&#xce;" horiz-adv-x="300" 
d="M102 702l-41 56l144 129h64l110 -128l-51 -57l-104 78zM42 0l91 662h142l-92 -662h-141z" />
    <glyph glyph-name="Idieresis" unicode="&#xcf;" horiz-adv-x="300" 
d="M109 720q-30 0 -49 19t-19 48q0 35 23 56t54 21q30 0 48.5 -19t18.5 -48q0 -34 -22.5 -55.5t-53.5 -21.5zM337 720q-30 0 -49 19t-19 48q0 35 23 56t54 21q30 0 48.5 -19t18.5 -48q0 -34 -22.5 -55.5t-53.5 -21.5zM42 0l91 662h142l-92 -662h-141z" />
    <glyph glyph-name="Eth" unicode="&#xd0;" horiz-adv-x="704" 
d="M356 672q159 0 240.5 -74t81.5 -206q0 -184 -112.5 -289t-303.5 -105q-174 0 -220 3l40 286h-80l12 90h81l40 285q102 10 221 10zM295 122q113 0 174.5 67t61.5 184q0 84 -48 128t-133 44q-60 0 -92 -4l-23 -164h91l-12 -90h-92l-23 -162q42 -3 96 -3z" />
    <glyph glyph-name="Ntilde" unicode="&#xd1;" horiz-adv-x="712" 
d="M326 712l-79 24q8 53 42 88.5t78 35.5q34 0 73.5 -16.5t57.5 -16.5q14 0 26.5 10.5t15.5 26.5l2 2l80 -24q-8 -54 -41.5 -88.5t-78.5 -34.5q-28 0 -70 16.5t-60 16.5q-17 0 -29.5 -11.5t-14.5 -27.5zM42 0l95 667h62l297 -399h3l56 397h134l-95 -666h-60l-296 404h-3
l-58 -403h-135z" />
    <glyph glyph-name="Ograve" unicode="&#xd2;" horiz-adv-x="751" 
d="M514 698l-221 83l-8 15l65 103l194 -130zM365 -13q-137 0 -227 84t-90 227q0 167 100 274t259 107q137 0 227 -85t90 -228q0 -166 -100 -272.5t-259 -106.5zM375 113q93 0 147.5 69t54.5 175q0 91 -48 143.5t-132 52.5q-93 0 -147.5 -69.5t-54.5 -176.5
q0 -91 47.5 -142.5t132.5 -51.5z" />
    <glyph glyph-name="Oacute" unicode="&#xd3;" horiz-adv-x="751" 
d="M328 700l-28 71l204 125l57 -107l-8 -15zM365 -13q-137 0 -227 84t-90 227q0 167 100 274t259 107q137 0 227 -85t90 -228q0 -166 -100 -272.5t-259 -106.5zM375 113q93 0 147.5 69t54.5 175q0 91 -48 143.5t-132 52.5q-93 0 -147.5 -69.5t-54.5 -176.5
q0 -91 47.5 -142.5t132.5 -51.5z" />
    <glyph glyph-name="Ocircumflex" unicode="&#xd4;" horiz-adv-x="751" 
d="M309 704l-41 56l144 129h64l110 -128l-51 -57l-104 78zM365 -13q-137 0 -227 84t-90 227q0 167 100 274t259 107q137 0 227 -85t90 -228q0 -166 -100 -272.5t-259 -106.5zM375 113q93 0 147.5 69t54.5 175q0 91 -48 143.5t-132 52.5q-93 0 -147.5 -69.5t-54.5 -176.5
q0 -91 47.5 -142.5t132.5 -51.5z" />
    <glyph glyph-name="Otilde" unicode="&#xd5;" horiz-adv-x="751" 
d="M326 711l-79 24q8 53 42 88.5t78 35.5q34 0 73.5 -16.5t57.5 -16.5q14 0 26.5 10.5t15.5 26.5l2 2l80 -24q-8 -54 -41.5 -88.5t-78.5 -34.5q-28 0 -70 16.5t-60 16.5q-17 0 -29.5 -11.5t-14.5 -27.5zM365 -13q-137 0 -227 84t-90 227q0 167 100 274t259 107
q137 0 227 -85t90 -228q0 -166 -100 -272.5t-259 -106.5zM375 113q93 0 147.5 69t54.5 175q0 91 -48 143.5t-132 52.5q-93 0 -147.5 -69.5t-54.5 -176.5q0 -91 47.5 -142.5t132.5 -51.5z" />
    <glyph glyph-name="Odieresis" unicode="&#xd6;" horiz-adv-x="751" 
d="M316 722q-30 0 -49 19t-19 48q0 35 23 56t54 21q30 0 48.5 -19t18.5 -48q0 -34 -22.5 -55.5t-53.5 -21.5zM544 722q-30 0 -49 19t-19 48q0 35 23 56t54 21q30 0 48.5 -19t18.5 -48q0 -34 -22.5 -55.5t-53.5 -21.5zM365 -13q-137 0 -227 84t-90 227q0 167 100 274t259 107
q137 0 227 -85t90 -228q0 -166 -100 -272.5t-259 -106.5zM375 113q93 0 147.5 69t54.5 175q0 91 -48 143.5t-132 52.5q-93 0 -147.5 -69.5t-54.5 -176.5q0 -91 47.5 -142.5t132.5 -51.5z" />
    <glyph glyph-name="multiply" unicode="&#xd7;" horiz-adv-x="507" 
d="M491 436l-164 -147l116 -143l-78 -64l-113 140l-159 -142l-68 75l163 145l-114 141l78 64l111 -137l161 143z" />
    <glyph glyph-name="Oslash" unicode="&#xd8;" horiz-adv-x="751" 
d="M631 597q93 -87 93 -231q0 -166 -100 -272.5t-259 -106.5q-86 0 -156 35l-55 -75h-93v12l80 110q-93 85 -93 229q0 167 100 274t259 107q83 0 154 -34l50 69h99v-9zM195 307q0 -73 31 -121l255 350q-37 17 -84 17q-93 0 -147.5 -69.5t-54.5 -176.5zM375 113
q93 0 147.5 69t54.5 175q0 74 -32 123l-256 -349q36 -18 86 -18z" />
    <glyph glyph-name="Ugrave" unicode="&#xd9;" horiz-adv-x="693" 
d="M501 696l-221 83l-8 15l65 103l194 -130zM310 -13q-116 0 -178.5 56t-62.5 156q0 45 3 66l56 397h140l-54 -380q-4 -24 -4 -58q0 -56 31 -86.5t86 -30.5q74 0 111.5 42t49.5 133l54 380h136l-56 -397q-19 -136 -99.5 -207t-212.5 -71z" />
    <glyph glyph-name="Uacute" unicode="&#xda;" horiz-adv-x="693" 
d="M315 698l-28 71l204 125l57 -107l-8 -15zM310 -13q-116 0 -178.5 56t-62.5 156q0 45 3 66l56 397h140l-54 -380q-4 -24 -4 -58q0 -56 31 -86.5t86 -30.5q74 0 111.5 42t49.5 133l54 380h136l-56 -397q-19 -136 -99.5 -207t-212.5 -71z" />
    <glyph glyph-name="Ucircumflex" unicode="&#xdb;" horiz-adv-x="693" 
d="M296 702l-41 56l144 129h64l110 -128l-51 -57l-104 78zM310 -13q-116 0 -178.5 56t-62.5 156q0 45 3 66l56 397h140l-54 -380q-4 -24 -4 -58q0 -56 31 -86.5t86 -30.5q74 0 111.5 42t49.5 133l54 380h136l-56 -397q-19 -136 -99.5 -207t-212.5 -71z" />
    <glyph glyph-name="Udieresis" unicode="&#xdc;" horiz-adv-x="693" 
d="M303 720q-30 0 -49 19t-19 48q0 35 23 56t54 21q30 0 48.5 -19t18.5 -48q0 -34 -22.5 -55.5t-53.5 -21.5zM531 720q-30 0 -49 19t-19 48q0 35 23 56t54 21q30 0 48.5 -19t18.5 -48q0 -34 -22.5 -55.5t-53.5 -21.5zM310 -13q-116 0 -178.5 56t-62.5 156q0 45 3 66l56 397
h140l-54 -380q-4 -24 -4 -58q0 -56 31 -86.5t86 -30.5q74 0 111.5 42t49.5 133l54 380h136l-56 -397q-19 -136 -99.5 -207t-212.5 -71z" />
    <glyph glyph-name="Yacute" unicode="&#xdd;" horiz-adv-x="593" 
d="M270 698l-28 71l204 125l57 -107l-8 -15zM191 0l38 267l-168 392l2 3h151l104 -265l182 265h142l2 -3l-277 -399l-37 -260h-139z" />
    <glyph glyph-name="Thorn" unicode="&#xde;" horiz-adv-x="573" 
d="M334 563q92 0 154 -46t62 -142q0 -128 -80.5 -197.5t-207.5 -69.5q-22 0 -64 2l-16 -110h-140l94 662h140l-15 -102q34 3 73 3zM264 221q68 0 105.5 33t37.5 95q0 46 -28 70t-78 24q-15 0 -57 -3l-30 -217q36 -2 50 -2z" />
    <glyph glyph-name="germandbls" unicode="&#xdf;" horiz-adv-x="625" 
d="M395 -14q-78 0 -131 32l16 112l3 1q41 -39 101 -39q66 0 66 54q0 19 -12.5 34.5t-48.5 44.5q-39 31 -55 53.5t-16 57.5q0 30 11 55.5t20.5 36.5t30.5 32q43 43 43 80q0 29 -20 43t-52 14q-94 0 -113 -127l-67 -470h-141l67 471q18 124 88.5 187.5t178.5 63.5
q82 0 142 -38t60 -115q0 -35 -11.5 -64t-22 -41.5t-31.5 -33.5q-34 -32 -34 -57q0 -4 0.5 -8t1.5 -7t3.5 -7t4 -7t5.5 -7.5t6 -6.5l7.5 -7.5l8 -8t9 -8.5t9.5 -9q35 -32 51 -60t16 -75q0 -80 -55.5 -128t-138.5 -48z" />
    <glyph glyph-name="agrave" unicode="&#xe0;" horiz-adv-x="561" 
d="M382 567l-216 101l-5 16l80 104l183 -143zM518 132l4 -2l-18 -119q-38 -18 -83 -18q-89 0 -96 72q-68 -78 -163 -78q-70 0 -110 39t-40 101t33.5 103t82.5 57.5t109 16.5t105 -15l1 6q3 16 3 31q0 46 -27 68t-84 22q-77 0 -139 -41l-4 2l15 114q23 17 71 29.5t102 12.5
q209 0 209 -180q0 -28 -4 -52l-19 -135q-1 -6 -1 -17q0 -27 24 -27q17 0 29 10zM215 93q33 0 62.5 17.5t46.5 46.5l7 49q-29 11 -76 11q-102 0 -102 -69q0 -26 17 -40.5t45 -14.5z" />
    <glyph glyph-name="aacute" unicode="&#xe1;" horiz-adv-x="561" 
d="M444 673l-212 -110l-45 77l176 150l85 -101zM518 132l4 -2l-18 -119q-38 -18 -83 -18q-89 0 -96 72q-68 -78 -163 -78q-70 0 -110 39t-40 101t33.5 103t82.5 57.5t109 16.5t105 -15l1 6q3 16 3 31q0 46 -27 68t-84 22q-77 0 -139 -41l-4 2l15 114q23 17 71 29.5t102 12.5
q209 0 209 -180q0 -28 -4 -52l-19 -135q-1 -6 -1 -17q0 -27 24 -27q17 0 29 10zM215 93q33 0 62.5 17.5t46.5 46.5l7 49q-29 11 -76 11q-102 0 -102 -69q0 -26 17 -40.5t45 -14.5z" />
    <glyph glyph-name="acircumflex" unicode="&#xe2;" horiz-adv-x="561" 
d="M312 657l-114 -84l-44 49l138 147h65l101 -146l-58 -50zM518 132l4 -2l-18 -119q-38 -18 -83 -18q-89 0 -96 72q-68 -78 -163 -78q-70 0 -110 39t-40 101t33.5 103t82.5 57.5t109 16.5t105 -15l1 6q3 16 3 31q0 46 -27 68t-84 22q-77 0 -139 -41l-4 2l15 114
q23 17 71 29.5t102 12.5q209 0 209 -180q0 -28 -4 -52l-19 -135q-1 -6 -1 -17q0 -27 24 -27q17 0 29 10zM215 93q33 0 62.5 17.5t46.5 46.5l7 49q-29 11 -76 11q-102 0 -102 -69q0 -26 17 -40.5t45 -14.5z" />
    <glyph glyph-name="atilde" unicode="&#xe3;" horiz-adv-x="561" 
d="M213 601l-4 -3l-85 24q6 51 41 88t83 37q32 0 66.5 -17.5t54.5 -17.5q35 0 42 37l3 2l88 -22q-9 -59 -45.5 -92.5t-83.5 -33.5q-30 0 -66 18t-53 18q-34 0 -41 -38zM518 132l4 -2l-18 -119q-38 -18 -83 -18q-89 0 -96 72q-68 -78 -163 -78q-70 0 -110 39t-40 101
t33.5 103t82.5 57.5t109 16.5t105 -15l1 6q3 16 3 31q0 46 -27 68t-84 22q-77 0 -139 -41l-4 2l15 114q23 17 71 29.5t102 12.5q209 0 209 -180q0 -28 -4 -52l-19 -135q-1 -6 -1 -17q0 -27 24 -27q17 0 29 10zM215 93q33 0 62.5 17.5t46.5 46.5l7 49q-29 11 -76 11
q-102 0 -102 -69q0 -26 17 -40.5t45 -14.5z" />
    <glyph glyph-name="adieresis" unicode="&#xe4;" horiz-adv-x="561" 
d="M198 599q-34 0 -55.5 21t-21.5 54q0 38 25.5 62t60.5 24q34 0 55 -21t21 -54q0 -38 -25 -62t-60 -24zM414 599q-33 0 -54.5 21t-21.5 54q0 38 25.5 62t60.5 24q34 0 55 -21t21 -54q0 -38 -25.5 -62t-60.5 -24zM518 132l4 -2l-18 -119q-38 -18 -83 -18q-89 0 -96 72
q-68 -78 -163 -78q-70 0 -110 39t-40 101t33.5 103t82.5 57.5t109 16.5t105 -15l1 6q3 16 3 31q0 46 -27 68t-84 22q-77 0 -139 -41l-4 2l15 114q23 17 71 29.5t102 12.5q209 0 209 -180q0 -28 -4 -52l-19 -135q-1 -6 -1 -17q0 -27 24 -27q17 0 29 10zM215 93
q33 0 62.5 17.5t46.5 46.5l7 49q-29 11 -76 11q-102 0 -102 -69q0 -26 17 -40.5t45 -14.5z" />
    <glyph glyph-name="aring" unicode="&#xe5;" horiz-adv-x="561" 
d="M301 559q-48 0 -77 29t-29 76q0 55 35.5 90t89.5 35q48 0 77.5 -29t29.5 -75q0 -55 -35.5 -90.5t-90.5 -35.5zM315 721q-21 0 -35 -14t-14 -38q0 -18 12 -29.5t30 -11.5q21 0 35 14t14 38q0 18 -12 29.5t-30 11.5zM518 132l4 -2l-18 -119q-38 -18 -83 -18q-89 0 -96 72
q-68 -78 -163 -78q-70 0 -110 39t-40 101t33.5 103t82.5 57.5t109 16.5t105 -15l1 6q3 16 3 31q0 46 -27 68t-84 22q-77 0 -139 -41l-4 2l15 114q23 17 71 29.5t102 12.5q209 0 209 -180q0 -28 -4 -52l-19 -135q-1 -6 -1 -17q0 -27 24 -27q17 0 29 10zM215 93
q33 0 62.5 17.5t46.5 46.5l7 49q-29 11 -76 11q-102 0 -102 -69q0 -26 17 -40.5t45 -14.5z" />
    <glyph glyph-name="ae" unicode="&#xe6;" horiz-adv-x="914" 
d="M671 533q97 0 155 -53.5t58 -146.5q0 -48 -14 -108h-339q3 -60 37 -91.5t92 -31.5q86 0 164 43l4 -2l-17 -115q-70 -41 -179 -41q-156 0 -217 112q-62 -112 -189 -112q-93 0 -147.5 58t-54.5 152q0 156 83.5 246t205.5 90q114 0 180 -62q74 62 178 62zM541 311l207 -1v13
q0 93 -91 93q-41 0 -71.5 -28t-44.5 -77zM266 113q42 0 77.5 41t46.5 123q7 51 28 97q-41 38 -101 38q-63 0 -104.5 -54.5t-41.5 -137.5q0 -51 25.5 -79t69.5 -28z" />
    <glyph glyph-name="ccedilla" unicode="&#xe7;" horiz-adv-x="476" 
d="M338 533q78 0 131 -22l-17 -122l-4 -1q-54 24 -115 24q-72 0 -112.5 -50t-40.5 -124q0 -60 31.5 -95t92.5 -35q51 0 111 31l3 -1l-17 -126q-53 -24 -115 -25l-27 -32q4 1 19 1q75 -7 75 -78q0 -64 -44.5 -92t-112.5 -28q-36 0 -62 9l9 64l3 1q19 -8 40 -8q60 0 60 43
q0 29 -36 29q-21 0 -38 -5l-2 1l8 56l35 45q-82 16 -130.5 74.5t-48.5 151.5q0 143 85 228.5t219 85.5z" />
    <glyph glyph-name="egrave" unicode="&#xe8;" horiz-adv-x="561" 
d="M407 567l-216 101l-5 16l80 104l183 -143zM319 533q97 0 154.5 -54t57.5 -146q0 -48 -14 -108h-339q3 -60 37 -91.5t93 -31.5q85 0 164 43l3 -2l-16 -115q-70 -41 -179 -41q-106 0 -176 59t-70 180q0 137 81.5 222t203.5 85zM188 311l207 -1v13q0 93 -90 93
q-42 0 -72.5 -28t-44.5 -77z" />
    <glyph glyph-name="eacute" unicode="&#xe9;" horiz-adv-x="561" 
d="M469 673l-212 -110l-45 77l176 150l85 -101zM319 533q97 0 154.5 -54t57.5 -146q0 -48 -14 -108h-339q3 -60 37 -91.5t93 -31.5q85 0 164 43l3 -2l-16 -115q-70 -41 -179 -41q-106 0 -176 59t-70 180q0 137 81.5 222t203.5 85zM188 311l207 -1v13q0 93 -90 93
q-42 0 -72.5 -28t-44.5 -77z" />
    <glyph glyph-name="ecircumflex" unicode="&#xea;" horiz-adv-x="561" 
d="M337 657l-114 -84l-44 49l138 147h65l101 -146l-58 -50zM319 533q97 0 154.5 -54t57.5 -146q0 -48 -14 -108h-339q3 -60 37 -91.5t93 -31.5q85 0 164 43l3 -2l-16 -115q-70 -41 -179 -41q-106 0 -176 59t-70 180q0 137 81.5 222t203.5 85zM188 311l207 -1v13q0 93 -90 93
q-42 0 -72.5 -28t-44.5 -77z" />
    <glyph glyph-name="edieresis" unicode="&#xeb;" horiz-adv-x="561" 
d="M223 599q-34 0 -55.5 21t-21.5 54q0 38 25.5 62t60.5 24q34 0 55 -21t21 -54q0 -38 -25 -62t-60 -24zM439 599q-33 0 -54.5 21t-21.5 54q0 38 25.5 62t60.5 24q33 0 54.5 -21t21.5 -54q0 -38 -25.5 -62t-60.5 -24zM319 533q97 0 154.5 -54t57.5 -146q0 -48 -14 -108h-339
q3 -60 37 -91.5t93 -31.5q85 0 164 43l3 -2l-16 -115q-70 -41 -179 -41q-106 0 -176 59t-70 180q0 137 81.5 222t203.5 85zM188 311l207 -1v13q0 93 -90 93q-42 0 -72.5 -28t-44.5 -77z" />
    <glyph glyph-name="igrave" unicode="&#xec;" horiz-adv-x="276" 
d="M263 562l-210 107l-4 16l84 102l174 -151zM30 0l73 520h142l-74 -520h-141z" />
    <glyph glyph-name="iacute" unicode="&#xed;" horiz-adv-x="275" 
d="M103 563l-45 77l176 150l85 -101l-4 -16zM30 0l74 520h141l-74 -520h-141z" />
    <glyph glyph-name="icircumflex" unicode="&#xee;" horiz-adv-x="275" 
d="M83 570l-43 49l138 148h65l100 -148l-57 -49l-92 85zM30 0l74 520h141l-74 -520h-141z" />
    <glyph glyph-name="idieresis" unicode="&#xef;" horiz-adv-x="285" 
d="M93 599q-33 0 -54.5 21t-21.5 54q0 38 25.5 62t60.5 24q33 0 54.5 -21t21.5 -54q0 -38 -25.5 -62t-60.5 -24zM290 599q-33 0 -54.5 21t-21.5 54q0 38 25.5 62t60.5 24q34 0 55 -21t21 -54q0 -38 -25.5 -62t-60.5 -24zM35 0l74 520h141l-74 -520h-141z" />
    <glyph glyph-name="eth" unicode="&#xf0;" horiz-adv-x="624" 
d="M493 673q101 -79 101 -265q0 -196 -90.5 -309t-242.5 -113q-107 0 -168 56t-61 153q0 123 79.5 202t190.5 79q101 0 153 -59q-5 105 -53 152l-54 -63l-60 50l42 48q-18 3 -37 3q-71 0 -130 -20l-3 3l15 116q51 20 140 20q62 0 107 -16l64 74l60 -50zM281 107
q124 0 161 156q-7 41 -38 71.5t-82 30.5q-63 0 -102 -43.5t-39 -107.5q0 -47 26 -77t74 -30z" />
    <glyph glyph-name="ntilde" unicode="&#xf1;" horiz-adv-x="607" 
d="M257 601l-4 -3l-85 24q6 51 41 88t83 37q32 0 66.5 -17.5t54.5 -17.5q35 0 42 37l3 2l88 -22q-9 -59 -45.5 -92.5t-83.5 -33.5q-30 0 -66 18t-53 18q-34 0 -41 -38zM389 533q75 0 121.5 -45.5t46.5 -128.5q0 -26 -3 -53l-44 -306h-142l38 275q3 23 3 35q1 47 -23 68.5
t-61 21.5q-39 0 -69.5 -24.5t-40.5 -69.5l-43 -306h-142l74 520h115l4 -69q57 82 166 82z" />
    <glyph glyph-name="ograve" unicode="&#xf2;" horiz-adv-x="611" 
d="M417 559l-216 101l-5 16l80 104l183 -143zM282 -13q-107 0 -176.5 62t-69.5 179q0 133 81.5 219t210.5 86q108 0 177.5 -62t69.5 -181q0 -132 -82 -217.5t-211 -85.5zM294 108q63 0 99.5 52t36.5 124q0 59 -29.5 93t-82.5 34q-65 0 -101 -51.5t-36 -123.5
q0 -59 29.5 -93.5t83.5 -34.5z" />
    <glyph glyph-name="oacute" unicode="&#xf3;" horiz-adv-x="611" 
d="M267 555l-45 77l176 150l85 -101l-4 -16zM282 -13q-107 0 -176.5 62t-69.5 179q0 133 81.5 219t210.5 86q108 0 177.5 -62t69.5 -181q0 -132 -82 -217.5t-211 -85.5zM294 108q63 0 99.5 52t36.5 124q0 59 -29.5 93t-82.5 34q-65 0 -101 -51.5t-36 -123.5
q0 -59 29.5 -93.5t83.5 -34.5z" />
    <glyph glyph-name="ocircumflex" unicode="&#xf4;" horiz-adv-x="611" 
d="M233 565l-44 49l138 147h65l101 -146l-58 -50l-88 84zM282 -13q-107 0 -176.5 62t-69.5 179q0 133 81.5 219t210.5 86q108 0 177.5 -62t69.5 -181q0 -132 -82 -217.5t-211 -85.5zM294 108q63 0 99.5 52t36.5 124q0 59 -29.5 93t-82.5 34q-65 0 -101 -51.5t-36 -123.5
q0 -59 29.5 -93.5t83.5 -34.5z" />
    <glyph glyph-name="otilde" unicode="&#xf5;" horiz-adv-x="611" 
d="M244 590l-85 24q6 51 41 88t83 37q32 0 66.5 -17.5t54.5 -17.5q35 0 42 37l3 2l88 -22q-9 -59 -45.5 -92.5t-83.5 -33.5q-30 0 -66 18t-53 18q-34 0 -41 -38zM282 -13q-107 0 -176.5 62t-69.5 179q0 133 81.5 219t210.5 86q108 0 177.5 -62t69.5 -181q0 -132 -82 -217.5
t-211 -85.5zM294 108q63 0 99.5 52t36.5 124q0 59 -29.5 93t-82.5 34q-65 0 -101 -51.5t-36 -123.5q0 -59 29.5 -93.5t83.5 -34.5z" />
    <glyph glyph-name="odieresis" unicode="&#xf6;" horiz-adv-x="611" 
d="M233 591q-34 0 -55.5 21t-21.5 54q0 38 25.5 62t60.5 24q34 0 55 -21t21 -54q0 -38 -25 -62t-60 -24zM449 591q-33 0 -54.5 21t-21.5 54q0 38 25.5 62t60.5 24q33 0 54.5 -21t21.5 -54q0 -38 -25.5 -62t-60.5 -24zM282 -13q-107 0 -176.5 62t-69.5 179q0 133 81.5 219
t210.5 86q108 0 177.5 -62t69.5 -181q0 -132 -82 -217.5t-211 -85.5zM294 108q63 0 99.5 52t36.5 124q0 59 -29.5 93t-82.5 34q-65 0 -101 -51.5t-36 -123.5q0 -59 29.5 -93.5t83.5 -34.5z" />
    <glyph glyph-name="divide" unicode="&#xf7;" horiz-adv-x="534" 
d="M286 398q-34 0 -51.5 18t-17.5 47q0 36 24.5 61.5t67.5 25.5q34 0 52 -18.5t18 -47.5q0 -36 -24.5 -61t-68.5 -25zM40 253l13 98h453l-13 -98h-453zM237 50q-34 0 -51.5 17.5t-17.5 46.5q0 36 24 61.5t66 25.5q34 0 52.5 -18.5t18.5 -47.5q0 -36 -24 -60.5t-68 -24.5z
" />
    <glyph glyph-name="oslash" unicode="&#xf8;" horiz-adv-x="611" 
d="M498 477q77 -64 77 -187q0 -132 -82 -217.5t-211 -85.5q-52 0 -97 15l-39 -59h-87v12l56 86q-79 66 -79 187q0 133 81.5 219t210.5 86q53 0 98 -15l35 54h94v-9zM181 236q0 -41 15 -71l157 241q-18 5 -35 5q-65 0 -101 -51.5t-36 -123.5zM294 108q63 0 99.5 52t36.5 124
q0 39 -14 69l-158 -240q18 -5 36 -5z" />
    <glyph glyph-name="ugrave" unicode="&#xf9;" horiz-adv-x="596" 
d="M428 567l-216 101l-5 16l80 104l183 -143zM425 520h142l-75 -520h-115l-3 66q-62 -79 -171 -79q-73 0 -114 40t-41 107q0 25 3 52l48 334h141l-43 -300q-3 -33 -3 -40q0 -72 74 -72q35 0 64 19t45 55z" />
    <glyph glyph-name="uacute" unicode="&#xfa;" horiz-adv-x="596" 
d="M490 673l-212 -110l-45 77l176 150l85 -101zM425 520h142l-75 -520h-115l-3 66q-62 -79 -171 -79q-73 0 -114 40t-41 107q0 25 3 52l48 334h141l-43 -300q-3 -33 -3 -40q0 -72 74 -72q35 0 64 19t45 55z" />
    <glyph glyph-name="ucircumflex" unicode="&#xfb;" horiz-adv-x="596" 
d="M358 657l-114 -84l-44 49l138 147h65l101 -146l-58 -50zM425 520h142l-75 -520h-115l-3 66q-62 -79 -171 -79q-73 0 -114 40t-41 107q0 25 3 52l48 334h141l-43 -300q-3 -33 -3 -40q0 -72 74 -72q35 0 64 19t45 55z" />
    <glyph glyph-name="udieresis" unicode="&#xfc;" horiz-adv-x="596" 
d="M244 599q-34 0 -55.5 21t-21.5 54q0 38 25.5 62t60.5 24q34 0 55 -21t21 -54q0 -38 -25 -62t-60 -24zM460 599q-33 0 -54.5 21t-21.5 54q0 38 25.5 62t60.5 24q34 0 55 -21t21 -54q0 -38 -25.5 -62t-60.5 -24zM425 520h142l-75 -520h-115l-3 66q-62 -79 -171 -79
q-73 0 -114 40t-41 107q0 25 3 52l48 334h141l-43 -300q-3 -33 -3 -40q0 -72 74 -72q35 0 64 19t45 55z" />
    <glyph glyph-name="yacute" unicode="&#xfd;" horiz-adv-x="525" 
d="M459 673l-212 -110l-45 77l176 150l85 -101zM555 516l-249 -477l-7 -14q-56 -109 -108.5 -152.5t-135.5 -43.5q-39 0 -66 10l18 114l3 1q23 -7 47 -7q75 0 120 93l1 3l-134 473l2 4h150l69 -318l146 318h143z" />
    <glyph glyph-name="thorn" unicode="&#xfe;" horiz-adv-x="607" 
d="M379 533q92 0 143 -57.5t51 -156.5q0 -149 -86 -240.5t-209 -91.5q-64 0 -107 22l-24 -174h-142l125 880h141l-33 -233q60 51 141 51zM276 109q65 0 107.5 49t42.5 134q0 60 -26.5 88t-71.5 28q-36 0 -67.5 -21.5t-44.5 -61.5l-27 -195q34 -21 87 -21z" />
    <glyph glyph-name="ydieresis" unicode="&#xff;" horiz-adv-x="525" 
d="M213 599q-34 0 -55.5 21t-21.5 54q0 38 25.5 62t60.5 24q34 0 55 -21t21 -54q0 -38 -25 -62t-60 -24zM429 599q-33 0 -54.5 21t-21.5 54q0 38 25.5 62t60.5 24q33 0 54.5 -21t21.5 -54q0 -38 -25.5 -62t-60.5 -24zM555 516l-249 -477l-7 -14q-56 -109 -108.5 -152.5
t-135.5 -43.5q-39 0 -66 10l18 114l3 1q23 -7 47 -7q75 0 120 93l1 3l-134 473l2 4h150l69 -318l146 318h143z" />
    <glyph glyph-name="Amacron" unicode="&#x100;" horiz-adv-x="622" 
d="M542 838l-13 -94h-307l14 94h306zM444 0l-29 114h-252l-60 -114h-140l372 671h63l192 -671h-146zM215 214h174l-48 188l-8 42l-19 -42z" />
    <glyph glyph-name="amacron" unicode="&#x101;" horiz-adv-x="561" 
d="M465 705l-13 -89h-295l13 89h295zM518 132l4 -2l-18 -119q-38 -18 -83 -18q-89 0 -96 72q-68 -78 -163 -78q-70 0 -110 39t-40 101t33.5 103t82.5 57.5t109 16.5t105 -15l1 6q3 16 3 31q0 46 -27 68t-84 22q-77 0 -139 -41l-4 2l15 114q23 17 71 29.5t102 12.5
q209 0 209 -180q0 -28 -4 -52l-19 -135q-1 -6 -1 -17q0 -27 24 -27q17 0 29 10zM215 93q33 0 62.5 17.5t46.5 46.5l7 49q-29 11 -76 11q-102 0 -102 -69q0 -26 17 -40.5t45 -14.5z" />
    <glyph glyph-name="Abreve" unicode="&#x102;" horiz-adv-x="622" 
d="M378 714q-69 0 -110 42.5t-31 112.5l89 9q-2 -34 13.5 -54t48.5 -20q31 0 53.5 20.5t28.5 53.5l80 -9q-9 -70 -57.5 -112.5t-114.5 -42.5zM444 0l-29 114h-252l-60 -114h-140l372 671h63l192 -671h-146zM215 214h174l-48 188l-8 42l-19 -42z" />
    <glyph glyph-name="abreve" unicode="&#x103;" horiz-adv-x="561" 
d="M305 579q-66 0 -105.5 43t-27.5 116l86 9l3 -3q-2 -31 12.5 -50t43.5 -19t49 19t28 50l4 3l79 -9q-11 -75 -57.5 -117t-114.5 -42zM518 132l4 -2l-18 -119q-38 -18 -83 -18q-89 0 -96 72q-68 -78 -163 -78q-70 0 -110 39t-40 101t33.5 103t82.5 57.5t109 16.5t105 -15
l1 6q3 16 3 31q0 46 -27 68t-84 22q-77 0 -139 -41l-4 2l15 114q23 17 71 29.5t102 12.5q209 0 209 -180q0 -28 -4 -52l-19 -135q-1 -6 -1 -17q0 -27 24 -27q17 0 29 10zM215 93q33 0 62.5 17.5t46.5 46.5l7 49q-29 11 -76 11q-102 0 -102 -69q0 -26 17 -40.5t45 -14.5z" />
    <glyph glyph-name="Aogonek" unicode="&#x104;" horiz-adv-x="622" 
d="M558 0q-99 -59 -99 -123q0 -37 37 -37q16 0 29 4l4 -3l-10 -74q-30 -8 -66 -8q-48 0 -78.5 21t-30.5 61q0 88 124 159h-24l-29 114h-252l-60 -114h-140l372 671h63l192 -671h-32zM215 214h174l-48 188l-8 42l-19 -42z" />
    <glyph glyph-name="aogonek" unicode="&#x105;" horiz-adv-x="561" 
d="M497 8q-97 -59 -97 -122q0 -37 37 -37q16 0 29 4l4 -3l-10 -74q-30 -8 -66 -8q-48 0 -78.5 21t-30.5 61q0 81 103 146q-58 12 -63 69q-68 -78 -163 -78q-70 0 -110 39t-40 101t33.5 103t82.5 57.5t109 16.5t105 -15l1 6q3 16 3 31q0 46 -27 68t-84 22q-77 0 -139 -41
l-4 2l15 114q23 17 71 29.5t102 12.5q209 0 209 -180q0 -28 -4 -52l-19 -135q-1 -6 -1 -17q0 -27 24 -27q17 0 29 10l4 -2l-18 -119zM215 93q33 0 62.5 17.5t46.5 46.5l7 49q-29 11 -76 11q-102 0 -102 -69q0 -26 17 -40.5t45 -14.5z" />
    <glyph glyph-name="Cacute" unicode="&#x106;" horiz-adv-x="591" 
d="M319 698l-28 71l204 125l57 -107l-8 -15zM360 -12q-144 0 -228.5 78t-84.5 221q0 177 107.5 284t275.5 107q93 0 165 -28l-17 -132l-4 -1q-65 35 -147 35q-107 0 -170 -70t-63 -177q0 -93 52.5 -142.5t145.5 -49.5q73 0 135 33l3 -2l-17 -128q-66 -28 -153 -28z" />
    <glyph glyph-name="cacute" unicode="&#x107;" horiz-adv-x="476" 
d="M258 572l-45 77l176 150l85 -101l-4 -16zM274 -13q-106 0 -173 61.5t-67 170.5q0 143 85 228.5t219 85.5q78 0 131 -22l-17 -122l-4 -1q-54 24 -115 24q-72 0 -112.5 -50t-40.5 -124q0 -60 31.5 -95t92.5 -35q51 0 111 31l3 -1l-17 -126q-55 -25 -127 -25z" />
    <glyph glyph-name="Cdotaccent" unicode="&#x10a;" horiz-adv-x="591" 
d="M419 714q-35 0 -57.5 22t-22.5 57q0 40 26.5 65t63.5 25q35 0 57 -22.5t22 -55.5q0 -40 -26.5 -65.5t-62.5 -25.5zM360 -12q-144 0 -228.5 78t-84.5 221q0 177 107.5 284t275.5 107q93 0 165 -28l-17 -132l-4 -1q-65 35 -147 35q-107 0 -170 -70t-63 -177
q0 -93 52.5 -142.5t145.5 -49.5q73 0 135 33l3 -2l-17 -128q-66 -28 -153 -28z" />
    <glyph glyph-name="cdotaccent" unicode="&#x10b;" horiz-adv-x="476" 
d="M336 604q-35 0 -57.5 22t-22.5 57q0 40 26.5 65t63.5 25q35 0 57 -22.5t22 -55.5q0 -40 -26.5 -65.5t-62.5 -25.5zM274 -13q-106 0 -173 61.5t-67 170.5q0 143 85 228.5t219 85.5q78 0 131 -22l-17 -122l-4 -1q-54 24 -115 24q-72 0 -112.5 -50t-40.5 -124
q0 -60 31.5 -95t92.5 -35q51 0 111 31l3 -1l-17 -126q-55 -25 -127 -25z" />
    <glyph glyph-name="Ccaron" unicode="&#x10c;" horiz-adv-x="591" 
d="M382 702l-113 127l53 58l104 -78l119 78l41 -56l-141 -129h-63zM360 -12q-144 0 -228.5 78t-84.5 221q0 177 107.5 284t275.5 107q93 0 165 -28l-17 -132l-4 -1q-65 35 -147 35q-107 0 -170 -70t-63 -177q0 -93 52.5 -142.5t145.5 -49.5q73 0 135 33l3 -2l-17 -128
q-66 -28 -153 -28z" />
    <glyph glyph-name="ccaron" unicode="&#x10d;" horiz-adv-x="476" 
d="M295 582l-99 148l56 48l92 -84l112 84l42 -48l-138 -148h-65zM274 -13q-106 0 -173 61.5t-67 170.5q0 143 85 228.5t219 85.5q78 0 131 -22l-17 -122l-4 -1q-54 24 -115 24q-72 0 -112.5 -50t-40.5 -124q0 -60 31.5 -95t92.5 -35q51 0 111 31l3 -1l-17 -126
q-55 -25 -127 -25z" />
    <glyph glyph-name="Dcaron" unicode="&#x10e;" horiz-adv-x="704" 
d="M419 707h-63l-113 127l53 58l104 -78l119 78l41 -56zM356 672q159 0 240.5 -74t81.5 -206q0 -184 -112.5 -289t-303.5 -105q-174 0 -220 3l93 661q102 10 221 10zM295 122q113 0 174.5 67t61.5 184q0 84 -48 128t-133 44q-60 0 -92 -4l-59 -416q42 -3 96 -3z" />
    <glyph glyph-name="dcaron" unicode="&#x10f;" horiz-adv-x="663" 
d="M755 716l10 -13l-72 -225h-78l41 238h99zM434 509l30 206h141l-101 -715h-115l-4 58q-55 -71 -158 -71q-82 0 -138.5 58t-56.5 161q0 149 84 238t208 89q64 0 110 -24zM281 113q35 0 66.5 23t41.5 61l27 187q-38 28 -88 28q-63 0 -105.5 -50.5t-42.5 -134.5q0 -56 27 -85
t74 -29z" />
    <glyph glyph-name="Dcroat" unicode="&#x110;" horiz-adv-x="704" 
d="M356 672q159 0 240.5 -74t81.5 -206q0 -184 -112.5 -289t-303.5 -105q-174 0 -220 3l40 286h-80l12 90h81l40 285q102 10 221 10zM295 122q113 0 174.5 67t61.5 184q0 84 -48 128t-133 44q-60 0 -92 -4l-23 -164h91l-12 -90h-92l-23 -162q42 -3 96 -3z" />
    <glyph glyph-name="dcroat" unicode="&#x111;" horiz-adv-x="607" 
d="M667 668l-12 -90h-69l-82 -578h-115l-4 58q-55 -71 -158 -71q-82 0 -138.5 58t-56.5 161q0 149 84 238t208 89q64 0 110 -24l10 69h-101l12 90h102l7 47h141l-7 -47h69zM281 113q35 0 66.5 23t41.5 61l27 187q-38 28 -88 28q-63 0 -105.5 -50.5t-42.5 -134.5
q0 -56 27 -85t74 -29z" />
    <glyph glyph-name="Emacron" unicode="&#x112;" horiz-adv-x="543" 
d="M520 835l-13 -94h-307l14 94h306zM527 545h-267l-21 -148h248l-16 -116h-249l-23 -163h276l-16 -118h-417l94 662h408z" />
    <glyph glyph-name="emacron" unicode="&#x113;" horiz-adv-x="561" 
d="M490 705l-13 -89h-295l13 89h295zM319 533q97 0 154.5 -54t57.5 -146q0 -48 -14 -108h-339q3 -60 37 -91.5t93 -31.5q85 0 164 43l3 -2l-16 -115q-70 -41 -179 -41q-106 0 -176 59t-70 180q0 137 81.5 222t203.5 85zM188 311l207 -1v13q0 93 -90 93q-42 0 -72.5 -28
t-44.5 -77z" />
    <glyph glyph-name="Edotaccent" unicode="&#x116;" horiz-adv-x="543" 
d="M356 714q-35 0 -57.5 22t-22.5 57q0 40 26.5 65t63.5 25q35 0 57 -22.5t22 -55.5q0 -40 -26.5 -65.5t-62.5 -25.5zM527 545h-267l-21 -148h248l-16 -116h-249l-23 -163h276l-16 -118h-417l94 662h408z" />
    <glyph glyph-name="edotaccent" unicode="&#x117;" horiz-adv-x="561" 
d="M335 595q-35 0 -57.5 22t-22.5 57q0 40 26.5 65t63.5 25q35 0 57 -22.5t22 -55.5q0 -40 -26.5 -65.5t-62.5 -25.5zM319 533q97 0 154.5 -54t57.5 -146q0 -48 -14 -108h-339q3 -60 37 -91.5t93 -31.5q85 0 164 43l3 -2l-16 -115q-70 -41 -179 -41q-106 0 -176 59t-70 180
q0 137 81.5 222t203.5 85zM188 311l207 -1v13q0 93 -90 93q-42 0 -72.5 -28t-44.5 -77z" />
    <glyph glyph-name="Eogonek" unicode="&#x118;" horiz-adv-x="543" 
d="M527 545h-267l-21 -148h248l-16 -116h-249l-23 -163h276l-16 -118q-99 -59 -99 -123q0 -37 37 -37q16 0 29 4l4 -3l-10 -74q-30 -8 -66 -8q-48 0 -78.5 21t-30.5 61q0 88 124 159h-327l94 662h408z" />
    <glyph glyph-name="eogonek" unicode="&#x119;" horiz-adv-x="561" 
d="M319 533q97 0 154.5 -54t57.5 -146q0 -48 -14 -108h-339q3 -60 37 -91.5t93 -31.5q85 0 164 43l3 -2l-16 -115q-30 -17 -60 -26q-89 -57 -89 -117q0 -37 37 -37q16 0 29 4l4 -3l-10 -74q-30 -8 -66 -8q-48 0 -78.5 21t-30.5 61q0 77 91 138h-6q-106 0 -176 59t-70 180
q0 137 81.5 222t203.5 85zM188 311l207 -1v13q0 93 -90 93q-42 0 -72.5 -28t-44.5 -77z" />
    <glyph glyph-name="Ecaron" unicode="&#x11a;" horiz-adv-x="543" 
d="M382 702h-63l-113 127l53 58l104 -78l119 78l41 -56zM527 545h-267l-21 -148h248l-16 -116h-249l-23 -163h276l-16 -118h-417l94 662h408z" />
    <glyph glyph-name="ecaron" unicode="&#x11b;" horiz-adv-x="561" 
d="M359 573h-65l-99 148l56 48l92 -84l112 84l42 -48zM319 533q97 0 154.5 -54t57.5 -146q0 -48 -14 -108h-339q3 -60 37 -91.5t93 -31.5q85 0 164 43l3 -2l-16 -115q-70 -41 -179 -41q-106 0 -176 59t-70 180q0 137 81.5 222t203.5 85zM188 311l207 -1v13q0 93 -90 93
q-42 0 -72.5 -28t-44.5 -77z" />
    <glyph glyph-name="Gbreve" unicode="&#x11e;" horiz-adv-x="658" 
d="M438 716q-69 0 -110 42.5t-31 112.5l89 9q-2 -34 13.5 -54t48.5 -20q31 0 53.5 20.5t28.5 53.5l80 -9q-9 -70 -57.5 -112.5t-114.5 -42.5zM350 -11q-139 0 -221 75.5t-82 211.5q0 183 113 294t296 111q112 0 181 -33l-20 -131l-3 -1q-65 38 -169 38q-115 0 -183 -70.5
t-68 -188.5q0 -84 46.5 -131.5t132.5 -47.5q51 0 92 16l23 165h125l-38 -264q-105 -44 -225 -44z" />
    <glyph glyph-name="gbreve" unicode="&#x11f;" horiz-adv-x="572" 
d="M314 588q-66 0 -105.5 43t-27.5 116l86 9l3 -3q-2 -31 12.5 -50t43.5 -19t49 19t28 50l4 3l79 -9q-11 -75 -57.5 -117t-114.5 -42zM581 520l-13 -98h-87q25 -27 25 -67q0 -76 -63 -123.5t-175 -47.5q-39 0 -76 8q-11 -9 -11 -23q0 -16 26.5 -24.5t107.5 -15.5
q98 -8 143.5 -38t45.5 -91q0 -85 -75 -129.5t-214 -44.5q-224 0 -224 112q0 68 88 123q-35 23 -35 61q0 61 74 102q-54 40 -54 109q0 86 68.5 136.5t181.5 50.5h267zM281 283q45 0 68.5 19.5t23.5 55.5q0 28 -19.5 45t-56.5 17q-43 0 -68.5 -19.5t-25.5 -54.5
q0 -30 20.5 -46.5t57.5 -16.5zM369 -28q0 23 -23.5 32.5t-90.5 14.5q-37 2 -85 10q-47 -27 -47 -62q0 -48 116 -48q130 0 130 53z" />
    <glyph glyph-name="Gdotaccent" unicode="&#x120;" horiz-adv-x="658" 
d="M438 719q-35 0 -57.5 22t-22.5 57q0 40 26.5 65t63.5 25q35 0 57 -22.5t22 -55.5q0 -40 -26.5 -65.5t-62.5 -25.5zM350 -11q-139 0 -221 75.5t-82 211.5q0 183 113 294t296 111q112 0 181 -33l-20 -131l-3 -1q-65 38 -169 38q-115 0 -183 -70.5t-68 -188.5
q0 -84 46.5 -131.5t132.5 -47.5q51 0 92 16l23 165h125l-38 -264q-105 -44 -225 -44z" />
    <glyph glyph-name="gdotaccent" unicode="&#x121;" horiz-adv-x="572" 
d="M319 604q-35 0 -57.5 22t-22.5 57q0 40 26.5 65t63.5 25q35 0 57 -22.5t22 -55.5q0 -40 -26.5 -65.5t-62.5 -25.5zM581 520l-13 -98h-87q25 -27 25 -67q0 -76 -63 -123.5t-175 -47.5q-39 0 -76 8q-11 -9 -11 -23q0 -16 26.5 -24.5t107.5 -15.5q98 -8 143.5 -38t45.5 -91
q0 -85 -75 -129.5t-214 -44.5q-224 0 -224 112q0 68 88 123q-35 23 -35 61q0 61 74 102q-54 40 -54 109q0 86 68.5 136.5t181.5 50.5h267zM281 283q45 0 68.5 19.5t23.5 55.5q0 28 -19.5 45t-56.5 17q-43 0 -68.5 -19.5t-25.5 -54.5q0 -30 20.5 -46.5t57.5 -16.5zM369 -28
q0 23 -23.5 32.5t-90.5 14.5q-37 2 -85 10q-47 -27 -47 -62q0 -48 116 -48q130 0 130 53z" />
    <glyph glyph-name="Gcommaaccent" unicode="&#x122;" horiz-adv-x="658" 
d="M350 -11q-139 0 -221 75.5t-82 211.5q0 183 113 294t296 111q112 0 181 -33l-20 -131l-3 -1q-65 38 -169 38q-115 0 -183 -70.5t-68 -188.5q0 -84 46.5 -131.5t132.5 -47.5q51 0 92 16l23 165h125l-38 -264q-105 -44 -225 -44zM232 -245q23 64 36 138q2 17 4 55l114 9
l8 -16q-14 -96 -79 -186h-83z" />
    <glyph glyph-name="gcommaaccent" unicode="&#x123;" horiz-adv-x="572" 
d="M373 581l-114 -9l-8 16q14 96 79 186h83q-23 -64 -36 -138q-2 -17 -4 -55zM581 520l-13 -98h-87q25 -27 25 -67q0 -76 -63 -123.5t-175 -47.5q-39 0 -76 8q-11 -9 -11 -23q0 -16 26.5 -24.5t107.5 -15.5q98 -8 143.5 -38t45.5 -91q0 -85 -75 -129.5t-214 -44.5
q-224 0 -224 112q0 68 88 123q-35 23 -35 61q0 61 74 102q-54 40 -54 109q0 86 68.5 136.5t181.5 50.5h267zM281 283q45 0 68.5 19.5t23.5 55.5q0 28 -19.5 45t-56.5 17q-43 0 -68.5 -19.5t-25.5 -54.5q0 -30 20.5 -46.5t57.5 -16.5zM369 -28q0 23 -23.5 32.5t-90.5 14.5
q-37 2 -85 10q-47 -27 -47 -62q0 -48 116 -48q130 0 130 53z" />
    <glyph glyph-name="Hbar" unicode="&#x126;" horiz-adv-x="721" 
d="M745 571l-13 -92h-60l-68 -479h-140l38 274h-281l-38 -274h-141l68 479h-59l13 92h59l13 91h140l-13 -91h281l13 91h141l-13 -91h60zM520 401l11 78h-281l-11 -78h281z" />
    <glyph glyph-name="hbar" unicode="&#x127;" horiz-adv-x="605" 
d="M388 533q77 0 123 -46t46 -124q0 -24 -4 -49l-44 -314h-142l39 280q3 18 3 30q0 45 -23 67.5t-62 22.5q-37 0 -66 -21t-42 -66l-45 -313h-141l81 572h-72l12 90h73l7 53h142l-8 -53h99l-12 -90h-99l-15 -99q55 60 150 60z" />
    <glyph glyph-name="Itilde" unicode="&#x128;" horiz-adv-x="300" 
d="M119 709l-79 24q8 53 42 88.5t78 35.5q34 0 73.5 -16.5t57.5 -16.5q14 0 26.5 10.5t15.5 26.5l2 2l80 -24q-8 -54 -41.5 -88.5t-78.5 -34.5q-28 0 -70 16.5t-60 16.5q-17 0 -29.5 -11.5t-14.5 -27.5zM42 0l91 662h142l-92 -662h-141z" />
    <glyph glyph-name="itilde" unicode="&#x129;" horiz-adv-x="275" 
d="M94 596l-81 22q7 51 42 88.5t86 37.5q30 0 68 -17t58 -17q16 0 28 10.5t14 27.5l4 2l82 -22q-8 -58 -45 -92t-86 -34q-27 0 -66.5 17.5t-56.5 17.5q-16 0 -28 -11t-15 -28zM30 0l74 520h141l-74 -520h-141z" />
    <glyph glyph-name="Imacron" unicode="&#x12a;" horiz-adv-x="300" 
d="M65 741l14 94h306l-13 -94h-307zM42 0l91 662h142l-92 -662h-141z" />
    <glyph glyph-name="imacron" unicode="&#x12b;" horiz-adv-x="275" 
d="M47 613l14 90h283l-13 -90h-284zM30 0l73 520h142l-74 -520h-141z" />
    <glyph glyph-name="Iogonek" unicode="&#x12e;" horiz-adv-x="300" 
d="M163 0q-86 -55 -86 -115q0 -37 37 -37q16 0 29 4l4 -3l-10 -74q-30 -8 -66 -8q-48 0 -78.5 21t-30.5 61q0 84 111 151h-31l91 662h142l-92 -662h-20z" />
    <glyph glyph-name="iogonek" unicode="&#x12f;" horiz-adv-x="275" 
d="M198 764q35 0 57 -22.5t22 -55.5q0 -40 -26.5 -65.5t-62.5 -25.5q-35 0 -57.5 22t-22.5 57q0 40 26.5 65t63.5 25zM29 0l74 520h141l-73 -520h-11q-99 -57 -99 -123q0 -36 36 -36q19 0 30 4l3 -3l-10 -74q-29 -8 -66 -8q-48 0 -78.5 21t-30.5 60q0 90 125 159h-41z" />
    <glyph glyph-name="Idotaccent" unicode="&#x130;" horiz-adv-x="300" 
d="M221 714q-35 0 -57.5 22t-22.5 57q0 40 26.5 65t63.5 25q35 0 57 -22.5t22 -55.5q0 -40 -26.5 -65.5t-62.5 -25.5zM42 0l91 662h142l-92 -662h-141z" />
    <glyph glyph-name="dotlessi" unicode="&#x131;" horiz-adv-x="275" 
d="M30 0l74 520h141l-74 -520h-141z" />
    <glyph glyph-name="IJ" unicode="&#x132;" horiz-adv-x="671" 
d="M42 0l91 662h142l-92 -662h-141zM334 -3q-29 0 -57 4l18 118l4 1q14 -3 32 -3q105 0 126 141l58 404h142l-56 -390q-39 -275 -267 -275z" />
    <glyph glyph-name="ij" unicode="&#x133;" horiz-adv-x="567" 
d="M192 595q-35 0 -57.5 22t-22.5 57q0 40 26.5 65t63.5 25q35 0 57 -22.5t22 -55.5q0 -40 -26.5 -65.5t-62.5 -25.5zM485 595q-35 0 -57.5 22t-22.5 57q0 40 26.5 65t63.5 25q35 0 57 -22.5t22 -55.5q0 -40 -26.5 -65.5t-62.5 -25.5zM30 0l74 520h141l-74 -520h-141z
M244 -171q-32 0 -67 6l18 122l3 1q16 -3 34 -3q45 0 68 27t31 79l66 459h140l-70 -492q-14 -100 -72 -149.5t-151 -49.5z" />
    <glyph glyph-name="Kcommaaccent" unicode="&#x136;" horiz-adv-x="641" 
d="M685 659l-332 -325l258 -330l-1 -4h-169l-218 283l-40 -283h-141l94 662h140l-39 -277l285 277h162zM219 -52l114 9l8 -16q-14 -96 -79 -186h-83q23 64 36 138q2 17 4 55z" />
    <glyph glyph-name="kcommaaccent" unicode="&#x137;" horiz-adv-x="561" 
d="M574 516l-245 -247l192 -265l-1 -4h-163l-155 217l-31 -217h-141l101 715h142l-56 -394l191 199h164zM181 -52l114 9l8 -16q-14 -96 -79 -186h-83q23 64 36 138q2 17 4 55z" />
    <glyph glyph-name="kgreenlandic" unicode="&#x138;" horiz-adv-x="562" 
d="M585 520l-250 -248l191 -272h-175l-150 213l-30 -213h-141l73 520h142l-29 -205l205 205h164z" />
    <glyph glyph-name="Lacute" unicode="&#x139;" horiz-adv-x="489" 
d="M352 772l-225 -74l-28 71l204 125l57 -107zM199 117h257l-16 -117h-398l94 662h141z" />
    <glyph glyph-name="lacute" unicode="&#x13a;" horiz-adv-x="307" 
d="M111 749l-28 71l204 125l57 -107l-8 -15zM184 -10q-72 0 -110 39t-27 122l81 564h140l-75 -529q-11 -70 42 -70q19 0 34 7l3 -2l-17 -120q-34 -11 -71 -11z" />
    <glyph glyph-name="Lcommaaccent" unicode="&#x13b;" horiz-adv-x="489" 
d="M199 117h257l-16 -117h-398l94 662h141zM174 -52l114 9l8 -16q-14 -96 -79 -186h-83q23 64 36 138q2 17 4 55z" />
    <glyph glyph-name="lcommaaccent" unicode="&#x13c;" horiz-adv-x="307" 
d="M184 -10q-72 0 -110 39t-27 122l81 564h140l-75 -529q-11 -70 42 -70q19 0 34 7l3 -2l-17 -120q-34 -11 -71 -11zM34 -245q23 64 36 138q2 17 4 55l114 9l8 -16q-14 -96 -79 -186h-83z" />
    <glyph glyph-name="Lcaron" unicode="&#x13d;" horiz-adv-x="495" 
d="M505 666l-72 -225h-78l42 238h99zM277 662l-78 -545h257l-16 -117h-398l94 662h141z" />
    <glyph glyph-name="lcaron" unicode="&#x13e;" horiz-adv-x="328" 
d="M288 481l41 238h99l10 -13l-72 -225h-78zM184 -10q-72 0 -110 39t-27 122l81 564h140l-75 -529q-11 -70 42 -70q19 0 34 7l3 -2l-17 -120q-34 -11 -71 -11z" />
    <glyph glyph-name="Ldot" unicode="&#x13f;" horiz-adv-x="504" 
d="M277 662l-78 -545h257l-16 -117h-398l94 662h141zM425 464q34 0 51 -17.5t17 -45.5q0 -35 -22.5 -58t-64.5 -23q-33 0 -51 17t-18 44q0 34 23.5 58.5t64.5 24.5z" />
    <glyph glyph-name="ldot" unicode="&#x140;" horiz-adv-x="402" 
d="M184 -10q-72 0 -110 39t-27 122l81 564h140l-75 -529q-11 -70 42 -70q19 0 34 7l3 -2l-17 -120q-34 -11 -71 -11zM342 288q-35 0 -52.5 17t-17.5 45q0 35 23 58.5t65 23.5q33 0 50 -18t17 -46q0 -35 -22 -57.5t-63 -22.5z" />
    <glyph glyph-name="Lslash" unicode="&#x141;" horiz-adv-x="489" 
d="M199 117h257l-16 -117h-398l33 233l-68 -41l-5 2l15 105l74 44l45 319h141l-33 -228l72 42h4l-15 -106l-76 -46z" />
    <glyph glyph-name="lslash" unicode="&#x142;" horiz-adv-x="356" 
d="M244 355l-24 -169q-11 -70 42 -70q19 0 34 7l3 -2l-17 -120q-34 -11 -71 -11q-72 0 -110 39t-27 122l17 117l-69 -39l-5 2l15 101l74 42l49 341h140l-36 -254l73 42l5 -2l-15 -102z" />
    <glyph glyph-name="Nacute" unicode="&#x143;" horiz-adv-x="712" 
d="M328 701l-28 71l204 125l57 -107l-8 -15zM42 0l95 667h62l297 -399h3l56 397h134l-95 -666h-60l-296 404h-3l-58 -403h-135z" />
    <glyph glyph-name="nacute" unicode="&#x144;" horiz-adv-x="607" 
d="M488 673l-212 -110l-45 77l176 150l85 -101zM389 533q75 0 121.5 -45.5t46.5 -128.5q0 -26 -3 -53l-44 -306h-142l38 275q3 23 3 35q1 47 -23 68.5t-61 21.5q-39 0 -69.5 -24.5t-40.5 -69.5l-43 -306h-142l74 520h115l4 -69q57 82 166 82z" />
    <glyph glyph-name="Ncommaaccent" unicode="&#x145;" horiz-adv-x="712" 
d="M42 0l95 667h62l297 -399h3l56 397h134l-95 -666h-60l-296 404h-3l-58 -403h-135zM216 -245q23 64 36 138q2 17 4 55l114 9l8 -16q-14 -96 -79 -186h-83z" />
    <glyph glyph-name="ncommaaccent" unicode="&#x146;" horiz-adv-x="607" 
d="M389 533q75 0 121.5 -45.5t46.5 -128.5q0 -26 -3 -53l-44 -306h-142l38 275q3 23 3 35q1 47 -23 68.5t-61 21.5q-39 0 -69.5 -24.5t-40.5 -69.5l-43 -306h-142l74 520h115l4 -69q57 82 166 82zM205 -52l114 9l8 -16q-14 -96 -79 -186h-83q23 64 36 138q2 17 4 55z" />
    <glyph glyph-name="Ncaron" unicode="&#x147;" horiz-adv-x="712" 
d="M391 705l-113 127l53 58l104 -78l119 78l41 -56l-141 -129h-63zM42 0l95 667h62l297 -399h3l56 397h134l-95 -666h-60l-296 404h-3l-58 -403h-135z" />
    <glyph glyph-name="ncaron" unicode="&#x148;" horiz-adv-x="607" 
d="M378 573h-65l-99 148l56 48l92 -84l112 84l42 -48zM389 533q75 0 121.5 -45.5t46.5 -128.5q0 -26 -3 -53l-44 -306h-142l38 275q3 23 3 35q1 47 -23 68.5t-61 21.5q-39 0 -69.5 -24.5t-40.5 -69.5l-43 -306h-142l74 520h115l4 -69q57 82 166 82z" />
    <glyph glyph-name="Eng" unicode="&#x14a;" horiz-adv-x="711" 
d="M689 665l-44 -314l-38 -267q-21 -149 -88 -216t-176 -67q-31 0 -55 4l16 115l1 1q17 -3 36 -3q108 0 129 147l3 19l-235 319h-3l-58 -403h-135l95 667h62l297 -397h3l56 395h134z" />
    <glyph glyph-name="eng" unicode="&#x14b;" horiz-adv-x="606" 
d="M389 533q75 0 121.5 -45.5t46.5 -128.5q0 -26 -3 -53l-48 -327q-14 -99 -70.5 -146.5t-144.5 -47.5q-15 0 -55 4l16 115l2 2q14 -3 24 -3q40 0 61 24.5t29 77.5l38 270q3 23 3 35q1 47 -23 68.5t-61 21.5q-40 0 -70.5 -24.5t-39.5 -68.5l-43 -307h-142l74 520h115l3 -68
q59 81 167 81z" />
    <glyph glyph-name="Omacron" unicode="&#x14c;" horiz-adv-x="751" 
d="M272 743l14 94h306l-13 -94h-307zM365 -13q-137 0 -227 84t-90 227q0 167 100 274t259 107q137 0 227 -85t90 -228q0 -166 -100 -272.5t-259 -106.5zM375 113q93 0 147.5 69t54.5 175q0 91 -48 143.5t-132 52.5q-93 0 -147.5 -69.5t-54.5 -176.5q0 -91 47.5 -142.5
t132.5 -51.5z" />
    <glyph glyph-name="omacron" unicode="&#x14d;" horiz-adv-x="611" 
d="M192 608l13 89h295l-13 -89h-295zM282 -13q-107 0 -176.5 62t-69.5 179q0 133 81.5 219t210.5 86q108 0 177.5 -62t69.5 -181q0 -132 -82 -217.5t-211 -85.5zM294 108q63 0 99.5 52t36.5 124q0 59 -29.5 93t-82.5 34q-65 0 -101 -51.5t-36 -123.5q0 -59 29.5 -93.5
t83.5 -34.5z" />
    <glyph glyph-name="Ohungarumlaut" unicode="&#x150;" horiz-adv-x="751" 
d="M322 706l-61 27l77 179l100 -26v-19zM520 706l-61 27l78 179l100 -26v-19zM365 -13q-137 0 -227 84t-90 227q0 167 100 274t259 107q137 0 227 -85t90 -228q0 -166 -100 -272.5t-259 -106.5zM375 113q93 0 147.5 69t54.5 175q0 91 -48 143.5t-132 52.5
q-93 0 -147.5 -69.5t-54.5 -176.5q0 -91 47.5 -142.5t132.5 -51.5z" />
    <glyph glyph-name="ohungarumlaut" unicode="&#x151;" horiz-adv-x="611" 
d="M240 556l-62 35l97 182l97 -34l-1 -19zM422 556l-60 35l96 182l97 -34l-1 -19zM282 -13q-107 0 -176.5 62t-69.5 179q0 133 81.5 219t210.5 86q108 0 177.5 -62t69.5 -181q0 -132 -82 -217.5t-211 -85.5zM294 108q63 0 99.5 52t36.5 124q0 59 -29.5 93t-82.5 34
q-65 0 -101 -51.5t-36 -123.5q0 -59 29.5 -93.5t83.5 -34.5z" />
    <glyph glyph-name="OE" unicode="&#x152;" horiz-adv-x="978" 
d="M958 552h-288q46 -68 53 -156h196l-15 -110h-187q-16 -99 -77 -174h270l-15 -112h-428q-46 -13 -102 -13q-137 0 -227 84t-90 227q0 167 100 274t259 107q55 0 105 -15h461zM195 307q0 -91 47.5 -142.5t132.5 -51.5q93 0 147.5 69t54.5 175q0 91 -48 143.5t-132 52.5
q-93 0 -147.5 -69.5t-54.5 -176.5z" />
    <glyph glyph-name="oe" unicode="&#x153;" horiz-adv-x="915" 
d="M676 533q97 0 153 -54.5t56 -153.5q0 -46 -14 -102h-325q3 -123 124 -123q77 0 156 44l3 -2l-16 -114q-73 -42 -173 -42q-114 0 -176 83q-71 -83 -193 -83q-103 0 -169.5 62.5t-66.5 169.5q0 144 79.5 229.5t204.5 85.5q124 0 182 -86q75 86 175 86zM556 309h197v18
q0 90 -86 90q-39 -1 -68.5 -29t-42.5 -79zM282 107q59 0 93 49.5t35 130.5q0 57 -24.5 91t-74.5 34q-57 0 -93.5 -51t-36.5 -131q-1 -55 25.5 -89t75.5 -34z" />
    <glyph glyph-name="Racute" unicode="&#x154;" horiz-adv-x="601" 
d="M484 772l-225 -74l-28 71l204 125l57 -107zM572 487q0 -94 -42.5 -154t-112.5 -86l114 -243l-1 -4h-148l-101 228h-67l-32 -228h-140l94 662q83 11 198 11q107 0 172.5 -44t65.5 -142zM260 549l-30 -214h61q60 0 98.5 33.5t38.5 93.5q0 44 -26 67t-73 23q-43 0 -69 -3z
" />
    <glyph glyph-name="racute" unicode="&#x155;" horiz-adv-x="400" 
d="M417 673l-212 -110l-45 77l176 150l85 -101zM222 454q51 78 143 78q27 0 53 -9l-20 -129l-3 -2q-23 9 -50 9q-47 0 -82 -26t-53 -103l-39 -272h-141l74 520h115z" />
    <glyph glyph-name="Rcommaaccent" unicode="&#x156;" horiz-adv-x="601" 
d="M572 487q0 -94 -42.5 -154t-112.5 -86l114 -243l-1 -4h-148l-101 228h-67l-32 -228h-140l94 662q83 11 198 11q107 0 172.5 -44t65.5 -142zM260 549l-30 -214h61q60 0 98.5 33.5t38.5 93.5q0 44 -26 67t-73 23q-43 0 -69 -3zM190 -52l114 9l8 -16q-14 -96 -79 -186h-83
q23 64 36 138q2 17 4 55z" />
    <glyph glyph-name="rcommaaccent" unicode="&#x157;" horiz-adv-x="400" 
d="M365 532q27 0 53 -9l-20 -129l-3 -2q-23 9 -50 9q-47 0 -82 -26t-53 -103l-39 -272h-141l74 520h115l3 -66q51 78 143 78zM35 -52l114 9l8 -16q-14 -96 -79 -186h-83q23 64 36 138q2 17 4 55z" />
    <glyph glyph-name="Rcaron" unicode="&#x158;" horiz-adv-x="601" 
d="M385 702h-63l-113 127l53 58l104 -78l119 78l41 -56zM572 487q0 -94 -42.5 -154t-112.5 -86l114 -243l-1 -4h-148l-101 228h-67l-32 -228h-140l94 662q83 11 198 11q107 0 172.5 -44t65.5 -142zM260 549l-30 -214h61q60 0 98.5 33.5t38.5 93.5q0 44 -26 67t-73 23
q-43 0 -69 -3z" />
    <glyph glyph-name="rcaron" unicode="&#x159;" horiz-adv-x="400" 
d="M307 573h-65l-99 148l56 48l92 -84l112 84l42 -48zM222 454q51 78 143 78q27 0 53 -9l-20 -129l-3 -2q-23 9 -50 9q-47 0 -82 -26t-53 -103l-39 -272h-141l74 520h115z" />
    <glyph glyph-name="Sacute" unicode="&#x15a;" horiz-adv-x="526" 
d="M248 701l-28 71l204 125l57 -107l-8 -15zM208 -12q-113 0 -189 44l19 132l4 1q71 -57 165 -57q56 0 87.5 21.5t31.5 59.5q0 31 -20.5 52.5t-80.5 51.5q-64 32 -101 72.5t-37 102.5q0 103 73.5 157t182.5 54q101 0 165 -30l-17 -124l-3 -1q-59 34 -142 34q-54 1 -85 -16.5
t-31 -50.5q0 -25 19 -40.5t75 -45.5q7 -4 11 -6q63 -32 98 -74.5t35 -108.5q0 -104 -71.5 -166t-188.5 -62z" />
    <glyph glyph-name="sacute" unicode="&#x15b;" horiz-adv-x="475" 
d="M216 572l-45 77l176 150l85 -101l-4 -16zM186 -14q-103 0 -177 38l17 118l4 2q67 -52 171 -52q87 0 87 53q0 22 -20 35t-79 34q-68 23 -99 56.5t-31 85.5q0 82 64.5 129.5t178.5 47.5q93 0 148 -26l-15 -115l-3 -1q-56 29 -141 29q-93 0 -93 -48q0 -19 18.5 -30.5
t76.5 -30.5q68 -22 100 -54t32 -84q0 -88 -64 -137.5t-175 -49.5z" />
    <glyph glyph-name="Scedilla" unicode="&#x15e;" horiz-adv-x="526" 
d="M343 679q101 0 165 -30l-17 -124l-3 -1q-59 34 -142 34q-54 1 -85 -16.5t-31 -50.5q0 -25 19 -40.5t75 -45.5q7 -4 11 -6q63 -32 98 -74.5t35 -108.5q0 -92 -57 -152t-153 -73l-30 -36q4 1 19 1q75 -7 75 -78q0 -64 -44.5 -92t-112.5 -28q-37 0 -62 9l9 64l3 1
q19 -8 40 -8q60 0 60 43q0 29 -36 29q-21 0 -38 -5l-2 1l8 56l31 41q-91 4 -159 43l19 132l4 1q71 -57 165 -57q56 0 87.5 21.5t31.5 59.5q0 31 -20.5 52.5t-80.5 51.5q-64 32 -101 72.5t-37 102.5q0 103 73.5 157t182.5 54z" />
    <glyph glyph-name="scedilla" unicode="&#x15f;" horiz-adv-x="475" 
d="M302 533q93 0 148 -26l-15 -115l-3 -1q-56 29 -141 29q-93 0 -93 -48q0 -19 18.5 -30.5t76.5 -30.5q68 -22 100 -54t32 -84q0 -78 -50.5 -125.5t-139.5 -58.5l-28 -34q4 1 19 1q75 -7 75 -78q0 -64 -44.5 -92t-112.5 -28q-37 0 -62 9l9 64l3 1q19 -8 40 -8q60 0 60 43
q0 29 -36 29q-21 0 -38 -5l-2 1l8 56l30 39q-80 4 -147 37l17 118l4 2q67 -52 171 -52q87 0 87 53q0 22 -20 35t-79 34q-68 23 -99 56.5t-31 85.5q0 82 64.5 129.5t178.5 47.5z" />
    <glyph glyph-name="Scaron" unicode="&#x160;" horiz-adv-x="526" 
d="M311 705l-113 127l53 58l104 -78l119 78l41 -56l-141 -129h-63zM208 -12q-113 0 -189 44l19 132l4 1q71 -57 165 -57q56 0 87.5 21.5t31.5 59.5q0 31 -20.5 52.5t-80.5 51.5q-64 32 -101 72.5t-37 102.5q0 103 73.5 157t182.5 54q101 0 165 -30l-17 -124l-3 -1
q-59 34 -142 34q-54 1 -85 -16.5t-31 -50.5q0 -25 19 -40.5t75 -45.5q7 -4 11 -6q63 -32 98 -74.5t35 -108.5q0 -104 -71.5 -166t-188.5 -62z" />
    <glyph glyph-name="scaron" unicode="&#x161;" horiz-adv-x="475" 
d="M253 582l-99 148l56 48l92 -84l112 84l42 -48l-138 -148h-65zM186 -14q-103 0 -177 38l17 118l4 2q67 -52 171 -52q87 0 87 53q0 22 -20 35t-79 34q-68 23 -99 56.5t-31 85.5q0 82 64.5 129.5t178.5 47.5q93 0 148 -26l-15 -115l-3 -1q-56 29 -141 29q-93 0 -93 -48
q0 -19 18.5 -30.5t76.5 -30.5q68 -22 100 -54t32 -84q0 -88 -64 -137.5t-175 -49.5z" />
    <glyph glyph-name="uni0162" unicode="&#x162;" horiz-adv-x="567" 
d="M321 0h-35l-37 -45q4 1 19 1q75 -7 75 -78q0 -64 -44.5 -92t-112.5 -28q-36 0 -62 9l9 64l3 1q19 -8 40 -8q60 0 60 43q0 29 -36 29q-21 0 -38 -5l-2 1l8 56l40 52h-29l77 536h-202l18 126h539l-18 -126h-196z" />
    <glyph glyph-name="uni0163" unicode="&#x163;" horiz-adv-x="405" 
d="M260 409l-26 -188q-5 -33 -5 -48q0 -54 71 -54q24 0 63 13l2 -1l-17 -118q-33 -17 -89 -19l-32 -39q4 1 19 1q75 -7 75 -78q0 -64 -44.5 -92t-112.5 -28q-37 0 -62 9l9 64l3 1q19 -8 40 -8q60 0 60 43q0 29 -36 29q-21 0 -38 -5l-2 1l8 56l41 53h5q-52 13 -80 48t-28 89
q0 16 2 42l33 229h-87l16 111h87l17 121l143 27l1 -3l-20 -145h140l-15 -111h-141z" />
    <glyph glyph-name="Tcaron" unicode="&#x164;" horiz-adv-x="567" 
d="M381 702h-63l-113 127l53 58l104 -78l119 78l41 -56zM611 662l-18 -126h-196l-76 -536h-142l77 536h-202l18 126h539z" />
    <glyph glyph-name="tcaron" unicode="&#x165;" horiz-adv-x="405" 
d="M487 802l-72 -225h-78l41 238h99zM296 665l-20 -145h140l-15 -111h-141l-26 -188q-5 -33 -5 -48q0 -54 71 -54q24 0 63 13l2 -1l-17 -118q-37 -19 -94 -19q-80 0 -125 38t-45 106q0 16 2 42l33 229h-87l16 111h87l17 121l143 27z" />
    <glyph glyph-name="Tbar" unicode="&#x166;" horiz-adv-x="572" 
d="M595 536h-196l-27 -190h84l-12 -91h-85l-36 -255h-142l37 255h-87l12 91h88l27 190h-202l18 126h539z" />
    <glyph glyph-name="tbar" unicode="&#x167;" horiz-adv-x="405" 
d="M402 409h-141l-12 -90h89l-12 -90h-90l-1 -8q-5 -33 -5 -48q0 -54 71 -54q24 0 63 13l2 -1l-17 -118q-37 -19 -94 -19q-80 0 -125 38t-45 106q0 16 2 42l7 49h-80l12 90h81l13 90h-87l16 111h87l17 121l143 27l1 -3l-20 -145h140z" />
    <glyph glyph-name="Utilde" unicode="&#x168;" horiz-adv-x="693" 
d="M313 709l-79 24q8 53 42 88.5t78 35.5q34 0 73.5 -16.5t57.5 -16.5q14 0 26.5 10.5t15.5 26.5l2 2l80 -24q-8 -54 -41.5 -88.5t-78.5 -34.5q-28 0 -70 16.5t-60 16.5q-17 0 -29.5 -11.5t-14.5 -27.5zM310 -13q-116 0 -178.5 56t-62.5 156q0 45 3 66l56 397h140l-54 -380
q-4 -24 -4 -58q0 -56 31 -86.5t86 -30.5q74 0 111.5 42t49.5 133l54 380h136l-56 -397q-19 -136 -99.5 -207t-212.5 -71z" />
    <glyph glyph-name="utilde" unicode="&#x169;" horiz-adv-x="596" 
d="M259 601l-4 -3l-85 24q6 51 41 88t83 37q32 0 66.5 -17.5t54.5 -17.5q35 0 42 37l3 2l88 -22q-9 -59 -45.5 -92.5t-83.5 -33.5q-30 0 -66 18t-53 18q-34 0 -41 -38zM425 520h142l-75 -520h-115l-3 66q-62 -79 -171 -79q-73 0 -114 40t-41 107q0 25 3 52l48 334h141
l-43 -300q-3 -33 -3 -40q0 -72 74 -72q35 0 64 19t45 55z" />
    <glyph glyph-name="Umacron" unicode="&#x16a;" horiz-adv-x="693" 
d="M259 741l14 94h306l-13 -94h-307zM310 -13q-116 0 -178.5 56t-62.5 156q0 45 3 66l56 397h140l-54 -380q-4 -24 -4 -58q0 -56 31 -86.5t86 -30.5q74 0 111.5 42t49.5 133l54 380h136l-56 -397q-19 -136 -99.5 -207t-212.5 -71z" />
    <glyph glyph-name="umacron" unicode="&#x16b;" horiz-adv-x="596" 
d="M511 705l-13 -89h-295l13 89h295zM425 520h142l-75 -520h-115l-3 66q-62 -79 -171 -79q-73 0 -114 40t-41 107q0 25 3 52l48 334h141l-43 -300q-3 -33 -3 -40q0 -72 74 -72q35 0 64 19t45 55z" />
    <glyph glyph-name="Uring" unicode="&#x16e;" horiz-adv-x="693" 
d="M410 685q-47 0 -76.5 27t-29.5 71q0 51 34.5 84t88.5 33q47 0 76.5 -27t29.5 -71q0 -52 -34.5 -84.5t-88.5 -32.5zM416 749q20 0 33.5 13t13.5 35q0 18 -11.5 28.5t-29.5 10.5q-20 0 -33.5 -13t-13.5 -35q0 -18 11.5 -28.5t29.5 -10.5zM310 -13q-116 0 -178.5 56
t-62.5 156q0 45 3 66l56 397h140l-54 -380q-4 -24 -4 -58q0 -56 31 -86.5t86 -30.5q74 0 111.5 42t49.5 133l54 380h136l-56 -397q-19 -136 -99.5 -207t-212.5 -71z" />
    <glyph glyph-name="uring" unicode="&#x16f;" horiz-adv-x="596" 
d="M347 559q-48 0 -77 29t-29 76q0 55 35.5 90t89.5 35q48 0 77.5 -29t29.5 -75q0 -55 -35.5 -90.5t-90.5 -35.5zM361 721q-21 0 -35 -14t-14 -38q0 -18 12 -29.5t30 -11.5q21 0 35 14t14 38q0 18 -12 29.5t-30 11.5zM425 520h142l-75 -520h-115l-3 66q-62 -79 -171 -79
q-73 0 -114 40t-41 107q0 25 3 52l48 334h141l-43 -300q-3 -33 -3 -40q0 -72 74 -72q35 0 64 19t45 55z" />
    <glyph glyph-name="Uhungarumlaut" unicode="&#x170;" horiz-adv-x="693" 
d="M309 704l-61 27l77 179l100 -26v-19zM507 704l-61 27l78 179l100 -26v-19zM310 -13q-116 0 -178.5 56t-62.5 156q0 45 3 66l56 397h140l-54 -380q-4 -24 -4 -58q0 -56 31 -86.5t86 -30.5q74 0 111.5 42t49.5 133l54 380h136l-56 -397q-19 -136 -99.5 -207t-212.5 -71z
" />
    <glyph glyph-name="uhungarumlaut" unicode="&#x171;" horiz-adv-x="596" 
d="M382 728l-131 -164l-62 35l97 182l97 -34zM433 564l-60 35l96 182l97 -34l-1 -19zM425 520h142l-75 -520h-115l-3 66q-62 -79 -171 -79q-73 0 -114 40t-41 107q0 25 3 52l48 334h141l-43 -300q-3 -33 -3 -40q0 -72 74 -72q35 0 64 19t45 55z" />
    <glyph glyph-name="Uogonek" unicode="&#x172;" horiz-adv-x="693" 
d="M542 662h136l-56 -397q-32 -218 -211 -265q-85 -57 -85 -115q0 -37 37 -37q16 0 29 4l4 -3l-10 -74q-30 -8 -66 -8q-48 0 -78.5 21t-30.5 61q0 77 91 138q-113 2 -173 58t-60 154q0 45 3 66l56 397h140l-54 -380q-4 -24 -4 -58q0 -56 31 -86.5t86 -30.5q74 0 111.5 42
t49.5 133z" />
    <glyph glyph-name="uogonek" unicode="&#x173;" horiz-adv-x="596" 
d="M490 0q-97 -59 -97 -122q0 -37 37 -37q16 0 29 4l4 -3l-10 -74q-30 -8 -66 -8q-48 0 -78.5 21t-30.5 61q0 89 123 158h-24l-3 66q-62 -79 -171 -79q-73 0 -114 40t-41 107q0 25 3 52l48 334h141l-43 -300q-3 -33 -3 -40q0 -72 74 -72q35 0 64 19t45 55l48 338h142
l-75 -520h-2z" />
    <glyph glyph-name="Wcircumflex" unicode="&#x174;" horiz-adv-x="928" 
d="M541 785l-122 -78l-41 56l144 129h64l110 -128l-51 -57zM977 662l1 -3l-299 -664h-106l-74 409l-4 35l-14 -35l-192 -409h-110l-118 664l1 3h149l53 -422l3 -51l19 51l189 417h101l72 -404l5 -55l19 55l170 409h135z" />
    <glyph glyph-name="wcircumflex" unicode="&#x175;" horiz-adv-x="779" 
d="M450 667l-114 -84l-44 49l138 147h65l101 -146l-58 -50zM805 520l2 -4l-237 -516h-110l-48 340l-2 26l-9 -26l-150 -340h-111l-95 516l1 4h142l38 -315v-29l9 28l134 316h126l42 -314l2 -27l8 27l127 314h131z" />
    <glyph glyph-name="Ycircumflex" unicode="&#x176;" horiz-adv-x="593" 
d="M251 702l-41 56l144 129h64l110 -128l-51 -57l-104 78zM191 0l38 267l-168 392l2 3h151l104 -265l182 265h142l2 -3l-277 -399l-37 -260h-139z" />
    <glyph glyph-name="ycircumflex" unicode="&#x177;" horiz-adv-x="525" 
d="M327 657l-114 -84l-44 49l138 147h65l101 -146l-58 -50zM555 516l-249 -477l-7 -14q-56 -109 -108.5 -152.5t-135.5 -43.5q-39 0 -66 10l18 114l3 1q23 -7 47 -7q75 0 120 93l1 3l-134 473l2 4h150l69 -318l146 318h143z" />
    <glyph glyph-name="Ydieresis" unicode="&#x178;" horiz-adv-x="593" 
d="M258 720q-30 0 -49 19t-19 48q0 35 23 56t54 21q30 0 48.5 -19t18.5 -48q0 -34 -22.5 -55.5t-53.5 -21.5zM486 720q-30 0 -49 19t-19 48q0 35 23 56t54 21q30 0 48.5 -19t18.5 -48q0 -34 -22.5 -55.5t-53.5 -21.5zM191 0l38 267l-168 392l2 3h151l104 -265l182 265h142
l2 -3l-277 -399l-37 -260h-139z" />
    <glyph glyph-name="Zacute" unicode="&#x179;" horiz-adv-x="581" 
d="M259 701l-28 71l204 125l57 -107l-8 -15zM14 0l-6 48l381 499h-311l15 115h491l5 -48l-387 -498h325l-16 -116h-497z" />
    <glyph glyph-name="zacute" unicode="&#x17a;" horiz-adv-x="508" 
d="M441 673l-212 -110l-45 77l176 150l85 -101zM486 447l-291 -334h263l-16 -113h-425l-6 69l285 335h-235l14 116h406z" />
    <glyph glyph-name="Zdotaccent" unicode="&#x17b;" horiz-adv-x="581" 
d="M359 717q-35 0 -57.5 22t-22.5 57q0 40 26.5 65t63.5 25q35 0 57 -22.5t22 -55.5q0 -40 -26.5 -65.5t-62.5 -25.5zM14 0l-6 48l381 499h-311l15 115h491l5 -48l-387 -498h325l-16 -116h-497z" />
    <glyph glyph-name="zdotaccent" unicode="&#x17c;" horiz-adv-x="508" 
d="M307 595q-35 0 -57.5 22t-22.5 57q0 40 26.5 65t63.5 25q35 0 57 -22.5t22 -55.5q0 -40 -26.5 -65.5t-62.5 -25.5zM486 447l-291 -334h263l-16 -113h-425l-6 69l285 335h-235l14 116h406z" />
    <glyph glyph-name="Zcaron" unicode="&#x17d;" horiz-adv-x="581" 
d="M322 705l-113 127l53 58l104 -78l119 78l41 -56l-141 -129h-63zM14 0l-6 48l381 499h-311l15 115h491l5 -48l-387 -498h325l-16 -116h-497z" />
    <glyph glyph-name="zcaron" unicode="&#x17e;" horiz-adv-x="508" 
d="M331 573h-65l-99 148l56 48l92 -84l112 84l42 -48zM486 447l-291 -334h263l-16 -113h-425l-6 69l285 335h-235l14 116h406z" />
    <glyph glyph-name="uni01EA" unicode="&#x1ea;" horiz-adv-x="751" 
d="M451 -4q-80 -53 -80 -111q0 -37 37 -37q16 0 29 4l4 -3l-10 -74q-30 -8 -66 -8q-48 0 -78.5 21t-30.5 61q0 77 91 138q-130 6 -214.5 90t-84.5 221q0 167 100 274t259 107q137 0 227 -85t90 -228q0 -142 -74.5 -242t-198.5 -128zM195 307q0 -91 47.5 -142.5t132.5 -51.5
q93 0 147.5 69t54.5 175q0 91 -48 143.5t-132 52.5q-93 0 -147.5 -69.5t-54.5 -176.5z" />
    <glyph glyph-name="uni01EB" unicode="&#x1eb;" horiz-adv-x="611" 
d="M380 2q-89 -57 -89 -117q0 -37 37 -37q16 0 29 4l4 -3l-10 -74q-30 -8 -66 -8q-48 0 -78.5 21t-30.5 61q0 77 91 138q-101 5 -166 67t-65 174q0 133 81.5 219t210.5 86q108 0 177.5 -62t69.5 -181q0 -104 -52.5 -181.5t-142.5 -106.5zM181 236q0 -59 29.5 -93.5
t83.5 -34.5q63 0 99.5 52t36.5 124q0 59 -29.5 93t-82.5 34q-65 0 -101 -51.5t-36 -123.5z" />
    <glyph glyph-name="AEacute" unicode="&#x1fc;" horiz-adv-x="826" 
d="M672 772l-225 -74l-28 71l204 125l57 -107zM811 548h-234l-21 -147h215l-16 -113h-215l-25 -173h243l-16 -115h-386l23 156h-187l-107 -156h-143l468 662h418zM260 255h133l37 252l-85 -128z" />
    <glyph glyph-name="aeacute" unicode="&#x1fd;" horiz-adv-x="914" 
d="M643 673l-212 -110l-45 77l176 150l85 -101zM671 533q97 0 155 -53.5t58 -146.5q0 -48 -14 -108h-339q3 -60 37 -91.5t92 -31.5q86 0 164 43l4 -2l-17 -115q-70 -41 -179 -41q-156 0 -217 112q-62 -112 -189 -112q-93 0 -147.5 58t-54.5 152q0 156 83.5 246t205.5 90
q114 0 180 -62q74 62 178 62zM541 311l207 -1v13q0 93 -91 93q-41 0 -71.5 -28t-44.5 -77zM266 113q42 0 77.5 41t46.5 123q7 51 28 97q-41 38 -101 38q-63 0 -104.5 -54.5t-41.5 -137.5q0 -51 25.5 -79t69.5 -28z" />
    <glyph glyph-name="Oslashacute" unicode="&#x1fe;" horiz-adv-x="751" 
d="M567 772l-225 -74l-28 71l204 125l57 -107zM631 597q93 -87 93 -231q0 -166 -100 -272.5t-259 -106.5q-86 0 -156 35l-55 -75h-93v12l80 110q-93 85 -93 229q0 167 100 274t259 107q83 0 154 -34l50 69h99v-9zM195 307q0 -73 31 -121l255 350q-37 17 -84 17
q-93 0 -147.5 -69.5t-54.5 -176.5zM375 113q93 0 147.5 69t54.5 175q0 74 -32 123l-256 -349q36 -18 86 -18z" />
    <glyph glyph-name="oslashacute" unicode="&#x1ff;" horiz-adv-x="611" 
d="M491 673l-212 -110l-45 77l176 150l85 -101zM498 477q77 -64 77 -187q0 -132 -82 -217.5t-211 -85.5q-52 0 -97 15l-39 -59h-87v12l56 86q-79 66 -79 187q0 133 81.5 219t210.5 86q53 0 98 -15l35 54h94v-9zM181 236q0 -41 15 -71l157 241q-18 5 -35 5q-65 0 -101 -51.5
t-36 -123.5zM294 108q63 0 99.5 52t36.5 124q0 39 -14 69l-158 -240q18 -5 36 -5z" />
    <glyph glyph-name="Scommaaccent" unicode="&#x218;" horiz-adv-x="526" 
d="M208 -12q-113 0 -189 44l19 132l4 1q71 -57 165 -57q56 0 87.5 21.5t31.5 59.5q0 31 -20.5 52.5t-80.5 51.5q-64 32 -101 72.5t-37 102.5q0 103 73.5 157t182.5 54q101 0 165 -30l-17 -124l-3 -1q-59 34 -142 34q-54 1 -85 -16.5t-31 -50.5q0 -25 19 -40.5t75 -45.5
q7 -4 11 -6q63 -32 98 -74.5t35 -108.5q0 -104 -71.5 -166t-188.5 -62zM115 -245q23 64 36 138q2 17 4 55l114 9l8 -16q-14 -96 -79 -186h-83z" />
    <glyph glyph-name="scommaaccent" unicode="&#x219;" horiz-adv-x="475" 
d="M186 -14q-103 0 -177 38l17 118l4 2q67 -52 171 -52q87 0 87 53q0 22 -20 35t-79 34q-68 23 -99 56.5t-31 85.5q0 82 64.5 129.5t178.5 47.5q93 0 148 -26l-15 -115l-3 -1q-56 29 -141 29q-93 0 -93 -48q0 -19 18.5 -30.5t76.5 -30.5q68 -22 100 -54t32 -84
q0 -88 -64 -137.5t-175 -49.5zM94 -245q23 64 36 138q2 17 4 55l114 9l8 -16q-14 -96 -79 -186h-83z" />
    <glyph glyph-name="uni021A" unicode="&#x21a;" horiz-adv-x="567" 
d="M611 662l-18 -126h-196l-76 -536h-142l77 536h-202l18 126h539zM176 -52l114 9l8 -16q-14 -96 -79 -186h-83q23 64 36 138q2 17 4 55z" />
    <glyph glyph-name="uni021B" unicode="&#x21b;" horiz-adv-x="405" 
d="M260 409l-26 -188q-5 -33 -5 -48q0 -54 71 -54q24 0 63 13l2 -1l-17 -118q-37 -19 -94 -19q-80 0 -125 38t-45 106q0 16 2 42l33 229h-87l16 111h87l17 121l143 27l1 -3l-20 -145h140l-15 -111h-141zM154 -52l114 9l8 -16q-14 -96 -79 -186h-83q23 64 36 138q2 17 4 55z
" />
    <glyph glyph-name="uni0237" unicode="&#x237;" horiz-adv-x="292" 
d="M-31 -171q-33 0 -67 6l18 122l3 1q17 -3 34 -3q45 0 68 27t31 79l66 459h140l-70 -492q-14 -100 -72 -149.5t-151 -49.5z" />
    <glyph glyph-name="circumflex" unicode="&#x2c6;" horiz-adv-x="385" 
d="M136 573l-44 49l138 147h65l101 -146l-58 -50l-88 84z" />
    <glyph glyph-name="caron" unicode="&#x2c7;" horiz-adv-x="385" 
d="M206 573l-99 148l56 48l92 -84l112 84l42 -48l-138 -148h-65z" />
    <glyph glyph-name="breve" unicode="&#x2d8;" horiz-adv-x="352" 
d="M225 579q-66 0 -105.5 43t-27.5 116l86 9l3 -3q-2 -31 12.5 -50t43.5 -19t49 19t28 50l4 3l79 -9q-11 -75 -57.5 -117t-114.5 -42z" />
    <glyph glyph-name="dotaccent" unicode="&#x2d9;" horiz-adv-x="290" 
d="M200 595q-35 0 -57.5 22t-22.5 57q0 40 26.5 65t63.5 25q35 0 57 -22.5t22 -55.5q0 -40 -26.5 -65.5t-62.5 -25.5z" />
    <glyph glyph-name="ring" unicode="&#x2da;" horiz-adv-x="316" 
d="M191 559q-48 0 -77 29t-29 76q0 55 35.5 90t89.5 35q48 0 77.5 -29t29.5 -75q0 -55 -35.5 -90.5t-90.5 -35.5zM198 628q21 0 35 14t14 38q0 18 -12 29.5t-30 11.5q-21 0 -35 -14t-14 -38q0 -18 12 -29.5t30 -11.5z" />
    <glyph glyph-name="ogonek" unicode="&#x2db;" horiz-adv-x="212" 
d="M71 -233q-48 0 -78.5 21t-30.5 61q0 91 128 161l86 -2q-99 -59 -99 -123q0 -37 37 -37q16 0 29 4l4 -3l-10 -74q-30 -8 -66 -8z" />
    <glyph glyph-name="tilde" unicode="&#x2dc;" horiz-adv-x="388" 
d="M147 598l-85 24q6 51 41 88t83 37q32 0 66.5 -17.5t54.5 -17.5q35 0 42 37l3 2l88 -22q-9 -59 -45.5 -92.5t-83.5 -33.5q-30 0 -66 18t-53 18q-34 0 -41 -38z" />
    <glyph glyph-name="hungarumlaut" unicode="&#x2dd;" horiz-adv-x="408" 
d="M129 564l-62 35l97 182l97 -34l-1 -19zM311 564l-60 35l96 182l97 -34l-1 -19z" />
    <glyph glyph-name="gravecomb" unicode="&#x300;" 
d="M11 567l-216 101l-5 16l80 104l183 -143z" />
    <glyph glyph-name="acutecomb" unicode="&#x301;" 
d="M-156 563l-45 77l176 150l85 -101l-4 -16z" />
    <glyph glyph-name="uni0302" unicode="&#x302;" 
d="M-248 573l-44 49l138 147h65l101 -146l-58 -50l-88 84z" />
    <glyph glyph-name="tildecomb" unicode="&#x303;" 
d="M-240 598l-85 24q6 51 41 88t83 37q32 0 66.5 -17.5t54.5 -17.5q35 0 42 37l3 2l88 -22q-9 -59 -45.5 -92.5t-83.5 -33.5q-30 0 -66 18t-53 18q-34 0 -41 -38z" />
    <glyph glyph-name="uni0304" unicode="&#x304;" 
d="M-269 616l13 89h295l-13 -89h-295z" />
    <glyph glyph-name="uni0306" unicode="&#x306;" 
d="M-127 579q-66 0 -105.5 43t-27.5 116l86 9l3 -3q-2 -31 12.5 -50t43.5 -19t49 19t28 50l4 3l79 -9q-11 -75 -57.5 -117t-114.5 -42z" />
    <glyph glyph-name="uni0307" unicode="&#x307;" 
d="M-90 595q-35 0 -57.5 22t-22.5 57q0 40 26.5 65t63.5 25q35 0 57 -22.5t22 -55.5q0 -40 -26.5 -65.5t-62.5 -25.5z" />
    <glyph glyph-name="uni0308" unicode="&#x308;" 
d="M-253 599q-34 0 -55.5 21t-21.5 54q0 38 25.5 62t60.5 24q34 0 55 -21t21 -54q0 -38 -25 -62t-60 -24zM-37 599q-33 0 -54.5 21t-21.5 54q0 38 25.5 62t60.5 24q33 0 54.5 -21t21.5 -54q0 -38 -25.5 -62t-60.5 -24z" />
    <glyph glyph-name="uni030A" unicode="&#x30a;" 
d="M-100 559q-48 0 -77 29t-29 76q0 55 35.5 90t89.5 35q48 0 77.5 -29t29.5 -75q0 -55 -35.5 -90.5t-90.5 -35.5zM-93 628q21 0 35 14t14 38q0 18 -12 29.5t-30 11.5q-21 0 -35 -14t-14 -38q0 -18 12 -29.5t30 -11.5z" />
    <glyph glyph-name="uni030B" unicode="&#x30b;" 
d="M-279 564l-62 35l97 182l97 -34l-1 -19zM-97 564l-60 35l96 182l97 -34l-1 -19z" />
    <glyph glyph-name="uni030C" unicode="&#x30c;" 
d="M-178 573l-99 148l56 48l92 -84l112 84l42 -48l-138 -148h-65z" />
    <glyph glyph-name="uni0326" unicode="&#x326;" 
d="M-240 -245q23 64 36 138q2 17 4 55l114 9l8 -16q-14 -96 -79 -186h-83z" />
    <glyph glyph-name="uni0327" unicode="&#x327;" 
d="M-206 -242q-36 0 -62 9l9 64l3 1q19 -8 40 -8q60 0 60 43q0 29 -36 29q-21 0 -38 -5l-2 1l8 56l41 53h78l-38 -46q4 1 19 1q75 -7 75 -78q0 -64 -44.5 -92t-112.5 -28z" />
    <glyph glyph-name="uni0328" unicode="&#x328;" 
d="M-160 -233q-48 0 -78.5 21t-30.5 61q0 91 128 161l86 -2q-99 -59 -99 -123q0 -37 37 -37q16 0 29 4l4 -3l-10 -74q-30 -8 -66 -8z" />
    <glyph glyph-name="uni0335" unicode="&#x335;" 
d="M-359 149l12 90h312l-12 -90h-312z" />
    <glyph glyph-name="uni0336" unicode="&#x336;" 
d="M-643 335l13 92h681l-13 -92h-681z" />
    <glyph glyph-name="uni0337" unicode="&#x337;" 
d="M-300 224l15 101l300 171l5 -2l-15 -102l-300 -170z" />
    <glyph glyph-name="uni0338" unicode="&#x338;" 
d="M-541 -46v12l402 617h94v-9l-409 -620h-87z" />
    <glyph glyph-name="Wgrave" unicode="&#x1e80;" horiz-adv-x="928" 
d="M624 701l-221 83l-8 15l65 103l194 -130zM977 662l1 -3l-299 -664h-106l-74 409l-4 35l-14 -35l-192 -409h-110l-118 664l1 3h149l53 -422l3 -51l19 51l189 417h101l72 -404l5 -55l19 55l170 409h135z" />
    <glyph glyph-name="wgrave" unicode="&#x1e81;" horiz-adv-x="779" 
d="M520 577l-216 101l-5 16l80 104l183 -143zM805 520l2 -4l-237 -516h-110l-48 340l-2 26l-9 -26l-150 -340h-111l-95 516l1 4h142l38 -315v-29l9 28l134 316h126l42 -314l2 -27l8 27l127 314h131z" />
    <glyph glyph-name="Wacute" unicode="&#x1e82;" horiz-adv-x="928" 
d="M663 777l-225 -74l-28 71l204 125l57 -107zM977 662l1 -3l-299 -664h-106l-74 409l-4 35l-14 -35l-192 -409h-110l-118 664l1 3h149l53 -422l3 -51l19 51l189 417h101l72 -404l5 -55l19 55l170 409h135z" />
    <glyph glyph-name="wacute" unicode="&#x1e83;" horiz-adv-x="779" 
d="M582 683l-212 -110l-45 77l176 150l85 -101zM805 520l2 -4l-237 -516h-110l-48 340l-2 26l-9 -26l-150 -340h-111l-95 516l1 4h142l38 -315v-29l9 28l134 316h126l42 -314l2 -27l8 27l127 314h131z" />
    <glyph glyph-name="Wdieresis" unicode="&#x1e84;" horiz-adv-x="928" 
d="M426 725q-30 0 -49 19t-19 48q0 35 23 56t54 21q30 0 48.5 -19t18.5 -48q0 -34 -22.5 -55.5t-53.5 -21.5zM654 725q-30 0 -49 19t-19 48q0 35 23 56t54 21q30 0 48.5 -19t18.5 -48q0 -34 -22.5 -55.5t-53.5 -21.5zM977 662l1 -3l-299 -664h-106l-74 409l-4 35l-14 -35
l-192 -409h-110l-118 664l1 3h149l53 -422l3 -51l19 51l189 417h101l72 -404l5 -55l19 55l170 409h135z" />
    <glyph glyph-name="wdieresis" unicode="&#x1e85;" horiz-adv-x="779" 
d="M336 609q-34 0 -55.5 21t-21.5 54q0 38 25.5 62t60.5 24q34 0 55 -21t21 -54q0 -38 -25 -62t-60 -24zM552 609q-33 0 -54.5 21t-21.5 54q0 38 25.5 62t60.5 24q34 0 55 -21t21 -54q0 -38 -25.5 -62t-60.5 -24zM805 520l2 -4l-237 -516h-110l-48 340l-2 26l-9 -26
l-150 -340h-111l-95 516l1 4h142l38 -315v-29l9 28l134 316h126l42 -314l2 -27l8 27l127 314h131z" />
    <glyph glyph-name="Ygrave" unicode="&#x1ef2;" horiz-adv-x="593" 
d="M456 696l-221 83l-8 15l65 103l194 -130zM191 0l38 267l-168 392l2 3h151l104 -265l182 265h142l2 -3l-277 -399l-37 -260h-139z" />
    <glyph glyph-name="ygrave" unicode="&#x1ef3;" horiz-adv-x="525" 
d="M397 567l-216 101l-5 16l80 104l183 -143zM555 516l-249 -477l-7 -14q-56 -109 -108.5 -152.5t-135.5 -43.5q-39 0 -66 10l18 114l3 1q23 -7 47 -7q75 0 120 93l1 3l-134 473l2 4h150l69 -318l146 318h143z" />
    <glyph glyph-name="uni1EF8" unicode="&#x1ef8;" horiz-adv-x="593" 
d="M268 709l-79 24q8 53 42 88.5t78 35.5q34 0 73.5 -16.5t57.5 -16.5q14 0 26.5 10.5t15.5 26.5l2 2l80 -24q-8 -54 -41.5 -88.5t-78.5 -34.5q-28 0 -70 16.5t-60 16.5q-17 0 -29.5 -11.5t-14.5 -27.5zM191 0l38 267l-168 392l2 3h151l104 -265l182 265h142l2 -3l-277 -399
l-37 -260h-139z" />
    <glyph glyph-name="uni1EF9" unicode="&#x1ef9;" horiz-adv-x="525" 
d="M228 601l-4 -3l-85 24q6 51 41 88t83 37q32 0 66.5 -17.5t54.5 -17.5q35 0 42 37l3 2l88 -22q-9 -59 -45.5 -92.5t-83.5 -33.5q-30 0 -66 18t-53 18q-34 0 -41 -38zM555 516l-249 -477l-7 -14q-56 -109 -108.5 -152.5t-135.5 -43.5q-39 0 -66 10l18 114l3 1q23 -7 47 -7
q75 0 120 93l1 3l-134 473l2 4h150l69 -318l146 318h143z" />
    <glyph glyph-name="endash" unicode="&#x2013;" horiz-adv-x="527" 
d="M56 224l16 115h404l-16 -115h-404z" />
    <glyph glyph-name="emdash" unicode="&#x2014;" horiz-adv-x="847" 
d="M56 224l16 115h725l-15 -115h-726z" />
    <glyph glyph-name="quoteleft" unicode="&#x2018;" horiz-adv-x="229" 
d="M249 706q-28 -94 -36 -148q-6 -37 -11 -102l-111 -20l-15 21q18 114 98 249h75z" />
    <glyph glyph-name="quoteright" unicode="&#x2019;" horiz-adv-x="223" 
d="M72 437q18 63 35 148q5 25 13 103l111 19l14 -20q-16 -110 -97 -250h-76z" />
    <glyph glyph-name="quotesinglbase" unicode="&#x201a;" horiz-adv-x="231" 
d="M-24 -170q21 77 35 148q8 44 13 102l110 19l15 -20q-17 -113 -98 -249h-75z" />
    <glyph glyph-name="quotedblleft" unicode="&#x201c;" horiz-adv-x="398" 
d="M249 706q-28 -94 -36 -148q-6 -37 -11 -102l-111 -20l-15 21q18 114 98 249h75zM417 706q-26 -87 -35 -148q-10 -53 -11 -102l-112 -20l-14 21q16 108 97 249h75z" />
    <glyph glyph-name="quotedblright" unicode="&#x201d;" horiz-adv-x="394" 
d="M72 437q18 63 35 148q5 25 13 103l111 19l14 -20q-16 -110 -97 -250h-76zM240 437q23 79 35 148q8 52 12 103l112 19l14 -20q-18 -110 -98 -250h-75z" />
    <glyph glyph-name="quotedblbase" unicode="&#x201e;" horiz-adv-x="396" 
d="M-25 -170q19 64 35 148q8 44 13 102l111 19l15 -20q-18 -111 -98 -249h-76zM143 -170q19 64 35 148q7 37 12 102l112 19l14 -20q-16 -108 -98 -249h-75z" />
    <glyph glyph-name="dagger" unicode="&#x2020;" horiz-adv-x="567" 
d="M368 513l184 22l-17 -130l-166 13l-87 -504h-95l54 506l-165 -16l18 131l178 -20l10 197l132 -1z" />
    <glyph glyph-name="daggerdbl" unicode="&#x2021;" horiz-adv-x="567" 
d="M169 -86l47 189l-188 -18l19 130l164 -18l33 117l-1 114l-165 -17l18 131l178 -20l9 191h132l-45 -193l183 22l-18 -131l-164 18l-32 -115l1 -115l164 16l-17 -130l-179 18l-8 -189h-131z" />
    <glyph glyph-name="bullet" unicode="&#x2022;" horiz-adv-x="392" 
d="M183 127q-51 0 -84 33t-33 83q0 61 41.5 103t99.5 42q53 0 85 -33.5t32 -83.5q0 -60 -40.5 -102t-100.5 -42z" />
    <glyph glyph-name="ellipsis" unicode="&#x2026;" horiz-adv-x="660" 
d="M90 -11q-35 0 -54 19.5t-19 49.5q0 34 23 58.5t61 24.5q35 0 53.5 -19.5t18.5 -50.5q0 -34 -22.5 -58t-60.5 -24zM301 -11q-35 0 -54 19.5t-19 49.5q0 34 23 58.5t61 24.5q35 0 53.5 -19.5t18.5 -50.5q0 -34 -22.5 -58t-60.5 -24zM510 -11q-35 0 -54 19.5t-19 49.5
q0 34 23 58.5t61 24.5q35 0 53.5 -19.5t18.5 -50.5q0 -34 -22.5 -58t-60.5 -24z" />
    <glyph glyph-name="perthousand" unicode="&#x2030;" horiz-adv-x="1128" 
d="M215 323q-67 0 -109 37.5t-42 110.5q0 90 54 144.5t135 54.5q68 0 110.5 -39t42.5 -110q0 -93 -53.5 -145.5t-137.5 -52.5zM81 12l529 643h108l-529 -643h-108zM226 410q35 0 56 27.5t21 74.5q0 34 -15.5 52.5t-42.5 18.5q-35 0 -56 -28.5t-21 -75.5q0 -69 58 -69z
M542 -6q-67 0 -109 37.5t-42 110.5q0 91 53.5 145t135.5 54q68 0 110.5 -39t42.5 -110q0 -92 -54 -145t-137 -53zM897 -6q-67 0 -109 37.5t-42 110.5q0 91 54 145t137 54q67 0 109 -39t42 -110q0 -93 -53.5 -145.5t-137.5 -52.5zM553 82q35 0 55.5 27t20.5 74q0 34 -15 52.5
t-42 18.5q-36 0 -57 -28.5t-21 -76.5q0 -67 59 -67zM909 82q35 0 55.5 27t20.5 74q0 34 -15 52.5t-42 18.5q-36 0 -57 -28.5t-21 -76.5q0 -67 59 -67z" />
    <glyph glyph-name="guilsinglleft" unicode="&#x2039;" horiz-adv-x="334" 
d="M211 94l-100 198l153 185h134l-2 -12l-149 -180l94 -182l-2 -9h-128z" />
    <glyph glyph-name="guilsinglright" unicode="&#x203a;" horiz-adv-x="333" 
d="M204 477l100 -198l-153 -185h-134l2 12l149 180l-94 182l2 9h128z" />
    <glyph glyph-name="fraction" unicode="&#x2044;" horiz-adv-x="184" 
d="M-192 -11l488 678h102l-490 -678h-100z" />
    <glyph glyph-name="Euro" unicode="&#x20ac;" horiz-adv-x="637" 
d="M537 681q83 0 144 -19l-18 -130l-3 -1q-53 24 -120 24q-79 0 -135.5 -37.5t-81.5 -103.5h201l-43 -147h-174q10 -72 57 -112t120 -40q59 0 121 28l2 -2l-16 -125q-61 -28 -130 -28q-132 0 -214.5 74.5t-89.5 204.5h-102l42 147h77q36 124 134 195.5t229 71.5z" />
    <glyph glyph-name="trademark" unicode="&#x2122;" horiz-adv-x="826" 
d="M385 562h-97l-31 -221h-108l30 221h-99l15 103h305zM690 665h106l-17 -324h-101l9 151h-1l-82 -151h-65l-37 154h-2l-34 -154h-102l75 324h110l46 -182z" />
    <glyph glyph-name="minus" unicode="&#x2212;" horiz-adv-x="554" 
d="M60 246l14 98h430l-14 -98h-430z" />
    <glyph glyph-name="approxequal" unicode="&#x2248;" horiz-adv-x="516" 
d="M152 321l-81 12q8 57 45.5 93t89.5 36q37 0 83 -18t72 -18q38 0 45 39l4 2l74 -15q-8 -55 -44 -90t-89 -35q-29 0 -76.5 18.5t-71.5 18.5q-19 0 -32 -11t-16 -29zM123 115l-81 11q8 58 45 94t90 36q37 0 82.5 -18t71.5 -18q38 0 45 38l5 3l74 -15q-8 -56 -44.5 -90.5
t-88.5 -34.5q-30 0 -77 18t-70 18q-43 0 -49 -40z" />
    <glyph glyph-name="notequal" unicode="&#x2260;" horiz-adv-x="578" 
d="M529 356h-128l-77 -130h186l-13 -96h-230l-65 -110h-113l65 110h-110l13 96h154l77 130h-212l14 96h255l60 102h113l-60 -102h85z" />
    <glyph glyph-name="uniF8FF" unicode="&#xf8ff;" horiz-adv-x="1468" 
d="M723 518q-26 0 -44 17.5t-18 42.5q0 26 18 44t44 18t44 -18t18 -44q0 -25 -18 -42.5t-44 -17.5zM64 268q0 135 9 311h101q10 -195 10 -311h-120zM574 262q-83 0 -83 65q0 13 2 49.5t2 37.5h-22l-1 78l121 30l1 -17h179q11 -62 11 -237h-119q0 90 3 146h-62l3 -65
q4 -4 15 -4q13 0 18 5v-73q-14 -15 -68 -15zM295 263q-94 0 -94 113q0 134 136 134q125 0 125 -116v-126h-83l-8 60q-13 -65 -76 -65zM806 268q0 173 10 237h81q6 -44 6 -75q1 10 4.5 20.5t11.5 25.5t25 24.5t40 9.5q42 0 58.5 -25t18.5 -80l4 -137h-115q-1 27 0 58t1 33
q0 17 -3 23.5t-12 6.5q-18 0 -18 -29q0 -7 1.5 -36.5t1.5 -55.5h-115zM1204 263q-123 0 -123 123q0 124 125 124q122 0 122 -123q0 -124 -124 -124zM333 342q25 0 25 30q0 26 -25 26q-22 0 -22 -26q0 -30 22 -30zM1204 342q23 0 23 30q0 26 -23 26q-21 0 -21 -26
q0 -30 21 -30zM358 -50q-62 0 -89 17v83q24 -16 71 -16q21 0 34 6t16.5 11.5t3.5 9.5q-17 -11 -49 -11q-91 0 -91 83v13h-56l3 -65q6 -4 16 -4q13 0 18 5v-72q-19 -15 -69 -15q-45 0 -63.5 17t-18.5 54q0 38 3 80h-19v79l118 29l-1 -18h180v-118q0 -16 3 -21.5t12 -5.5
q16 0 16 27v118h105q10 -52 10 -138q0 -80 -34 -114t-119 -34zM528 -44q0 154 9 280h79q7 -42 7 -76q17 81 81 81q38 0 59.5 -29t21.5 -84q0 -133 -138 -133q1 -15 1 -39h-120zM944 -5q-143 0 -143 121q0 58 33 91.5t93 33.5q56 0 87 -30t31 -85q0 -22 -3 -35h-126
q11 -18 51 -18q34 0 55 12l1 -74q-25 -16 -79 -16zM911 108h41q3 27 -17 27q-24 0 -24 -27zM641 71q5 0 12.5 2.5t16 11.5t8.5 23q0 23 -20 23q-22 0 -22 -31q0 -14 5 -29zM1073 -10q-24 0 -24 23t24 23t24 -23t-24 -23zM1073 -5q18 0 18 18t-18 18t-18 -18t18 -18zM1063 2
v23h11q10 0 10 -7t-7 -7l6 -9h-6l-4 9h-5v-9h-5zM1068 15h7q4 0 4 3t-4 3h-7v-6z" />
    <glyph glyph-name="i.loclTRK" horiz-adv-x="275" 
d="M192 595q-35 0 -57.5 22t-22.5 57q0 40 26.5 65t63.5 25q35 0 57 -22.5t22 -55.5q0 -40 -26.5 -65.5t-62.5 -25.5zM30 0l74 520h141l-74 -520h-141z" />
    <glyph glyph-name="caroncomb.alt" 
d="M-117 481l41 238h99l10 -13l-72 -225h-78z" />
    <glyph glyph-name="uni0308.case" 
d="M-260 725q-30 0 -49 19t-19 48q0 35 23 56t54 21q30 0 48.5 -19t18.5 -48q0 -34 -22.5 -55.5t-53.5 -21.5zM-32 725q-30 0 -49 19t-19 48q0 35 23 56t54 21q30 0 48.5 -19t18.5 -48q0 -34 -22.5 -55.5t-53.5 -21.5z" />
    <glyph glyph-name="uni0307.case" 
d="M-54 719q-35 0 -57.5 22t-22.5 57q0 40 26.5 65t63.5 25q35 0 57 -22.5t22 -55.5q0 -40 -26.5 -65.5t-62.5 -25.5z" />
    <glyph glyph-name="gravecomb.case" 
d="M3 701l-221 83l-8 15l65 103l194 -130z" />
    <glyph glyph-name="acutecomb.case" 
d="M-180 703l-28 71l204 125l57 -107l-8 -15z" />
    <glyph glyph-name="uni030B.case" 
d="M-256 709l-61 27l77 179l100 -26v-19zM-58 709l-61 27l78 179l100 -26v-19z" />
    <glyph glyph-name="uni0302.case" 
d="M-231 707l-41 56l144 129h64l110 -128l-51 -57l-104 78z" />
    <glyph glyph-name="uni030C.case" 
d="M-150 707l-113 127l53 58l104 -78l119 78l41 -56l-141 -129h-63z" />
    <glyph glyph-name="uni0306.case" 
d="M-106 716q-69 0 -110 42.5t-31 112.5l89 9q-2 -34 13.5 -54t48.5 -20q31 0 53.5 20.5t28.5 53.5l80 -9q-9 -70 -57.5 -112.5t-114.5 -42.5z" />
    <glyph glyph-name="uni030A.case" 
d="M-73 690q-47 0 -76.5 27t-29.5 71q0 51 34.5 84t88.5 33q47 0 76.5 -27t29.5 -71q0 -52 -34.5 -84.5t-88.5 -32.5zM-67 754q20 0 33.5 13t13.5 35q0 18 -11.5 28.5t-29.5 10.5q-20 0 -33.5 -13t-13.5 -35q0 -18 11.5 -28.5t29.5 -10.5z" />
    <glyph glyph-name="tildecomb.case" 
d="M-230 714l-79 24q8 53 42 88.5t78 35.5q34 0 73.5 -16.5t57.5 -16.5q14 0 26.5 10.5t15.5 26.5l2 2l80 -24q-8 -54 -41.5 -88.5t-78.5 -34.5q-28 0 -70 16.5t-60 16.5q-17 0 -29.5 -11.5t-14.5 -27.5z" />
    <glyph glyph-name="uni0304.case" 
d="M-257 746l14 94h306l-13 -94h-307z" />
    <glyph glyph-name="uni0337.case" 
d="M-309 190l15 105l299 177h4l-15 -106l-298 -178z" />
    <glyph glyph-name="uni0338.case" 
d="M-673 -53v12l550 755h99v-9l-556 -758h-93z" />
    <glyph glyph-name="caron.alt" horiz-adv-x="181" 
d="M65 481l41 238h99l10 -13l-72 -225h-78z" />
    <glyph glyph-name="acute.case" horiz-adv-x="310" 
d="M130 703l-28 71l204 125l57 -107l-8 -15z" />
    <glyph glyph-name="breve.case" horiz-adv-x="352" 
d="M246 716q-69 0 -110 42.5t-31 112.5l89 9q-2 -34 13.5 -54t48.5 -20q31 0 53.5 20.5t28.5 53.5l80 -9q-9 -70 -57.5 -112.5t-114.5 -42.5z" />
    <glyph glyph-name="caron.case" horiz-adv-x="367" 
d="M218 707l-113 127l53 58l104 -78l119 78l41 -56l-141 -129h-63z" />
    <glyph glyph-name="circumflex.case" horiz-adv-x="367" 
d="M136 707l-41 56l144 129h64l110 -128l-51 -57l-104 78z" />
    <glyph glyph-name="dieresis.case" horiz-adv-x="436" 
d="M176 725q-30 0 -49 19t-19 48q0 35 23 56t54 21q30 0 48.5 -19t18.5 -48q0 -34 -22.5 -55.5t-53.5 -21.5zM404 725q-30 0 -49 19t-19 48q0 35 23 56t54 21q30 0 48.5 -19t18.5 -48q0 -34 -22.5 -55.5t-53.5 -21.5z" />
    <glyph glyph-name="dotaccent.case" horiz-adv-x="249" 
d="M195 719q-35 0 -57.5 22t-22.5 57q0 40 26.5 65t63.5 25q35 0 57 -22.5t22 -55.5q0 -40 -26.5 -65.5t-62.5 -25.5z" />
    <glyph glyph-name="grave.case" horiz-adv-x="309" 
d="M313 701l-221 83l-8 15l65 103l194 -130z" />
    <glyph glyph-name="hungarumlaut.case" horiz-adv-x="446" 
d="M190 709l-61 27l77 179l100 -26v-19zM388 709l-61 27l78 179l100 -26v-19z" />
    <glyph glyph-name="macron.case" horiz-adv-x="376" 
d="M89 746l14 94h306l-13 -94h-307z" />
    <glyph glyph-name="ring.case" horiz-adv-x="276" 
d="M203 690q-47 0 -76.5 27t-29.5 71q0 51 34.5 84t88.5 33q47 0 76.5 -27t29.5 -71q0 -52 -34.5 -84.5t-88.5 -32.5zM209 754q20 0 33.5 13t13.5 35q0 18 -11.5 28.5t-29.5 10.5q-20 0 -33.5 -13t-13.5 -35q0 -18 11.5 -28.5t29.5 -10.5z" />
    <glyph glyph-name="tilde.case" horiz-adv-x="397" 
d="M167 714l-79 24q8 53 42 88.5t78 35.5q34 0 73.5 -16.5t57.5 -16.5q14 0 26.5 10.5t15.5 26.5l2 2l80 -24q-8 -54 -41.5 -88.5t-78.5 -34.5q-28 0 -70 16.5t-60 16.5q-17 0 -29.5 -11.5t-14.5 -27.5z" />
    <glyph glyph-name="IJacute" horiz-adv-x="669" 
d="M125 705l-28 71l204 125l57 -107l-8 -15zM500 705l-28 71l204 125l57 -107l-8 -15zM42 0l91 662h142l-92 -662h-141zM334 -3q-29 0 -57 4l18 118l4 1q14 -3 32 -3q105 0 126 141l58 404h142l-56 -390q-39 -275 -267 -275z" />
    <glyph glyph-name="ijacute" horiz-adv-x="565" 
d="M118 563l-44 62l164 154l80 -90l-4 -16zM410 563l-44 62l164 154l80 -90l-4 -16zM30 0l74 520h141l-74 -520h-141zM242 -171q-32 0 -67 6l18 122l2 1q18 -3 35 -3q46 0 68.5 26.5t30.5 79.5l66 459h140l-70 -492q-14 -100 -72 -149.5t-151 -49.5z" />
    </font>
</defs>
</svg>
