<?xml version="1.0" standalone="no"?>
<!DOCTYPE svg PUBLIC "-//W3C//DTD SVG 1.1//EN" "http://www.w3.org/Graphics/SVG/1.1/DTD/svg11.dtd" >
<svg xmlns="http://www.w3.org/2000/svg" xmlns:xlink="http://www.w3.org/1999/xlink" version="1.1">
<metadata>
Created by FontForge 20170731 at Thu Mar  2 15:41:51 2017
 By Aleksey,,,
Copyright (c) 2017 by Alfonso Garci'a - Latinotype Team. All rights reserved.
</metadata>
<defs>
<font id="RawsonAlt-ExtraBlack" horiz-adv-x="0" >
  <font-face 
    font-family="Rawson Alt ExtraBlack"
    font-weight="900"
    font-stretch="normal"
    units-per-em="1100"
    panose-1="0 0 10 0 0 0 0 0 0 0"
    ascent="880"
    descent="-220"
    x-height="516"
    cap-height="663"
    bbox="-736 -262 1351 979"
    underline-thickness="50"
    underline-position="-200"
    unicode-range="U+0020-FB02"
  />
<missing-glyph horiz-adv-x="500" 
 />
    <glyph glyph-name="fi" unicode="fi" horiz-adv-x="707" 
d="M548 562q-49 0 -84 35t-35 84t35 83.5t84 34.5q50 0 84.5 -34.5t34.5 -83.5t-34.5 -84t-84.5 -35zM96 471q0 116 65 182t170 66q42 0 73 -8v-179l-2 -1q-22 5 -36 5q-63 0 -63 -67v-4h74v-160h-74v-305h-207v305h-71v160h71v6zM445 0v516h206v-516h-206z" />
    <glyph glyph-name="fl" unicode="fl" horiz-adv-x="708" 
d="M96 471q0 116 65 182t170 66q35 0 73 -6v-181l-2 -1q-22 5 -36 5q-63 0 -63 -67v-4h74v-159h-74v-306h-207v306h-71v159h71v6zM446 710h207v-710h-207v710z" />
    <glyph glyph-name=".notdef" horiz-adv-x="500" 
 />
    <glyph glyph-name=".null" 
 />
    <glyph glyph-name="nonmarkingreturn" horiz-adv-x="366" 
 />
    <glyph glyph-name="space" unicode=" " horiz-adv-x="219" 
 />
    <glyph glyph-name="exclam" unicode="!" horiz-adv-x="319" 
d="M73 251l-14 453h203l-14 -453h-175zM158 -13q-53 0 -80.5 29t-27.5 72q0 44 27.5 71.5t80.5 27.5t80 -27.5t27 -71.5t-27 -72.5t-80 -28.5z" />
    <glyph glyph-name="quotedbl" unicode="&#x22;" horiz-adv-x="435" 
d="M61 386l-12 274h144l17 -15l-45 -259h-104zM250 386l-12 274h144l17 -15l-45 -259h-104z" />
    <glyph glyph-name="numbersign" unicode="#" horiz-adv-x="650" 
d="M606 262v-134h-121l-18 -107h-134l18 107h-98l-17 -107h-134l18 107h-75v134h96l13 75h-111v134h133l17 106h133l-17 -106h98l17 106h134l-17 -106h63v-134h-85l-13 -75h100zM275 262h97l13 75h-98z" />
    <glyph glyph-name="dollar" unicode="$" horiz-adv-x="523" 
d="M486 240q0 -130 -129 -167v-105h-192v97q-57 8 -120 30v162l2 1q87 -56 185 -56q71 0 71 20q0 12 -17 20t-90 30q-153 45 -153 161q0 64 37.5 108t105.5 63v108h191v-99q56 -7 91 -21v-164l-2 -1q-24 14 -71.5 23.5t-84.5 9.5q-57 0 -57 -21q0 -6 16 -12.5t71 -24.5
q79 -26 112.5 -65.5t33.5 -96.5z" />
    <glyph glyph-name="percent" unicode="%" horiz-adv-x="867" 
d="M213 302q-83 0 -134 44.5t-51 133.5q0 88 52.5 136t133.5 48q84 0 136 -48t52 -136q0 -89 -51.5 -133.5t-137.5 -44.5zM133 13l463 635h147l-463 -635h-147zM213 419q25 0 37 14t12 47q0 66 -49 66q-44 0 -44 -66q0 -33 10.5 -47t33.5 -14zM649 -4q-83 0 -134.5 44.5
t-51.5 132.5t52.5 136t133.5 48q84 0 136 -47.5t52 -136.5q0 -88 -51.5 -132.5t-136.5 -44.5zM649 112q48 0 48 61q0 66 -48 66q-45 0 -45 -66q0 -61 45 -61z" />
    <glyph glyph-name="ampersand" unicode="&#x26;" horiz-adv-x="712" 
d="M719 0h-223l-33 35q-86 -53 -194 -53q-100 0 -169 47t-69 146q0 132 117 205q-43 61 -43 130q0 81 56 129.5t159 48.5q83 0 147 -26v-163l-3 -1q-62 23 -115 23q-50 0 -50 -20q0 -14 12.5 -31t80.5 -94l88 -102q1 3 12 35h-38v144h262v-144h-62q-21 -87 -68 -156z
M300 153q24 0 49 5l-98 105l-3 3q-24 -23 -24 -55q0 -27 19.5 -42.5t56.5 -15.5z" />
    <glyph glyph-name="quotesingle" unicode="'" horiz-adv-x="246" 
d="M61 386l-12 274h144l17 -15l-45 -259h-104z" />
    <glyph glyph-name="parenleft" unicode="(" horiz-adv-x="379" 
d="M276 -187q-40 19 -80.5 58t-79 98.5t-62.5 147t-24 187.5q0 96 24 182.5t62 146t79 100t81 59.5l78 -142q-125 -107 -125 -345q0 -236 125 -352z" />
    <glyph glyph-name="parenright" unicode=")" horiz-adv-x="380" 
d="M104 803q40 -19 80.5 -58t79 -98.5t62.5 -147t24 -187.5q0 -96 -24 -182.5t-62 -146t-79 -100t-81 -59.5l-78 142q125 107 125 345q0 236 -125 352z" />
    <glyph glyph-name="asterisk" unicode="*" horiz-adv-x="529" 
d="M241 557l-15 7l-87 137l5 14l122 34l19 -14l-8 -158l-9 -12zM326 537l-15 3l-20 19l-2 16l76 146l15 2l89 -91l-2 -22zM204 505l-164 -7l-8 12l32 122l22 10l132 -86l6 -14l-8 -28zM447 389l-133 86l-5 14l6 26l12 10l164 8l10 -12l-33 -123zM153 309l-89 89l2 24l140 72
l16 -3l20 -18l2 -16l-75 -146zM266 282l-19 13l8 159l10 11l26 8l14 -6l89 -138l-5 -15z" />
    <glyph glyph-name="plus" unicode="+" horiz-adv-x="564" 
d="M535 356v-129h-187v-187h-132v187h-187v129h188v187h131v-187h187z" />
    <glyph glyph-name="comma" unicode="," horiz-adv-x="283" 
d="M41 -148q18 87 18 176q0 57 -5 123l153 17l24 -29q0 -77 -21 -155.5t-56 -131.5h-113z" />
    <glyph glyph-name="hyphen" unicode="-" horiz-adv-x="427" 
d="M54 205v167h319v-167h-319z" />
    <glyph glyph-name="period" unicode="." horiz-adv-x="282" 
d="M140 -17q-48 0 -75 27.5t-27 69.5q0 43 27 71.5t75 28.5q49 0 76 -28.5t27 -71.5t-26.5 -70t-76.5 -27z" />
    <glyph glyph-name="slash" unicode="/" horiz-adv-x="539" 
d="M22 -123l313 873h183l-313 -873h-183z" />
    <glyph glyph-name="zero" unicode="0" horiz-adv-x="683" 
d="M339 -16q-135 0 -218 85t-83 257t84.5 263t217.5 91q138 0 221.5 -90t83.5 -264q0 -172 -83.5 -257t-222.5 -85zM340 155q90 0 90 171q0 180 -90 180q-87 0 -87 -180q0 -171 87 -171z" />
    <glyph glyph-name="one" unicode="1" horiz-adv-x="438" 
d="M163 0v401l-127 -46h-7v211l299 110h32v-676h-197z" />
    <glyph glyph-name="two" unicode="2" horiz-adv-x="605" 
d="M32 0q0 56 13.5 102t45.5 90t63.5 76t88.5 84q64 48 81 66.5t17 40.5q0 21 -18.5 31t-67.5 10q-61 0 -115.5 -19t-84.5 -40h-2l-1 181q96 58 232 58q49 0 92.5 -10t82.5 -31.5t62 -61t23 -92.5q0 -34 -6.5 -60t-14 -43.5t-33.5 -43t-43.5 -40t-65.5 -52.5
q-68 -63 -67 -80h253v-166h-535z" />
    <glyph glyph-name="three" unicode="3" horiz-adv-x="562" 
d="M437 359q84 -48 91 -147q0 -103 -77.5 -165.5t-210.5 -62.5q-112 0 -196 37v171l2 1q67 -37 166 -37q120 0 120 61q0 26 -25 38t-104 13h-70v148h70q97 0 97 47q0 24 -18 34t-61 10q-116 0 -167 -22l-2 1v168q119 27 200 27q51 0 93 -9.5t77.5 -30t55.5 -57.5t20 -89
q0 -81 -61 -136z" />
    <glyph glyph-name="four" unicode="4" horiz-adv-x="636" 
d="M600 243v-148h-78v-95h-185v95h-324v96l348 475h161v-423h78zM243 243h94v131z" />
    <glyph glyph-name="five" unicode="5" horiz-adv-x="579" 
d="M270 -16q-119 0 -219 25v179l2 1q92 -34 196 -34q94 0 94 63q0 58 -93 58q-102 0 -195 -24l-3 3l21 413h434v-167h-272l-5 -66q30 6 73 6q110 0 174 -50.5t64 -161.5q0 -58 -18.5 -103t-46.5 -71t-66 -43t-71.5 -22.5t-68.5 -5.5z" />
    <glyph glyph-name="six" unicode="6" horiz-adv-x="628" 
d="M375 456q96 0 157 -57t61 -161q0 -113 -73 -184t-210 -71q-134 0 -203.5 83t-69.5 231q0 181 99.5 282t262.5 101q97 0 145 -15v-164l-6 -4q-49 15 -132 15q-123 0 -161 -96q54 40 130 40zM316 151q84 0 84 69q0 31 -18.5 50.5t-57.5 19.5q-72 0 -85 -77q17 -62 77 -62z
" />
    <glyph glyph-name="seven" unicode="7" horiz-adv-x="546" 
d="M73 0l222 476h-269v187h500v-107l-241 -556h-212z" />
    <glyph glyph-name="eight" unicode="8" horiz-adv-x="632" 
d="M489 348q57 -35 80.5 -73.5t23.5 -92.5q0 -88 -74.5 -143t-202.5 -55q-137 0 -207.5 46t-70.5 132q0 102 103 174q-83 59 -83 146q0 66 39 112t98 66t133 20q66 0 122.5 -17.5t95.5 -59.5t39 -102q0 -96 -96 -153zM317 516q-71 0 -71 -33q0 -14 18.5 -27t79.5 -39
q55 24 55 57q0 42 -82 42zM328 138q48 0 64 10t16 29q0 17 -22.5 32.5t-111.5 54.5q-44 -30 -44 -74q0 -52 98 -52z" />
    <glyph glyph-name="nine" unicode="9" horiz-adv-x="633" 
d="M314 681q132 0 206.5 -89t74.5 -246q0 -185 -83.5 -274t-235.5 -89q-123 0 -195 27v177l6 3q73 -34 168 -34q66 -1 98 23.5t42 68.5q-52 -34 -128 -34q-100 0 -165 56.5t-65 158.5q0 116 70 184t207 68zM236 442q0 -29 17 -47t52 -18q63 0 94 16q-14 116 -95 116
q-34 0 -51 -19t-17 -48z" />
    <glyph glyph-name="colon" unicode=":" horiz-adv-x="319" 
d="M159 337q-53 0 -80 27.5t-27 70.5t27.5 72.5t79.5 29.5q53 0 80.5 -29t27.5 -73t-27.5 -71t-80.5 -27zM159 -17q-52 0 -79.5 27.5t-27.5 71.5t27.5 73t79.5 29q53 0 80.5 -29t27.5 -73t-27.5 -71.5t-80.5 -27.5z" />
    <glyph glyph-name="semicolon" unicode=";" horiz-adv-x="306" 
d="M149 336q-48 0 -75 27.5t-27 69.5q0 43 27 71.5t75 28.5q49 0 76 -28.5t27 -71.5t-26.5 -70t-76.5 -27zM53 -148q18 87 18 176q0 57 -5 123l153 17l24 -29q0 -77 -21 -155.5t-56 -131.5h-113z" />
    <glyph glyph-name="less" unicode="&#x3c;" horiz-adv-x="507" 
d="M189 301l26 -11l259 -151l-65 -119l-381 219v122l381 220l65 -118l-260 -151z" />
    <glyph glyph-name="equal" unicode="=" horiz-adv-x="628" 
d="M55 338v132h518v-132h-518zM55 107v132h518v-132h-518z" />
    <glyph glyph-name="greater" unicode="&#x3e;" horiz-adv-x="507" 
d="M99 580l381 -219v-122l-381 -220l-65 118l260 151l25 11l-26 11l-259 151z" />
    <glyph glyph-name="question" unicode="?" horiz-adv-x="462" 
d="M88 229q-1 74 20 114t76 74q29 22 38.5 35t9.5 30q0 24 -15.5 34t-52.5 10q-65 0 -117 -23l-2 1l-1 176q60 22 149 22q48 0 90 -11t76.5 -33.5t55 -61.5t20.5 -90q0 -61 -26 -99.5t-81 -79.5q-40 -29 -51 -49t-11 -46zM184 -15q-53 0 -80.5 27.5t-27.5 70.5
q0 44 27.5 73.5t80.5 29.5q52 0 79.5 -29.5t27.5 -73.5q0 -43 -27.5 -70.5t-79.5 -27.5z" />
    <glyph glyph-name="at" unicode="@" horiz-adv-x="858" 
d="M618 68q-86 0 -118 51v-1q-9 -21 -37 -38t-66 -17q-73 0 -118.5 50t-45.5 138q0 89 51.5 142t130.5 53q51 0 86 -20l3 10h118q-54 64 -168 64q-120 0 -187 -69t-67 -181q0 -114 63.5 -176.5t176.5 -62.5q99 0 156 41h5l73 -112q-77 -71 -235 -71q-192 0 -298 103
t-106 278q0 173 112.5 283.5t306.5 110.5q160 0 267.5 -87.5t107.5 -239.5q0 -107 -50.5 -178t-160.5 -71zM663 307q0 77 -38 126v-217q0 -12 11 -12q27 0 27 103zM440 199q10 0 21 5.5t14 14.5v92q-15 9 -37 9q-23 0 -37 -16t-14 -45q0 -60 53 -60z" />
    <glyph glyph-name="A" unicode="A" horiz-adv-x="656" 
d="M461 0l-23 53h-226l-21 -53h-204l291 661h92l304 -661h-213zM266 190h111l-40 90l-19 53l-17 -53z" />
    <glyph glyph-name="B" unicode="B" horiz-adv-x="625" 
d="M491 361q104 -47 104 -159q0 -98 -69.5 -150t-182.5 -52h-276v663q73 9 211 9q279 0 279 -182q0 -84 -66 -129zM308 511q-25 0 -43 -2v-107h35q68 0 68 57q0 24 -16.5 38t-43.5 14zM323 149q34 0 53.5 15.5t19.5 44.5q0 27 -20.5 41.5t-56.5 14.5h-54v-116h58z" />
    <glyph glyph-name="C" unicode="C" horiz-adv-x="596" 
d="M392 -12q-156 0 -257.5 89.5t-101.5 246.5q0 167 97.5 261.5t257.5 94.5q88 0 164 -19v-192l-3 -2q-63 28 -131 28q-173 0 -173 -161t179 -161q64 0 123 21l5 -4v-185q-76 -17 -160 -17z" />
    <glyph glyph-name="D" unicode="D" horiz-adv-x="733" 
d="M339 674q164 0 262 -90t98 -244q0 -164 -103 -252.5t-279 -88.5q-217 0 -250 1v663q114 11 272 11zM339 179q149 2 149 157q0 78 -44 115.5t-108 37.5q-37 0 -65 -4v-305q12 -1 68 -1z" />
    <glyph glyph-name="E" unicode="E" horiz-adv-x="575" 
d="M272 162h256v-162h-461v663h454v-161h-249v-83h230v-157h-230v-100z" />
    <glyph glyph-name="F" unicode="F" horiz-adv-x="544" 
d="M512 479h-240v-98h205v-180h-205v-201h-205v663h445v-184z" />
    <glyph glyph-name="G" unicode="G" horiz-adv-x="673" 
d="M400 -11q-173 0 -269.5 85.5t-96.5 254.5q0 165 105.5 258t291.5 93q102 0 171 -24l-1 -196l-4 -2q-66 37 -172 37q-87 0 -133 -42.5t-46 -123.5q0 -77 43 -116.5t122 -39.5q25 0 34 -2v165h183l1 -319q-113 -28 -229 -28z" />
    <glyph glyph-name="H" unicode="H" horiz-adv-x="754" 
d="M481 663h206v-663h-206v236h-209v-236h-205v663h205v-241h209v241z" />
    <glyph glyph-name="I" unicode="I" horiz-adv-x="340" 
d="M67 0v663h206v-663h-206z" />
    <glyph glyph-name="J" unicode="J" horiz-adv-x="408" 
d="M79 -3q-32 0 -64 4v172l4 2q17 -3 32 -3q52 0 72 32.5t20 90.5v368h206v-347q0 -161 -66.5 -240t-203.5 -79z" />
    <glyph glyph-name="K" unicode="K" horiz-adv-x="709" 
d="M431 337l300 -333l-3 -4h-250l-206 227v-227h-205v663h205v-246l207 246h232l2 -4z" />
    <glyph glyph-name="L" unicode="L" horiz-adv-x="513" 
d="M272 169h231v-169h-436v663h205v-494z" />
    <glyph glyph-name="M" unicode="M" horiz-adv-x="840" 
d="M740 662l58 -662h-194l-16 238h-3l-130 -235h-69l-130 231h-4l-18 -234h-192l57 662h118l209 -374l202 374h112z" />
    <glyph glyph-name="N" unicode="N" horiz-adv-x="740" 
d="M67 0v663h91l316 -284h3v284h196v-663h-91l-316 296h-3v-296h-196z" />
    <glyph glyph-name="O" unicode="O" horiz-adv-x="774" 
d="M387 -12q-93 0 -171.5 36.5t-130.5 116.5t-52 191q0 159 99.5 253.5t254.5 94.5q69 0 131.5 -22t112.5 -63.5t80 -109.5t30 -153q0 -157 -99.5 -250.5t-254.5 -93.5zM387 174q68 0 104.5 42t36.5 116q0 77 -36.5 120t-104.5 43t-104.5 -43t-36.5 -120q0 -74 36.5 -116
t104.5 -42z" />
    <glyph glyph-name="P" unicode="P" horiz-adv-x="625" 
d="M607 435q1 -131 -75 -195.5t-196 -64.5q-32 0 -65 3v-178h-204v663q134 10 237 9q302 -2 303 -237zM309 345q46 0 69.5 17.5t23.5 60.5q0 37 -24.5 55.5t-59.5 18.5q-32 0 -47 -1v-150q15 -1 38 -1z" />
    <glyph glyph-name="Q" unicode="Q" horiz-adv-x="774" 
d="M521 9q35 -58 132 -88l2 -4l-77 -143q-199 37 -258 219q-124 20 -205.5 107.5t-81.5 231.5q0 159 99.5 253.5t254.5 94.5q69 0 131.5 -22t112.5 -63.5t80 -109.5t30 -153q0 -120 -59 -204t-161 -119zM246 332q0 -74 36.5 -116t104.5 -42t104.5 42t36.5 116
q0 77 -36.5 120t-104.5 43t-104.5 -43t-36.5 -120z" />
    <glyph glyph-name="R" unicode="R" horiz-adv-x="659" 
d="M495 226l138 -222l-2 -4h-218l-116 195h-26v-195h-204v663q111 9 233 9q307 0 307 -232q0 -154 -112 -214zM320 497q-32 0 -49 -2v-149h44q39 0 62.5 20.5t23.5 54.5q0 38 -22.5 57t-58.5 19z" />
    <glyph glyph-name="S" unicode="S" horiz-adv-x="535" 
d="M253 -11q-108 0 -208 43v183l4 2q85 -58 181 -58q63 0 63 39q0 19 -16.5 34t-73.5 38q-157 63 -157 200q0 104 71.5 156.5t179.5 52.5q107 0 181 -26v-171l-4 -2q-51 26 -145 28q-80 1 -80 -30q0 -14 19 -26t76 -35q155 -63 155 -212q0 -100 -66.5 -158t-179.5 -58z" />
    <glyph glyph-name="T" unicode="T" horiz-adv-x="616" 
d="M604 663v-184h-187v-479h-207v479h-199v184h593z" />
    <glyph glyph-name="U" unicode="U" horiz-adv-x="725" 
d="M363 -13q-147 0 -225.5 73.5t-78.5 211.5v391h204v-366q0 -71 25 -104t77 -33q102 0 102 137v366h199v-391q0 -136 -79.5 -210.5t-223.5 -74.5z" />
    <glyph glyph-name="V" unicode="V" horiz-adv-x="650" 
d="M663 663l2 -4l-279 -656h-133l-260 656l2 4h216l102 -315l17 -72l17 72l114 315h202z" />
    <glyph glyph-name="W" unicode="W" horiz-adv-x="965" 
d="M967 663l2 -4l-210 -657h-156l-103 303l-11 47l-13 -47l-103 -303h-162l-222 657l2 4h217l82 -317l12 -64l15 64l97 310h153l96 -288l18 -79l17 79l72 295h197z" />
    <glyph glyph-name="X" unicode="X" horiz-adv-x="694" 
d="M477 350l225 -346l-3 -4h-242l-119 197l-109 -197h-223l-2 4l210 333l-211 322l2 4h245l103 -175l100 175h224l3 -4z" />
    <glyph glyph-name="Y" unicode="Y" horiz-adv-x="639" 
d="M218 0v251l-231 408l2 4h222l114 -227l112 227h208l3 -4l-226 -410v-249h-204z" />
    <glyph glyph-name="Z" unicode="Z" horiz-adv-x="621" 
d="M37 0v70l262 426h-262l-3 167h540v-69l-270 -426h283v-168h-550z" />
    <glyph glyph-name="bracketleft" unicode="[" horiz-adv-x="381" 
d="M346 620h-105v-626h105v-150h-280v924h280v-148z" />
    <glyph glyph-name="backslash" unicode="\" horiz-adv-x="539" 
d="M517 -123h-183l-313 873h183z" />
    <glyph glyph-name="bracketright" unicode="]" horiz-adv-x="381" 
d="M35 770h281v-924h-281v148h106v626h-106v150z" />
    <glyph glyph-name="asciicircum" unicode="^" horiz-adv-x="571" 
d="M347 699l200 -383l-132 -59l-117 248l-11 27l-12 -27l-117 -248l-134 59l200 383h123z" />
    <glyph glyph-name="underscore" unicode="_" horiz-adv-x="569" 
d="M54 -160v160h461v-160h-461z" />
    <glyph glyph-name="grave" unicode="`" horiz-adv-x="290" 
d="M237 555l-248 90l-4 22l115 140l193 -164z" />
    <glyph glyph-name="a" unicode="a" horiz-adv-x="670" 
d="M635 188l4 -2v-175q-46 -18 -102 -18q-99 0 -128 68q-19 -31 -60 -53t-95 -22q-101 0 -162.5 69.5t-61.5 191.5q0 127 74 205t184 78q82 0 128 -33l5 19h168v-317q0 -19 22 -19q16 0 24 8zM317 172q20 0 39.5 10.5t25.5 28.5v128q-22 18 -61 18q-33 0 -56 -27.5
t-23 -68.5q0 -42 20.5 -65.5t54.5 -23.5z" />
    <glyph glyph-name="b" unicode="b" horiz-adv-x="645" 
d="M395 530q107 0 164 -71.5t57 -187.5q0 -129 -80.5 -207t-216.5 -78q-155 0 -265 48v676h206v-222q49 42 135 42zM317 162q40 0 63.5 23.5t23.5 67.5q0 50 -23 71.5t-57 21.5q-23 0 -41.5 -11t-22.5 -27v-136q24 -10 57 -10z" />
    <glyph glyph-name="c" unicode="c" horiz-adv-x="492" 
d="M323 -14q-129 0 -211.5 70t-82.5 198q0 131 78.5 203.5t208.5 72.5q75 0 136 -22v-171l-6 -5q-58 23 -104 23q-101 0 -101 -94q0 -46 26 -72.5t75 -26.5q53 0 103 26l7 -5v-175q-58 -22 -129 -22z" />
    <glyph glyph-name="d" unicode="d" horiz-adv-x="669" 
d="M635 187l4 -2v-174q-46 -18 -102 -18q-99 0 -128 68q-19 -31 -60 -53t-95 -22q-99 0 -161.5 66.5t-62.5 192.5q0 128 75.5 206.5t191.5 78.5q45 0 85 -10v190h206v-511q0 -19 25 -19q13 0 22 7zM317 172q20 0 39.5 10.5t25.5 28.5v135q-23 11 -57 11q-38 0 -60.5 -25.5
t-22.5 -71.5q0 -88 75 -88z" />
    <glyph glyph-name="e" unicode="e" horiz-adv-x="594" 
d="M565 288q0 -25 -2 -67v-19h-317q24 -56 117 -56q79 0 161 34l5 -2v-155q-79 -37 -207 -37q-54 0 -103 14t-93.5 44t-70.5 85t-26 129q0 124 76.5 198t200.5 74q117 0 186.5 -62.5t72.5 -179.5zM239 303h128q-2 37 -17 51.5t-46 14.5q-52 0 -65 -66z" />
    <glyph glyph-name="f" unicode="f" horiz-adv-x="408" 
d="M336 719q45 0 82 -10v-180l-2 -1q-24 8 -53 8q-60 0 -60 -66v-3h85v-161h-85v-306h-207v306h-71v161h71v4q0 117 65 182.5t175 65.5z" />
    <glyph glyph-name="g" unicode="g" horiz-adv-x="644" 
d="M450 532h141v-437q0 -132 -88 -201t-225 -69q-123 0 -218 35v168l4 2q83 -45 178 -45q76 0 107.5 20t35.5 69q-43 -33 -117 -33q-115 0 -176.5 60t-61.5 171q0 120 74 189t189 69q85 0 140 -41zM313 209q59 0 72 42v89q-27 17 -66 17q-35 0 -56 -20.5t-21 -55.5
q0 -34 19.5 -53t51.5 -19z" />
    <glyph glyph-name="h" unicode="h" horiz-adv-x="643" 
d="M404 530q87 0 138 -54.5t51 -151.5v-324h-207v269q0 68 -61 68q-55 0 -63 -50v-287h-206v710h206v-238q53 58 142 58z" />
    <glyph glyph-name="i" unicode="i" horiz-adv-x="317" 
d="M159 564q-49 0 -83.5 34.5t-34.5 83.5t34.5 83.5t83.5 34.5t83.5 -34.5t34.5 -83.5q0 -50 -34.5 -84t-83.5 -34zM56 0v516h206v-516h-206z" />
    <glyph glyph-name="j" unicode="j" horiz-adv-x="337" 
d="M178 564q-49 0 -83.5 34.5t-34.5 83.5t34.5 83.5t83.5 34.5t83.5 -34.5t34.5 -83.5q0 -50 -34 -84t-84 -34zM48 -171q-34 0 -88 7v177l4 3q18 -5 39 -5q72 0 72 82v423h206v-472q0 -109 -62.5 -162t-170.5 -53z" />
    <glyph glyph-name="k" unicode="k" horiz-adv-x="629" 
d="M439 276l198 -272l-3 -4h-243l-129 178v-178h-206v710h206v-364l128 170h228l2 -4z" />
    <glyph glyph-name="l" unicode="l" horiz-adv-x="360" 
d="M257 -11q-103 0 -155 47t-52 156v518h207v-472q0 -67 49 -67q16 0 34 8l4 -2v-176q-37 -12 -87 -12z" />
    <glyph glyph-name="m" unicode="m" horiz-adv-x="959" 
d="M725 530q86 0 135.5 -55t49.5 -148v-327h-207v263q0 69 -58 69q-53 0 -58 -48l-1 4v-288h-207v263q0 69 -58 69q-52 0 -59 -49v-283h-206v516h167l19 -69q49 83 159 83q115 0 162 -94q19 39 60 66.5t102 27.5z" />
    <glyph glyph-name="n" unicode="n" horiz-adv-x="642" 
d="M405 530q86 0 137 -57.5t51 -150.5v-322h-207v264q0 68 -61 68q-23 0 -41 -13.5t-22 -35.5v-283h-206v516h167l19 -69q55 83 163 83z" />
    <glyph glyph-name="o" unicode="o" horiz-adv-x="639" 
d="M320 -14q-121 0 -206 69.5t-85 202.5q0 125 80 198.5t211 73.5q122 0 206.5 -69t84.5 -202q0 -126 -80 -199.5t-211 -73.5zM320 161q39 0 59 27t20 71q0 43 -20 70t-59 27q-40 0 -59.5 -27t-19.5 -70q0 -98 79 -98z" />
    <glyph glyph-name="p" unicode="p" horiz-adv-x="646" 
d="M396 530q105 0 162.5 -72.5t57.5 -190.5q0 -126 -76.5 -203.5t-189.5 -77.5q-52 0 -88 14v-164h-206v680h167l14 -55q58 69 159 69zM319 162q38 0 62.5 24.5t24.5 69.5q0 90 -79 90q-23 0 -41.5 -10.5t-23.5 -27.5v-137q26 -9 57 -9z" />
    <glyph glyph-name="q" unicode="q" horiz-adv-x="644" 
d="M421 516h167v-680h-206v194q-51 -44 -128 -44q-101 0 -162.5 70.5t-61.5 195.5q0 128 72.5 203t187.5 75q78 0 127 -31zM317 172q20 0 39.5 10.5t25.5 27.5v131q-23 16 -61 16q-37 0 -58.5 -25t-21.5 -70q0 -44 20 -67t56 -23z" />
    <glyph glyph-name="r" unicode="r" horiz-adv-x="444" 
d="M371 528q32 0 54 -6v-187l-4 -2q-22 8 -50 8q-42 0 -74 -27.5t-35 -80.5v-233h-206v516h167l21 -76q17 41 52.5 64.5t74.5 23.5z" />
    <glyph glyph-name="s" unicode="s" horiz-adv-x="505" 
d="M244 -14q-112 0 -204 37v155l4 3q38 -25 94 -41t96 -16q47 0 47 22q0 12 -13.5 18.5t-81.5 27.5q-82 26 -114.5 66.5t-32.5 96.5q0 79 65.5 127t172.5 48q115 0 177 -23v-160l-5 -2q-24 12 -72 20.5t-85 8.5q-55 0 -55 -17q0 -10 14.5 -16.5t81.5 -27.5q76 -23 108.5 -60
t32.5 -95q0 -81 -60 -126.5t-170 -45.5z" />
    <glyph glyph-name="t" unicode="t" horiz-adv-x="456" 
d="M412 356h-118v-105q0 -37 14 -56t48 -19q30 0 52 11l4 -2v-173q-43 -19 -119 -19q-96 0 -151 55t-55 159v149h-80v160h80v124l204 38l3 -2v-160h118v-160z" />
    <glyph glyph-name="u" unicode="u" horiz-adv-x="634" 
d="M373 516h206v-516h-168l-20 76q-48 -90 -172 -90q-80 0 -124 50t-44 130v350h206v-297q0 -57 56 -57q46 0 60 34v320z" />
    <glyph glyph-name="v" unicode="v" horiz-adv-x="577" 
d="M581 516l2 -4l-218 -511h-157l-210 511l2 4h223l71 -232l77 232h210z" />
    <glyph glyph-name="w" unicode="w" horiz-adv-x="816" 
d="M817 516l2 -4l-175 -512h-141l-86 259l-5 19l-6 -19l-89 -259h-143l-177 512l2 4h203l55 -222l3 -25l6 24l66 223h168l62 -221l7 -30l4 33l54 218h190z" />
    <glyph glyph-name="x" unicode="x" horiz-adv-x="593" 
d="M419 267l173 -263l-2 -4h-229l-74 127l-73 -127h-211l-2 4l173 258l-165 250l2 4h230l63 -112l63 112h210l2 -4z" />
    <glyph glyph-name="y" unicode="y" horiz-adv-x="562" 
d="M564 516l3 -4l-216 -518l-63 -158h-213l-2 3l114 223l-184 450l2 4h217l65 -224l71 224h206z" />
    <glyph glyph-name="z" unicode="z" horiz-adv-x="551" 
d="M293 158h224v-158h-483v103l205 249h-201v164h469v-110z" />
    <glyph glyph-name="braceleft" unicode="{" horiz-adv-x="415" 
d="M286 443q0 -57 -35 -93.5t-73 -36.5v-10q38 0 73 -37t35 -94v-165q0 -34 49 -34h43v-152h-68q-92 0 -145 48.5t-53 127.5v129q0 49 -28.5 75.5t-52.5 26.5v167q24 0 52.5 24t28.5 69v129q0 79 53 127.5t145 48.5h68v-151h-43q-49 0 -49 -35v-164z" />
    <glyph glyph-name="bar" unicode="|" horiz-adv-x="318" 
d="M66 -118v843h186v-843h-186z" />
    <glyph glyph-name="braceright" unicode="}" horiz-adv-x="415" 
d="M303 488q0 -49 28.5 -75t52.5 -26v-168q-24 0 -52.5 -24t-28.5 -69v-129q0 -79 -53 -127.5t-145 -48.5h-68v152h43q49 0 49 34v165q0 57 35 94t73 37v10q-38 0 -73 36.5t-35 93.5v164q0 35 -49 35h-43v151h68q92 0 145 -48.5t53 -127.5v-129z" />
    <glyph glyph-name="asciitilde" unicode="~" horiz-adv-x="567" 
d="M164 209l-112 15q0 69 38 112t101 43q44 0 98 -15.5t83 -15.5q33 0 36 33l6 3l103 -20q0 -66 -37.5 -107.5t-99.5 -41.5q-34 0 -91.5 15.5t-81.5 15.5q-38 0 -40 -34z" />
    <glyph glyph-name="exclamdown" unicode="&#xa1;" horiz-adv-x="311" 
d="M158 331q-53 0 -80.5 27.5t-27.5 71.5t27.5 73t80.5 29q52 0 79.5 -29.5t27.5 -72.5q0 -44 -27.5 -71.5t-79.5 -27.5zM54 -185l13 452h175l13 -452h-201z" />
    <glyph glyph-name="cent" unicode="&#xa2;" horiz-adv-x="522" 
d="M365 433q-117 0 -117 -101q0 -50 30.5 -78.5t86.5 -28.5q45 0 104 18l6 -4v-174q-32 -10 -74 -13v-95h-192v112q-83 27 -130 91t-47 159q0 105 45.5 173.5t130.5 96.5v112h193v-97q38 -4 74 -15v-171l-6 -4q-64 19 -104 19z" />
    <glyph glyph-name="sterling" unicode="&#xa3;" horiz-adv-x="590" 
d="M295 169h253v-169h-492l-5 8q46 105 57 238h-67v168h67v6q0 126 81 192t195 66q79 0 153 -19v-169l-7 -4q-73 26 -128 26q-44 0 -67.5 -20.5t-23.5 -55.5v-22h142v-168h-143q-5 -37 -15 -77z" />
    <glyph glyph-name="currency" unicode="&#xa4;" horiz-adv-x="724" 
d="M616 336q0 -52 -20 -98l97 -97l-137 -135l-94 94q-52 -21 -103 -21q-52 0 -100 20l-93 -93l-135 135l92 92q-22 49 -22 103t22 104l-92 92l135 136l94 -94q46 20 99 20q51 0 103 -21l94 95l137 -136l-97 -97q20 -46 20 -99zM274 336q0 -35 24 -60t61 -25t61.5 25t24.5 60
q0 36 -24.5 61t-61.5 25t-61 -25t-24 -61z" />
    <glyph glyph-name="yen" unicode="&#xa5;" horiz-adv-x="715" 
d="M693 671l-209 -382h101v-186h-123v-103h-204v103h-122v186h101l-215 382h227l117 -259l113 259h214z" />
    <glyph glyph-name="brokenbar" unicode="&#xa6;" horiz-adv-x="326" 
d="M70 395v330h186v-330h-186zM70 -118v329h186v-329h-186z" />
    <glyph glyph-name="section" unicode="&#xa7;" horiz-adv-x="570" 
d="M468 149q43 -39 43 -107q0 -83 -72.5 -137.5t-181.5 -54.5q-104 0 -183 32v171l5 2q90 -40 167 -40q55 0 55 17q0 12 -17.5 21.5t-88.5 33.5q-85 29 -123 65t-38 108q0 82 76 136q-50 44 -50 123q0 82 71.5 132.5t181.5 50.5q95 0 162 -19v-171l-5 -2q-52 25 -134 25
q-68 0 -68 -22q0 -12 14.5 -19t82.5 -28q87 -26 130.5 -66.5t43.5 -107.5q0 -78 -71 -143zM208 300q0 -16 4 -23.5t27 -20t73 -29.5q43 -16 45 -17q9 16 9 36q0 14 -5 22t-31.5 22.5t-80.5 34.5q-20 8 -30 11q-11 -20 -11 -36z" />
    <glyph glyph-name="dieresis" unicode="&#xa8;" horiz-adv-x="484" 
d="M112 571q-46 0 -78.5 32t-32.5 76q0 47 32.5 80t78.5 33q47 0 79.5 -33t32.5 -80q0 -44 -33 -76t-79 -32zM364 571q-46 0 -78.5 32t-32.5 76q0 47 32.5 80t78.5 33q47 0 79.5 -33t32.5 -80q0 -44 -33 -76t-79 -32z" />
    <glyph glyph-name="copyright" unicode="&#xa9;" horiz-adv-x="688" 
d="M347 -22q-145 0 -229.5 87t-84.5 218q0 129 84.5 216.5t229.5 87.5q142 0 225 -87.5t83 -216.5q0 -131 -83 -218t-225 -87zM345 85q97 0 143 54.5t46 144.5q0 86 -50.5 141.5t-138.5 55.5q-89 0 -139.5 -55.5t-50.5 -141.5q0 -87 50.5 -143t139.5 -56zM373 129
q-74 0 -124 39t-50 109q0 75 46.5 116t122.5 41q42 0 73 -11v-108l-3 -2q-20 7 -47 7q-46 0 -46 -39q0 -20 13.5 -31t35.5 -11q26 0 44 7l3 -2v-108q-21 -7 -68 -7z" />
    <glyph glyph-name="ordfeminine" unicode="&#xaa;" horiz-adv-x="482" 
d="M440 478l2 -1v-126q-30 -12 -74 -12q-62 0 -83 58q-46 -63 -123 -63q-64 0 -97.5 33.5t-33.5 82.5q0 64 48.5 94.5t115.5 30.5q34 0 64 -6q-10 38 -67 38q-73 0 -120 -18l-2 2v120q48 25 147 25q189 0 189 -182v-58q0 -20 16 -20q10 0 18 2zM213 447q33 0 48 21v20
q-15 3 -31 3q-45 0 -45 -23q0 -21 28 -21z" />
    <glyph glyph-name="guillemotleft" unicode="&#xab;" horiz-adv-x="611" 
d="M137 90l-111 202l116 201h177v-15l-101 -181l102 -197v-10h-183zM394 90l-111 202l116 201h177v-15l-101 -181l102 -197v-10h-183z" />
    <glyph glyph-name="registered" unicode="&#xae;" horiz-adv-x="664" 
d="M334 754q135 0 214 -82.5t79 -205.5t-79 -205.5t-214 -82.5q-137 0 -217 82.5t-80 205.5t80 205.5t217 82.5zM472 340q37 47 37 127q0 81 -47.5 133t-130.5 52q-77 0 -128 -49q82 2 118 2q60 0 105.5 -26t45.5 -84q0 -61 -40 -88zM190 587q-37 -49 -37 -120
q0 -70 37 -121v241zM319 457q14 0 22.5 8t8.5 22q0 31 -31 31q-6 0 -11 -1v-60h11zM331 280q88 0 135 52h-113l-30 52h-15v-52h-106q49 -52 129 -52z" />
    <glyph glyph-name="macron" unicode="&#xaf;" horiz-adv-x="371" 
d="M26 601v118h321v-118h-321z" />
    <glyph glyph-name="degree" unicode="&#xb0;" horiz-adv-x="393" 
d="M197 353q-70 0 -117.5 46t-47.5 115t47.5 115t117.5 46q69 0 116.5 -46t47.5 -115t-47.5 -115t-116.5 -46zM197 462q20 0 32.5 15t12.5 37t-12.5 36.5t-32.5 14.5q-21 0 -33.5 -14.5t-12.5 -36.5t12.5 -37t33.5 -15z" />
    <glyph glyph-name="plusminus" unicode="&#xb1;" horiz-adv-x="585" 
d="M546 249h-187v-128h176v-131h-485v131h176v128h-187v128h188v166h132v-166h187v-128z" />
    <glyph glyph-name="acute" unicode="&#xb4;" horiz-adv-x="290" 
d="M53 555l-56 88l193 164l115 -140l-4 -22z" />
    <glyph glyph-name="paragraph" unicode="&#xb6;" horiz-adv-x="653" 
d="M602 601v-183h-60v-530h-46v530h-54v-530h-195v291q-99 0 -159 51t-60 157q0 108 73 161t179 53h322z" />
    <glyph glyph-name="periodcentered" unicode="&#xb7;" horiz-adv-x="301" 
d="M150 139q-52 0 -79.5 27.5t-27.5 70.5q0 44 27.5 73t79.5 29q53 0 80.5 -29t27.5 -73q0 -43 -27.5 -70.5t-80.5 -27.5z" />
    <glyph glyph-name="cedilla" unicode="&#xb8;" horiz-adv-x="230" 
d="M81 -247q-45 0 -69 6v72l4 2q23 -5 34 -5q30 0 41 8t11 24q3 30 -39 30q-7 0 -16.5 -0.5t-12.5 -0.5l-2 4v65l32 43h102l-35 -40q3 0 7.5 -0.5t7.5 -1.5q47 -5 72.5 -31t25.5 -66q0 -109 -163 -109z" />
    <glyph glyph-name="ordmasculine" unicode="&#xba;" horiz-adv-x="506" 
d="M253 325q-92 0 -158 54t-66 155q0 93 63 152t161 59q93 0 159 -54.5t66 -155.5q0 -93 -63 -151.5t-162 -58.5zM253 472q25 0 37 18t12 45t-12 45t-37 18q-24 0 -36 -18t-12 -45q0 -63 48 -63z" />
    <glyph glyph-name="guillemotright" unicode="&#xbb;" horiz-adv-x="611" 
d="M217 493l111 -202l-116 -201h-177v15l101 181l-102 197v10h183zM474 493l111 -202l-116 -201h-177v15l101 181l-102 197v10h183z" />
    <glyph glyph-name="onequarter" unicode="&#xbc;" horiz-adv-x="760" 
d="M106 300v186l-73 -12v143l199 55h14v-372h-140zM490 663h145l-392 -674h-142zM729 132v-88h-33v-44h-128v44h-180v63l188 260h120v-235h33zM523 132h45v70z" />
    <glyph glyph-name="onehalf" unicode="&#xbd;" horiz-adv-x="793" 
d="M103 300v186l-73 -12v143l200 55h13v-372h-140zM89 -11l389 674h145l-392 -674h-142zM442 0q0 114 100 185q44 31 54 41t10 19q0 10 -27 10q-71 0 -127 -32l-1 1v117q59 33 142 33q66 0 113.5 -27t47.5 -86q0 -44 -19 -70t-60 -52q-34 -21 -34 -28h121v-111h-320z" />
    <glyph glyph-name="threequarters" unicode="&#xbe;" horiz-adv-x="786" 
d="M338 422q0 -60 -47 -95.5t-129 -35.5q-70 0 -120 16v107l1 1q44 -14 100 -14q18 0 26.5 0.5t20 2.5t16 6.5t4.5 12.5q0 16 -28 16h-94v94h85q21 0 21 14q0 17 -52 17q-67 0 -97 -10l-1 2v107q63 11 120 11q162 0 162 -105q0 -41 -32 -70q44 -26 44 -77zM539 663h145
l-392 -674h-142zM755 132v-88h-33v-44h-128v44h-180v63l188 260h120v-235h33zM549 132h45v70z" />
    <glyph glyph-name="questiondown" unicode="&#xbf;" horiz-adv-x="456" 
d="M276 533q53 0 80.5 -27.5t27.5 -70.5q0 -44 -27.5 -73.5t-80.5 -29.5q-52 0 -79.5 29.5t-27.5 73.5q0 43 27.5 70.5t79.5 27.5zM372 289q1 -74 -20 -114t-76 -74q-29 -22 -38.5 -35t-9.5 -30q0 -24 15.5 -34t52.5 -10q65 0 117 23l2 -1l1 -176q-60 -22 -149 -22
q-48 0 -90 11t-76.5 33.5t-55 61.5t-20.5 90q0 61 26 99.5t81 79.5q40 29 51 49t11 46z" />
    <glyph glyph-name="Agrave" unicode="&#xc0;" horiz-adv-x="656" 
d="M426 699l-258 66l-10 19l85 147l221 -138zM461 0l-23 53h-226l-21 -53h-204l291 661h92l304 -661h-213zM266 190h111l-40 90l-19 53l-17 -53z" />
    <glyph glyph-name="Aacute" unicode="&#xc1;" horiz-adv-x="656" 
d="M476 765l-258 -66l-38 92l221 140l85 -147zM461 0l-23 53h-226l-21 -53h-204l291 661h92l304 -661h-213zM266 190h111l-40 90l-19 53l-17 -53z" />
    <glyph glyph-name="Acircumflex" unicode="&#xc2;" horiz-adv-x="656" 
d="M319 778l-125 -76l-55 72l136 148h92l142 -146l-57 -74zM461 0l-23 53h-226l-21 -53h-204l291 661h92l304 -661h-213zM266 190h111l-40 90l-19 53l-17 -53z" />
    <glyph glyph-name="Atilde" unicode="&#xc3;" horiz-adv-x="656" 
d="M230 705l-111 30q-1 64 37.5 108t98.5 44q33 0 71.5 -15.5t57.5 -15.5q13 0 23.5 10t10.5 23l3 2l112 -30q1 -66 -36.5 -108.5t-99.5 -42.5q-25 0 -67 14.5t-59 14.5t-27 -10t-10 -22zM461 0l-23 53h-226l-21 -53h-204l291 661h92l304 -661h-213zM266 190h111l-40 90
l-19 53l-17 -53z" />
    <glyph glyph-name="Adieresis" unicode="&#xc4;" horiz-adv-x="656" 
d="M191 711q-41 0 -69.5 28.5t-28.5 69.5q0 40 28.5 68.5t69.5 28.5q40 0 69 -28.5t29 -68.5t-29 -69t-69 -29zM458 711q-40 0 -69 28.5t-29 69.5q0 40 28.5 68.5t69.5 28.5t69.5 -28t28.5 -69t-28.5 -69.5t-69.5 -28.5zM461 0l-23 53h-226l-21 -53h-204l291 661h92
l304 -661h-213zM266 190h111l-40 90l-19 53l-17 -53z" />
    <glyph glyph-name="Aring" unicode="&#xc5;" horiz-adv-x="656" 
d="M324 690q-61 0 -99.5 36t-38.5 90q0 53 38.5 89t99.5 36t100.5 -36t39.5 -89q0 -54 -39 -90t-101 -36zM324 858q-18 0 -30.5 -12t-12.5 -30t12 -30.5t31 -12.5t32 12.5t13 30.5q0 17 -13 29.5t-32 12.5zM461 0l-23 53h-226l-21 -53h-204l291 661h92l304 -661h-213z
M266 190h111l-40 90l-19 53l-17 -53z" />
    <glyph glyph-name="AE" unicode="&#xc6;" horiz-adv-x="897" 
d="M621 166h230v-166h-436v106h-171l-54 -106h-207l369 663h492v-166h-223v-73h204v-164h-204v-94zM316 250h99v190l-90 -173z" />
    <glyph glyph-name="Ccedilla" unicode="&#xc7;" horiz-adv-x="596" 
d="M418 495q-173 0 -173 -161t179 -161q64 0 123 21l5 -4v-185q-52 -13 -133 -16l-24 -28q3 0 7.5 -0.5t7.5 -1.5q47 -5 72.5 -31t25.5 -66q0 -109 -163 -109q-45 0 -69 6v72l4 2q23 -5 34 -5q30 0 41 8t11 24q3 30 -39 30q-7 0 -16.5 -0.5t-12.5 -0.5l-2 4v65l26 35
q-129 19 -209 106t-80 225q0 167 97.5 261.5t257.5 94.5q88 0 164 -19v-192l-3 -2q-63 28 -131 28z" />
    <glyph glyph-name="Egrave" unicode="&#xc8;" horiz-adv-x="575" 
d="M400 699l-258 66l-10 19l85 147l221 -138zM272 162h256v-162h-461v663h454v-161h-249v-83h230v-157h-230v-100z" />
    <glyph glyph-name="Eacute" unicode="&#xc9;" horiz-adv-x="575" 
d="M450 765l-258 -66l-38 92l221 140l85 -147zM272 162h256v-162h-461v663h454v-161h-249v-83h230v-157h-230v-100z" />
    <glyph glyph-name="Ecircumflex" unicode="&#xca;" horiz-adv-x="575" 
d="M293 778l-125 -76l-55 72l136 148h92l142 -146l-57 -74zM272 162h256v-162h-461v663h454v-161h-249v-83h230v-157h-230v-100z" />
    <glyph glyph-name="Edieresis" unicode="&#xcb;" horiz-adv-x="575" 
d="M165 711q-41 0 -69.5 28.5t-28.5 69.5q0 40 28.5 68.5t69.5 28.5q40 0 69 -28.5t29 -68.5t-29 -69t-69 -29zM432 711q-40 0 -69 28.5t-29 69.5q0 40 28.5 68.5t69.5 28.5t69.5 -28t28.5 -69t-28.5 -69.5t-69.5 -28.5zM272 262v-100h256v-162h-461v663h454v-161h-249v-83
h230v-157h-230z" />
    <glyph glyph-name="Igrave" unicode="&#xcc;" horiz-adv-x="340" 
d="M273 699l-258 66l-10 19l85 147l221 -138zM67 0v663h206v-663h-206z" />
    <glyph glyph-name="Iacute" unicode="&#xcd;" horiz-adv-x="340" 
d="M65 699l-38 92l221 140l85 -147l-10 -19zM67 0v663h206v-663h-206z" />
    <glyph glyph-name="Icircumflex" unicode="&#xce;" horiz-adv-x="340" 
d="M41 702l-55 72l136 148h92l142 -146l-57 -74l-133 76zM67 0v663h206v-663h-206z" />
    <glyph glyph-name="Idieresis" unicode="&#xcf;" horiz-adv-x="340" 
d="M38 711q-40 0 -69 28.5t-29 69.5q0 40 28.5 68.5t69.5 28.5q40 0 69 -28.5t29 -68.5t-29 -69t-69 -29zM305 711q-41 0 -69.5 28.5t-28.5 69.5q0 40 28.5 68.5t69.5 28.5t69.5 -28t28.5 -69t-28.5 -69.5t-69.5 -28.5zM67 0v663h206v-663h-206z" />
    <glyph glyph-name="Eth" unicode="&#xd0;" horiz-adv-x="755" 
d="M361 674q164 0 262 -90t98 -244q0 -164 -103 -252.5t-279 -88.5q-217 0 -250 1v274h-71v119h71v270q114 11 272 11zM361 179q149 2 149 157q0 78 -44 115.5t-108 37.5q-37 0 -65 -4v-92h94v-119h-94v-94q12 -1 68 -1z" />
    <glyph glyph-name="Ntilde" unicode="&#xd1;" horiz-adv-x="740" 
d="M275 705l-111 30q-1 64 37.5 108t98.5 44q33 0 71.5 -15.5t57.5 -15.5q13 0 23.5 10t10.5 23l3 2l112 -30q1 -66 -36.5 -108.5t-99.5 -42.5q-25 0 -67 14.5t-59 14.5t-27 -10t-10 -22zM67 0v663h91l316 -284h3v284h196v-663h-91l-316 296h-3v-296h-196z" />
    <glyph glyph-name="Ograve" unicode="&#xd2;" horiz-adv-x="774" 
d="M489 699l-258 66l-10 19l85 147l221 -138zM387 -12q-93 0 -171.5 36.5t-130.5 116.5t-52 191q0 159 99.5 253.5t254.5 94.5q69 0 131.5 -22t112.5 -63.5t80 -109.5t30 -153q0 -157 -99.5 -250.5t-254.5 -93.5zM387 174q68 0 104.5 42t36.5 116q0 77 -36.5 120t-104.5 43
t-104.5 -43t-36.5 -120q0 -74 36.5 -116t104.5 -42z" />
    <glyph glyph-name="Oacute" unicode="&#xd3;" horiz-adv-x="774" 
d="M281 699l-38 92l221 140l85 -147l-10 -19zM387 -12q-93 0 -171.5 36.5t-130.5 116.5t-52 191q0 159 99.5 253.5t254.5 94.5q69 0 131.5 -22t112.5 -63.5t80 -109.5t30 -153q0 -157 -99.5 -250.5t-254.5 -93.5zM387 174q68 0 104.5 42t36.5 116q0 77 -36.5 120t-104.5 43
t-104.5 -43t-36.5 -120q0 -74 36.5 -116t104.5 -42z" />
    <glyph glyph-name="Ocircumflex" unicode="&#xd4;" horiz-adv-x="774" 
d="M257 702l-55 72l136 148h92l142 -146l-57 -74l-133 76zM387 -12q-93 0 -171.5 36.5t-130.5 116.5t-52 191q0 159 99.5 253.5t254.5 94.5q69 0 131.5 -22t112.5 -63.5t80 -109.5t30 -153q0 -157 -99.5 -250.5t-254.5 -93.5zM387 174q68 0 104.5 42t36.5 116
q0 77 -36.5 120t-104.5 43t-104.5 -43t-36.5 -120q0 -74 36.5 -116t104.5 -42z" />
    <glyph glyph-name="Otilde" unicode="&#xd5;" horiz-adv-x="774" 
d="M293 705l-111 30q-1 64 37.5 108t98.5 44q33 0 71.5 -15.5t57.5 -15.5q13 0 23.5 10t10.5 23l3 2l112 -30q1 -66 -36.5 -108.5t-99.5 -42.5q-25 0 -67 14.5t-59 14.5t-27 -10t-10 -22zM387 -12q-93 0 -171.5 36.5t-130.5 116.5t-52 191q0 159 99.5 253.5t254.5 94.5
q69 0 131.5 -22t112.5 -63.5t80 -109.5t30 -153q0 -157 -99.5 -250.5t-254.5 -93.5zM387 174q68 0 104.5 42t36.5 116q0 77 -36.5 120t-104.5 43t-104.5 -43t-36.5 -120q0 -74 36.5 -116t104.5 -42z" />
    <glyph glyph-name="Odieresis" unicode="&#xd6;" horiz-adv-x="774" 
d="M254 711q-40 0 -69 28.5t-29 69.5q0 40 28.5 68.5t69.5 28.5q40 0 69 -28.5t29 -68.5t-29 -69t-69 -29zM521 711q-41 0 -69.5 28.5t-28.5 69.5q0 40 28.5 68.5t69.5 28.5t69.5 -28t28.5 -69t-28.5 -69.5t-69.5 -28.5zM387 -12q-93 0 -171.5 36.5t-130.5 116.5t-52 191
q0 159 99.5 253.5t254.5 94.5q69 0 131.5 -22t112.5 -63.5t80 -109.5t30 -153q0 -157 -99.5 -250.5t-254.5 -93.5zM387 174q68 0 104.5 42t36.5 116q0 77 -36.5 120t-104.5 43t-104.5 -43t-36.5 -120q0 -74 36.5 -116t104.5 -42z" />
    <glyph glyph-name="multiply" unicode="&#xd7;" horiz-adv-x="538" 
d="M503 433l-140 -140l140 -140l-93 -94l-140 141l-141 -141l-93 94l140 140l-140 140l93 93l141 -140l140 140z" />
    <glyph glyph-name="Oslash" unicode="&#xd8;" horiz-adv-x="774" 
d="M743 680v-13l-85 -99q83 -93 83 -236q0 -157 -99.5 -250.5t-254.5 -93.5q-105 0 -189 47l-43 -50h-123v17l83 98q-82 92 -82 232q0 159 99.5 253.5t254.5 94.5q100 0 183 -44l38 44h135zM246 332q0 -38 10 -67l187 221q-25 9 -56 9q-68 0 -104.5 -43t-36.5 -120zM528 332
q0 40 -11 73l-190 -220q28 -11 60 -11q68 0 104.5 42t36.5 116z" />
    <glyph glyph-name="Ugrave" unicode="&#xd9;" horiz-adv-x="725" 
d="M465 699l-258 66l-10 19l85 147l221 -138zM363 -13q-147 0 -225.5 73.5t-78.5 211.5v391h204v-366q0 -71 25 -104t77 -33q102 0 102 137v366h199v-391q0 -136 -79.5 -210.5t-223.5 -74.5z" />
    <glyph glyph-name="Uacute" unicode="&#xda;" horiz-adv-x="725" 
d="M257 699l-38 92l221 140l85 -147l-10 -19zM363 -13q-147 0 -225.5 73.5t-78.5 211.5v391h204v-366q0 -71 25 -104t77 -33q102 0 102 137v366h199v-391q0 -136 -79.5 -210.5t-223.5 -74.5z" />
    <glyph glyph-name="Ucircumflex" unicode="&#xdb;" horiz-adv-x="725" 
d="M233 702l-55 72l136 148h92l142 -146l-57 -74l-133 76zM363 -13q-147 0 -225.5 73.5t-78.5 211.5v391h204v-366q0 -71 25 -104t77 -33q102 0 102 137v366h199v-391q0 -136 -79.5 -210.5t-223.5 -74.5z" />
    <glyph glyph-name="Udieresis" unicode="&#xdc;" horiz-adv-x="725" 
d="M230 711q-40 0 -69 28.5t-29 69.5q0 40 28.5 68.5t69.5 28.5q40 0 69 -28.5t29 -68.5t-29 -69t-69 -29zM497 711q-41 0 -69.5 28.5t-28.5 69.5q0 40 28.5 68.5t69.5 28.5t69.5 -28t28.5 -69t-28.5 -69.5t-69.5 -28.5zM363 -13q-147 0 -225.5 73.5t-78.5 211.5v391h204
v-366q0 -71 25 -104t77 -33q102 0 102 137v366h199v-391q0 -136 -79.5 -210.5t-223.5 -74.5z" />
    <glyph glyph-name="Yacute" unicode="&#xdd;" horiz-adv-x="639" 
d="M215 699l-38 92l221 140l85 -147l-10 -19zM218 0v251l-231 408l2 4h222l114 -227l112 227h208l3 -4l-226 -410v-249h-204z" />
    <glyph glyph-name="Thorn" unicode="&#xde;" horiz-adv-x="624" 
d="M594 353q0 -68 -21 -120t-59 -83t-86 -46.5t-105 -15.5q-34 0 -52 1v-89h-204v663h204v-87q40 2 59 2q44 0 86 -10t84 -33.5t68 -70t26 -111.5zM296 252q93 0 93 79q0 38 -24 55.5t-59 17.5q-19 0 -35 -2v-149q9 -1 25 -1z" />
    <glyph glyph-name="germandbls" unicode="&#xdf;" horiz-adv-x="679" 
d="M583 311q33 -32 44 -44t23.5 -41t12.5 -66q0 -78 -59 -126t-135 -48q-85 0 -142 26v156l4 2q21 -22 49 -34t52 -12q15 0 24 7t9 18q0 13 -10.5 24.5t-53.5 45.5q-48 38 -65.5 62.5t-17.5 66.5q0 31 16 55t31.5 43.5t15.5 40.5q0 29 -15.5 39.5t-32.5 10.5
q-40 0 -55.5 -23.5t-15.5 -73.5v-440h-206v456q0 122 75 192.5t199 70.5q42 0 81.5 -8.5t81.5 -29t67.5 -62.5t25.5 -101q0 -30 -9 -53t-20 -34t-20 -23.5t-9 -24.5q0 -18 10.5 -31t44.5 -41z" />
    <glyph glyph-name="agrave" unicode="&#xe0;" horiz-adv-x="670" 
d="M402 555l-248 90l-4 22l115 140l193 -164zM635 188l4 -2v-175q-46 -18 -102 -18q-99 0 -128 68q-19 -31 -60 -53t-95 -22q-101 0 -162.5 69.5t-61.5 191.5q0 127 74 205t184 78q82 0 128 -33l5 19h168v-317q0 -19 22 -19q16 0 24 8zM317 172q20 0 39.5 10.5t25.5 28.5
v128q-22 18 -61 18q-33 0 -56 -27.5t-23 -68.5q0 -42 20.5 -65.5t54.5 -23.5z" />
    <glyph glyph-name="aacute" unicode="&#xe1;" horiz-adv-x="670" 
d="M482 645l-248 -90l-56 88l193 164l115 -140zM635 188l4 -2v-175q-46 -18 -102 -18q-99 0 -128 68q-19 -31 -60 -53t-95 -22q-101 0 -162.5 69.5t-61.5 191.5q0 127 74 205t184 78q82 0 128 -33l5 19h168v-317q0 -19 22 -19q16 0 24 8zM317 172q20 0 39.5 10.5t25.5 28.5
v128q-22 18 -61 18q-33 0 -56 -27.5t-23 -68.5q0 -42 20.5 -65.5t54.5 -23.5z" />
    <glyph glyph-name="acircumflex" unicode="&#xe2;" horiz-adv-x="670" 
d="M320 647l-107 -76l-64 60l125 161h94l130 -161l-64 -60zM635 188l4 -2v-175q-46 -18 -102 -18q-99 0 -128 68q-19 -31 -60 -53t-95 -22q-101 0 -162.5 69.5t-61.5 191.5q0 127 74 205t184 78q82 0 128 -33l5 19h168v-317q0 -19 22 -19q16 0 24 8zM317 172q20 0 39.5 10.5
t25.5 28.5v128q-22 18 -61 18q-33 0 -56 -27.5t-23 -68.5q0 -42 20.5 -65.5t54.5 -23.5z" />
    <glyph glyph-name="atilde" unicode="&#xe3;" horiz-adv-x="670" 
d="M240 589l-4 -4l-120 34q0 60 37.5 107t102.5 47q33 0 70.5 -14t56.5 -14q17 0 26.5 9.5t9.5 23.5l4 2l120 -32q0 -70 -40.5 -112t-100.5 -42q-30 -1 -70 13.5t-54 14.5q-34 0 -38 -33zM635 188l4 -2v-175q-46 -18 -102 -18q-99 0 -128 68q-19 -31 -60 -53t-95 -22
q-101 0 -162.5 69.5t-61.5 191.5q0 127 74 205t184 78q82 0 128 -33l5 19h168v-317q0 -19 22 -19q16 0 24 8zM317 172q20 0 39.5 10.5t25.5 28.5v128q-22 18 -61 18q-33 0 -56 -27.5t-23 -68.5q0 -42 20.5 -65.5t54.5 -23.5z" />
    <glyph glyph-name="adieresis" unicode="&#xe4;" horiz-adv-x="670" 
d="M195 571q-46 0 -78.5 32t-32.5 76q0 47 32.5 80t78.5 33q47 0 79.5 -33t32.5 -80q0 -44 -33 -76t-79 -32zM447 571q-46 0 -78.5 32t-32.5 76q0 47 32.5 80t78.5 33q47 0 79.5 -33t32.5 -80q0 -44 -33 -76t-79 -32zM635 188l4 -2v-175q-46 -18 -102 -18q-99 0 -128 68
q-19 -31 -60 -53t-95 -22q-101 0 -162.5 69.5t-61.5 191.5q0 127 74 205t184 78q82 0 128 -33l5 19h168v-317q0 -19 22 -19q16 0 24 8zM317 172q20 0 39.5 10.5t25.5 28.5v128q-22 18 -61 18q-33 0 -56 -27.5t-23 -68.5q0 -42 20.5 -65.5t54.5 -23.5z" />
    <glyph glyph-name="aring" unicode="&#xe5;" horiz-adv-x="670" 
d="M324 547q-63 0 -103 40t-40 99t40 98.5t103 39.5t103 -39.5t40 -98.5t-40 -99t-103 -40zM323 730q-21 0 -33.5 -13t-12.5 -31q0 -20 12.5 -33t33.5 -13q22 0 35 13t13 33q0 19 -13 31.5t-35 12.5zM635 188l4 -2v-175q-46 -18 -102 -18q-99 0 -128 68q-19 -31 -60 -53
t-95 -22q-101 0 -162.5 69.5t-61.5 191.5q0 127 74 205t184 78q82 0 128 -33l5 19h168v-317q0 -19 22 -19q16 0 24 8zM317 172q20 0 39.5 10.5t25.5 28.5v128q-22 18 -61 18q-33 0 -56 -27.5t-23 -68.5q0 -42 20.5 -65.5t54.5 -23.5z" />
    <glyph glyph-name="ae" unicode="&#xe6;" horiz-adv-x="872" 
d="M588 530q119 0 187.5 -60.5t70.5 -185.5q0 -28 -2 -86h-318q21 -59 97 -59q95 0 181 40l4 -2v-150q-83 -41 -203 -41q-145 0 -226 81q-80 -80 -179 -80q-90 0 -135 40.5t-45 103.5q0 43 17.5 74t43.5 49t67 28.5t76.5 14t83.5 4.5q-11 55 -93 55q-91 0 -144 -28l-4 2v163
q22 14 73 25.5t114 11.5q108 0 169 -44q68 44 165 44zM520 301h129q-3 37 -17.5 51t-44.5 14q-54 0 -67 -65zM257 133q28 0 69 19q-8 21 -12 45q-92 -4 -92 -37q0 -27 35 -27z" />
    <glyph glyph-name="ccedilla" unicode="&#xe7;" horiz-adv-x="492" 
d="M342 355q-101 0 -101 -94q0 -46 26 -72.5t75 -26.5q53 0 103 26l7 -5v-175q-56 -21 -120 -22l-22 -25q3 0 7.5 -0.5t7.5 -1.5q47 -5 72.5 -31t25.5 -66q0 -109 -163 -109q-45 0 -69 6v72l4 2q23 -5 34 -5q30 0 41 8t11 24q3 30 -39 30q-7 0 -16.5 -0.5t-12.5 -0.5l-2 4
v65l27 37q-95 21 -152 87.5t-57 171.5q0 131 78.5 203.5t208.5 72.5q75 0 136 -22v-171l-6 -5q-58 23 -104 23z" />
    <glyph glyph-name="egrave" unicode="&#xe8;" horiz-adv-x="594" 
d="M378 555l-248 90l-4 22l115 140l193 -164zM565 288q0 -25 -2 -67v-19h-317q24 -56 117 -56q79 0 161 34l5 -2v-155q-79 -37 -207 -37q-54 0 -103 14t-93.5 44t-70.5 85t-26 129q0 124 76.5 198t200.5 74q117 0 186.5 -62.5t72.5 -179.5zM239 303h128q-2 37 -17 51.5
t-46 14.5q-52 0 -65 -66z" />
    <glyph glyph-name="eacute" unicode="&#xe9;" horiz-adv-x="594" 
d="M458 645l-248 -90l-56 88l193 164l115 -140zM565 288q0 -25 -2 -67v-19h-317q24 -56 117 -56q79 0 161 34l5 -2v-155q-79 -37 -207 -37q-54 0 -103 14t-93.5 44t-70.5 85t-26 129q0 124 76.5 198t200.5 74q117 0 186.5 -62.5t72.5 -179.5zM239 303h128q-2 37 -17 51.5
t-46 14.5q-52 0 -65 -66z" />
    <glyph glyph-name="ecircumflex" unicode="&#xea;" horiz-adv-x="594" 
d="M296 647l-107 -76l-64 60l125 161h94l130 -161l-64 -60zM565 288q0 -25 -2 -67v-19h-317q24 -56 117 -56q79 0 161 34l5 -2v-155q-79 -37 -207 -37q-54 0 -103 14t-93.5 44t-70.5 85t-26 129q0 124 76.5 198t200.5 74q117 0 186.5 -62.5t72.5 -179.5zM239 303h128
q-2 37 -17 51.5t-46 14.5q-52 0 -65 -66z" />
    <glyph glyph-name="edieresis" unicode="&#xeb;" horiz-adv-x="594" 
d="M171 571q-46 0 -78.5 32t-32.5 76q0 47 32.5 80t78.5 33q47 0 79.5 -33t32.5 -80q0 -44 -33 -76t-79 -32zM423 571q-46 0 -78.5 32t-32.5 76q0 47 32.5 80t78.5 33q47 0 79.5 -33t32.5 -80q0 -44 -33 -76t-79 -32zM565 288q0 -25 -2 -67v-19h-317q24 -56 117 -56
q79 0 161 34l5 -2v-155q-79 -37 -207 -37q-54 0 -103 14t-93.5 44t-70.5 85t-26 129q0 124 76.5 198t200.5 74q117 0 186.5 -62.5t72.5 -179.5zM239 303h128q-2 37 -17 51.5t-46 14.5q-52 0 -65 -66z" />
    <glyph glyph-name="igrave" unicode="&#xec;" horiz-adv-x="317" 
d="M237 555l-248 90l-4 22l115 140l193 -164zM56 0v516h206v-516h-206z" />
    <glyph glyph-name="iacute" unicode="&#xed;" horiz-adv-x="317" 
d="M69 555l-56 88l193 164l115 -140l-4 -22zM56 0v516h206v-516h-206z" />
    <glyph glyph-name="icircumflex" unicode="&#xee;" horiz-adv-x="317" 
d="M48 571l-64 60l125 161h94l130 -161l-64 -60l-114 76zM56 0v516h206v-516h-206z" />
    <glyph glyph-name="idieresis" unicode="&#xef;" horiz-adv-x="317" 
d="M46 571q-46 0 -78.5 32t-32.5 76q0 47 32.5 80t78.5 33t78.5 -33t32.5 -80q0 -44 -32.5 -76t-78.5 -32zM269 571q-46 0 -79 32t-33 76q0 47 32.5 80t79.5 33q46 0 78.5 -33t32.5 -80q0 -44 -32.5 -76t-78.5 -32zM56 0v516h206v-516h-206z" />
    <glyph glyph-name="eth" unicode="&#xf0;" horiz-adv-x="655" 
d="M445 683q176 -87 176 -356q0 -157 -81 -249t-223 -92q-135 0 -211.5 64.5t-76.5 171.5t67.5 170.5t182.5 63.5q65 0 116 -27q-14 73 -55 100l-40 -59l-97 67l11 15q-51 -1 -97 -15l-6 4v165q52 15 141 15q27 0 73 -4l41 59l96 -68zM321 159q36 0 55.5 21t24.5 68
q-25 51 -79 51q-36 0 -56 -22t-20 -49q0 -26 17.5 -47.5t57.5 -21.5z" />
    <glyph glyph-name="ntilde" unicode="&#xf1;" horiz-adv-x="642" 
d="M233 589l-4 -4l-120 34q0 60 37.5 107t102.5 47q33 0 70.5 -14t56.5 -14q16 0 26 9.5t10 23.5l4 2l120 -32q0 -70 -40.5 -112t-100.5 -42q-30 -1 -70 13.5t-54 14.5q-34 0 -38 -33zM405 530q86 0 137 -57.5t51 -150.5v-322h-207v264q0 68 -61 68q-23 0 -41 -13.5
t-22 -35.5v-283h-206v516h167l19 -69q55 83 163 83z" />
    <glyph glyph-name="ograve" unicode="&#xf2;" horiz-adv-x="639" 
d="M398 555l-248 90l-4 22l115 140l193 -164zM320 -14q-121 0 -206 69.5t-85 202.5q0 125 80 198.5t211 73.5q122 0 206.5 -69t84.5 -202q0 -126 -80 -199.5t-211 -73.5zM320 161q39 0 59 27t20 71q0 43 -20 70t-59 27q-40 0 -59.5 -27t-19.5 -70q0 -98 79 -98z" />
    <glyph glyph-name="oacute" unicode="&#xf3;" horiz-adv-x="639" 
d="M230 555l-56 88l193 164l115 -140l-4 -22zM320 -14q-121 0 -206 69.5t-85 202.5q0 125 80 198.5t211 73.5q122 0 206.5 -69t84.5 -202q0 -126 -80 -199.5t-211 -73.5zM320 161q39 0 59 27t20 71q0 43 -20 70t-59 27q-40 0 -59.5 -27t-19.5 -70q0 -98 79 -98z" />
    <glyph glyph-name="ocircumflex" unicode="&#xf4;" horiz-adv-x="639" 
d="M209 571l-64 60l125 161h94l130 -161l-64 -60l-114 76zM320 -14q-121 0 -206 69.5t-85 202.5q0 125 80 198.5t211 73.5q122 0 206.5 -69t84.5 -202q0 -126 -80 -199.5t-211 -73.5zM320 161q39 0 59 27t20 71q0 43 -20 70t-59 27q-40 0 -59.5 -27t-19.5 -70q0 -98 79 -98z
" />
    <glyph glyph-name="otilde" unicode="&#xf5;" horiz-adv-x="639" 
d="M232 585l-120 34q0 60 37.5 107t102.5 47q33 0 70.5 -14t56.5 -14q17 0 26.5 9.5t9.5 23.5l4 2l120 -32q0 -70 -40.5 -112t-100.5 -42q-30 -1 -70 13.5t-54 14.5q-34 0 -38 -33zM320 -14q-121 0 -206 69.5t-85 202.5q0 125 80 198.5t211 73.5q122 0 206.5 -69t84.5 -202
q0 -126 -80 -199.5t-211 -73.5zM320 161q39 0 59 27t20 71q0 43 -20 70t-59 27q-40 0 -59.5 -27t-19.5 -70q0 -98 79 -98z" />
    <glyph glyph-name="odieresis" unicode="&#xf6;" horiz-adv-x="639" 
d="M191 571q-46 0 -78.5 32t-32.5 76q0 47 32.5 80t78.5 33q47 0 79.5 -33t32.5 -80q0 -44 -33 -76t-79 -32zM443 571q-46 0 -78.5 32t-32.5 76q0 47 32.5 80t78.5 33q47 0 79.5 -33t32.5 -80q0 -44 -33 -76t-79 -32zM320 -14q-121 0 -206 69.5t-85 202.5q0 125 80 198.5
t211 73.5q122 0 206.5 -69t84.5 -202q0 -126 -80 -199.5t-211 -73.5zM320 161q39 0 59 27t20 71q0 43 -20 70t-59 27q-40 0 -59.5 -27t-19.5 -70q0 -98 79 -98z" />
    <glyph glyph-name="divide" unicode="&#xf7;" horiz-adv-x="569" 
d="M285 388q-52 0 -79 27t-27 70t27 71.5t79 28.5q51 0 78 -28.5t27 -71.5t-26.5 -70t-78.5 -27zM26 237v131h517v-131h-517zM285 17q-52 0 -79 27t-27 70t27 71.5t79 28.5q51 0 78 -28.5t27 -71.5t-26.5 -70t-78.5 -27z" />
    <glyph glyph-name="oslash" unicode="&#xf8;" horiz-adv-x="640" 
d="M654 541v-14l-91 -104q49 -66 49 -164q0 -126 -80 -199.5t-211 -73.5q-51 0 -109 24l-31 -34h-173v16l85 100q-63 72 -63 166q0 125 80 198.5t211 73.5q67 0 121 -20l26 31h186zM321 161q39 0 59 27t20 71q0 43 -20 70t-59 27q-40 0 -59.5 -27t-19.5 -70q0 -98 79 -98z
" />
    <glyph glyph-name="ugrave" unicode="&#xf9;" horiz-adv-x="634" 
d="M399 555l-248 90l-4 22l115 140l193 -164zM373 516h206v-516h-168l-20 76q-48 -90 -172 -90q-80 0 -124 50t-44 130v350h206v-297q0 -57 56 -57q46 0 60 34v320z" />
    <glyph glyph-name="uacute" unicode="&#xfa;" horiz-adv-x="634" 
d="M479 645l-248 -90l-56 88l193 164l115 -140zM373 516h206v-516h-168l-20 76q-48 -90 -172 -90q-80 0 -124 50t-44 130v350h206v-297q0 -57 56 -57q46 0 60 34v320z" />
    <glyph glyph-name="ucircumflex" unicode="&#xfb;" horiz-adv-x="634" 
d="M317 647l-107 -76l-64 60l125 161h94l130 -161l-64 -60zM373 516h206v-516h-168l-20 76q-48 -90 -172 -90q-80 0 -124 50t-44 130v350h206v-297q0 -57 56 -57q46 0 60 34v320z" />
    <glyph glyph-name="udieresis" unicode="&#xfc;" horiz-adv-x="634" 
d="M192 571q-46 0 -78.5 32t-32.5 76q0 47 32.5 80t78.5 33q47 0 79.5 -33t32.5 -80q0 -44 -33 -76t-79 -32zM444 571q-46 0 -78.5 32t-32.5 76q0 47 32.5 80t78.5 33q47 0 79.5 -33t32.5 -80q0 -44 -33 -76t-79 -32zM373 516h206v-516h-168l-20 76q-48 -90 -172 -90
q-80 0 -124 50t-44 130v350h206v-297q0 -57 56 -57q46 0 60 34v320z" />
    <glyph glyph-name="yacute" unicode="&#xfd;" horiz-adv-x="562" 
d="M445 645l-248 -90l-56 88l193 164l115 -140zM564 516l3 -4l-216 -518l-63 -158h-213l-2 3l114 223l-184 450l2 4h217l65 -224l71 224h206z" />
    <glyph glyph-name="thorn" unicode="&#xfe;" horiz-adv-x="646" 
d="M395 530q106 0 163.5 -72.5t57.5 -189.5q0 -126 -76.5 -204t-191.5 -78q-50 0 -86 14v-164h-206v874h206v-225q56 45 133 45zM318 162q40 0 64 24.5t24 70.5q0 89 -80 89q-22 0 -41 -10.5t-23 -27.5v-137q26 -9 56 -9z" />
    <glyph glyph-name="ydieresis" unicode="&#xff;" horiz-adv-x="562" 
d="M158 571q-46 0 -78.5 32t-32.5 76q0 47 32.5 80t78.5 33q47 0 79.5 -33t32.5 -80q0 -44 -33 -76t-79 -32zM410 571q-46 0 -78.5 32t-32.5 76q0 47 32.5 80t78.5 33q47 0 79.5 -33t32.5 -80q0 -44 -33 -76t-79 -32zM564 516l3 -4l-216 -518l-63 -158h-213l-2 3l114 223
l-184 450l2 4h217l65 -224l71 224h206z" />
    <glyph glyph-name="Amacron" unicode="&#x100;" horiz-adv-x="656" 
d="M498 848v-115h-351v115h351zM461 0l-23 53h-226l-21 -53h-204l291 661h92l304 -661h-213zM266 190h111l-40 90l-19 53l-17 -53z" />
    <glyph glyph-name="amacron" unicode="&#x101;" horiz-adv-x="670" 
d="M484 719v-118h-321v118h321zM635 188l4 -2v-175q-46 -18 -102 -18q-99 0 -128 68q-19 -31 -60 -53t-95 -22q-101 0 -162.5 69.5t-61.5 191.5q0 127 74 205t184 78q82 0 128 -33l5 19h168v-317q0 -19 22 -19q16 0 24 8zM317 172q20 0 39.5 10.5t25.5 28.5v128
q-22 18 -61 18q-33 0 -56 -27.5t-23 -68.5q0 -42 20.5 -65.5t54.5 -23.5z" />
    <glyph glyph-name="Abreve" unicode="&#x102;" horiz-adv-x="656" 
d="M321 714q-75 0 -128.5 49t-53.5 128l122 14q7 -72 64 -72q31 0 49.5 20.5t20.5 51.5l114 -14q0 -79 -55 -128t-133 -49zM461 0l-23 53h-226l-21 -53h-204l291 661h92l304 -661h-213zM266 190h111l-40 90l-19 53l-17 -53z" />
    <glyph glyph-name="abreve" unicode="&#x103;" horiz-adv-x="670" 
d="M323 572q-73 0 -124 48t-51 129l116 13l6 -4q6 -57 55 -57q26 0 43 16.5t20 40.5l4 3l109 -12q0 -81 -52 -129t-126 -48zM635 188l4 -2v-175q-46 -18 -102 -18q-99 0 -128 68q-19 -31 -60 -53t-95 -22q-101 0 -162.5 69.5t-61.5 191.5q0 127 74 205t184 78q82 0 128 -33
l5 19h168v-317q0 -19 22 -19q16 0 24 8zM317 172q20 0 39.5 10.5t25.5 28.5v128q-22 18 -61 18q-33 0 -56 -27.5t-23 -68.5q0 -42 20.5 -65.5t54.5 -23.5z" />
    <glyph glyph-name="Aogonek" unicode="&#x104;" horiz-adv-x="656" 
d="M625 0q-84 -45 -84 -101q0 -19 10 -33.5t32 -14.5q17 0 30 3l6 -5v-90q-35 -8 -74 -8q-63 0 -104.5 25.5t-41.5 76.5q0 82 108 147h-46l-23 53h-226l-21 -53h-204l291 661h92l304 -661h-49zM266 190h111l-40 90l-19 53l-17 -53z" />
    <glyph glyph-name="aogonek" unicode="&#x105;" horiz-adv-x="670" 
d="M599 -137q17 0 30 3l6 -5v-90q-35 -8 -74 -8q-63 0 -104.5 25.5t-41.5 76.5q0 73 83 131q-65 11 -89 65q-19 -31 -60 -53t-95 -22q-101 0 -162.5 69.5t-61.5 191.5q0 127 74 205t184 78q82 0 128 -33l5 19h168v-317q0 -19 22 -19q16 0 24 8l4 -2v-174h2q-84 -45 -84 -101
q0 -19 10 -33.5t32 -14.5zM317 172q20 0 39.5 10.5t25.5 28.5v128q-22 18 -61 18q-33 0 -56 -27.5t-23 -68.5q0 -42 20.5 -65.5t54.5 -23.5z" />
    <glyph glyph-name="Cacute" unicode="&#x106;" horiz-adv-x="596" 
d="M256 699l-38 92l221 140l85 -147l-10 -19zM392 -12q-156 0 -257.5 89.5t-101.5 246.5q0 167 97.5 261.5t257.5 94.5q88 0 164 -19v-192l-3 -2q-63 28 -131 28q-173 0 -173 -161t179 -161q64 0 123 21l5 -4v-185q-76 -17 -160 -17z" />
    <glyph glyph-name="cacute" unicode="&#x107;" horiz-adv-x="492" 
d="M194 570l-56 88l193 164l115 -140l-4 -22zM323 -14q-129 0 -211.5 70t-82.5 198q0 131 78.5 203.5t208.5 72.5q75 0 136 -22v-171l-6 -5q-58 23 -104 23q-101 0 -101 -94q0 -46 26 -72.5t75 -26.5q53 0 103 26l7 -5v-175q-58 -22 -129 -22z" />
    <glyph glyph-name="Cdotaccent" unicode="&#x10a;" horiz-adv-x="596" 
d="M362 699q-48 0 -82 34t-34 81q0 48 34 82t82 34q47 0 81 -34t34 -82q0 -47 -34 -81t-81 -34zM392 -12q-156 0 -257.5 89.5t-101.5 246.5q0 167 97.5 261.5t257.5 94.5q88 0 164 -19v-192l-3 -2q-63 28 -131 28q-173 0 -173 -161t179 -161q64 0 123 21l5 -4v-185
q-76 -17 -160 -17z" />
    <glyph glyph-name="cdotaccent" unicode="&#x10b;" horiz-adv-x="492" 
d="M284 579q-49 0 -83.5 34.5t-34.5 83.5t34.5 83.5t83.5 34.5t83.5 -34.5t34.5 -83.5t-34 -83.5t-84 -34.5zM323 -14q-129 0 -211.5 70t-82.5 198q0 131 78.5 203.5t208.5 72.5q75 0 136 -22v-171l-6 -5q-58 23 -104 23q-101 0 -101 -94q0 -46 26 -72.5t75 -26.5
q53 0 103 26l7 -5v-175q-58 -22 -129 -22z" />
    <glyph glyph-name="Ccaron" unicode="&#x10c;" horiz-adv-x="596" 
d="M319 703l-142 139l58 74l132 -75l125 75l55 -71l-136 -142h-92zM392 -12q-156 0 -257.5 89.5t-101.5 246.5q0 167 97.5 261.5t257.5 94.5q88 0 164 -19v-192l-3 -2q-63 28 -131 28q-173 0 -173 -161t179 -161q64 0 123 21l5 -4v-185q-76 -17 -160 -17z" />
    <glyph glyph-name="ccaron" unicode="&#x10d;" horiz-adv-x="492" 
d="M239 586l-130 160l64 61l113 -77l108 77l64 -61l-125 -160h-94zM323 -14q-129 0 -211.5 70t-82.5 198q0 131 78.5 203.5t208.5 72.5q75 0 136 -22v-171l-6 -5q-58 23 -104 23q-101 0 -101 -94q0 -46 26 -72.5t75 -26.5q53 0 103 26l7 -5v-175q-58 -22 -129 -22z" />
    <glyph glyph-name="Dcaron" unicode="&#x10e;" horiz-adv-x="733" 
d="M387 703h-92l-142 139l58 74l132 -75l125 75l55 -71zM339 674q164 0 262 -90t98 -244q0 -164 -103 -252.5t-279 -88.5q-217 0 -250 1v663q114 11 272 11zM339 179q149 2 149 157q0 78 -44 115.5t-108 37.5q-37 0 -65 -4v-305q12 -1 68 -1z" />
    <glyph glyph-name="dcaron" unicode="&#x10f;" horiz-adv-x="729" 
d="M765 714l16 -16l-53 -247h-104l7 263h134zM610 180q12 0 26 7l3 -2v-174q-27 -10 -51 -14v-8l-8 7q-20 -3 -43 -3q-99 0 -128 68q-19 -31 -60 -53t-95 -22q-99 0 -161.5 66.5t-62.5 192.5q0 128 75.5 206.5t191.5 78.5q45 0 85 -10v190h206v-511q0 -19 22 -19zM317 172
q20 0 39.5 10.5t25.5 28.5v135q-23 11 -57 11q-38 0 -60.5 -25.5t-22.5 -71.5q0 -88 75 -88z" />
    <glyph glyph-name="Dcroat" unicode="&#x110;" horiz-adv-x="755" 
d="M361 674q164 0 262 -90t98 -244q0 -164 -103 -252.5t-279 -88.5q-217 0 -250 1v274h-71v119h71v270q114 11 272 11zM361 179q149 2 149 157q0 78 -44 115.5t-108 37.5q-37 0 -65 -4v-92h94v-119h-94v-94q12 -1 68 -1z" />
    <glyph glyph-name="dcroat" unicode="&#x111;" horiz-adv-x="669" 
d="M588 560v-361q0 -19 25 -19q13 0 22 7l4 -2v-174q-46 -18 -102 -18q-99 0 -128 68q-19 -31 -60 -53t-95 -22q-99 0 -161.5 66.5t-62.5 192.5q0 128 75.5 206.5t191.5 78.5q45 0 85 -10v40h-97v119h97v31h206v-31h66v-119h-66zM317 172q20 0 39.5 10.5t25.5 28.5v135
q-23 11 -57 11q-38 0 -60.5 -25.5t-22.5 -71.5q0 -88 75 -88z" />
    <glyph glyph-name="Emacron" unicode="&#x112;" horiz-adv-x="575" 
d="M472 848v-115h-351v115h351zM272 162h256v-162h-461v663h454v-161h-249v-83h230v-157h-230v-100z" />
    <glyph glyph-name="emacron" unicode="&#x113;" horiz-adv-x="594" 
d="M460 719v-118h-321v118h321zM565 288q0 -25 -2 -67v-19h-317q24 -56 117 -56q79 0 161 34l5 -2v-155q-79 -37 -207 -37q-54 0 -103 14t-93.5 44t-70.5 85t-26 129q0 124 76.5 198t200.5 74q117 0 186.5 -62.5t72.5 -179.5zM239 303h128q-2 37 -17 51.5t-46 14.5
q-52 0 -65 -66z" />
    <glyph glyph-name="Edotaccent" unicode="&#x116;" horiz-adv-x="575" 
d="M298 699q-48 0 -82 34t-34 81q0 48 34 82t82 34q47 0 81 -34t34 -82q0 -47 -34 -81t-81 -34zM272 162h256v-162h-461v663h454v-161h-249v-83h230v-157h-230v-100z" />
    <glyph glyph-name="edotaccent" unicode="&#x117;" horiz-adv-x="594" 
d="M300 564q-49 0 -83.5 34.5t-34.5 83.5t34.5 83.5t83.5 34.5t83.5 -34.5t34.5 -83.5q0 -50 -34 -84t-84 -34zM565 288q0 -25 -2 -67v-19h-317q24 -56 117 -56q79 0 161 34l5 -2v-155q-79 -37 -207 -37q-54 0 -103 14t-93.5 44t-70.5 85t-26 129q0 124 76.5 198t200.5 74
q117 0 186.5 -62.5t72.5 -179.5zM239 303h128q-2 37 -17 51.5t-46 14.5q-52 0 -65 -66z" />
    <glyph glyph-name="Eogonek" unicode="&#x118;" horiz-adv-x="575" 
d="M528 0q-84 -45 -84 -101q0 -19 10 -33.5t32 -14.5q16 0 30 3l6 -5v-90q-35 -8 -74 -8q-63 0 -104.5 25.5t-41.5 76.5q0 82 108 147h-343v663h454v-161h-249v-83h230v-157h-230v-100h256v-162z" />
    <glyph glyph-name="eogonek" unicode="&#x119;" horiz-adv-x="594" 
d="M565 288q0 -25 -2 -67v-19h-317q24 -56 117 -56q79 0 161 34l5 -2v-155q-27 -12 -63 -22q-67 -40 -67 -91q0 -19 10 -33.5t32 -14.5q17 0 30 3l6 -5v-90q-35 -8 -74 -8q-63 0 -104.5 25.5t-41.5 76.5q0 67 71 122h-6q-54 0 -103 14t-93.5 44t-70.5 85t-26 129
q0 124 76.5 198t200.5 74q117 0 186.5 -62.5t72.5 -179.5zM239 303h128q-2 37 -17 51.5t-46 14.5q-52 0 -65 -66z" />
    <glyph glyph-name="Ecaron" unicode="&#x11a;" horiz-adv-x="575" 
d="M347 703h-92l-142 139l58 74l132 -75l125 75l55 -71zM272 162h256v-162h-461v663h454v-161h-249v-83h230v-157h-230v-100z" />
    <glyph glyph-name="ecaron" unicode="&#x11b;" horiz-adv-x="594" 
d="M349 571h-94l-130 160l64 61l113 -77l108 77l64 -61zM565 288q0 -25 -2 -67v-19h-317q24 -56 117 -56q79 0 161 34l5 -2v-155q-79 -37 -207 -37q-54 0 -103 14t-93.5 44t-70.5 85t-26 129q0 124 76.5 198t200.5 74q117 0 186.5 -62.5t72.5 -179.5zM239 303h128
q-2 37 -17 51.5t-46 14.5q-52 0 -65 -66z" />
    <glyph glyph-name="Gbreve" unicode="&#x11e;" horiz-adv-x="673" 
d="M376 714q-75 0 -128.5 49t-53.5 128l122 14q7 -72 64 -72q31 0 49.5 20.5t20.5 51.5l114 -14q0 -79 -55 -128t-133 -49zM400 -11q-173 0 -269.5 85.5t-96.5 254.5q0 165 105.5 258t291.5 93q102 0 171 -24l-1 -196l-4 -2q-66 37 -172 37q-87 0 -133 -42.5t-46 -123.5
q0 -77 43 -116.5t122 -39.5q25 0 34 -2v165h183l1 -319q-113 -28 -229 -28z" />
    <glyph glyph-name="gbreve" unicode="&#x11f;" horiz-adv-x="644" 
d="M297 572q-73 0 -124 48t-51 129l116 13l6 -4q6 -57 55 -57q26 0 43 16.5t20 40.5l4 3l109 -12q0 -81 -52 -129t-126 -48zM450 532h141v-437q0 -132 -88 -201t-225 -69q-123 0 -218 35v168l4 2q83 -45 178 -45q76 0 107.5 20t35.5 69q-43 -33 -117 -33q-115 0 -176.5 60
t-61.5 171q0 120 74 189t189 69q85 0 140 -41zM313 209q59 0 72 42v89q-27 17 -66 17q-35 0 -56 -20.5t-21 -55.5q0 -34 19.5 -53t51.5 -19z" />
    <glyph glyph-name="Gdotaccent" unicode="&#x120;" horiz-adv-x="673" 
d="M379 699q-48 0 -82 34t-34 81q0 48 34 82t82 34q47 0 81 -34t34 -82q0 -47 -34 -81t-81 -34zM400 -11q-173 0 -269.5 85.5t-96.5 254.5q0 165 105.5 258t291.5 93q102 0 171 -24l-1 -196l-4 -2q-66 37 -172 37q-87 0 -133 -42.5t-46 -123.5q0 -77 43 -116.5t122 -39.5
q25 0 34 -2v165h183l1 -319q-113 -28 -229 -28z" />
    <glyph glyph-name="gdotaccent" unicode="&#x121;" horiz-adv-x="644" 
d="M298 564q-49 0 -83.5 34.5t-34.5 83.5t34.5 83.5t83.5 34.5t83.5 -34.5t34.5 -83.5q0 -50 -34 -84t-84 -34zM450 532h141v-437q0 -132 -88 -201t-225 -69q-123 0 -218 35v168l4 2q83 -45 178 -45q76 0 107.5 20t35.5 69q-43 -33 -117 -33q-115 0 -176.5 60t-61.5 171
q0 120 74 189t189 69q85 0 140 -41zM313 209q59 0 72 42v89q-27 17 -66 17q-35 0 -56 -20.5t-21 -55.5q0 -34 19.5 -53t51.5 -19z" />
    <glyph glyph-name="Gcommaaccent" unicode="&#x122;" horiz-adv-x="673" 
d="M400 -11q-173 0 -269.5 85.5t-96.5 254.5q0 165 105.5 258t291.5 93q102 0 171 -24l-1 -196l-4 -2q-66 37 -172 37q-87 0 -133 -42.5t-46 -123.5q0 -77 43 -116.5t122 -39.5q25 0 34 -2v165h183l1 -319q-113 -28 -229 -28zM304 -262q15 83 15 136q0 21 -4 75l148 12
l14 -22q0 -111 -63 -201h-110z" />
    <glyph glyph-name="gcommaaccent" unicode="&#x123;" horiz-adv-x="644" 
d="M379 567l-148 -12l-14 22q0 111 63 201h110q-15 -82 -15 -136q0 -21 4 -75zM450 532h141v-437q0 -132 -88 -201t-225 -69q-123 0 -218 35v168l4 2q83 -45 178 -45q76 0 107.5 20t35.5 69q-43 -33 -117 -33q-115 0 -176.5 60t-61.5 171q0 120 74 189t189 69q85 0 140 -41z
M313 209q59 0 72 42v89q-27 17 -66 17q-35 0 -56 -20.5t-21 -55.5q0 -34 19.5 -53t51.5 -19z" />
    <glyph glyph-name="Hbar" unicode="&#x126;" horiz-adv-x="838" 
d="M772 594v-119h-43v-475h-205v236h-209v-236h-206v475h-42v119h42v69h206v-69h209v69h205v-69h43zM524 422v53h-209v-53h209z" />
    <glyph glyph-name="hbar" unicode="&#x127;" horiz-adv-x="643" 
d="M404 530q87 0 138 -54.5t51 -151.5v-324h-207v269q0 68 -61 68q-55 0 -63 -50v-287h-206v560h-71v119h71v31h206v-31h92v-119h-92v-88q53 58 142 58z" />
    <glyph glyph-name="Itilde" unicode="&#x128;" horiz-adv-x="340" 
d="M77 705l-111 30q-1 64 37.5 108t98.5 44q33 0 71.5 -15.5t57.5 -15.5q13 0 23.5 10t10.5 23l3 2l112 -30q1 -66 -36.5 -108.5t-99.5 -42.5q-25 0 -67 14.5t-59 14.5t-27 -10t-10 -22zM67 0v663h206v-663h-206z" />
    <glyph glyph-name="itilde" unicode="&#x129;" horiz-adv-x="317" 
d="M71 585l-120 34q0 60 37.5 107t102.5 47q33 0 70.5 -14t56.5 -14q16 0 26 9.5t10 23.5l4 2l120 -32q0 -70 -40.5 -112t-100.5 -42q-30 -1 -70 13.5t-54 14.5q-34 0 -38 -33zM56 0v516h206v-516h-206z" />
    <glyph glyph-name="Imacron" unicode="&#x12a;" horiz-adv-x="340" 
d="M29 737v121h281v-121h-281zM67 0v663h206v-663h-206z" />
    <glyph glyph-name="imacron" unicode="&#x12b;" horiz-adv-x="317" 
d="M-5 601v118h328v-118h-328zM56 0v516h206v-516h-206z" />
    <glyph glyph-name="Iogonek" unicode="&#x12e;" horiz-adv-x="340" 
d="M241 0q-65 -41 -65 -90q0 -19 10 -33.5t32 -14.5q16 0 30 3l6 -5v-90q-35 -8 -74 -8q-63 0 -104.5 25.5t-41.5 76.5q0 76 90 136h-57v663h206v-663h-32z" />
    <glyph glyph-name="iogonek" unicode="&#x12f;" horiz-adv-x="317" 
d="M159 564q-49 0 -83.5 34.5t-34.5 83.5t34.5 83.5t83.5 34.5t83.5 -34.5t34.5 -83.5q0 -50 -34.5 -84t-83.5 -34zM56 0v516h206v-516h-23q-84 -45 -84 -101q0 -19 10 -33.5t32 -14.5q17 0 30 3l6 -5v-90q-35 -8 -74 -8q-63 0 -104.5 25.5t-41.5 76.5q0 82 108 147h-65z
" />
    <glyph glyph-name="Idotaccent" unicode="&#x130;" horiz-adv-x="340" 
d="M171 699q-48 0 -82 34t-34 81q0 48 34 82t82 34q47 0 81 -34t34 -82q0 -47 -34 -81t-81 -34zM67 0v663h206v-663h-206z" />
    <glyph glyph-name="dotlessi" unicode="&#x131;" horiz-adv-x="317" 
d="M56 0v516h206v-516h-206z" />
    <glyph glyph-name="IJ" unicode="&#x132;" horiz-adv-x="748" 
d="M67 0v663h206v-663h-206zM419 -3q-32 0 -64 4v172l4 2q17 -3 32 -3q52 0 72 32.5t20 90.5v368h206v-347q0 -161 -66.5 -240t-203.5 -79z" />
    <glyph glyph-name="ij" unicode="&#x133;" horiz-adv-x="658" 
d="M159 564q-49 0 -83.5 34.5t-34.5 83.5t34.5 83.5t83.5 34.5t83.5 -34.5t34.5 -83.5q0 -50 -34.5 -84t-83.5 -34zM499 564q-48 0 -83 34.5t-35 83.5t35 83.5t83 34.5q49 0 83.5 -34.5t34.5 -83.5q0 -50 -34.5 -84t-83.5 -34zM56 113v403h206v-403h-206zM337 -171
q-82 0 -142 20v179l2 1q46 -18 89 -18q62 0 86 30t24 110v365h206v-385q0 -302 -265 -302z" />
    <glyph glyph-name="Kcommaaccent" unicode="&#x136;" horiz-adv-x="709" 
d="M431 337l300 -333l-3 -4h-250l-206 227v-227h-205v663h205v-246l207 246h232l2 -4zM274 -51l148 12l14 -22q0 -111 -63 -201h-110q15 83 15 136q0 21 -4 75z" />
    <glyph glyph-name="kcommaaccent" unicode="&#x137;" horiz-adv-x="629" 
d="M439 276l198 -272l-3 -4h-243l-129 178v-178h-206v710h206v-364l128 170h228l2 -4zM239 -51l148 12l14 -22q0 -111 -63 -201h-110q15 83 15 136q0 21 -4 75z" />
    <glyph glyph-name="kgreenlandic" unicode="&#x138;" horiz-adv-x="629" 
d="M439 276l198 -272l-3 -4h-243l-129 178v-178h-206v516h206v-170l127 170h232l2 -4z" />
    <glyph glyph-name="Lacute" unicode="&#x139;" horiz-adv-x="513" 
d="M344 765l-258 -66l-38 92l221 140l85 -147zM272 169h231v-169h-436v663h205v-494z" />
    <glyph glyph-name="lacute" unicode="&#x13a;" horiz-adv-x="360" 
d="M47 747l-38 92l221 140l85 -147l-10 -19zM257 -11q-103 0 -155 47t-52 156v518h207v-472q0 -67 49 -67q16 0 34 8l4 -2v-176q-37 -12 -87 -12z" />
    <glyph glyph-name="Lcommaaccent" unicode="&#x13b;" horiz-adv-x="513" 
d="M272 169h231v-169h-436v663h205v-494zM204 -51l148 12l14 -22q0 -111 -63 -201h-110q15 83 15 136q0 21 -4 75z" />
    <glyph glyph-name="lcommaaccent" unicode="&#x13c;" horiz-adv-x="360" 
d="M257 -11q-103 0 -155 47t-52 156v518h207v-472q0 -67 49 -67q16 0 34 8l4 -2v-176q-37 -12 -87 -12zM110 -262q15 83 15 136q0 21 -4 75l148 12l14 -22q0 -111 -63 -201h-110z" />
    <glyph glyph-name="Lcaron" unicode="&#x13d;" horiz-adv-x="522" 
d="M501 657l-53 -247h-103l6 263h135zM272 169h231v-169h-436v663h205v-494z" />
    <glyph glyph-name="lcaron" unicode="&#x13e;" horiz-adv-x="399" 
d="M311 451l6 263h135l15 -16l-53 -247h-103zM257 -11q-103 0 -155 47t-52 156v518h207v-472q0 -67 49 -67q19 0 36 7l2 -1v-176q-37 -12 -87 -12z" />
    <glyph glyph-name="Ldot" unicode="&#x13f;" horiz-adv-x="567" 
d="M272 663v-494h231v-169h-436v663h205zM433 516q53 0 80.5 -29t27.5 -73t-27.5 -71.5t-80.5 -27.5t-80.5 27.5t-27.5 71.5t27.5 73t80.5 29z" />
    <glyph glyph-name="ldot" unicode="&#x140;" horiz-adv-x="512" 
d="M257 -11q-103 0 -155 47t-52 156v518h207v-472q0 -67 49 -67q19 0 36 7l2 -1v-176q-37 -12 -87 -12zM415 256q-53 0 -80.5 27.5t-27.5 71.5q0 43 27.5 72t80.5 29t80.5 -29t27.5 -72q0 -44 -27.5 -71.5t-80.5 -27.5z" />
    <glyph glyph-name="Lslash" unicode="&#x141;" horiz-adv-x="533" 
d="M292 169h231v-169h-436v199l-63 -40l-5 2v133l68 43v326h205v-195l62 39h6v-134l-68 -43v-161z" />
    <glyph glyph-name="lslash" unicode="&#x142;" horiz-adv-x="418" 
d="M378 178l2 -1v-176q-37 -12 -87 -12q-104 0 -155.5 47t-51.5 156v18l-57 -37h-5v136l62 41v360h206v-224l66 43h6v-136l-72 -47v-108q0 -67 50 -67q19 0 36 7z" />
    <glyph glyph-name="Nacute" unicode="&#x143;" horiz-adv-x="740" 
d="M263 699l-38 92l221 140l85 -147l-10 -19zM67 0v663h91l316 -284h3v284h196v-663h-91l-316 296h-3v-296h-196z" />
    <glyph glyph-name="nacute" unicode="&#x144;" horiz-adv-x="642" 
d="M475 645l-248 -90l-56 88l193 164l115 -140zM405 530q86 0 137 -57.5t51 -150.5v-322h-207v264q0 68 -61 68q-23 0 -41 -13.5t-22 -35.5v-283h-206v516h167l19 -69q55 83 163 83z" />
    <glyph glyph-name="Ncommaaccent" unicode="&#x145;" horiz-adv-x="740" 
d="M67 0v663h91l316 -284h3v284h196v-663h-91l-316 296h-3v-296h-196zM288 -262q15 83 15 136q0 21 -4 75l148 12l14 -22q0 -111 -63 -201h-110z" />
    <glyph glyph-name="ncommaaccent" unicode="&#x146;" horiz-adv-x="642" 
d="M405 530q86 0 137 -57.5t51 -150.5v-322h-207v264q0 68 -61 68q-23 0 -41 -13.5t-22 -35.5v-283h-206v516h167l19 -69q55 83 163 83zM242 -51l148 12l14 -22q0 -111 -63 -201h-110q15 83 15 136q0 21 -4 75z" />
    <glyph glyph-name="Ncaron" unicode="&#x147;" horiz-adv-x="740" 
d="M326 703l-142 139l58 74l132 -75l125 75l55 -71l-136 -142h-92zM67 0v663h91l316 -284h3v284h196v-663h-91l-316 296h-3v-296h-196z" />
    <glyph glyph-name="ncaron" unicode="&#x148;" horiz-adv-x="642" 
d="M366 571h-94l-130 160l64 61l113 -77l108 77l64 -61zM405 530q86 0 137 -57.5t51 -150.5v-322h-207v264q0 68 -61 68q-23 0 -41 -13.5t-22 -35.5v-283h-206v516h167l19 -69q55 83 163 83z" />
    <glyph glyph-name="Eng" unicode="&#x14a;" horiz-adv-x="739" 
d="M477 663h196v-543q0 -173 -67 -247t-193 -74q-36 0 -65 4v167l1 1q17 -4 36 -4q52 0 72 34.5t20 96.5l-211 198h-3v-296h-196v663h91l316 -284h3v284z" />
    <glyph glyph-name="eng" unicode="&#x14b;" horiz-adv-x="644" 
d="M404 530q87 0 138.5 -55t51.5 -148v-331q0 -110 -60 -163.5t-167 -53.5q-38 0 -88 8l-1 167l2 2q32 -6 43 -6q65 0 65 84v228q0 70 -62 70q-56 0 -64 -50v-282h-206v516h167l18 -67q54 81 163 81z" />
    <glyph glyph-name="Omacron" unicode="&#x14c;" horiz-adv-x="774" 
d="M210 733v115h351v-115h-351zM387 -12q-93 0 -171.5 36.5t-130.5 116.5t-52 191q0 159 99.5 253.5t254.5 94.5q69 0 131.5 -22t112.5 -63.5t80 -109.5t30 -153q0 -157 -99.5 -250.5t-254.5 -93.5zM387 174q68 0 104.5 42t36.5 116q0 77 -36.5 120t-104.5 43t-104.5 -43
t-36.5 -120q0 -74 36.5 -116t104.5 -42z" />
    <glyph glyph-name="omacron" unicode="&#x14d;" horiz-adv-x="639" 
d="M159 601v118h321v-118h-321zM320 -14q-121 0 -206 69.5t-85 202.5q0 125 80 198.5t211 73.5q122 0 206.5 -69t84.5 -202q0 -126 -80 -199.5t-211 -73.5zM320 161q39 0 59 27t20 71q0 43 -20 70t-59 27q-40 0 -59.5 -27t-19.5 -70q0 -98 79 -98z" />
    <glyph glyph-name="Ohungarumlaut" unicode="&#x150;" horiz-adv-x="774" 
d="M294 697l-84 33l78 207l125 -36l4 -27zM524 697l-85 33l78 207l126 -36l4 -27zM387 -12q-93 0 -171.5 36.5t-130.5 116.5t-52 191q0 159 99.5 253.5t254.5 94.5q69 0 131.5 -22t112.5 -63.5t80 -109.5t30 -153q0 -157 -99.5 -250.5t-254.5 -93.5zM387 174q68 0 104.5 42
t36.5 116q0 77 -36.5 120t-104.5 43t-104.5 -43t-36.5 -120q0 -74 36.5 -116t104.5 -42z" />
    <glyph glyph-name="ohungarumlaut" unicode="&#x151;" horiz-adv-x="639" 
d="M225 555l-74 49l90 202l124 -45l2 -26zM432 555l-75 49l90 202l125 -45l2 -26zM320 -14q-121 0 -206 69.5t-85 202.5q0 125 80 198.5t211 73.5q122 0 206.5 -69t84.5 -202q0 -126 -80 -199.5t-211 -73.5zM320 161q39 0 59 27t20 71q0 43 -20 70t-59 27q-40 0 -59.5 -27
t-19.5 -70q0 -98 79 -98z" />
    <glyph glyph-name="OE" unicode="&#x152;" horiz-adv-x="952" 
d="M907 162v-162h-461q-35 -7 -77 -7q-65 0 -124 21t-107.5 61.5t-77.5 107t-29 149.5q0 156 95.5 249t242.5 93q46 0 93 -11h438v-162h-232q20 -41 28 -82h185v-159h-183q-9 -56 -31 -98h240zM243 332q0 -71 34 -112.5t92 -41.5q60 0 91.5 40.5t31.5 113.5q0 75 -31 116
t-92 41q-58 0 -92 -42t-34 -115z" />
    <glyph glyph-name="oe" unicode="&#x153;" horiz-adv-x="913" 
d="M881 198h-296q22 -58 110 -58q77 0 148 38l4 -3v-150q-71 -39 -180 -39q-119 0 -193 63q-69 -63 -176 -63q-111 0 -190 69.5t-79 202.5q0 126 74 199t195 73q105 0 175 -61q67 61 167 61q112 0 176.5 -60.5t66.5 -185.5q0 -28 -2 -86zM578 300h118q-3 37 -17.5 51.5
t-41.5 14.5q-51 0 -59 -66zM305 161q62 0 62 98q0 96 -62 96q-64 0 -64 -95q0 -99 64 -99z" />
    <glyph glyph-name="Racute" unicode="&#x154;" horiz-adv-x="659" 
d="M474 765l-258 -66l-38 92l221 140l85 -147zM495 226l138 -222l-2 -4h-218l-116 195h-26v-195h-204v663q111 9 233 9q307 0 307 -232q0 -154 -112 -214zM320 497q-32 0 -49 -2v-149h44q39 0 62.5 20.5t23.5 54.5q0 38 -22.5 57t-58.5 19z" />
    <glyph glyph-name="racute" unicode="&#x155;" horiz-adv-x="444" 
d="M406 645l-248 -90l-56 88l193 164l115 -140zM371 528q32 0 54 -6v-187l-4 -2q-22 8 -50 8q-42 0 -74 -27.5t-35 -80.5v-233h-206v516h167l21 -76q17 41 52.5 64.5t74.5 23.5z" />
    <glyph glyph-name="Rcommaaccent" unicode="&#x156;" horiz-adv-x="659" 
d="M495 226l138 -222l-2 -4h-218l-116 195h-26v-195h-204v663q111 9 233 9q307 0 307 -232q0 -154 -112 -214zM320 497q-32 0 -49 -2v-149h44q39 0 62.5 20.5t23.5 54.5q0 38 -22.5 57t-58.5 19zM250 -51l148 12l14 -22q0 -111 -63 -201h-110q15 83 15 136q0 21 -4 75z" />
    <glyph glyph-name="rcommaaccent" unicode="&#x157;" horiz-adv-x="444" 
d="M371 528q32 0 54 -6v-187l-4 -2q-22 8 -50 8q-42 0 -74 -27.5t-35 -80.5v-233h-206v516h167l21 -76q17 41 52.5 64.5t74.5 23.5zM85 -51l148 12l14 -22q0 -111 -63 -201h-110q15 82 15 136q0 21 -4 75z" />
    <glyph glyph-name="Rcaron" unicode="&#x158;" horiz-adv-x="659" 
d="M371 703h-92l-142 139l58 74l132 -75l125 75l55 -71zM495 226l138 -222l-2 -4h-218l-116 195h-26v-195h-204v663q111 9 233 9q307 0 307 -232q0 -154 -112 -214zM320 497q-32 0 -49 -2v-149h44q39 0 62.5 20.5t23.5 54.5q0 38 -22.5 57t-58.5 19z" />
    <glyph glyph-name="rcaron" unicode="&#x159;" horiz-adv-x="444" 
d="M297 571h-94l-130 160l64 61l113 -77l108 77l64 -61zM371 528q32 0 54 -6v-187l-4 -2q-22 8 -50 8q-42 0 -74 -27.5t-35 -80.5v-233h-206v516h167l21 -76q17 41 52.5 64.5t74.5 23.5z" />
    <glyph glyph-name="Sacute" unicode="&#x15a;" horiz-adv-x="535" 
d="M178 699l-38 92l221 140l85 -147l-10 -19zM253 -11q-108 0 -208 43v183l4 2q85 -58 181 -58q63 0 63 39q0 19 -16.5 34t-73.5 38q-157 63 -157 200q0 104 71.5 156.5t179.5 52.5q107 0 181 -26v-171l-4 -2q-51 26 -145 28q-80 1 -80 -30q0 -14 19 -26t76 -35
q155 -63 155 -212q0 -100 -66.5 -158t-179.5 -58z" />
    <glyph glyph-name="sacute" unicode="&#x15b;" horiz-adv-x="505" 
d="M163 570l-56 88l193 164l115 -140l-4 -22zM244 -14q-112 0 -204 37v155l4 3q38 -25 94 -41t96 -16q47 0 47 22q0 12 -13.5 18.5t-81.5 27.5q-82 26 -114.5 66.5t-32.5 96.5q0 79 65.5 127t172.5 48q115 0 177 -23v-160l-5 -2q-24 12 -72 20.5t-85 8.5q-55 0 -55 -17
q0 -10 14.5 -16.5t81.5 -27.5q76 -23 108.5 -60t32.5 -95q0 -81 -60 -126.5t-170 -45.5z" />
    <glyph glyph-name="Scedilla" unicode="&#x15e;" horiz-adv-x="535" 
d="M499 205q0 -87 -51 -142.5t-141 -69.5l-28 -32q3 0 7.5 -0.5t7.5 -1.5q47 -5 72.5 -31t25.5 -66q0 -109 -163 -109q-45 0 -69 6v72l4 2q23 -5 34 -5q30 0 41 8t11 24q3 30 -39 30q-7 0 -16.5 -0.5t-12.5 -0.5l-2 4v65l24 33q-76 5 -159 41v183l4 2q85 -58 181 -58
q63 0 63 39q0 19 -16.5 34t-73.5 38q-157 63 -157 200q0 104 71.5 156.5t179.5 52.5q107 0 181 -26v-171l-4 -2q-51 26 -145 28q-80 1 -80 -30q0 -14 19 -26t76 -35q155 -63 155 -212z" />
    <glyph glyph-name="scedilla" unicode="&#x15f;" horiz-adv-x="505" 
d="M474 158q0 -71 -46.5 -115t-132.5 -54l-24 -28q3 0 7.5 -0.5t7.5 -1.5q47 -5 72.5 -31t25.5 -66q0 -109 -163 -109q-45 0 -69 6v72l4 2q23 -5 34 -5q30 0 41 8t11 24q3 30 -39 30q-7 0 -16.5 -0.5t-12.5 -0.5l-2 4v65l22 30q-87 7 -154 35v155l4 3q38 -25 94 -41t96 -16
q47 0 47 22q0 12 -13.5 18.5t-81.5 27.5q-82 26 -114.5 66.5t-32.5 96.5q0 79 65.5 127t172.5 48q115 0 177 -23v-160l-5 -2q-24 12 -72 20.5t-85 8.5q-55 0 -55 -17q0 -10 14.5 -16.5t81.5 -27.5q76 -23 108.5 -60t32.5 -95z" />
    <glyph glyph-name="Scaron" unicode="&#x160;" horiz-adv-x="535" 
d="M241 703l-142 139l58 74l132 -75l125 75l55 -71l-136 -142h-92zM253 -11q-108 0 -208 43v183l4 2q85 -58 181 -58q63 0 63 39q0 19 -16.5 34t-73.5 38q-157 63 -157 200q0 104 71.5 156.5t179.5 52.5q107 0 181 -26v-171l-4 -2q-51 26 -145 28q-80 1 -80 -30
q0 -14 19 -26t76 -35q155 -63 155 -212q0 -100 -66.5 -158t-179.5 -58z" />
    <glyph glyph-name="scaron" unicode="&#x161;" horiz-adv-x="505" 
d="M208 586l-130 160l64 61l113 -77l108 77l64 -61l-125 -160h-94zM244 -14q-112 0 -204 37v155l4 3q38 -25 94 -41t96 -16q47 0 47 22q0 12 -13.5 18.5t-81.5 27.5q-82 26 -114.5 66.5t-32.5 96.5q0 79 65.5 127t172.5 48q115 0 177 -23v-160l-5 -2q-24 12 -72 20.5
t-85 8.5q-55 0 -55 -17q0 -10 14.5 -16.5t81.5 -27.5q76 -23 108.5 -60t32.5 -95q0 -81 -60 -126.5t-170 -45.5z" />
    <glyph glyph-name="uni0162" unicode="&#x162;" horiz-adv-x="616" 
d="M417 0h-61l-34 -39q3 0 7.5 -0.5t7.5 -1.5q47 -5 72.5 -31t25.5 -66q0 -109 -163 -109q-45 0 -69 6v72l4 2q23 -5 34 -5q30 0 41 8t11 24q3 30 -39 30q-7 0 -16.5 -0.5t-12.5 -0.5l-2 4v65l31 42h-44v479h-199v184h593v-184h-187v-479z" />
    <glyph glyph-name="uni0163" unicode="&#x163;" horiz-adv-x="456" 
d="M412 356h-118v-105q0 -37 14 -56t48 -19q30 0 52 11l4 -2v-173q-34 -15 -84 -18l-29 -33q3 0 7.5 -0.5t7.5 -1.5q47 -5 72.5 -31t25.5 -66q0 -109 -163 -109q-45 0 -69 6v72l4 2q23 -5 34 -5q30 0 41 8t11 24q3 30 -39 30q-7 0 -16.5 -0.5t-12.5 -0.5l-2 4v65l31 42
q-68 16 -106 69t-38 138v149h-80v160h80v124l204 38l3 -2v-160h118v-160z" />
    <glyph glyph-name="Tcaron" unicode="&#x164;" horiz-adv-x="616" 
d="M357 703h-92l-142 139l58 74l132 -75l125 75l55 -71zM604 663v-184h-187v-479h-207v479h-199v184h593z" />
    <glyph glyph-name="tcaron" unicode="&#x165;" horiz-adv-x="454" 
d="M494 817l15 -16l-57 -216h-106l6 232h142zM294 676v-160h118v-160h-118v-105q0 -37 14 -56t48 -19q30 0 52 11l4 -2v-173q-43 -19 -119 -19q-96 0 -151 55t-55 159v149h-80v160h80v124l204 38z" />
    <glyph glyph-name="Tbar" unicode="&#x166;" horiz-adv-x="621" 
d="M607 479h-188v-131h76v-119h-76v-229h-206v229h-87v119h87v131h-199v184h593v-184z" />
    <glyph glyph-name="tbar" unicode="&#x167;" horiz-adv-x="456" 
d="M412 356h-118v-35h83v-119h-74q14 -26 53 -26q30 0 52 11l4 -2v-173q-43 -19 -119 -19q-95 0 -150 53.5t-56 155.5h-79v119h79v35h-80v160h80v124l204 38l3 -2v-160h118v-160z" />
    <glyph glyph-name="Utilde" unicode="&#x168;" horiz-adv-x="725" 
d="M269 705l-111 30q-1 64 37.5 108t98.5 44q33 0 71.5 -15.5t57.5 -15.5q13 0 23.5 10t10.5 23l3 2l112 -30q1 -66 -36.5 -108.5t-99.5 -42.5q-25 0 -67 14.5t-59 14.5t-27 -10t-10 -22zM363 -13q-147 0 -225.5 73.5t-78.5 211.5v391h204v-366q0 -71 25 -104t77 -33
q102 0 102 137v366h199v-391q0 -136 -79.5 -210.5t-223.5 -74.5z" />
    <glyph glyph-name="utilde" unicode="&#x169;" horiz-adv-x="634" 
d="M237 589l-4 -4l-120 34q0 60 37.5 107t102.5 47q33 0 70.5 -14t56.5 -14q16 0 26 9.5t10 23.5l4 2l120 -32q0 -70 -40.5 -112t-100.5 -42q-30 -1 -70 13.5t-54 14.5q-34 0 -38 -33zM373 516h206v-516h-168l-20 76q-48 -90 -172 -90q-80 0 -124 50t-44 130v350h206v-297
q0 -57 56 -57q46 0 60 34v320z" />
    <glyph glyph-name="Umacron" unicode="&#x16a;" horiz-adv-x="725" 
d="M186 733v115h351v-115h-351zM363 -13q-147 0 -225.5 73.5t-78.5 211.5v391h204v-366q0 -71 25 -104t77 -33q102 0 102 137v366h199v-391q0 -136 -79.5 -210.5t-223.5 -74.5z" />
    <glyph glyph-name="umacron" unicode="&#x16b;" horiz-adv-x="634" 
d="M481 719v-118h-321v118h321zM373 516h206v-516h-168l-20 76q-48 -90 -172 -90q-80 0 -124 50t-44 130v350h206v-297q0 -57 56 -57q46 0 60 34v320z" />
    <glyph glyph-name="Uring" unicode="&#x16e;" horiz-adv-x="725" 
d="M363 690q-61 0 -99.5 36t-38.5 90q0 53 38.5 89t99.5 36t100.5 -36t39.5 -89q0 -54 -39 -90t-101 -36zM363 773q19 0 32 12.5t13 30.5q0 17 -13 29.5t-32 12.5t-31 -12t-12 -30t12 -30.5t31 -12.5zM363 -13q-147 0 -225.5 73.5t-78.5 211.5v391h204v-366q0 -71 25 -104
t77 -33q102 0 102 137v366h199v-391q0 -136 -79.5 -210.5t-223.5 -74.5z" />
    <glyph glyph-name="uring" unicode="&#x16f;" horiz-adv-x="634" 
d="M321 547q-63 0 -103 40t-40 99t40 98.5t103 39.5t103 -39.5t40 -98.5t-40 -99t-103 -40zM320 730q-20 0 -33 -13t-13 -31q0 -20 12.5 -33t33.5 -13q22 0 35 13t13 33q0 19 -13 31.5t-35 12.5zM373 516h206v-516h-168l-20 76q-48 -90 -172 -90q-80 0 -124 50t-44 130v350
h206v-297q0 -57 56 -57q46 0 60 34v320z" />
    <glyph glyph-name="Uhungarumlaut" unicode="&#x170;" horiz-adv-x="725" 
d="M270 697l-84 33l78 207l125 -36l4 -27zM500 697l-85 33l78 207l126 -36l4 -27zM363 -13q-147 0 -225.5 73.5t-78.5 211.5v391h204v-366q0 -71 25 -104t77 -33q102 0 102 137v366h199v-391q0 -136 -79.5 -210.5t-223.5 -74.5z" />
    <glyph glyph-name="uhungarumlaut" unicode="&#x171;" horiz-adv-x="634" 
d="M368 735l-142 -180l-74 49l90 202l124 -45zM433 555l-75 49l90 202l125 -45l2 -26zM373 516h206v-516h-168l-20 76q-48 -90 -172 -90q-80 0 -124 50t-44 130v350h206v-297q0 -57 56 -57q46 0 60 34v320z" />
    <glyph glyph-name="Uogonek" unicode="&#x172;" horiz-adv-x="725" 
d="M467 663h199v-391q0 -106 -49 -175.5t-141 -95.5q-67 -40 -67 -91q0 -19 10 -33.5t32 -14.5q17 0 30 3l6 -5v-90q-35 -8 -74 -8q-63 0 -104.5 25.5t-41.5 76.5q0 68 73 123q-136 6 -208.5 79.5t-72.5 205.5v391h204v-366q0 -71 25 -104t77 -33q102 0 102 137v366z" />
    <glyph glyph-name="uogonek" unicode="&#x173;" horiz-adv-x="634" 
d="M373 516h206v-516h-2q-82 -45 -82 -100q0 -19 10 -33.5t32 -14.5q17 0 30 3l6 -5v-90q-35 -8 -74 -8q-63 0 -104.5 25.5t-41.5 76.5q0 81 106 146h-48l-20 76q-48 -90 -172 -90q-80 0 -124 50t-44 130v350h206v-297q0 -57 56 -57q46 0 60 34v320z" />
    <glyph glyph-name="Wcircumflex" unicode="&#x174;" horiz-adv-x="965" 
d="M481 783l-125 -76l-55 72l136 148h92l142 -146l-57 -74zM967 663l2 -4l-210 -657h-156l-103 303l-11 47l-13 -47l-103 -303h-162l-222 657l2 4h217l82 -317l12 -64l15 64l97 310h153l96 -288l18 -79l17 79l72 295h197z" />
    <glyph glyph-name="wcircumflex" unicode="&#x175;" horiz-adv-x="816" 
d="M406 663l-107 -76l-64 60l125 161h94l130 -161l-64 -60zM817 516l2 -4l-175 -512h-141l-86 259l-5 19l-6 -19l-89 -259h-143l-177 512l2 4h203l55 -222l3 -25l6 24l66 223h168l62 -221l7 -30l4 33l54 218h190z" />
    <glyph glyph-name="Ycircumflex" unicode="&#x176;" horiz-adv-x="639" 
d="M191 702l-55 72l136 148h92l142 -146l-57 -74l-133 76zM218 0v251l-231 408l2 4h222l114 -227l112 227h208l3 -4l-226 -410v-249h-204z" />
    <glyph glyph-name="ycircumflex" unicode="&#x177;" horiz-adv-x="562" 
d="M283 647l-107 -76l-64 60l125 161h94l130 -161l-64 -60zM564 516l3 -4l-216 -518l-63 -158h-213l-2 3l114 223l-184 450l2 4h217l65 -224l71 224h206z" />
    <glyph glyph-name="Ydieresis" unicode="&#x178;" horiz-adv-x="639" 
d="M188 711q-40 0 -69 28.5t-29 69.5q0 40 28.5 68.5t69.5 28.5q40 0 69 -28.5t29 -68.5t-29 -69t-69 -29zM455 711q-41 0 -69.5 28.5t-28.5 69.5q0 40 28.5 68.5t69.5 28.5t69.5 -28t28.5 -69t-28.5 -69.5t-69.5 -28.5zM218 0v251l-231 408l2 4h222l114 -227l112 227h208
l3 -4l-226 -410v-249h-204z" />
    <glyph glyph-name="Zacute" unicode="&#x179;" horiz-adv-x="621" 
d="M199 699l-38 92l221 140l85 -147l-10 -19zM37 0v70l262 426h-262l-3 167h540v-69l-270 -426h283v-168h-550z" />
    <glyph glyph-name="zacute" unicode="&#x17a;" horiz-adv-x="551" 
d="M427 645l-248 -90l-56 88l193 164l115 -140zM293 158h224v-158h-483v103l205 249h-201v164h469v-110z" />
    <glyph glyph-name="Zdotaccent" unicode="&#x17b;" horiz-adv-x="621" 
d="M305 699q-48 0 -82 34t-34 81q0 48 34 82t82 34q47 0 81 -34t34 -82q0 -47 -34 -81t-81 -34zM37 0v70l262 426h-262l-3 167h540v-69l-270 -426h283v-168h-550z" />
    <glyph glyph-name="zdotaccent" unicode="&#x17c;" horiz-adv-x="551" 
d="M269 564q-49 0 -83.5 34.5t-34.5 83.5t34.5 83.5t83.5 34.5t83.5 -34.5t34.5 -83.5q0 -50 -34.5 -84t-83.5 -34zM293 158h224v-158h-483v103l205 249h-201v164h469v-110z" />
    <glyph glyph-name="Zcaron" unicode="&#x17d;" horiz-adv-x="621" 
d="M262 703l-142 139l58 74l132 -75l125 75l55 -71l-136 -142h-92zM37 0v70l262 426h-262l-3 167h540v-69l-270 -426h283v-168h-550z" />
    <glyph glyph-name="zcaron" unicode="&#x17e;" horiz-adv-x="551" 
d="M318 571h-94l-130 160l64 61l113 -77l108 77l64 -61zM293 158h224v-158h-483v103l205 249h-201v164h469v-110z" />
    <glyph glyph-name="uni01EA" unicode="&#x1ea;" horiz-adv-x="774" 
d="M524 10q-81 -44 -81 -99q0 -19 10 -33.5t32 -14.5q17 0 30 3l6 -5v-90q-35 -8 -74 -8q-63 0 -104.5 25.5t-41.5 76.5q0 68 73 123q-91 3 -166.5 40.5t-125 116.5t-49.5 187q0 159 99.5 253.5t254.5 94.5q69 0 131.5 -22t112.5 -63.5t80 -109.5t30 -153
q0 -118 -58.5 -202.5t-158.5 -119.5zM246 332q0 -74 36.5 -116t104.5 -42t104.5 42t36.5 116q0 77 -36.5 120t-104.5 43t-104.5 -43t-36.5 -120z" />
    <glyph glyph-name="uni01EB" unicode="&#x1eb;" horiz-adv-x="639" 
d="M416 -2q-62 -41 -62 -88q0 -19 10 -33.5t32 -14.5q16 0 30 3l6 -5v-90q-35 -8 -74 -8q-63 0 -104.5 25.5t-41.5 76.5q0 67 73 124q-110 10 -183 78.5t-73 191.5q0 125 80 198.5t211 73.5q122 0 206.5 -69t84.5 -202q0 -100 -52 -168.5t-143 -92.5zM241 259q0 -98 79 -98
q39 0 59 27t20 71q0 43 -20 70t-59 27q-40 0 -59.5 -27t-19.5 -70z" />
    <glyph glyph-name="AEacute" unicode="&#x1fc;" horiz-adv-x="897" 
d="M686 764l-258 -66l-38 92l221 140l85 -147zM621 166h230v-166h-436v106h-171l-54 -106h-207l369 663h492v-166h-223v-73h204v-164h-204v-94zM316 250h99v190l-90 -173z" />
    <glyph glyph-name="aeacute" unicode="&#x1fd;" horiz-adv-x="872" 
d="M593 645l-248 -90l-56 88l193 164l115 -140zM588 530q119 0 187.5 -60.5t70.5 -185.5q0 -28 -2 -86h-318q21 -59 97 -59q95 0 181 40l4 -2v-150q-83 -41 -203 -41q-145 0 -226 81q-80 -80 -179 -80q-90 0 -135 40.5t-45 103.5q0 43 17.5 74t43.5 49t67 28.5t76.5 14
t83.5 4.5q-11 55 -93 55q-91 0 -144 -28l-4 2v163q22 14 73 25.5t114 11.5q108 0 169 -44q68 44 165 44zM520 301h129q-3 37 -17.5 51t-44.5 14q-54 0 -67 -65zM257 133q28 0 69 19q-8 21 -12 45q-92 -4 -92 -37q0 -27 35 -27z" />
    <glyph glyph-name="Oslashacute" unicode="&#x1fe;" horiz-adv-x="774" 
d="M528 765l-258 -66l-38 92l221 140l85 -147zM743 680v-13l-85 -99q83 -93 83 -236q0 -157 -99.5 -250.5t-254.5 -93.5q-105 0 -189 47l-43 -50h-123v17l83 98q-82 92 -82 232q0 159 99.5 253.5t254.5 94.5q100 0 183 -44l38 44h135zM246 332q0 -38 10 -67l187 221
q-25 9 -56 9q-68 0 -104.5 -43t-36.5 -120zM528 332q0 40 -11 73l-190 -220q28 -11 60 -11q68 0 104.5 42t36.5 116z" />
    <glyph glyph-name="oslashacute" unicode="&#x1ff;" horiz-adv-x="640" 
d="M479 645l-248 -90l-56 88l193 164l115 -140zM654 541v-14l-91 -104q49 -66 49 -164q0 -126 -80 -199.5t-211 -73.5q-51 0 -109 24l-31 -34h-173v16l85 100q-63 72 -63 166q0 125 80 198.5t211 73.5q67 0 121 -20l26 31h186zM321 161q39 0 59 27t20 71q0 43 -20 70t-59 27
q-40 0 -59.5 -27t-19.5 -70q0 -98 79 -98z" />
    <glyph glyph-name="Scommaaccent" unicode="&#x218;" horiz-adv-x="535" 
d="M253 -11q-108 0 -208 43v183l4 2q85 -58 181 -58q63 0 63 39q0 19 -16.5 34t-73.5 38q-157 63 -157 200q0 104 71.5 156.5t179.5 52.5q107 0 181 -26v-171l-4 -2q-51 26 -145 28q-80 1 -80 -30q0 -14 19 -26t76 -35q155 -63 155 -212q0 -100 -66.5 -158t-179.5 -58z
M172 -262q15 83 15 136q0 21 -4 75l148 12l14 -22q0 -111 -63 -201h-110z" />
    <glyph glyph-name="scommaaccent" unicode="&#x219;" horiz-adv-x="505" 
d="M244 -14q-112 0 -204 37v155l4 3q38 -25 94 -41t96 -16q47 0 47 22q0 12 -13.5 18.5t-81.5 27.5q-82 26 -114.5 66.5t-32.5 96.5q0 79 65.5 127t172.5 48q115 0 177 -23v-160l-5 -2q-24 12 -72 20.5t-85 8.5q-55 0 -55 -17q0 -10 14.5 -16.5t81.5 -27.5q76 -23 108.5 -60
t32.5 -95q0 -81 -60 -126.5t-170 -45.5zM164 -262q15 83 15 136q0 21 -4 75l148 12l14 -22q0 -111 -63 -201h-110z" />
    <glyph glyph-name="uni021A" unicode="&#x21a;" horiz-adv-x="616" 
d="M604 663v-184h-187v-479h-207v479h-199v184h593zM226 -51l148 12l14 -22q0 -111 -63 -201h-110q15 83 15 136q0 21 -4 75z" />
    <glyph glyph-name="uni021B" unicode="&#x21b;" horiz-adv-x="456" 
d="M412 356h-118v-105q0 -37 14 -56t48 -19q30 0 52 11l4 -2v-173q-43 -19 -119 -19q-96 0 -151 55t-55 159v149h-80v160h80v124l204 38l3 -2v-160h118v-160zM203 -51l148 12l14 -22q0 -111 -63 -201h-110q15 83 15 136q0 21 -4 75z" />
    <glyph glyph-name="uni0237" unicode="&#x237;" horiz-adv-x="337" 
d="M48 -171q-34 0 -88 7v177l4 3q18 -5 39 -5q72 0 72 82v423h206v-472q0 -109 -62.5 -162t-170.5 -53z" />
    <glyph glyph-name="circumflex" unicode="&#x2c6;" horiz-adv-x="454" 
d="M117 571l-64 60l125 161h94l130 -161l-64 -60l-114 76z" />
    <glyph glyph-name="caron" unicode="&#x2c7;" horiz-adv-x="454" 
d="M195 514l-142 166l66 70l112 -80l109 80l66 -70l-143 -166h-68z" />
    <glyph glyph-name="breve" unicode="&#x2d8;" horiz-adv-x="405" 
d="M201 572q-73 0 -124 48t-51 129l116 13l6 -4q6 -57 55 -57q26 0 43 16.5t20 40.5l4 3l109 -12q0 -81 -52 -129t-126 -48z" />
    <glyph glyph-name="dotaccent" unicode="&#x2d9;" horiz-adv-x="324" 
d="M162 564q-49 0 -83.5 34.5t-34.5 83.5t34.5 83.5t83.5 34.5t83.5 -34.5t34.5 -83.5q0 -50 -34 -84t-84 -34z" />
    <glyph glyph-name="ring" unicode="&#x2da;" horiz-adv-x="328" 
d="M159 547q-63 0 -103 40t-40 99t40 98.5t103 39.5t103 -39.5t40 -98.5t-40 -99t-103 -40zM158 640q22 0 35 13t13 33q0 19 -13 31.5t-35 12.5q-20 0 -33 -13t-13 -31q0 -20 12.5 -33t33.5 -13z" />
    <glyph glyph-name="ogonek" unicode="&#x2db;" horiz-adv-x="242" 
d="M173 -238q-63 0 -104.5 25.5t-41.5 76.5q0 82 111 149l115 -2q-84 -45 -84 -101q0 -19 10 -33.5t32 -14.5q17 0 30 3l6 -5v-90q-35 -8 -74 -8z" />
    <glyph glyph-name="tilde" unicode="&#x2dc;" horiz-adv-x="446" 
d="M135 585l-120 34q0 60 37.5 107t102.5 47q33 0 70.5 -14t56.5 -14q16 0 26 9.5t10 23.5l4 2l120 -32q0 -70 -40.5 -112t-100.5 -42q-30 -1 -70 13.5t-54 14.5q-34 0 -38 -33z" />
    <glyph glyph-name="hungarumlaut" unicode="&#x2dd;" horiz-adv-x="481" 
d="M105 555l-74 49l90 202l124 -45l2 -26zM312 555l-75 49l90 202l125 -45l2 -26z" />
    <glyph glyph-name="gravecomb" unicode="&#x300;" 
d="M-53 555l-248 90l-4 22l115 140l193 -164z" />
    <glyph glyph-name="acutecomb" unicode="&#x301;" 
d="M-237 555l-56 88l193 164l115 -140l-4 -22z" />
    <glyph glyph-name="uni0302" unicode="&#x302;" 
d="M-337 571l-64 60l125 161h94l130 -161l-64 -60l-114 76z" />
    <glyph glyph-name="tildecomb" unicode="&#x303;" 
d="M-311 585l-120 34q0 60 37.5 107t102.5 47q33 0 70.5 -14t56.5 -14q16 0 26 9.5t10 23.5l4 2l120 -32q0 -70 -40.5 -112t-100.5 -42q-30 -1 -70 13.5t-54 14.5q-34 0 -38 -33z" />
    <glyph glyph-name="uni0304" unicode="&#x304;" 
d="M-347 601v118h321v-118h-321z" />
    <glyph glyph-name="uni0306" unicode="&#x306;" 
d="M-204 572q-73 0 -124 48t-51 129l116 13l6 -4q6 -57 55 -57q26 0 43 16.5t20 40.5l4 3l109 -12q0 -81 -52 -129t-126 -48z" />
    <glyph glyph-name="uni0307" unicode="&#x307;" 
d="M-162 564q-49 0 -83.5 34.5t-34.5 83.5t34.5 83.5t83.5 34.5t83.5 -34.5t34.5 -83.5q0 -50 -34 -84t-84 -34z" />
    <glyph glyph-name="uni0308" unicode="&#x308;" 
d="M-372 571q-46 0 -78.5 32t-32.5 76q0 47 32.5 80t78.5 33q47 0 79.5 -33t32.5 -80q0 -44 -33 -76t-79 -32zM-120 571q-46 0 -78.5 32t-32.5 76q0 47 32.5 80t78.5 33q47 0 79.5 -33t32.5 -80q0 -44 -33 -76t-79 -32z" />
    <glyph glyph-name="uni030A" unicode="&#x30a;" 
d="M-159 547q-63 0 -103 40t-40 99t40 98.5t103 39.5t103 -39.5t40 -98.5t-40 -99t-103 -40zM-160 640q22 0 35 13t13 33q0 19 -13 31.5t-35 12.5q-20 0 -33 -13t-13 -31q0 -20 12.5 -33t33.5 -13z" />
    <glyph glyph-name="uni030B" unicode="&#x30b;" 
d="M-376 555l-74 49l90 202l124 -45l2 -26zM-169 555l-75 49l90 202l125 -45l2 -26z" />
    <glyph glyph-name="uni030C" unicode="&#x30c;" 
d="M-271 571l-130 160l64 61l113 -77l108 77l64 -61l-125 -160h-94z" />
    <glyph glyph-name="uni0326" unicode="&#x326;" 
d="M-202 -262q15 83 15 136q0 21 -4 75l148 12l14 -22q0 -111 -63 -201h-110z" />
    <glyph glyph-name="uni0327" unicode="&#x327;" 
d="M-149 -247q-45 0 -69 6v72l4 2q23 -5 34 -5q30 0 41 8t11 24q3 30 -39 30q-7 0 -16.5 -0.5t-12.5 -0.5l-2 4v65l32 43h102l-35 -40q3 0 7.5 -0.5t7.5 -1.5q47 -5 72.5 -31t25.5 -66q0 -109 -163 -109z" />
    <glyph glyph-name="uni0328" unicode="&#x328;" 
d="M-97 -238q-63 0 -104.5 25.5t-41.5 76.5q0 82 111 149l115 -2q-84 -45 -84 -101q0 -19 10 -33.5t32 -14.5q17 0 30 3l6 -5v-90q-35 -8 -74 -8z" />
    <glyph glyph-name="uni0335" unicode="&#x335;" 
d="M-406 109v119h369v-119h-369z" />
    <glyph glyph-name="uni0336" unicode="&#x336;" 
d="M-683 345v118h664v-118h-664z" />
    <glyph glyph-name="uni0337" unicode="&#x337;" 
d="M-348 162v136l334 220h6v-136l-334 -220h-6z" />
    <glyph glyph-name="uni0338" unicode="&#x338;" 
d="M-617 -13v16l473 549h136v-13l-485 -552h-124z" />
    <glyph glyph-name="Wgrave" unicode="&#x1e80;" horiz-adv-x="965" 
d="M588 704l-258 66l-10 19l85 147l221 -138zM967 663l2 -4l-210 -657h-156l-103 303l-11 47l-13 -47l-103 -303h-162l-222 657l2 4h217l82 -317l12 -64l15 64l97 310h153l96 -288l18 -79l17 79l72 295h197z" />
    <glyph glyph-name="wgrave" unicode="&#x1e81;" horiz-adv-x="816" 
d="M488 571l-248 90l-4 22l115 140l193 -164zM817 516l2 -4l-175 -512h-141l-86 259l-5 19l-6 -19l-89 -259h-143l-177 512l2 4h203l55 -222l3 -25l6 24l66 223h168l62 -221l7 -30l4 33l54 218h190z" />
    <glyph glyph-name="Wacute" unicode="&#x1e82;" horiz-adv-x="965" 
d="M638 770l-258 -66l-38 92l221 140l85 -147zM967 663l2 -4l-210 -657h-156l-103 303l-11 47l-13 -47l-103 -303h-162l-222 657l2 4h217l82 -317l12 -64l15 64l97 310h153l96 -288l18 -79l17 79l72 295h197z" />
    <glyph glyph-name="wacute" unicode="&#x1e83;" horiz-adv-x="816" 
d="M568 661l-248 -90l-56 88l193 164l115 -140zM817 516l2 -4l-175 -512h-141l-86 259l-5 19l-6 -19l-89 -259h-143l-177 512l2 4h203l55 -222l3 -25l6 24l66 223h168l62 -221l7 -30l4 33l54 218h190z" />
    <glyph glyph-name="Wdieresis" unicode="&#x1e84;" horiz-adv-x="965" 
d="M353 716q-41 0 -69.5 29t-28.5 69t28.5 68.5t69.5 28.5q40 0 69 -28.5t29 -68.5t-29 -69t-69 -29zM620 716q-40 0 -69 29t-29 69t28.5 68.5t69.5 28.5t69.5 -28t28.5 -69t-28.5 -69.5t-69.5 -28.5zM967 663l2 -4l-210 -657h-156l-103 303l-11 47l-13 -47l-103 -303h-162
l-222 657l2 4h217l82 -317l12 -64l15 64l97 310h153l96 -288l18 -79l17 79l72 295h197z" />
    <glyph glyph-name="wdieresis" unicode="&#x1e85;" horiz-adv-x="816" 
d="M281 587q-46 0 -78.5 32t-32.5 76q0 47 32.5 80t78.5 33q47 0 79.5 -33t32.5 -80q0 -44 -33 -76t-79 -32zM533 587q-46 0 -78.5 32t-32.5 76q0 47 32.5 80t78.5 33q47 0 79.5 -33t32.5 -80q0 -44 -33 -76t-79 -32zM817 516l2 -4l-175 -512h-141l-86 259l-5 19l-6 -19
l-89 -259h-143l-177 512l2 4h203l55 -222l3 -25l6 24l66 223h168l62 -221l7 -30l4 33l54 218h190z" />
    <glyph glyph-name="Ygrave" unicode="&#x1ef2;" horiz-adv-x="639" 
d="M423 699l-258 66l-10 19l85 147l221 -138zM218 0v251l-231 408l2 4h222l114 -227l112 227h208l3 -4l-226 -410v-249h-204z" />
    <glyph glyph-name="ygrave" unicode="&#x1ef3;" horiz-adv-x="562" 
d="M365 555l-248 90l-4 22l115 140l193 -164zM564 516l3 -4l-216 -518l-63 -158h-213l-2 3l114 223l-184 450l2 4h217l65 -224l71 224h206z" />
    <glyph glyph-name="uni1EF8" unicode="&#x1ef8;" horiz-adv-x="639" 
d="M227 705l-111 30q-1 64 37.5 108t98.5 44q33 0 71.5 -15.5t57.5 -15.5q13 0 23.5 10t10.5 23l3 2l112 -30q1 -66 -36.5 -108.5t-99.5 -42.5q-25 0 -67 14.5t-59 14.5t-27 -10t-10 -22zM218 0v251l-231 408l2 4h222l114 -227l112 227h208l3 -4l-226 -410v-249h-204z" />
    <glyph glyph-name="uni1EF9" unicode="&#x1ef9;" horiz-adv-x="562" 
d="M203 589l-4 -4l-120 34q0 60 37.5 107t102.5 47q33 0 70.5 -14t56.5 -14q16 0 26 9.5t10 23.5l4 2l120 -32q0 -70 -40.5 -112t-100.5 -42q-30 -1 -70 13.5t-54 14.5q-34 0 -38 -33zM564 516l3 -4l-216 -518l-63 -158h-213l-2 3l114 223l-184 450l2 4h217l65 -224l71 224
h206z" />
    <glyph glyph-name="endash" unicode="&#x2013;" horiz-adv-x="570" 
d="M54 195v167h462v-167h-462z" />
    <glyph glyph-name="emdash" unicode="&#x2014;" horiz-adv-x="898" 
d="M54 195v167h790v-167h-790z" />
    <glyph glyph-name="quoteleft" unicode="&#x2018;" horiz-adv-x="263" 
d="M219 709q-15 -90 -17 -146q-2 -70 4 -145l-145 -26l-25 28q1 134 82 289h101z" />
    <glyph glyph-name="quoteright" unicode="&#x2019;" horiz-adv-x="264" 
d="M48 392q15 90 17 146q2 70 -4 145l145 26l25 -28q-1 -134 -82 -289h-101z" />
    <glyph glyph-name="quotesinglbase" unicode="&#x201a;" horiz-adv-x="270" 
d="M38 -195q15 90 17 146q2 70 -4 145l145 26l25 -28q-1 -134 -82 -289h-101z" />
    <glyph glyph-name="quotedblleft" unicode="&#x201c;" horiz-adv-x="468" 
d="M219 709q-15 -90 -17 -146q-2 -70 4 -145l-145 -26l-25 28q1 134 82 289h101zM424 709q-15 -90 -17 -146q-2 -70 4 -145l-145 -26l-25 28q1 134 82 289h101z" />
    <glyph glyph-name="quotedblright" unicode="&#x201d;" horiz-adv-x="463" 
d="M48 392q15 90 17 146q2 70 -4 145l145 26l25 -28q-1 -134 -82 -289h-101zM250 392q15 90 17 146q2 70 -4 145l145 26l25 -28q-1 -134 -82 -289h-101z" />
    <glyph glyph-name="quotedblbase" unicode="&#x201e;" horiz-adv-x="470" 
d="M37 -195q15 90 17 146q2 70 -4 145l145 26l25 -28q-1 -134 -82 -289h-101zM239 -195q15 90 17 146q2 70 -4 145l145 26l25 -28q-1 -134 -82 -289h-101z" />
    <glyph glyph-name="dagger" unicode="&#x2020;" horiz-adv-x="649" 
d="M388 517l209 27v-191l-182 27l-22 -504h-140l-25 502l-175 -25v191l202 -29l-27 212h190z" />
    <glyph glyph-name="daggerdbl" unicode="&#x2021;" horiz-adv-x="649" 
d="M229 -121l29 200l-209 -27v191l182 -27l23 88l-25 85l-175 -24v190l203 -30l-28 202h191l-30 -200l208 28v-190l-182 26l-22 -87l25 -86l175 25v-191l-203 29l29 -202h-191z" />
    <glyph glyph-name="bullet" unicode="&#x2022;" horiz-adv-x="432" 
d="M216 77q-67 0 -114 47.5t-47 114.5q0 66 47 113t114 47t114 -47t47 -113q0 -67 -47 -114.5t-114 -47.5z" />
    <glyph glyph-name="ellipsis" unicode="&#x2026;" horiz-adv-x="782" 
d="M140 -17q-48 0 -75 27.5t-27 69.5q0 43 27 71.5t75 28.5q49 0 76 -28.5t27 -71.5t-26.5 -70t-76.5 -27zM391 -17q-48 0 -75 27.5t-27 69.5q0 43 27 71.5t75 28.5q49 0 76 -28.5t27 -71.5t-26.5 -70t-76.5 -27zM638 -17q-48 0 -75 27.5t-27 69.5q0 43 27 71.5t75 28.5
q49 0 76 -28.5t27 -71.5t-26.5 -70t-76.5 -27z" />
    <glyph glyph-name="perthousand" unicode="&#x2030;" horiz-adv-x="1239" 
d="M214 302q-83 0 -134 44.5t-51 133.5q0 88 52 136t134 48q84 0 136 -47.5t52 -136.5t-51.5 -133.5t-137.5 -44.5zM123 13l464 635h146l-463 -635h-147zM214 419q25 0 37 14.5t12 48.5q0 64 -49 64q-44 0 -44 -64q0 -63 44 -63zM628 -4q-83 0 -134.5 44.5t-51.5 132.5
t52 136t134 48q85 0 136.5 -47t51.5 -137q0 -88 -51.5 -132.5t-136.5 -44.5zM1022 -4q-82 0 -133.5 44.5t-51.5 132.5t52.5 136t133.5 48q85 0 136.5 -47t51.5 -137q0 -88 -52 -132.5t-137 -44.5zM628 112q48 0 48 61q0 66 -48 66q-45 0 -45 -66q0 -61 45 -61zM1023 112
q48 0 48 61q0 66 -48 66q-46 0 -46 -66q0 -61 46 -61z" />
    <glyph glyph-name="guilsinglleft" unicode="&#x2039;" horiz-adv-x="354" 
d="M137 90l-111 202l116 201h177v-15l-101 -181l102 -197v-10h-183z" />
    <glyph glyph-name="guilsinglright" unicode="&#x203a;" horiz-adv-x="354" 
d="M217 493l111 -202l-116 -201h-177v15l101 181l-102 197v10h183z" />
    <glyph glyph-name="fraction" unicode="&#x2044;" horiz-adv-x="174" 
d="M-138 -11l389 674h144l-391 -674h-142z" />
    <glyph glyph-name="Euro" unicode="&#x20ac;" horiz-adv-x="655" 
d="M487 177q61 0 112 22l4 -3l-33 -184q-48 -21 -119 -21q-128 0 -218 67.5t-113 190.5h-93l28 180h69q27 122 115 189t215 67q86 0 150 -18l-34 -180l-3 -2q-38 14 -85 14q-99 0 -132 -70h141l-27 -180h-114q34 -72 137 -72z" />
    <glyph glyph-name="trademark" unicode="&#x2122;" horiz-adv-x="897" 
d="M384 518h-95v-186h-156v186h-96v147h347v-147zM818 665l29 -333h-146l-6 94h-1l-35 -95h-95l-33 94h-1l-6 -93h-147l29 333h161l49 -134l48 134h154z" />
    <glyph glyph-name="minus" unicode="&#x2212;" horiz-adv-x="595" 
d="M55 227v131h485v-131h-485z" />
    <glyph glyph-name="approxequal" unicode="&#x2248;" horiz-adv-x="550" 
d="M166 310l-112 15q0 69 39 112.5t102 43.5q38 0 85 -16t72 -16q34 0 37 33l6 4l103 -21q0 -65 -38 -107t-100 -42q-30 0 -80 16t-70 16q-19 0 -29.5 -10t-11.5 -24zM166 92l-112 16q0 68 39 111.5t102 43.5q38 0 85 -16t72 -16q34 0 37 34l6 3l103 -21q0 -65 -38 -107
t-100 -42q-30 0 -80 16t-70 16q-39 0 -41 -34z" />
    <glyph glyph-name="notequal" unicode="&#x2260;" horiz-adv-x="628" 
d="M573 341h-143l-49 -104h192v-128h-252l-42 -89h-155l42 89h-111v128h171l49 104h-220v130h282l37 79h155l-37 -79h81v-130z" />
    <glyph glyph-name="uniF8FF" unicode="&#xf8ff;" horiz-adv-x="1451" 
d="M752 522q-26 0 -43.5 18t-17.5 43q0 26 17.5 44t43.5 18t44 -18t18 -44t-18 -43.5t-44 -17.5zM100 270q0 134 9 314h100q10 -200 10 -314h-119zM604 264q-82 0 -82 66q0 12 2 49t2 38h-22v79l119 30l1 -17h178q10 -64 10 -239h-118q0 92 3 147h-61l3 -65q4 -4 15 -4
q13 0 18 5v-74q-14 -15 -68 -15zM328 265q-92 0 -92 114q0 135 134 135q124 0 124 -117v-127h-83l-8 61q-6 -33 -23.5 -49.5t-51.5 -16.5zM834 270q0 175 10 239h80q6 -44 6 -76q2 15 6.5 30t24 33t49.5 18q42 0 58.5 -25t18.5 -81l3 -138h-114q0 26 1 56t1 37q0 29 -15 29
q-18 0 -18 -29q0 -7 1.5 -37t1.5 -56h-114zM1228 265q-122 0 -122 124q0 125 124 125q121 0 121 -123q0 -126 -123 -126zM366 345q24 0 24 30q0 26 -24 26q-22 0 -22 -26q0 -30 22 -30zM1228 345q23 0 23 30q0 26 -23 26q-21 0 -21 -26q0 -30 21 -30zM390 -50q-61 0 -88 17
v83q24 -16 70 -16q21 0 34 6t16.5 11.5t3.5 10.5q-16 -11 -49 -11q-90 0 -90 83v13h-55l3 -65q6 -4 15 -4q13 0 18 5v-73q-19 -15 -68 -15q-45 0 -63 17t-18 54q0 39 3 81h-18v80l117 29l-1 -18h177v-119q0 -16 3 -21.5t12 -5.5q16 0 16 27v119h104q10 -52 10 -138
q0 -81 -33.5 -115.5t-118.5 -34.5zM558 -44q0 142 10 282h78q7 -42 7 -76q17 81 80 81q37 0 58.5 -29t21.5 -84q0 -135 -137 -135q1 -15 1 -39h-119zM970 -5q-141 0 -141 122q0 59 32.5 92.5t92.5 33.5q55 0 85.5 -30t30.5 -86q0 -21 -3 -35h-124q11 -18 50 -18q34 0 55 12
v-75q-23 -16 -78 -16zM938 109h40q3 27 -17 27q-23 0 -23 -27zM670 72q5 0 12.5 2.5t16 11.5t8.5 23q0 23 -20 23q-22 0 -22 -31q0 -14 5 -29zM1098 -10q-24 0 -24 23t24 23t24 -23t-24 -23zM1098 -5q18 0 18 18t-18 18t-18 -18t18 -18zM1088 2v23h11q10 0 10 -7t-7 -7l6 -9
h-6l-4 9h-5v-9h-5zM1093 15h7q4 0 4 3t-4 3h-7v-6z" />
    <glyph glyph-name="i.loclTRK" horiz-adv-x="317" 
d="M159 564q-49 0 -83.5 34.5t-34.5 83.5t34.5 83.5t83.5 34.5t83.5 -34.5t34.5 -83.5q0 -50 -34.5 -84t-83.5 -34zM56 0v516h206v-516h-206z" />
    <glyph glyph-name="caroncomb.alt" 
d="M-194 451l6 263h135l15 -16l-53 -247h-103z" />
    <glyph glyph-name="uni0308.case" 
d="M-402 711q-40 0 -69 28.5t-29 69.5q0 40 28.5 68.5t69.5 28.5q40 0 69 -28.5t29 -68.5t-29 -69t-69 -29zM-135 711q-41 0 -69.5 28.5t-28.5 69.5q0 40 28.5 68.5t69.5 28.5t69.5 -28t28.5 -69t-28.5 -69.5t-69.5 -28.5z" />
    <glyph glyph-name="uni0307.case" 
d="M-130 699q-48 0 -82 34t-34 81q0 48 34 82t82 34q47 0 81 -34t34 -82q0 -47 -34 -81t-81 -34z" />
    <glyph glyph-name="gravecomb.case" 
d="M-80 699l-258 66l-10 19l85 147l221 -138z" />
    <glyph glyph-name="acutecomb.case" 
d="M-287 699l-38 92l221 140l85 -147l-10 -19z" />
    <glyph glyph-name="uni030B.case" 
d="M-379 697l-84 33l78 207l125 -36l4 -27zM-149 697l-85 33l78 207l126 -36l4 -27z" />
    <glyph glyph-name="uni0302.case" 
d="M-339 702l-55 72l136 148h92l142 -146l-57 -74l-133 76z" />
    <glyph glyph-name="uni030C.case" 
d="M-252 703l-142 139l58 74l132 -75l125 75l55 -71l-136 -142h-92z" />
    <glyph glyph-name="uni0306.case" 
d="M-206 714q-75 0 -128.5 49t-53.5 128l122 14q7 -72 64 -72q31 0 49.5 20.5t20.5 51.5l114 -14q0 -79 -55 -128t-133 -49z" />
    <glyph glyph-name="uni030A.case" 
d="M-165 690q-61 0 -99.5 36t-38.5 90q0 53 38.5 89t99.5 36t100.5 -36t39.5 -89q0 -54 -39 -90t-101 -36zM-165 773q19 0 32 12.5t13 30.5q0 17 -13 29.5t-32 12.5t-31 -12t-12 -30t12 -30.5t31 -12.5z" />
    <glyph glyph-name="tildecomb.case" 
d="M-323 705l-111 30q-1 64 37.5 108t98.5 44q33 0 71.5 -15.5t57.5 -15.5q13 0 23.5 10t10.5 23l3 2l112 -30q1 -66 -36.5 -108.5t-99.5 -42.5q-25 0 -67 14.5t-59 14.5t-27 -10t-10 -22z" />
    <glyph glyph-name="uni0304.case" 
d="M-371 733v115h351v-115h-351z" />
    <glyph glyph-name="uni0337.case" 
d="M-360 159v133l335 213h6v-135l-335 -213z" />
    <glyph glyph-name="uni0338.case" 
d="M-736 -14v17l576 678h135v-13l-588 -682h-123z" />
    <glyph glyph-name="caron.alt" horiz-adv-x="230" 
d="M36 406l6 261h138l15 -16l-53 -245h-106z" />
    <glyph glyph-name="acute.case" horiz-adv-x="362" 
d="M75 699l-38 92l221 140l85 -147l-10 -19z" />
    <glyph glyph-name="breve.case" horiz-adv-x="405" 
d="M199 714q-75 0 -128.5 49t-53.5 128l122 14q7 -72 64 -72q31 0 49.5 20.5t20.5 51.5l114 -14q0 -79 -55 -128t-133 -49z" />
    <glyph glyph-name="caron.case" horiz-adv-x="418" 
d="M166 703l-142 139l58 74l132 -75l125 75l55 -71l-136 -142h-92z" />
    <glyph glyph-name="circumflex.case" horiz-adv-x="418" 
d="M79 702l-55 72l136 148h92l142 -146l-57 -74l-133 76z" />
    <glyph glyph-name="dieresis.case" horiz-adv-x="536" 
d="M134 711q-40 0 -69 28.5t-29 69.5q0 40 28.5 68.5t69.5 28.5q40 0 69 -28.5t29 -68.5t-29 -69t-69 -29zM401 711q-41 0 -69.5 28.5t-28.5 69.5q0 40 28.5 68.5t69.5 28.5t69.5 -28t28.5 -69t-28.5 -69.5t-69.5 -28.5z" />
    <glyph glyph-name="dotaccent.case" horiz-adv-x="261" 
d="M131 699q-48 0 -82 34t-34 81q0 48 34 82t82 34q47 0 81 -34t34 -82q0 -47 -34 -81t-81 -34z" />
    <glyph glyph-name="grave.case" horiz-adv-x="362" 
d="M282 699l-258 66l-10 19l85 147l221 -138z" />
    <glyph glyph-name="hungarumlaut.case" horiz-adv-x="527" 
d="M148 697l-84 33l78 207l125 -36l4 -27zM378 697l-85 33l78 207l126 -36l4 -27z" />
    <glyph glyph-name="macron.case" horiz-adv-x="404" 
d="M20 733v115h351v-115h-351z" />
    <glyph glyph-name="ring.case" horiz-adv-x="328" 
d="M163 690q-61 0 -99.5 36t-38.5 90q0 53 38.5 89t99.5 36t100.5 -36t39.5 -89q0 -54 -39 -90t-101 -36zM163 773q19 0 32 12.5t13 30.5q0 17 -13 29.5t-32 12.5t-31 -12t-12 -30t12 -30.5t31 -12.5z" />
    <glyph glyph-name="tilde.case" horiz-adv-x="458" 
d="M135 705l-111 30q-1 64 37.5 108t98.5 44q33 0 71.5 -15.5t57.5 -15.5q13 0 23.5 10t10.5 23l3 2l112 -30q1 -66 -36.5 -108.5t-99.5 -42.5q-25 0 -67 14.5t-59 14.5t-27 -10t-10 -22z" />
    <glyph glyph-name="IJacute" horiz-adv-x="757" 
d="M80 695l-38 92l221 140l85 -147l-10 -19zM495 695l-38 92l221 140l85 -147l-10 -19zM67 0v663h206v-663h-206zM428 -3q-32 0 -64 4v172l4 2q16 -3 32 -3q52 0 72 32.5t20 90.5v368h206v-347q0 -161 -66.5 -240t-203.5 -79z" />
    <glyph glyph-name="ijacute" horiz-adv-x="658" 
d="M63 555l-56 88l179 164l116 -117l-4 -22zM388 555l-56 88l179 164l117 -117l-4 -22zM56 113v403h206v-403h-206zM337 -171q-82 0 -142 20v179l2 1q46 -18 89 -18q62 0 86 30t24 110v365h206v-385q0 -302 -265 -302z" />
    </font>
</defs>
</svg>
