<?xml version="1.0" standalone="no"?>
<!DOCTYPE svg PUBLIC "-//W3C//DTD SVG 1.1//EN" "http://www.w3.org/Graphics/SVG/1.1/DTD/svg11.dtd" >
<svg xmlns="http://www.w3.org/2000/svg" xmlns:xlink="http://www.w3.org/1999/xlink" version="1.1">
<metadata>
Created by FontForge 20170731 at Tue Mar  7 13:07:43 2017
 By Aleksey,,,
Copyright (c) 2017 by Alfonso Garci'a - Latinotype Team. All rights reserved.
</metadata>
<defs>
<font id="RawsonAlt-ExtraBlackIt" horiz-adv-x="0" >
  <font-face 
    font-family="Rawson Alt ExtraBlack It"
    font-weight="900"
    font-style="italic"
    font-stretch="normal"
    units-per-em="1100"
    panose-1="0 0 10 0 0 0 0 0 0 0"
    ascent="880"
    descent="-220"
    x-height="522"
    cap-height="663"
    bbox="-702 -264 1344 990"
    underline-thickness="50"
    underline-position="-200"
    slope="-7.5"
    unicode-range="U+0020-FB02"
  />
<missing-glyph horiz-adv-x="486" 
 />
    <glyph glyph-name="fi" unicode="fi" horiz-adv-x="695" 
d="M606 806q48 0 79 -31.5t31 -78.5q0 -55 -37.5 -90.5t-88.5 -35.5q-48 0 -79.5 31.5t-31.5 78.5q0 55 37.5 90.5t89.5 35.5zM398 469l-21 -161h-70l-68 -473h-207l68 473h-69l22 161h71v2q18 124 90.5 190t178.5 66q39 0 67 -8l-24 -180l-2 -1q-22 6 -35 6q-59 0 -69 -75
h68zM396 0l75 522h207l-75 -522h-207z" />
    <glyph glyph-name="fl" unicode="fl" horiz-adv-x="663" 
d="M396 469l-21 -159h-69l-76 -512h-206l74 512h-66l21 159h68l2 12q18 116 89.5 181t175.5 65q35 0 68 -6l-24 -182l-2 -1q-18 6 -32 6q-59 0 -68 -68l-1 -7h67zM499 719h207l-106 -719h-206z" />
    <glyph glyph-name=".notdef" horiz-adv-x="486" 
 />
    <glyph glyph-name=".null" 
 />
    <glyph glyph-name="nonmarkingreturn" horiz-adv-x="366" 
 />
    <glyph glyph-name="space" unicode=" " horiz-adv-x="212" 
 />
    <glyph glyph-name="exclam" unicode="!" horiz-adv-x="312" 
d="M67 252l51 458h203l-80 -458h-174zM123 -16q-48 0 -73.5 25t-25.5 65q0 44 30.5 77.5t80.5 33.5q47 0 73 -25t26 -65q0 -45 -30.5 -78t-80.5 -33z" />
    <glyph glyph-name="quotedbl" unicode="&#x22;" horiz-adv-x="427" 
d="M75 390l29 276h143l14 -15l-83 -261h-103zM262 390l29 276h143l13 -15l-82 -261h-103z" />
    <glyph glyph-name="numbersign" unicode="#" horiz-adv-x="634" 
d="M601 342h-83l-23 -78h98l-19 -134h-119l-32 -108h-134l32 108h-92l-32 -108h-134l32 108h-72l18 134h94l23 78h-108l19 133h129l32 108h133l-32 -108h93l32 108h134l-32 -108h62zM361 264l23 78h-92l-23 -78h92z" />
    <glyph glyph-name="dollar" unicode="$" horiz-adv-x="508" 
d="M404 621q64 -6 99 -23l-21 -165l-1 -1q-22 15 -67.5 24.5t-82.5 9.5q-55 0 -55 -21q0 -8 14.5 -15.5t61.5 -23.5q121 -42 121 -142q0 -74 -40 -123t-115 -69l-15 -105h-176l14 97q-57 8 -123 33l23 161l2 1q79 -57 172 -57q42 0 56 6.5t14 20.5q0 7 -5.5 12t-26.5 13.5
t-62 21.5q-128 41 -128 143q0 70 42 119t118 71l16 111h179z" />
    <glyph glyph-name="percent" unicode="%" horiz-adv-x="847" 
d="M227 305q-74 0 -123.5 40.5t-49.5 122.5q0 91 56 146.5t143 55.5q74 0 123.5 -41t49.5 -118q0 -95 -55.5 -150.5t-143.5 -55.5zM93 13l543 642h146l-542 -642h-147zM239 423q47 0 47 76q0 55 -41 55q-25 0 -37.5 -22t-12.5 -57q0 -52 44 -52zM609 -6q-74 0 -123.5 40.5
t-49.5 121.5q0 91 56 147t143 56q74 0 124 -41.5t50 -118.5q0 -95 -56 -150t-144 -55zM621 111q47 0 47 77q0 54 -41 54q-50 0 -50 -79q0 -52 44 -52z" />
    <glyph glyph-name="ampersand" unicode="&#x26;" horiz-adv-x="695" 
d="M664 0h-224l-24 34q-90 -52 -197 -52q-87 0 -146 43.5t-59 136.5q0 148 153 228q-35 60 -35 121q0 87 63.5 136t177.5 49q72 0 139 -27l-22 -162l-3 -1q-63 22 -122 22h-3q-13 0 -18 -0.5t-9 -4.5t-4 -12q0 -13 70 -119l50 -75q16 48 27 119h175q-20 -155 -100 -271z
M275 153q26 0 52 8l-78 112q-36 -31 -36 -69q0 -23 15.5 -37t46.5 -14z" />
    <glyph glyph-name="quotesingle" unicode="'" horiz-adv-x="241" 
d="M75 390l29 276h143l14 -15l-83 -261h-103z" />
    <glyph glyph-name="parenleft" unicode="(" horiz-adv-x="370" 
d="M205 -188q-180 142 -180 407q0 116 27.5 214.5t75.5 168t101 117.5t116 82l57 -143q-179 -146 -179 -440q0 -177 78 -266z" />
    <glyph glyph-name="parenright" unicode=")" horiz-adv-x="371" 
d="M179 812q70 -40 124.5 -146.5t54.5 -261.5q0 -115 -32.5 -219t-83 -175t-102.5 -118t-101 -69l-58 142q32 25 60 59.5t56.5 87t45 128t16.5 164.5q0 179 -76 266z" />
    <glyph glyph-name="asterisk" unicode="*" horiz-adv-x="517" 
d="M277 564l-14 6l-65 140l6 15l126 33l19 -13l-33 -161l-11 -13zM359 544l-15 2l-16 20l-1 15l94 147l17 3l75 -91l-6 -22zM234 512l-174 -7l3 12l51 120l22 11l128 -84l-6 -16l-12 -27zM456 396l-118 85l-3 15l10 26l13 10l161 8l9 -13l-50 -122zM157 313l-76 91l5 23
l148 73l14 -2l17 -19v-15l-93 -149zM262 288l-17 13l32 160l10 11l28 7l14 -5l67 -140l-7 -14z" />
    <glyph glyph-name="plus" unicode="+" horiz-adv-x="550" 
d="M537 359l-18 -129h-183l-27 -189h-132l28 189h-184l19 129h183l28 190h130l-27 -190h183z" />
    <glyph glyph-name="comma" unicode="," horiz-adv-x="277" 
d="M-21 -151q34 103 46 199q6 38 9 103l156 17l19 -29q-10 -77 -42.5 -156t-74.5 -134h-113z" />
    <glyph glyph-name="hyphen" unicode="-" horiz-adv-x="415" 
d="M44 208l24 167h311l-22 -167h-313z" />
    <glyph glyph-name="period" unicode="." horiz-adv-x="275" 
d="M104 -17q-46 0 -70 24.5t-24 63.5q0 44 29 76.5t77 32.5q46 0 70.5 -24t24.5 -63q0 -44 -29.5 -77t-77.5 -33z" />
    <glyph glyph-name="slash" unicode="/" horiz-adv-x="529" 
d="M-35 -124l431 884h183l-431 -884h-183z" />
    <glyph glyph-name="zero" unicode="0" horiz-adv-x="666" 
d="M311 -16q-130 0 -201.5 70t-71.5 212q0 101 28 182.5t75 132.5t105 78.5t121 27.5q134 0 206.5 -73.5t72.5 -218.5q0 -200 -96 -305.5t-239 -105.5zM324 155q50 0 78.5 64.5t28.5 172.5q0 121 -65 121q-54 0 -83 -67.5t-29 -172.5q0 -64 16 -91t54 -27z" />
    <glyph glyph-name="one" unicode="1" horiz-adv-x="428" 
d="M118 0l60 409l-132 -51l-5 3l30 212l311 109h30l-97 -682h-197z" />
    <glyph glyph-name="two" unicode="2" horiz-adv-x="590" 
d="M-9 0q16 108 76.5 185t182.5 168q71 53 89 72.5t18 46.5q0 18 -16.5 26.5t-58.5 8.5q-60 0 -115.5 -19t-84.5 -39l-4 2l22 176q101 59 239 59q44 0 82 -9t72 -27.5t53.5 -53.5t19.5 -82q0 -29 -1 -48t-9 -38.5t-12.5 -29t-25 -30t-33 -30.5l-50 -40t-62.5 -51
q-74 -62 -76 -81h243l-24 -166h-525z" />
    <glyph glyph-name="three" unicode="3" horiz-adv-x="547" 
d="M437 362q68 -42 68 -128q0 -116 -76 -183t-235 -67q-112 0 -188 38l25 169l4 2q55 -37 163 -37q115 0 115 67q0 44 -62 46l-90 2l18 149h47q91 0 91 50q0 25 -17.5 34t-55.5 9q-98 0 -159 -26l-4 2l23 167q72 31 202 31q95 0 154.5 -40.5t59.5 -127.5q0 -97 -83 -157z
" />
    <glyph glyph-name="four" unicode="4" horiz-adv-x="621" 
d="M582 245l-20 -148h-75l-14 -97h-185l14 97h-318l18 95l407 481h161l-62 -428h74zM237 245h88l20 135z" />
    <glyph glyph-name="five" unicode="5" horiz-adv-x="566" 
d="M222 -16q-120 0 -210 26l25 177l4 2q83 -34 182 -34q101 0 101 70q0 56 -82 56q-99 0 -190 -26l-3 4l79 415h425l-25 -166h-262l-14 -69q25 7 70 7q94 0 149.5 -43t55.5 -134q0 -67 -21.5 -119.5t-54 -82.5t-75 -50t-80 -26.5t-74.5 -6.5z" />
    <glyph glyph-name="six" unicode="6" horiz-adv-x="612" 
d="M385 460q193 0 193 -207q0 -109 -76 -189.5t-212 -80.5q-127 0 -191.5 68t-64.5 197q0 212 116.5 325.5t298.5 113.5q93 0 140 -14l-23 -166l-4 -2q-59 14 -128 14q-126 0 -177 -101q57 42 128 42zM299 151q83 0 83 84q0 25 -15 41.5t-47 16.5q-66 0 -91 -76
q6 -29 24.5 -47.5t45.5 -18.5z" />
    <glyph glyph-name="seven" unicode="7" horiz-adv-x="532" 
d="M29 0l275 482h-248l26 188h459l17 -107l-316 -563h-213z" />
    <glyph glyph-name="eight" unicode="8" horiz-adv-x="605" 
d="M478 355q82 -56 82 -137q0 -104 -78.5 -169t-220.5 -65q-119 0 -180 44.5t-61 123.5q0 118 118 192q-58 56 -58 128q0 70 40.5 120t101 72t131.5 22q63 0 114.5 -15t88 -55t36.5 -101q0 -96 -114 -160zM341 523q-61 0 -61 -39q0 -32 61 -61q61 27 61 66q0 34 -61 34z
M294 138q76 0 76 47q0 19 -18 35t-68 36q-4 1 -12 4.5t-12 5.5q-48 -34 -48 -79q0 -49 82 -49z" />
    <glyph glyph-name="nine" unicode="9" horiz-adv-x="617" 
d="M371 687q109 0 168.5 -71t59.5 -199q0 -215 -98 -324.5t-272 -109.5q-125 0 -188 27l26 177l6 3q65 -34 158 -34q66 0 103 23.5t53 75.5q-59 -39 -137 -39q-86 0 -140.5 49t-54.5 136q0 124 81.5 205t234.5 81zM314 379q56 0 89 18v6q0 112 -68 112q-39 0 -58.5 -25
t-19.5 -58q0 -53 57 -53z" />
    <glyph glyph-name="colon" unicode=":" horiz-adv-x="314" 
d="M169 342q-48 0 -74 25t-26 65q0 47 28.5 78.5t87.5 31.5q47 0 73.5 -26t26.5 -66q0 -47 -29 -77.5t-87 -30.5zM122 -17q-48 0 -74.5 25.5t-26.5 64.5q0 47 29 79t88 32q47 0 73 -26t26 -66q0 -47 -29 -78t-86 -31z" />
    <glyph glyph-name="semicolon" unicode=";" horiz-adv-x="299" 
d="M165 339q-46 0 -70 24.5t-24 63.5q0 44 29 76.5t77 32.5q46 0 70.5 -24t24.5 -63q0 -44 -29.5 -77t-77.5 -33zM-10 -151q32 93 47 199q7 58 9 103l155 17l20 -29q-11 -77 -43 -156t-74 -134h-114z" />
    <glyph glyph-name="less" unicode="&#x3c;" horiz-adv-x="496" 
d="M192 304l26 -12l228 -151l-82 -120l-341 220l18 123l403 222l50 -119l-274 -152z" />
    <glyph glyph-name="equal" unicode="=" horiz-adv-x="615" 
d="M64 342l19 132h508l-18 -132h-509zM31 110l17 131h510l-19 -131h-508z" />
    <glyph glyph-name="greater" unicode="&#x3e;" horiz-adv-x="496" 
d="M140 586l344 -222l-18 -122l-405 -222l-49 120l276 151l26 10l-26 12l-227 152z" />
    <glyph glyph-name="question" unicode="?" horiz-adv-x="450" 
d="M78 230q5 66 33 110t86 84q33 21 45 34.5t12 31.5q0 24 -14 34t-46 10q-63 0 -115 -24l-2 1l24 176q65 23 150 23q91 0 151.5 -43t60.5 -130q0 -71 -31.5 -114.5t-102.5 -91.5q-30 -20 -46 -38t-20.5 -29.5t-7.5 -30.5zM146 -17q-49 0 -75 25t-26 65q0 45 31 78t82 33
q48 0 74.5 -25t26.5 -65q0 -45 -31.5 -78t-81.5 -33z" />
    <glyph glyph-name="at" unicode="@" horiz-adv-x="835" 
d="M571 69q-81 0 -108 55l1 -4q-13 -26 -40.5 -41.5t-62.5 -15.5q-65 0 -102 45t-37 121q0 102 60 162.5t147 60.5q47 0 79 -21l4 11h111q-47 64 -155 64q-133 0 -206 -79t-73 -202q0 -101 56 -158t145 -57q94 0 155 42h5l60 -116q-88 -68 -241 -68q-160 0 -253.5 92
t-93.5 248q0 190 126 316t337 126q147 0 240.5 -78.5t93.5 -221.5q0 -38 -7.5 -75t-26 -75t-46 -66.5t-71 -46.5t-97.5 -18zM651 343q0 49 -19 84l-23 -154l-6 -55q-3 -13 6 -13q2 0 5 1.5t10 9t12.5 21t10 41.5t4.5 65zM377 247q0 -48 42 -48q7 0 18 6t15 16v-1l14 97
q-12 9 -31 9q-24 0 -41 -21.5t-17 -57.5z" />
    <glyph glyph-name="A" unicode="A" horiz-adv-x="639" 
d="M407 0l-15 56h-211l-28 -56h-205l378 669h94l200 -669h-213zM249 192h108l-25 95l-11 57l-25 -57z" />
    <glyph glyph-name="B" unicode="B" horiz-adv-x="609" 
d="M499 367q76 -43 76 -138q0 -111 -79.5 -170t-202.5 -59h-269l95 663q77 9 217 9q240 0 240 -156q0 -100 -77 -149zM324 511h-28l-15 -104h32q69 0 69 60q0 25 -13.5 34.5t-44.5 9.5zM299 149q36 0 56 18t20 52q0 50 -53 50h-61l-17 -120h55z" />
    <glyph glyph-name="C" unicode="C" horiz-adv-x="577" 
d="M348 -12q-146 0 -230 78.5t-84 221.5q0 181 114.5 286t290.5 105q88 0 147 -17l-25 -192l-5 -2q-49 26 -113 26q-93 0 -142 -49.5t-49 -133.5q0 -137 155 -137q55 0 110 20l4 -2l-24 -185q-66 -19 -149 -19z" />
    <glyph glyph-name="D" unicode="D" horiz-adv-x="711" 
d="M353 673q171 0 256 -73.5t85 -206.5q0 -185 -117 -290.5t-308 -105.5q-221 2 -245 3l92 663q82 10 237 10zM317 179q76 0 120 49t44 132q0 66 -35.5 97t-89.5 31q-33 0 -60 -4l-42 -304q12 -1 63 -1z" />
    <glyph glyph-name="E" unicode="E" horiz-adv-x="559" 
d="M541 503h-240l-12 -87h220l-22 -157h-221l-14 -97h246l-22 -162h-452l95 663h445z" />
    <glyph glyph-name="F" unicode="F" horiz-adv-x="529" 
d="M529 479h-231l-13 -93h197l-25 -181h-198l-29 -205h-206l95 663h437z" />
    <glyph glyph-name="G" unicode="G" horiz-adv-x="652" 
d="M350 -11q-141 0 -228 75t-87 215q0 189 114 298.5t304 109.5q119 0 187 -29l-28 -186l-4 -2q-61 32 -160 32q-95 0 -147 -52t-52 -145q0 -64 34.5 -98t99.5 -34h38l18 133h176l-40 -289q-111 -28 -225 -28z" />
    <glyph glyph-name="H" unicode="H" horiz-adv-x="733" 
d="M520 663h206l-96 -663h-204l34 243h-196l-34 -243h-206l95 663h205l-33 -233h196z" />
    <glyph glyph-name="I" unicode="I" horiz-adv-x="333" 
d="M24 0l89 663h207l-89 -663h-207z" />
    <glyph glyph-name="J" unicode="J" horiz-adv-x="398" 
d="M39 -3q-33 0 -64 4l26 172l4 2q15 -3 28 -3q50 0 74.5 32.5t33.5 91.5l54 367h206l-51 -346q-23 -162 -100 -241t-211 -79z" />
    <glyph glyph-name="K" unicode="K" horiz-adv-x="692" 
d="M744 659l-290 -321l212 -334l-2 -4h-243l-155 256l-36 -256h-206l95 663h205l-35 -247l220 247h233z" />
    <glyph glyph-name="L" unicode="L" horiz-adv-x="499" 
d="M253 169h222l-23 -169h-428l94 663h206z" />
    <glyph glyph-name="M" unicode="M" horiz-adv-x="817" 
d="M668 669h111l-41 -669h-194l22 236h-2l-158 -233h-69l-86 238h-4l-54 -241h-192l151 669h119l146 -367z" />
    <glyph glyph-name="N" unicode="N" horiz-adv-x="719" 
d="M24 0l96 670h92l261 -289h3l41 290h197l-97 -670h-90l-257 301h-3l-46 -302h-197z" />
    <glyph glyph-name="O" unicode="O" horiz-adv-x="751" 
d="M362 -12q-63 0 -121 19.5t-105 56.5t-75 97.5t-28 137.5q0 166 104 273t270 107q64 0 121.5 -19t104.5 -56.5t75 -99t28 -139.5q0 -165 -104.5 -271t-269.5 -106zM371 174q68 0 108 48t40 135q0 65 -31 101t-90 36q-67 0 -107.5 -49t-40.5 -138q0 -63 31.5 -98t89.5 -35z
" />
    <glyph glyph-name="P" unicode="P" horiz-adv-x="612" 
d="M355 679q125 -1 196 -47t71 -156q0 -146 -87.5 -221t-217.5 -75q-20 0 -62 2l-26 -182h-205l95 663q118 17 236 16zM314 349q98 0 98 93q0 31 -19.5 46.5t-48.5 15.5q-25 0 -43 -3l-22 -150q14 -2 35 -2z" />
    <glyph glyph-name="Q" unicode="Q" horiz-adv-x="725" 
d="M842 -53l2 -4l-30 -170q-49 -1 -116 20t-127.5 46.5t-155.5 45t-194 15.5l-3 184q118 4 198 80.5t80 181.5q0 148 -126 148q-52 0 -82 -32t-30 -76q0 -76 72 -76q38 0 67 13l5 -1l1 -163q-54 -21 -119 -21q-99 0 -167 57.5t-68 168.5q0 133 91 224t241 91
q142 0 236 -81.5t94 -233.5q0 -97 -54.5 -192t-148.5 -145q81 -4 171.5 -35.5t162.5 -44.5z" />
    <glyph glyph-name="R" unicode="R" horiz-adv-x="643" 
d="M622 480q0 -99 -41 -162.5t-109 -92.5l107 -221l-2 -4h-217l-86 199h-17l-28 -199h-205l96 663q99 16 231 16q271 0 271 -199zM344 504q-19 0 -45 -3l-21 -151h42q41 0 66.5 25t25.5 67q0 31 -19 46.5t-49 15.5z" />
    <glyph glyph-name="S" unicode="S" horiz-adv-x="514" 
d="M204 -11q-109 0 -197 44l29 182l5 1q71 -57 164 -57q63 0 63 39q0 18 -15.5 33t-58.5 40q-59 33 -92 74.5t-33 104.5q0 114 81 172t197 58q103 0 171 -28l-23 -171l-4 -2q-58 27 -135 29q-80 3 -80 -30q0 -10 13.5 -20t53.5 -33q4 -2 6.5 -3.5t5.5 -3.5q56 -32 89 -73
t33 -107q0 -112 -76 -180.5t-197 -68.5z" />
    <glyph glyph-name="T" unicode="T" horiz-adv-x="602" 
d="M649 663l-27 -184h-182l-68 -479h-208l71 479h-193l27 184h580z" />
    <glyph glyph-name="U" unicode="U" horiz-adv-x="705" 
d="M312 -13q-128 0 -193.5 57t-65.5 168q0 35 4 63l55 388h205l-52 -362q-5 -30 -5 -68q0 -34 20.5 -53t60.5 -19q57 0 80 33t33 107l52 362h199l-55 -388q-20 -135 -109 -211.5t-229 -76.5z" />
    <glyph glyph-name="V" unicode="V" horiz-adv-x="634" 
d="M702 663l2 -4l-364 -656h-134l-156 656l3 4h216l44 -318l8 -66l27 66l152 318h202z" />
    <glyph glyph-name="W" unicode="W" horiz-adv-x="940" 
d="M999 663l2 -4l-295 -657h-156l-57 306l-4 46l-20 -46l-141 -306h-162l-121 657l2 4h218l27 -317l3 -61l23 61l137 310h153l49 -288l7 -74l25 74l114 295h196z" />
    <glyph glyph-name="X" unicode="X" horiz-adv-x="679" 
d="M717 659l-247 -320l168 -335l-2 -4h-231l-83 192l-135 -192h-221l-2 4l254 338l-158 317l2 4h234l72 -175l125 175h222z" />
    <glyph glyph-name="Y" unicode="Y" horiz-adv-x="622" 
d="M172 0l37 254l-164 405l2 4h222l69 -224l139 224h207l2 -4l-275 -421l-35 -238h-204z" />
    <glyph glyph-name="Z" unicode="Z" horiz-adv-x="606" 
d="M18 0l-7 70l307 426h-250l21 167h514l4 -69l-315 -426h267l-23 -168h-518z" />
    <glyph glyph-name="bracketleft" unicode="[" horiz-adv-x="375" 
d="M392 629h-103l-91 -636h102l-22 -150h-277l134 934h278z" />
    <glyph glyph-name="backslash" unicode="\" horiz-adv-x="529" 
d="M452 -124h-183l-178 884h183z" />
    <glyph glyph-name="bracketright" unicode="]" horiz-adv-x="375" 
d="M107 779h279l-136 -934h-276l21 148h102l90 636h-101z" />
    <glyph glyph-name="asciicircum" unicode="^" horiz-adv-x="557" 
d="M402 705l141 -386l-139 -58l-78 250l-7 26l-15 -26l-150 -250l-125 58l250 386h123z" />
    <glyph glyph-name="underscore" unicode="_" horiz-adv-x="558" 
d="M-8 -160l23 160h451l-22 -160h-452z" />
    <glyph glyph-name="grave" unicode="`" horiz-adv-x="284" 
d="M302 561l-275 100l-10 22l102 149l235 -161z" />
    <glyph glyph-name="a" unicode="a" horiz-adv-x="583" 
d="M545 187l5 -2l-26 -174q-47 -18 -103 -18q-102 0 -117 71q-63 -77 -152 -77q-75 0 -112.5 38.5t-37.5 98.5q0 93 65.5 135t164.5 42q44 0 79 -9q0 2 0.5 7t0.5 8q0 32 -19.5 46.5t-71.5 14.5q-80 0 -129 -25l-5 2l20 156q24 14 76 25t109 11q229 0 229 -194q0 -30 -4 -55
l-10 -73q0 -2 -1.5 -8.5t-1.5 -10.5q0 -16 17 -16q15 0 24 7zM240 131q41 0 51 27l5 37q-11 2 -36 2q-56 0 -56 -36q0 -30 36 -30z" />
    <glyph glyph-name="b" unicode="b" horiz-adv-x="628" 
d="M416 537q83 0 135 -60t52 -160q0 -150 -82.5 -240.5t-237.5 -90.5q-159 0 -266 49l96 683h209l-32 -217q44 36 126 36zM299 160q38 0 62.5 32t24.5 88q0 37 -17.5 54t-43.5 17q-51 0 -63 -42l-20 -139q23 -10 57 -10z" />
    <glyph glyph-name="c" unicode="c" horiz-adv-x="473" 
d="M279 -14q-114 0 -185.5 61t-71.5 171q0 147 91.5 233t233.5 86q68 0 122 -16l-23 -173l-4 -2q-44 17 -99 17q-54 0 -81.5 -35.5t-27.5 -87.5q0 -40 20 -60t69 -20q36 0 97 28l4 -2l-23 -180q-58 -20 -122 -20z" />
    <glyph glyph-name="d" unicode="d" horiz-adv-x="630" 
d="M435 718h206l-102 -718h-167l-8 57q-21 -31 -60 -51t-91 -20q-77 0 -135 58t-58 164q0 154 82.5 241.5t209.5 87.5q52 0 94 -16zM301 172q51 0 61 48l18 126q-24 17 -56 17q-38 0 -62 -33t-24 -90q0 -35 17.5 -51.5t45.5 -16.5z" />
    <glyph glyph-name="e" unicode="e" horiz-adv-x="578" 
d="M542 215l-1 -10l-306 -2q16 -57 102 -57q72 0 161 31l4 -2l-21 -151q-77 -38 -198 -38q-50 0 -93.5 12t-82.5 39t-62 76.5t-23 116.5q0 136 87 221.5t222 85.5q101 0 163.5 -52.5t62.5 -154.5q0 -48 -15 -115zM308 374q-53 0 -70 -67l122 -1v10q0 58 -52 58z" />
    <glyph glyph-name="f" unicode="f" horiz-adv-x="399" 
d="M390 727q53 0 83 -9l-24 -180l-2 -1q-18 7 -47 7q-58 0 -69 -66h80l-21 -161h-83l-71 -482h-206l70 482h-67l21 161h70v1q17 115 90 181.5t176 66.5z" />
    <glyph glyph-name="g" unicode="g" horiz-adv-x="598" 
d="M610 522l-17 -135h-71q9 -17 9 -42q0 -69 -68 -113.5t-196 -44.5q-19 0 -49 2q-9 -5 -9 -16q0 -12 25 -17.5t111 -10.5q97 -6 147.5 -37t50.5 -98q0 -93 -84.5 -139.5t-241.5 -46.5q-242 0 -242 110q0 56 71 106q-34 26 -34 65q0 72 98 116q-68 38 -68 112
q0 86 78.5 137.5t212.5 51.5h277zM340 357q0 26 -29 30h-14v1q-53 0 -53 -37q0 -31 42 -31q54 0 54 37zM249 -9q-40 2 -74 6q-11 -13 -11 -24q0 -17 18.5 -22.5t68.5 -5.5q93 0 93 21q0 14 -17 19t-78 6z" />
    <glyph glyph-name="h" unicode="h" horiz-adv-x="628" 
d="M432 537q74 0 116.5 -45.5t42.5 -123.5q0 -24 -5 -51l-45 -317h-206l38 280v5q0 25 -14.5 39t-37.5 14q-46 0 -59 -43l-42 -295h-206l102 718h207l-33 -233q54 52 142 52z" />
    <glyph glyph-name="i" unicode="i" horiz-adv-x="311" 
d="M206 570q-48 0 -79.5 31.5t-31.5 78.5q0 55 37.5 90.5t89.5 35.5q48 0 79 -31.5t31 -78.5q0 -55 -37.5 -90.5t-88.5 -35.5zM14 0l74 522h206l-74 -522h-206z" />
    <glyph glyph-name="j" unicode="j" horiz-adv-x="330" 
d="M225 570q-48 0 -79.5 31.5t-31.5 78.5q0 55 37.5 90.5t89.5 35.5q48 0 79 -31.5t31 -78.5q0 -55 -37.5 -90.5t-88.5 -35.5zM-15 -172q-38 0 -87 7l25 177l4 3q16 -5 37 -5q70 0 82 83l62 429h205l-67 -478q-16 -110 -85.5 -163t-175.5 -53z" />
    <glyph glyph-name="k" unicode="k" horiz-adv-x="615" 
d="M634 517l-213 -248l146 -265l-2 -4h-224l-95 180l-26 -180h-206l102 718h207l-51 -353l124 157h235z" />
    <glyph glyph-name="l" unicode="l" horiz-adv-x="353" 
d="M213 -11q-90 0 -140.5 48.5t-35.5 154.5l75 526h205l-69 -478q-12 -69 45 -69q12 0 27 3l4 -2l-24 -174q-41 -9 -87 -9z" />
    <glyph glyph-name="m" unicode="m" horiz-adv-x="934" 
d="M746 537q73 0 114 -46.5t41 -122.5q0 -18 -3 -42l-47 -326h-206l36 268q2 12 2 25q0 19 -12 32t-33 13q-49 0 -61 -46l-41 -292h-207l37 268q2 12 2 25q0 19 -12 32t-33 13q-47 0 -62 -44l-41 -294h-206l74 522h168l8 -69q56 84 168 84q107 0 141 -95q51 95 173 95z" />
    <glyph glyph-name="n" unicode="n" horiz-adv-x="627" 
d="M433 537q74 0 116.5 -46.5t42.5 -121.5q0 -35 -4 -63l-46 -306h-206l37 268q0 3 0.5 8.5t0.5 8.5q2 24 -12 38.5t-40 14.5q-48 0 -60 -48l-40 -290h-208l74 522h169l8 -69q56 84 168 84z" />
    <glyph glyph-name="o" unicode="o" horiz-adv-x="621" 
d="M289 -13q-114 0 -188.5 61t-74.5 186q0 132 84.5 217t223.5 85q112 0 186.5 -61t74.5 -187q0 -132 -84 -216.5t-222 -84.5zM303 160q40 0 60.5 37t20.5 86q0 78 -64 78q-43 0 -62.5 -35.5t-19.5 -86.5q0 -79 65 -79z" />
    <glyph glyph-name="p" unicode="p" horiz-adv-x="629" 
d="M416 537q89 0 138.5 -62t49.5 -164q0 -146 -85 -235.5t-226 -89.5q-43 0 -74 8l-23 -159h-206l98 687h168l6 -53q65 68 154 68zM297 160q41 0 65.5 31t24.5 86q0 39 -17.5 56t-41.5 17q-47 0 -63 -35l-21 -145q21 -10 53 -10z" />
    <glyph glyph-name="q" unicode="q" horiz-adv-x="626" 
d="M443 522h167l-98 -687h-206l27 185q-40 -34 -112 -34q-92 0 -146 62t-54 171q0 143 78.5 230.5t198.5 87.5q86 0 138 -33zM307 172q16 0 31 10t22 27l19 136q-26 17 -55 17q-40 0 -63 -32.5t-23 -86.5q0 -71 69 -71z" />
    <glyph glyph-name="r" unicode="r" horiz-adv-x="433" 
d="M401 535q25 0 52 -8l-29 -191l-4 -2q-24 8 -50 8q-93 0 -116 -96l-34 -246h-206l74 522h168l9 -72q21 42 58 63.5t78 21.5z" />
    <glyph glyph-name="s" unicode="s" horiz-adv-x="494" 
d="M198 -14q-106 0 -195 38l23 154l4 3q74 -57 180 -57q44 0 44 27q0 11 -16 20t-68 26q-121 39 -121 140q0 92 69.5 146t196.5 54q100 0 162 -27l-22 -159l-4 -2q-51 30 -148 30q-55 0 -55 -19q0 -9 9 -13.5t55 -20.5q4 -2 7 -3l7.5 -2.5t8.5 -2.5q62 -20 89 -52.5
t27 -82.5q0 -90 -68 -143.5t-185 -53.5z" />
    <glyph glyph-name="t" unicode="t" horiz-adv-x="449" 
d="M303 361l-11 -76q-2 -15 -4 -31t-3 -24.5t-1 -14.5q0 -39 55 -39q25 0 58 11l2 -1l-23 -173q-40 -20 -108 -20q-95 0 -146 43t-51 127q0 19 3 44l22 154h-73l24 161h72l17 120l211 39l1 -3l-22 -156h122l-20 -161h-125z" />
    <glyph glyph-name="u" unicode="u" horiz-adv-x="618" 
d="M396 522h206l-75 -522h-168l-9 75q-63 -88 -179 -88q-63 0 -101.5 35.5t-38.5 93.5q0 27 2 51l52 355h206l-42 -289q-3 -21 -3 -31q-2 -40 40 -40q40 0 62 33z" />
    <glyph glyph-name="v" unicode="v" horiz-adv-x="563" 
d="M604 522l2 -5l-286 -516h-159l-130 516l2 5h224l32 -229l104 229h211z" />
    <glyph glyph-name="w" unicode="w" horiz-adv-x="795" 
d="M831 522l2 -5l-237 -517h-145l-40 274l-2 33l-10 -33l-122 -274h-147l-98 517l1 5h207l17 -224v-39l10 38l90 225h165l27 -223l3 -34l9 34l78 223h192z" />
    <glyph glyph-name="x" unicode="x" horiz-adv-x="567" 
d="M590 517l-190 -249l133 -264l-2 -4h-231l-47 116l-80 -116h-210l-3 4l199 250l-129 263l2 5h232l42 -112l73 112h209z" />
    <glyph glyph-name="y" unicode="y" horiz-adv-x="541" 
d="M582 517l-251 -487q-59 -116 -115 -159t-156 -43q-45 0 -73 11l23 165l4 2q15 -5 37 -5q26 0 43.5 3t37 16.5t30.5 37.5l-130 459l2 5h219l35 -211l84 211h208z" />
    <glyph glyph-name="z" unicode="z" horiz-adv-x="524" 
d="M502 412l-224 -254h211l-24 -158h-442l-8 103l216 254h-182l20 165h426z" />
    <glyph glyph-name="braceleft" unicode="{" horiz-adv-x="407" 
d="M379 802h68l-21 -151h-43q-45 0 -52 -37l-24 -166q-9 -57 -48 -94.5t-75 -37.5l-2 -10q36 0 65.5 -38t20.5 -95l-25 -166q-4 -35 41 -35h43l-21 -152h-67q-90 0 -135.5 48.5t-34.5 128.5l19 132q7 49 -17.5 75.5t-46.5 26.5l24 168q23 0 54.5 24t37.5 70l18 132
q11 80 70.5 128.5t150.5 48.5z" />
    <glyph glyph-name="bar" unicode="|" horiz-adv-x="311" 
d="M7 -119l120 853h187l-121 -853h-186z" />
    <glyph glyph-name="braceright" unicode="}" horiz-adv-x="407" 
d="M393 390l-23 -168q-23 0 -53 -24t-37 -68l-21 -133q-12 -80 -71 -128.5t-149 -48.5h-68l21 152h43q49 0 53 34l24 168q8 57 46.5 94.5t75.5 37.5l2 10q-37 0 -66 37.5t-20 95.5l25 166q4 36 -41 36h-43l22 151h67q90 0 135.5 -49t34.5 -129l-19 -132q-7 -49 16.5 -75.5
t45.5 -26.5z" />
    <glyph glyph-name="asciitilde" unicode="~" horiz-adv-x="552" 
d="M153 211l-109 15q10 70 53.5 114t104.5 44q44 0 94.5 -16.5t78.5 -16.5q31 0 38 35l6 3l99 -21q-8 -66 -51 -108.5t-104 -42.5q-33 0 -86.5 16.5t-76.5 16.5q-18 0 -29.5 -10t-13.5 -26z" />
    <glyph glyph-name="exclamdown" unicode="&#xa1;" horiz-adv-x="304" 
d="M172 337q-48 0 -73.5 24.5t-25.5 65.5q0 44 30.5 77.5t79.5 33.5q48 0 73.5 -25t25.5 -65q0 -45 -30 -78t-80 -33zM-14 -187l77 457h175l-51 -457h-201z" />
    <glyph glyph-name="cent" unicode="&#xa2;" horiz-adv-x="505" 
d="M439 611q41 -6 69 -17l-26 -171l-6 -5q-56 21 -97 21q-62 0 -93.5 -33t-31.5 -90q0 -41 24 -66t70 -25q18 0 34.5 2.5t25 4.5t23.5 7t19 6l5 -4l-24 -175q-29 -10 -71 -14l-15 -96h-192l17 115q-137 55 -137 213q0 117 56 198t155 113l16 114h192z" />
    <glyph glyph-name="sterling" unicode="&#xa3;" horiz-adv-x="576" 
d="M419 684q86 0 162 -19l-24 -169l-8 -3q-61 26 -119 26q-45 0 -69 -18.5t-30 -66.5l-3 -22h134l-22 -167h-138q-12 -40 -25 -76h243l-25 -169h-479l-5 8q60 105 89 237h-62l23 167h63q1 5 2.5 14.5t1.5 13.5q20 130 98.5 187t192.5 57z" />
    <glyph glyph-name="currency" unicode="&#xa4;" horiz-adv-x="704" 
d="M613 371q0 -73 -33 -136l79 -94l-155 -135l-75 90q-43 -17 -84 -17q-62 0 -111 23l-107 -96l-116 135l106 96q-10 31 -10 71q0 77 36 141l-77 89l155 137l75 -90q45 16 84 16q61 0 109 -24l108 98l117 -137l-110 -99q9 -31 9 -68zM282 325q0 -32 17 -53t52 -21
q39 0 63.5 29.5t24.5 73.5q0 33 -16 54t-50 21q-41 0 -66 -30t-25 -74z" />
    <glyph glyph-name="yen" unicode="&#xa5;" horiz-adv-x="715" 
d="M693 671l-195 -357h87v-223h-123v-91h-204v91h-122v223h87l-201 357h227l117 -259l113 259h214z" />
    <glyph glyph-name="brokenbar" unicode="&#xa6;" horiz-adv-x="318" 
d="M85 401l46 333h187l-47 -333h-186zM11 -119l47 333h187l-48 -333h-186z" />
    <glyph glyph-name="section" unicode="&#xa7;" horiz-adv-x="555" 
d="M531 317q0 -93 -91 -167q30 -33 30 -79q0 -97 -81.5 -160.5t-198.5 -63.5q-101 0 -175 33l25 172l6 2q71 -42 154 -42q54 0 54 25q0 10 -16 19t-74 32q-70 28 -102 59t-32 89q0 102 97 165q-37 37 -37 92q0 97 80 157t198 60q75 0 154 -19l-23 -171l-6 -2q-50 25 -126 25
q-67 0 -67 -29q0 -10 15.5 -18t70.5 -27q72 -24 108.5 -59.5t36.5 -92.5zM208 291q0 -16 17.5 -28.5t74.5 -33.5q23 -8 38 -15q14 20 14 43q0 16 -20 31.5t-82 40.5q-2 1 -11 5t-14 6q-17 -26 -17 -49z" />
    <glyph glyph-name="dieresis" unicode="&#xa8;" horiz-adv-x="477" 
d="M163 576q-45 0 -75 30t-30 74q0 53 35.5 86t83.5 33q46 0 75.5 -29t29.5 -75q0 -52 -35.5 -85.5t-83.5 -33.5zM408 576q-46 0 -75.5 30t-29.5 74q0 53 35 86t84 33q46 0 75.5 -29t29.5 -75q0 -52 -35.5 -85.5t-83.5 -33.5z" />
    <glyph glyph-name="copyright" unicode="&#xa9;" horiz-adv-x="669" 
d="M294 -22q-126 0 -195.5 74.5t-69.5 190.5q0 145 98.5 247.5t256.5 102.5q124 0 192.5 -74.5t68.5 -190.5q0 -145 -97.5 -247.5t-253.5 -102.5zM309 85q56 0 98.5 20t67 54t36.5 74.5t12 86.5q0 74 -40 120t-115 46q-98 0 -156.5 -66.5t-58.5 -165.5q0 -75 40 -122
t116 -47zM342 131q-65 0 -107 33.5t-42 95.5q0 82 54.5 131t135.5 49q43 0 69 -13l-16 -108l-4 -2q-18 8 -43 8q-48 0 -48 -49q0 -35 39 -35q31 0 42 7l3 -2l-15 -109q-22 -6 -68 -6z" />
    <glyph glyph-name="ordfeminine" unicode="&#xaa;" horiz-adv-x="468" 
d="M459 482l2 -1l-18 -126q-27 -11 -78 -11q-63 0 -78 52q-52 -57 -113 -57q-62 0 -90.5 29.5t-28.5 78.5q0 69 46.5 102.5t119.5 33.5q36 0 73 -8q-1 40 -59 40q-70 0 -119 -19l-2 2l17 121q57 26 152 26q185 0 156 -185l-9 -60q-4 -21 12 -21q10 0 17 3zM234 446
q24 0 44 20l4 21q-18 5 -34 5q-36 0 -36 -25q0 -21 22 -21z" />
    <glyph glyph-name="guillemotleft" unicode="&#xab;" horiz-adv-x="596" 
d="M175 92l-69 210l124 197h188l-3 -15l-124 -194l68 -187l-2 -11h-182zM426 92l-69 210l124 197h188l-3 -15l-124 -194l68 -187l-2 -11h-182z" />
    <glyph glyph-name="registered" unicode="&#xae;" horiz-adv-x="646" 
d="M396 762q117 0 182 -70.5t65 -179.5q0 -137 -92 -234.5t-239 -97.5q-119 0 -186 71t-67 180q0 137 93.5 234t243.5 97zM473 344q52 59 52 159q0 70 -38 113.5t-109 43.5q-79 0 -134 -50q84 2 117 2q53 0 93 -23t40 -74q0 -72 -50 -103zM229 593q-52 -60 -52 -150
q0 -49 18 -83zM338 462q15 0 24 10t9 27q0 24 -25 24q-4 0 -10 -1l-9 -60h11zM210 335q38 -51 113 -51q88 0 141 51h-112l-22 54h-13l-8 -54h-99z" />
    <glyph glyph-name="macron" unicode="&#xaf;" horiz-adv-x="360" 
d="M73 609l17 116h314l-18 -116h-313z" />
    <glyph glyph-name="degree" unicode="&#xb0;" horiz-adv-x="382" 
d="M228 353q-71 0 -118.5 46t-47.5 115t47.5 115t118.5 46q69 0 116.5 -46t47.5 -115t-47.5 -115t-116.5 -46zM228 462q20 0 32.5 15t12.5 37t-12.5 36.5t-32.5 14.5q-22 0 -34.5 -14.5t-12.5 -36.5q0 -23 12.5 -37.5t34.5 -14.5z" />
    <glyph glyph-name="plusminus" unicode="&#xb1;" horiz-adv-x="571" 
d="M533 252h-185l-18 -129h172l-19 -132h-475l18 132h173l18 129h-182l19 128h182l24 169h131l-24 -169h184z" />
    <glyph glyph-name="acute" unicode="&#xb4;" horiz-adv-x="283" 
d="M88 557l-55 109l230 168l106 -146l-8 -22z" />
    <glyph glyph-name="paragraph" unicode="&#xb6;" horiz-adv-x="637" 
d="M637 608l-26 -183h-58l-77 -538h-45l77 538h-52l-77 -538h-195l41 295q-81 0 -131 40.5t-54 122.5q-1 55 14.5 100.5t43 75t64.5 49.5t77 29t83 9h315z" />
    <glyph glyph-name="periodcentered" unicode="&#xb7;" horiz-adv-x="295" 
d="M135 142q-49 0 -74.5 25t-25.5 64q0 47 31.5 78.5t90.5 31.5q46 0 70 -25.5t24 -63.5q0 -49 -29.5 -79.5t-86.5 -30.5z" />
    <glyph glyph-name="cedilla" unicode="&#xb8;" horiz-adv-x="224" 
d="M2 -249q-44 0 -66 6l10 74l3 1q20 -7 36 -7q53 0 53 39q0 25 -33 25q-7 0 -16 -0.5t-12 -0.5l-3 1l10 69l38 43h103l-43 -40q5 0 15 -2q82 -10 82 -82q0 -126 -177 -126z" />
    <glyph glyph-name="ordmasculine" unicode="&#xba;" horiz-adv-x="491" 
d="M262 330q-87 0 -143 46t-56 135q0 111 70 178t171 67q89 0 145.5 -48.5t56.5 -139.5q0 -110 -69 -174t-175 -64zM275 477q28 0 42 23.5t14 56.5q0 50 -33 50q-27 0 -41.5 -25.5t-14.5 -57.5q0 -47 33 -47z" />
    <glyph glyph-name="guillemotright" unicode="&#xbb;" horiz-adv-x="598" 
d="M250 499l69 -210l-124 -197h-188l3 15l124 194l-68 187l2 11h182zM509 499l69 -210l-124 -197h-188l3 15l124 194l-68 187l2 11h182z" />
    <glyph glyph-name="onequarter" unicode="&#xbc;" horiz-adv-x="739" 
d="M105 303l29 191l-72 -13l20 142l205 55h13l-54 -375h-141zM530 670h146l-474 -681h-143zM693 371l-34 -239h30l-13 -87h-30l-6 -45h-128l7 45h-175l10 64l218 262h121zM489 132h43l11 75z" />
    <glyph glyph-name="onehalf" unicode="&#xbd;" horiz-adv-x="776" 
d="M101 303l29 191l-72 -13l20 142l206 55h12l-54 -375h-141zM49 -11l471 681h146l-474 -681h-143zM389 0q20 113 127 186q48 33 58.5 42.5t10.5 20.5q0 10 -19 10q-70 0 -132 -34l-1 1l17 118q63 33 143 33q61 0 102.5 -23.5t41.5 -75.5q0 -48 -21.5 -75.5t-73.5 -61.5
q-35 -23 -36 -32h114l-15 -109h-316z" />
    <glyph glyph-name="threequarters" unicode="&#xbe;" horiz-adv-x="763" 
d="M356 438q0 -65 -53 -104.5t-140 -39.5q-71 0 -115 16l15 107l1 1q39 -15 94 -15q18 0 26.5 0.5t20.5 3t17.5 8t5.5 15.5q0 15 -25 15h-91l14 92h80q25 0 25 18q0 16 -48 16q-62 0 -95 -11l-2 1l16 108q63 11 121 11q144 0 144 -89q0 -55 -46 -88q35 -22 35 -65zM577 670
h145l-474 -681h-143zM597 371h121l-34 -239h30l-13 -87h-30l-6 -45h-128l7 45h-175l10 64zM514 132h43l11 75z" />
    <glyph glyph-name="questiondown" unicode="&#xbf;" horiz-adv-x="445" 
d="M375 542q49 0 75 -25t26 -65q0 -45 -31 -78t-82 -33q-48 0 -74.5 25t-26.5 65q0 45 31.5 78t81.5 33zM443 295q-5 -66 -33 -110t-86 -84q-33 -21 -45 -34.5t-12 -31.5q0 -24 14 -34t46 -10q63 0 115 24l2 -1l-24 -176q-65 -23 -150 -23q-91 0 -151.5 43t-60.5 130
q0 71 31.5 114.5t102.5 91.5q30 20 46 38t20.5 29.5t7.5 30.5z" />
    <glyph glyph-name="Agrave" unicode="&#xc0;" horiz-adv-x="639" 
d="M483 699l-265 82l-15 19l72 142l245 -149zM407 0l-15 56h-211l-28 -56h-205l378 669h94l200 -669h-213zM249 192h108l-25 95l-11 57l-25 -57z" />
    <glyph glyph-name="Aacute" unicode="&#xc1;" horiz-adv-x="639" 
d="M538 777l-268 -73l-33 96l255 142l61 -146zM407 0l-15 56h-211l-28 -56h-205l378 669h94l200 -669h-213zM249 192h108l-25 95l-11 57l-25 -57z" />
    <glyph glyph-name="Acircumflex" unicode="&#xc2;" horiz-adv-x="639" 
d="M390 788l-134 -77l-54 72l159 149h91l122 -147l-70 -74zM407 0l-15 56h-211l-28 -56h-205l378 669h94l200 -669h-213zM249 192h108l-25 95l-11 57l-25 -57z" />
    <glyph glyph-name="Atilde" unicode="&#xc3;" horiz-adv-x="639" 
d="M291 716l-3 -2l-107 31q8 63 46.5 107t86.5 44q43 0 84.5 -14.5t59.5 -14.5q12 0 24 9t14 23l3 2l108 -30q-8 -65 -45.5 -108t-86.5 -43q-34 0 -80.5 14t-62.5 14t-27 -10t-14 -22zM407 0l-15 56h-211l-28 -56h-205l378 669h94l200 -669h-213zM249 192h108l-25 95l-11 57
l-25 -57z" />
    <glyph glyph-name="Adieresis" unicode="&#xc4;" horiz-adv-x="639" 
d="M255 719q-40 0 -65.5 26t-25.5 65q0 46 31 75.5t73 29.5q40 0 66 -26t26 -66q0 -46 -31 -75t-74 -29zM518 719q-40 0 -65.5 26t-25.5 65q0 46 31 75.5t73 29.5q40 0 66 -26t26 -66q0 -46 -31.5 -75t-73.5 -29zM326 669h94l200 -669h-213l-15 56h-211l-28 -56h-205z
M249 192h108l-25 95l-11 57l-25 -57z" />
    <glyph glyph-name="Aring" unicode="&#xc5;" horiz-adv-x="639" 
d="M386 698q-58 0 -92.5 32t-34.5 82q0 62 41 100.5t104 38.5q59 0 93.5 -31.5t34.5 -82.5q0 -62 -41.5 -100.5t-104.5 -38.5zM401 868q-20 0 -33 -13t-13 -36q0 -16 10.5 -26.5t27.5 -10.5q20 0 33 13t13 37q0 16 -11 26t-27 10zM407 0l-15 56h-211l-28 -56h-205l378 669
h94l200 -669h-213zM249 192h108l-25 95l-11 57l-25 -57z" />
    <glyph glyph-name="AE" unicode="&#xc6;" horiz-adv-x="876" 
d="M859 497h-214l-10 -69h193l-22 -163h-195l-15 -99h220l-23 -166h-428l16 108h-162l-67 -108h-207l455 663h483zM309 252h93l27 184l-110 -168z" />
    <glyph glyph-name="Ccedilla" unicode="&#xc7;" horiz-adv-x="577" 
d="M439 679q88 0 147 -17l-25 -192l-5 -2q-49 26 -113 26q-93 0 -142 -49.5t-49 -133.5q0 -137 155 -137q55 0 110 20l4 -2l-24 -185q-59 -17 -124 -18l-30 -28q5 0 15 -2q82 -10 82 -82q0 -126 -177 -126q-44 0 -66 6l10 74l3 1q20 -7 36 -7q53 0 53 39q0 25 -33 25
q-7 0 -16 -0.5t-12 -0.5l-3 1l10 69l31 35q-114 18 -178 94.5t-64 200.5q0 181 114.5 286t290.5 105z" />
    <glyph glyph-name="Egrave" unicode="&#xc8;" horiz-adv-x="559" 
d="M454 691l-265 82l-15 19l72 142l245 -149zM541 503h-240l-12 -87h220l-22 -157h-221l-14 -97h246l-22 -162h-452l95 663h445z" />
    <glyph glyph-name="Eacute" unicode="&#xc9;" horiz-adv-x="559" 
d="M509 769l-268 -73l-33 96l255 142l61 -146zM541 503h-240l-12 -87h220l-22 -157h-221l-14 -97h246l-22 -162h-452l95 663h445z" />
    <glyph glyph-name="Ecircumflex" unicode="&#xca;" horiz-adv-x="559" 
d="M361 780l-134 -77l-54 72l159 149h91l122 -147l-70 -74zM541 503h-240l-12 -87h220l-22 -157h-221l-14 -97h246l-22 -162h-452l95 663h445z" />
    <glyph glyph-name="Edieresis" unicode="&#xcb;" horiz-adv-x="559" 
d="M226 711q-40 0 -65.5 26t-25.5 65q0 46 31 75.5t73 29.5q40 0 66 -26t26 -66q0 -46 -31 -75t-74 -29zM502 907q40 0 66 -26t26 -66q0 -46 -31.5 -75t-73.5 -29q-40 0 -65.5 26t-25.5 65q0 46 31 75.5t73 29.5zM24 0l95 663h445l-23 -160h-240l-12 -87h220l-22 -157h-221
l-14 -97h246l-22 -162h-452z" />
    <glyph glyph-name="Igrave" unicode="&#xcc;" horiz-adv-x="333" 
d="M335 691l-265 82l-15 19l72 142l245 -149zM24 0l89 663h207l-89 -663h-207z" />
    <glyph glyph-name="Iacute" unicode="&#xcd;" horiz-adv-x="333" 
d="M122 696l-33 96l255 142l61 -146l-15 -19zM24 0l89 663h207l-89 -663h-207z" />
    <glyph glyph-name="Icircumflex" unicode="&#xce;" horiz-adv-x="333" 
d="M108 703l-54 72l159 149h91l122 -147l-70 -74l-114 77zM24 0l89 663h207l-89 -663h-207z" />
    <glyph glyph-name="Idieresis" unicode="&#xcf;" horiz-adv-x="333" 
d="M107 711q-40 0 -65.5 26t-25.5 65q0 46 31 75.5t73 29.5q40 0 66 -26t26 -66q0 -46 -31 -75t-74 -29zM370 711q-40 0 -65.5 26t-25.5 65q0 46 31 75.5t73 29.5q40 0 66 -26t26 -66q0 -46 -31.5 -75t-73.5 -29zM24 0l89 663h207l-89 -663h-207z" />
    <glyph glyph-name="Eth" unicode="&#xd0;" horiz-adv-x="711" 
d="M353 673q171 0 256 -73.5t85 -206.5q0 -185 -117 -290.5t-308 -105.5q-221 2 -245 3l39 279h-77l16 118h77l37 266q82 10 237 10zM317 179q76 0 120 49t44 132q0 66 -35.5 97t-89.5 31q-33 0 -60 -4l-12 -87h81l-16 -118h-81l-14 -99q12 -1 63 -1z" />
    <glyph glyph-name="Ntilde" unicode="&#xd1;" horiz-adv-x="719" 
d="M332 714l-107 31q8 63 46.5 107t86.5 44q43 0 84.5 -14.5t59.5 -14.5q12 0 24 9t14 23l3 2l108 -30q-8 -65 -45.5 -108t-86.5 -43q-35 0 -81 14t-62 14t-27 -10t-14 -22zM24 0l96 670h92l261 -289h3l41 290h197l-97 -670h-90l-257 301h-3l-46 -302h-197z" />
    <glyph glyph-name="Ograve" unicode="&#xd2;" horiz-adv-x="751" 
d="M545 701l-265 82l-15 19l72 142l245 -149zM362 -12q-63 0 -121 19.5t-105 56.5t-75 97.5t-28 137.5q0 166 104 273t270 107q64 0 121.5 -19t104.5 -56.5t75 -99t28 -139.5q0 -165 -104.5 -271t-269.5 -106zM371 174q68 0 108 48t40 135q0 65 -31 101t-90 36
q-67 0 -107.5 -49t-40.5 -138q0 -63 31.5 -98t89.5 -35z" />
    <glyph glyph-name="Oacute" unicode="&#xd3;" horiz-adv-x="751" 
d="M332 706l-33 96l255 142l61 -146l-15 -19zM362 -12q-63 0 -121 19.5t-105 56.5t-75 97.5t-28 137.5q0 166 104 273t270 107q64 0 121.5 -19t104.5 -56.5t75 -99t28 -139.5q0 -165 -104.5 -271t-269.5 -106zM371 174q68 0 108 48t40 135q0 65 -31 101t-90 36
q-67 0 -107.5 -49t-40.5 -138q0 -63 31.5 -98t89.5 -35z" />
    <glyph glyph-name="Ocircumflex" unicode="&#xd4;" horiz-adv-x="751" 
d="M318 713l-54 72l159 149h91l122 -147l-70 -74l-114 77zM362 -12q-63 0 -121 19.5t-105 56.5t-75 97.5t-28 137.5q0 166 104 273t270 107q64 0 121.5 -19t104.5 -56.5t75 -99t28 -139.5q0 -165 -104.5 -271t-269.5 -106zM371 174q68 0 108 48t40 135q0 65 -31 101t-90 36
q-67 0 -107.5 -49t-40.5 -138q0 -63 31.5 -98t89.5 -35z" />
    <glyph glyph-name="Otilde" unicode="&#xd5;" horiz-adv-x="751" 
d="M350 716l-107 31q8 63 46.5 107t86.5 44q43 0 84.5 -14.5t59.5 -14.5q12 0 24 9t14 23l3 2l108 -30q-8 -65 -45.5 -108t-86.5 -43q-35 0 -81 14t-62 14t-27 -10t-14 -22zM362 -12q-63 0 -121 19.5t-105 56.5t-75 97.5t-28 137.5q0 166 104 273t270 107q64 0 121.5 -19
t104.5 -56.5t75 -99t28 -139.5q0 -165 -104.5 -271t-269.5 -106zM371 174q68 0 108 48t40 135q0 65 -31 101t-90 36q-67 0 -107.5 -49t-40.5 -138q0 -63 31.5 -98t89.5 -35z" />
    <glyph glyph-name="Odieresis" unicode="&#xd6;" horiz-adv-x="751" 
d="M317 721q-40 0 -65.5 26t-25.5 65q0 46 31 75.5t73 29.5q40 0 66 -26t26 -66q0 -46 -31 -75t-74 -29zM580 721q-40 0 -65.5 26t-25.5 65q0 46 31 75.5t73 29.5q40 0 66 -26t26 -66q0 -46 -31.5 -75t-73.5 -29zM362 -12q-63 0 -121 19.5t-105 56.5t-75 97.5t-28 137.5
q0 166 104 273t270 107q64 0 121.5 -19t104.5 -56.5t75 -99t28 -139.5q0 -165 -104.5 -271t-269.5 -106zM371 174q68 0 108 48t40 135q0 65 -31 101t-90 36q-67 0 -107.5 -49t-40.5 -138q0 -63 31.5 -98t89.5 -35z" />
    <glyph glyph-name="multiply" unicode="&#xd7;" horiz-adv-x="523" 
d="M516 436l-163 -147l115 -141l-102 -82l-110 136l-154 -139l-87 95l160 144l-113 139l102 82l108 -133l156 141z" />
    <glyph glyph-name="Oslash" unicode="&#xd8;" horiz-adv-x="751" 
d="M637 600q99 -86 99 -235q0 -165 -104.5 -271t-269.5 -106q-83 0 -156 32l-53 -71h-109v16l80 109q-91 84 -91 225q0 166 104 273t270 107q73 0 142 -26l46 63h119v-13zM250 307q0 -31 7 -52l173 236q-15 3 -32 3q-67 0 -107.5 -49t-40.5 -138zM371 174q68 0 108 48
t40 135q0 39 -12 68l-182 -244q20 -7 46 -7z" />
    <glyph glyph-name="Ugrave" unicode="&#xd9;" horiz-adv-x="705" 
d="M523 691l-265 82l-15 19l72 142l245 -149zM312 -13q-128 0 -193.5 57t-65.5 168q0 35 4 63l55 388h205l-52 -362q-5 -30 -5 -68q0 -34 20.5 -53t60.5 -19q57 0 80 33t33 107l52 362h199l-55 -388q-20 -135 -109 -211.5t-229 -76.5z" />
    <glyph glyph-name="Uacute" unicode="&#xda;" horiz-adv-x="705" 
d="M310 696l-33 96l255 142l61 -146l-15 -19zM312 -13q-128 0 -193.5 57t-65.5 168q0 35 4 63l55 388h205l-52 -362q-5 -30 -5 -68q0 -34 20.5 -53t60.5 -19q57 0 80 33t33 107l52 362h199l-55 -388q-20 -135 -109 -211.5t-229 -76.5z" />
    <glyph glyph-name="Ucircumflex" unicode="&#xdb;" horiz-adv-x="705" 
d="M296 703l-54 72l159 149h91l122 -147l-70 -74l-114 77zM312 -13q-128 0 -193.5 57t-65.5 168q0 35 4 63l55 388h205l-52 -362q-5 -30 -5 -68q0 -34 20.5 -53t60.5 -19q57 0 80 33t33 107l52 362h199l-55 -388q-20 -135 -109 -211.5t-229 -76.5z" />
    <glyph glyph-name="Udieresis" unicode="&#xdc;" horiz-adv-x="705" 
d="M295 711q-40 0 -65.5 26t-25.5 65q0 46 31 75.5t73 29.5q40 0 66 -26t26 -66q0 -46 -31 -75t-74 -29zM558 711q-40 0 -65.5 26t-25.5 65q0 46 31 75.5t73 29.5q40 0 66 -26t26 -66q0 -46 -31.5 -75t-73.5 -29zM312 -13q-128 0 -193.5 57t-65.5 168q0 35 4 63l55 388h205
l-52 -362q-5 -30 -5 -68q0 -34 20.5 -53t60.5 -19q57 0 80 33t33 107l52 362h199l-55 -388q-20 -135 -109 -211.5t-229 -76.5z" />
    <glyph glyph-name="Yacute" unicode="&#xdd;" horiz-adv-x="622" 
d="M270 696l-33 96l255 142l61 -146l-15 -19zM172 0l37 254l-164 405l2 4h222l69 -224l139 224h207l2 -4l-275 -421l-35 -238h-204z" />
    <glyph glyph-name="Thorn" unicode="&#xde;" horiz-adv-x="608" 
d="M367 583q39 0 75.5 -9.5t72.5 -31.5t58 -65t22 -102q0 -139 -87.5 -212t-216.5 -73q-32 0 -49 1l-13 -91h-205l95 663h205l-12 -82q19 2 55 2zM296 253q41 0 66 22t25 65q0 37 -19.5 53.5t-47.5 16.5q-17 0 -33 -2l-22 -154q11 -1 31 -1z" />
    <glyph glyph-name="germandbls" unicode="&#xdf;" horiz-adv-x="660" 
d="M414 -14q-78 0 -130 26l19 144l5 2q49 -34 93 -34q33 0 33 29q0 14 -9.5 27t-41.5 42q-36 31 -50 53.5t-14 54.5q0 11 1.5 21.5t3.5 18t6.5 16.5t6.5 13.5t9 13t9 11t10 11t9 9.5q29 31 29 63q0 38 -46 38q-32 0 -48 -24t-25 -76l-65 -445h-205l61 435q21 148 100 220
t202 72q41 0 80.5 -9t76 -27.5t58.5 -53t22 -80.5q0 -35 -9.5 -63t-18.5 -39.5t-25 -27.5q-27 -27 -27 -48q0 -5 1.5 -10t3 -8.5t6.5 -9.5t8 -10t11 -13t13 -15q22 -25 31 -37.5t18.5 -39t9.5 -58.5q0 -89 -59.5 -140.5t-162.5 -51.5z" />
    <glyph glyph-name="agrave" unicode="&#xe0;" horiz-adv-x="583" 
d="M409 561l-275 100l-10 22l102 149l235 -161zM545 187l5 -2l-26 -174q-47 -18 -103 -18q-102 0 -117 71q-63 -77 -152 -77q-75 0 -112.5 38.5t-37.5 98.5q0 93 65.5 135t164.5 42q44 0 79 -9q0 2 0.5 7t0.5 8q0 32 -19.5 46.5t-71.5 14.5q-80 0 -129 -25l-5 2l20 156
q24 14 76 25t109 11q229 0 229 -194q0 -30 -4 -55l-10 -73q0 -2 -1.5 -8.5t-1.5 -10.5q0 -16 17 -16q15 0 24 7zM240 131q41 0 51 27l5 37q-11 2 -36 2q-56 0 -56 -36q0 -30 36 -30z" />
    <glyph glyph-name="aacute" unicode="&#xe1;" horiz-adv-x="583" 
d="M486 666l-273 -109l-55 109l230 168l106 -146zM545 187l5 -2l-26 -174q-47 -18 -103 -18q-102 0 -117 71q-63 -77 -152 -77q-75 0 -112.5 38.5t-37.5 98.5q0 93 65.5 135t164.5 42q44 0 79 -9q0 2 0.5 7t0.5 8q0 32 -19.5 46.5t-71.5 14.5q-80 0 -129 -25l-5 2l20 156
q24 14 76 25t109 11q229 0 229 -194q0 -30 -4 -55l-10 -73q0 -2 -1.5 -8.5t-1.5 -10.5q0 -16 17 -16q15 0 24 7zM240 131q41 0 51 27l5 37q-11 2 -36 2q-56 0 -56 -36q0 -30 36 -30z" />
    <glyph glyph-name="acircumflex" unicode="&#xe2;" horiz-adv-x="583" 
d="M316 654l-118 -78l-57 62l143 162h94l107 -159l-74 -65zM545 187l5 -2l-26 -174q-47 -18 -103 -18q-102 0 -117 71q-63 -77 -152 -77q-75 0 -112.5 38.5t-37.5 98.5q0 93 65.5 135t164.5 42q44 0 79 -9q0 2 0.5 7t0.5 8q0 32 -19.5 46.5t-71.5 14.5q-80 0 -129 -25l-5 2
l20 156q24 14 76 25t109 11q229 0 229 -194q0 -30 -4 -55l-10 -73q0 -2 -1.5 -8.5t-1.5 -10.5q0 -16 17 -16q15 0 24 7zM240 131q41 0 51 27l5 37q-11 2 -36 2q-56 0 -56 -36q0 -30 36 -30z" />
    <glyph glyph-name="atilde" unicode="&#xe3;" horiz-adv-x="583" 
d="M229 595l-4 -3l-123 36q7 59 51.5 105t105.5 46q36 0 68.5 -15t53.5 -15q15 0 26.5 9.5t13.5 22.5l4 2l121 -32q-9 -69 -55 -111.5t-102 -42.5q-32 0 -67 16t-51 16q-35 0 -42 -34zM545 187l5 -2l-26 -174q-47 -18 -103 -18q-102 0 -117 71q-63 -77 -152 -77
q-75 0 -112.5 38.5t-37.5 98.5q0 93 65.5 135t164.5 42q44 0 79 -9q0 2 0.5 7t0.5 8q0 32 -19.5 46.5t-71.5 14.5q-80 0 -129 -25l-5 2l20 156q24 14 76 25t109 11q229 0 229 -194q0 -30 -4 -55l-10 -73q0 -2 -1.5 -8.5t-1.5 -10.5q0 -16 17 -16q15 0 24 7zM240 131
q41 0 51 27l5 37q-11 2 -36 2q-56 0 -56 -36q0 -30 36 -30z" />
    <glyph glyph-name="adieresis" unicode="&#xe4;" horiz-adv-x="583" 
d="M189 576q-45 0 -75 30t-30 74q0 53 35.5 86t83.5 33q46 0 75.5 -29t29.5 -75q0 -52 -35.5 -85.5t-83.5 -33.5zM434 576q-46 0 -75.5 30t-29.5 74q0 53 35 86t84 33q46 0 75.5 -29t29.5 -75q0 -52 -35.5 -85.5t-83.5 -33.5zM521 180q15 0 24 7l5 -2l-26 -174
q-47 -18 -103 -18q-102 0 -117 71q-63 -77 -152 -77q-75 0 -112.5 38.5t-37.5 98.5q0 93 65.5 135t164.5 42q44 0 79 -9q0 2 0.5 7t0.5 8q0 32 -19.5 46.5t-71.5 14.5q-80 0 -129 -25l-5 2l20 156q24 14 76 25t109 11q229 0 229 -194q0 -30 -4 -55l-10 -73q0 -2 -1.5 -8.5
t-1.5 -10.5q0 -16 17 -16zM240 131q41 0 51 27l5 37q-11 2 -36 2q-56 0 -56 -36q0 -30 36 -30z" />
    <glyph glyph-name="aring" unicode="&#xe5;" horiz-adv-x="583" 
d="M314 554q-59 0 -92.5 34.5t-33.5 91.5q0 66 43 108t106 42q60 0 94 -34.5t34 -91.5q0 -67 -43 -108.5t-108 -41.5zM333 737q-21 0 -35.5 -13.5t-14.5 -37.5q0 -16 11 -27t28 -11q21 0 35.5 13.5t14.5 37.5q0 16 -11 27t-28 11zM545 187l5 -2l-26 -174q-47 -18 -103 -18
q-102 0 -117 71q-63 -77 -152 -77q-75 0 -112.5 38.5t-37.5 98.5q0 93 65.5 135t164.5 42q44 0 79 -9q0 2 0.5 7t0.5 8q0 32 -19.5 46.5t-71.5 14.5q-80 0 -129 -25l-5 2l20 156q24 14 76 25t109 11q229 0 229 -194q0 -30 -4 -55l-10 -73q0 -2 -1.5 -8.5t-1.5 -10.5
q0 -16 17 -16q15 0 24 7zM240 131q41 0 51 27l5 37q-11 2 -36 2q-56 0 -56 -36q0 -30 36 -30z" />
    <glyph glyph-name="ae" unicode="&#xe6;" horiz-adv-x="916" 
d="M879 215l-1 -10l-305 -2q15 -57 101 -57q73 0 162 31l4 -2l-22 -151q-77 -38 -198 -38q-148 0 -216 92q-59 -92 -185 -92q-96 0 -150.5 59.5t-54.5 149.5q0 162 87 252t212 90q103 0 170 -55q80 55 185 55q102 0 164 -52t62 -155q0 -54 -15 -115zM645 374q-51 0 -70 -67
l122 -1v10q0 58 -52 58zM282 172q31 0 52 24.5t30 90.5v-1q4 25 14 56q-27 21 -61 21q-39 0 -63 -44t-24 -87q0 -28 13.5 -44t38.5 -16z" />
    <glyph glyph-name="ccedilla" unicode="&#xe7;" horiz-adv-x="473" 
d="M347 537q68 0 122 -16l-23 -173l-4 -2q-44 17 -99 17q-54 0 -81.5 -35.5t-27.5 -87.5q0 -40 20 -60t69 -20q36 0 97 28l4 -2l-23 -180q-53 -19 -117 -20l-27 -25q5 0 15 -2q82 -10 82 -82q0 -126 -177 -126q-44 0 -66 6l10 74l3 1q20 -7 36 -7q53 0 53 39q0 25 -33 25
q-7 0 -16 -0.5t-12 -0.5l-3 1l10 69l34 38q-79 21 -125 78t-46 144q0 147 91.5 233t233.5 86z" />
    <glyph glyph-name="egrave" unicode="&#xe8;" horiz-adv-x="578" 
d="M440 561l-275 100l-10 22l102 149l235 -161zM542 215l-1 -10l-306 -2q16 -57 102 -57q72 0 161 31l4 -2l-21 -151q-77 -38 -198 -38q-50 0 -93.5 12t-82.5 39t-62 76.5t-23 116.5q0 136 87 221.5t222 85.5q101 0 163.5 -52.5t62.5 -154.5q0 -48 -15 -115zM308 374
q-53 0 -70 -67l122 -1v10q0 58 -52 58z" />
    <glyph glyph-name="eacute" unicode="&#xe9;" horiz-adv-x="578" 
d="M517 666l-273 -109l-55 109l230 168l106 -146zM542 215l-1 -10l-306 -2q16 -57 102 -57q72 0 161 31l4 -2l-21 -151q-77 -38 -198 -38q-50 0 -93.5 12t-82.5 39t-62 76.5t-23 116.5q0 136 87 221.5t222 85.5q101 0 163.5 -52.5t62.5 -154.5q0 -48 -15 -115zM308 374
q-53 0 -70 -67l122 -1v10q0 58 -52 58z" />
    <glyph glyph-name="ecircumflex" unicode="&#xea;" horiz-adv-x="578" 
d="M347 654l-118 -78l-57 62l143 162h94l107 -159l-74 -65zM542 215l-1 -10l-306 -2q16 -57 102 -57q72 0 161 31l4 -2l-21 -151q-77 -38 -198 -38q-50 0 -93.5 12t-82.5 39t-62 76.5t-23 116.5q0 136 87 221.5t222 85.5q101 0 163.5 -52.5t62.5 -154.5q0 -48 -15 -115z
M308 374q-53 0 -70 -67l122 -1v10q0 58 -52 58z" />
    <glyph glyph-name="edieresis" unicode="&#xeb;" horiz-adv-x="578" 
d="M220 576q-46 0 -75.5 30t-29.5 74q0 53 35.5 86t83.5 33q46 0 75.5 -29t29.5 -75q0 -52 -35.5 -85.5t-83.5 -33.5zM465 576q-45 0 -75 30t-30 74q0 53 35 86t84 33q46 0 75.5 -29t29.5 -75q0 -52 -35.5 -85.5t-83.5 -33.5zM331 537q101 0 163.5 -52.5t62.5 -154.5
q0 -48 -15 -115l-1 -10l-306 -2q16 -57 102 -57q72 0 161 31l4 -2l-21 -151q-77 -38 -198 -38q-50 0 -93.5 12t-82.5 39t-62 76.5t-23 116.5q0 136 87 221.5t222 85.5zM308 374q-53 0 -70 -67l122 -1v10q0 58 -52 58z" />
    <glyph glyph-name="igrave" unicode="&#xec;" horiz-adv-x="313" 
d="M305 564l-278 96l-10 22l100 150l239 -157zM14 0l74 522h207l-75 -522h-206z" />
    <glyph glyph-name="iacute" unicode="&#xed;" horiz-adv-x="311" 
d="M93 557l-55 109l230 168l106 -146l-8 -22zM14 0l74 522h206l-74 -522h-206z" />
    <glyph glyph-name="icircumflex" unicode="&#xee;" horiz-adv-x="311" 
d="M89 577l-55 62l145 161h95l103 -161l-72 -62l-99 78zM14 0l74 522h206l-74 -522h-206z" />
    <glyph glyph-name="idieresis" unicode="&#xef;" horiz-adv-x="336" 
d="M88 576q-45 0 -74.5 29.5t-29.5 74.5q0 53 35 86t84 33q46 0 75.5 -29t29.5 -75q0 -52 -35.5 -85.5t-84.5 -33.5zM342 576q-46 0 -75.5 30t-29.5 74q0 53 35.5 86t84.5 33q46 0 75.5 -29t29.5 -75q0 -52 -35.5 -85.5t-84.5 -33.5zM26 0l74 522h207l-74 -522h-207z" />
    <glyph glyph-name="eth" unicode="&#xf0;" horiz-adv-x="637" 
d="M495 686q126 -75 126 -275q0 -194 -96.5 -309.5t-257.5 -115.5q-118 0 -183 56t-65 151q0 118 74 193t186 75q92 0 140 -51q-3 67 -28 104l-26 -43l-95 62l17 28h-9q-71 0 -125 -16l-5 4l22 164q46 16 139 16q41 0 76 -6l35 58l94 -63zM295 159q75 0 104 87
q-17 62 -77 62q-39 0 -61.5 -27t-22.5 -64q0 -24 13 -41t44 -17z" />
    <glyph glyph-name="ntilde" unicode="&#xf1;" horiz-adv-x="627" 
d="M276 595l-4 -3l-123 36q7 59 51.5 105t105.5 46q36 0 68.5 -15t53.5 -15q14 0 26 9.5t14 22.5l4 2l121 -32q-9 -69 -55 -111.5t-102 -42.5q-32 0 -67 16t-51 16q-35 0 -42 -34zM433 537q74 0 116.5 -46.5t42.5 -121.5q0 -35 -4 -63l-46 -306h-206l37 268q0 3 0.5 8.5
t0.5 8.5q2 24 -12 38.5t-40 14.5q-48 0 -60 -48l-40 -290h-208l74 522h169l8 -69q56 84 168 84z" />
    <glyph glyph-name="ograve" unicode="&#xf2;" horiz-adv-x="621" 
d="M434 550l-275 100l-10 22l102 149l235 -161zM289 -13q-114 0 -188.5 61t-74.5 186q0 132 84.5 217t223.5 85q112 0 186.5 -61t74.5 -187q0 -132 -84 -216.5t-222 -84.5zM303 160q40 0 60.5 37t20.5 86q0 78 -64 78q-43 0 -62.5 -35.5t-19.5 -86.5q0 -79 65 -79z" />
    <glyph glyph-name="oacute" unicode="&#xf3;" horiz-adv-x="621" 
d="M238 546l-55 109l230 168l106 -146l-8 -22zM289 -13q-114 0 -188.5 61t-74.5 186q0 132 84.5 217t223.5 85q112 0 186.5 -61t74.5 -187q0 -132 -84 -216.5t-222 -84.5zM303 160q40 0 60.5 37t20.5 86q0 78 -64 78q-43 0 -62.5 -35.5t-19.5 -86.5q0 -79 65 -79z" />
    <glyph glyph-name="ocircumflex" unicode="&#xf4;" horiz-adv-x="621" 
d="M223 565l-57 62l143 162h94l107 -159l-74 -65l-95 78zM289 -13q-114 0 -188.5 61t-74.5 186q0 132 84.5 217t223.5 85q112 0 186.5 -61t74.5 -187q0 -132 -84 -216.5t-222 -84.5zM303 160q40 0 60.5 37t20.5 86q0 78 -64 78q-43 0 -62.5 -35.5t-19.5 -86.5q0 -79 65 -79z
" />
    <glyph glyph-name="otilde" unicode="&#xf5;" horiz-adv-x="621" 
d="M250 581l-123 36q7 59 51.5 105t105.5 46q36 0 68.5 -15t53.5 -15q14 0 26 10t14 22l4 2l121 -32q-9 -69 -55 -111.5t-102 -42.5q-32 0 -67 16t-51 16q-35 0 -42 -34zM289 -13q-114 0 -188.5 61t-74.5 186q0 132 84.5 217t223.5 85q112 0 186.5 -61t74.5 -187
q0 -132 -84 -216.5t-222 -84.5zM303 160q40 0 60.5 37t20.5 86q0 78 -64 78q-43 0 -62.5 -35.5t-19.5 -86.5q0 -79 65 -79z" />
    <glyph glyph-name="odieresis" unicode="&#xf6;" horiz-adv-x="621" 
d="M214 565q-46 0 -75.5 29.5t-29.5 74.5q0 53 35.5 86t83.5 33q46 0 75.5 -29t29.5 -75q0 -52 -35.5 -85.5t-83.5 -33.5zM459 565q-45 0 -75 29.5t-30 74.5q0 53 35 86t84 33q46 0 75.5 -29t29.5 -75q0 -52 -35.5 -85.5t-83.5 -33.5zM289 -13q-114 0 -188.5 61t-74.5 186
q0 132 84.5 217t223.5 85q112 0 186.5 -61t74.5 -187q0 -132 -84 -216.5t-222 -84.5zM303 160q40 0 60.5 37t20.5 86q0 78 -64 78q-43 0 -62.5 -35.5t-19.5 -86.5q0 -79 65 -79z" />
    <glyph glyph-name="divide" unicode="&#xf7;" horiz-adv-x="556" 
d="M295 392q-45 0 -68 23.5t-23 60.5q0 47 31.5 80t89.5 33q45 0 68.5 -24t23.5 -61q0 -48 -31.5 -80t-90.5 -32zM21 240l17 131h509l-18 -131h-508zM243 18q-46 0 -69 23.5t-23 60.5q0 48 31 80.5t89 32.5q46 0 69 -24t23 -62q0 -47 -31 -79t-89 -32z" />
    <glyph glyph-name="oslash" unicode="&#xf8;" horiz-adv-x="621" 
d="M522 474q73 -66 73 -186q0 -132 -84 -216.5t-222 -84.5q-47 0 -91 11l-39 -55h-110v16l57 85q-80 64 -80 190q0 132 84.5 217t223.5 85q50 0 94 -12l36 54h120v-13zM303 160q40 0 60.5 37t20.5 86q0 78 -64 78q-43 0 -62.5 -35.5t-19.5 -86.5q0 -79 65 -79z" />
    <glyph glyph-name="ugrave" unicode="&#xf9;" horiz-adv-x="618" 
d="M460 561l-275 100l-10 22l102 149l235 -161zM396 522h206l-75 -522h-168l-9 75q-63 -88 -179 -88q-63 0 -101.5 35.5t-38.5 93.5q0 27 2 51l52 355h206l-42 -289q-3 -21 -3 -31q-2 -40 40 -40q40 0 62 33z" />
    <glyph glyph-name="uacute" unicode="&#xfa;" horiz-adv-x="618" 
d="M537 666l-273 -109l-55 109l230 168l106 -146zM396 522h206l-75 -522h-168l-9 75q-63 -88 -179 -88q-63 0 -101.5 35.5t-38.5 93.5q0 27 2 51l52 355h206l-42 -289q-3 -21 -3 -31q-2 -40 40 -40q40 0 62 33z" />
    <glyph glyph-name="ucircumflex" unicode="&#xfb;" horiz-adv-x="618" 
d="M367 654l-118 -78l-57 62l143 162h94l107 -159l-74 -65zM396 522h206l-75 -522h-168l-9 75q-63 -88 -179 -88q-63 0 -101.5 35.5t-38.5 93.5q0 27 2 51l52 355h206l-42 -289q-3 -21 -3 -31q-2 -40 40 -40q40 0 62 33z" />
    <glyph glyph-name="udieresis" unicode="&#xfc;" horiz-adv-x="618" 
d="M240 576q-46 0 -75.5 30t-29.5 74q0 53 35.5 86t83.5 33q46 0 75.5 -29t29.5 -75q0 -52 -35.5 -85.5t-83.5 -33.5zM485 576q-45 0 -75 30t-30 74q0 53 35 86t84 33q46 0 75.5 -29t29.5 -75q0 -52 -35.5 -85.5t-83.5 -33.5zM348 195l48 327h206l-75 -522h-168l-9 75
q-63 -88 -179 -88q-63 0 -101.5 35.5t-38.5 93.5q0 27 2 51l52 355h206l-42 -289q-3 -21 -3 -31q-2 -40 40 -40q40 0 62 33z" />
    <glyph glyph-name="yacute" unicode="&#xfd;" horiz-adv-x="541" 
d="M500 666l-273 -109l-55 109l230 168l106 -146zM582 517l-251 -487q-59 -116 -115 -159t-156 -43q-45 0 -73 11l23 165l4 2q15 -5 37 -5q26 0 43.5 3t37 16.5t30.5 37.5l-130 459l2 5h219l35 -211l84 211h208z" />
    <glyph glyph-name="thorn" unicode="&#xfe;" horiz-adv-x="629" 
d="M430 537q86 0 131 -59.5t45 -156.5q0 -148 -90.5 -241.5t-215.5 -93.5q-47 0 -79 14l-24 -165h-207l127 883h206l-33 -229q63 48 140 48zM295 161q42 0 69 32.5t27 88.5q0 71 -62 71q-39 0 -63 -34l-21 -149q21 -9 50 -9z" />
    <glyph glyph-name="ydieresis" unicode="&#xff;" horiz-adv-x="541" 
d="M203 576q-45 0 -75 30t-30 74q0 53 35.5 86t83.5 33q46 0 75.5 -29t29.5 -75q0 -52 -35.5 -85.5t-83.5 -33.5zM448 576q-46 0 -75.5 30t-29.5 74q0 53 35 86t84 33q46 0 75.5 -29t29.5 -75q0 -52 -35.5 -85.5t-83.5 -33.5zM582 517l-251 -487q-59 -116 -115 -159
t-156 -43q-45 0 -73 11l23 165l4 2q15 -5 37 -5q26 0 43.5 3t37 16.5t30.5 37.5l-130 459l2 5h219l35 -211l84 211h208z" />
    <glyph glyph-name="Amacron" unicode="&#x100;" horiz-adv-x="639" 
d="M569 858l-14 -117h-346l16 117h344zM407 0l-15 56h-211l-28 -56h-205l378 669h94l200 -669h-213zM249 192h108l-25 95l-11 57l-25 -57z" />
    <glyph glyph-name="amacron" unicode="&#x101;" horiz-adv-x="583" 
d="M485 725l-18 -116h-313l17 116h314zM545 187l5 -2l-26 -174q-47 -18 -103 -18q-102 0 -117 71q-63 -77 -152 -77q-75 0 -112.5 38.5t-37.5 98.5q0 93 65.5 135t164.5 42q44 0 79 -9q0 2 0.5 7t0.5 8q0 32 -19.5 46.5t-71.5 14.5q-80 0 -129 -25l-5 2l20 156q24 14 76 25
t109 11q229 0 229 -194q0 -30 -4 -55l-10 -73q0 -2 -1.5 -8.5t-1.5 -10.5q0 -16 17 -16q15 0 24 7zM240 131q41 0 51 27l5 37q-11 2 -36 2q-56 0 -56 -36q0 -30 36 -30z" />
    <glyph glyph-name="Abreve" unicode="&#x102;" horiz-adv-x="639" 
d="M390 723q-79 0 -128.5 49.5t-37.5 128.5l124 13q-4 -71 58 -71q27 0 46 20t25 51l111 -13q-10 -81 -64.5 -129.5t-133.5 -48.5zM407 0l-15 56h-211l-28 -56h-205l378 669h94l200 -669h-213zM249 192h108l-25 95l-11 57l-25 -57z" />
    <glyph glyph-name="abreve" unicode="&#x103;" horiz-adv-x="583" 
d="M312 579q-75 0 -119.5 48t-31.5 130l116 13l6 -4q-2 -25 10.5 -42t38.5 -17q45 0 65 59l4 3l107 -12q-13 -85 -64 -131.5t-132 -46.5zM545 187l5 -2l-26 -174q-47 -18 -103 -18q-102 0 -117 71q-63 -77 -152 -77q-75 0 -112.5 38.5t-37.5 98.5q0 93 65.5 135t164.5 42
q44 0 79 -9q0 2 0.5 7t0.5 8q0 32 -19.5 46.5t-71.5 14.5q-80 0 -129 -25l-5 2l20 156q24 14 76 25t109 11q229 0 229 -194q0 -30 -4 -55l-10 -73q0 -2 -1.5 -8.5t-1.5 -10.5q0 -16 17 -16q15 0 24 7zM240 131q41 0 51 27l5 37q-11 2 -36 2q-56 0 -56 -36q0 -30 36 -30z" />
    <glyph glyph-name="Aogonek" unicode="&#x104;" horiz-adv-x="639" 
d="M571 0q-97 -50 -97 -111q0 -40 35 -40q17 0 29 4l5 -5l-12 -91q-35 -8 -74 -8q-57 0 -93.5 23t-36.5 68q0 87 126 160h-46l-15 56h-211l-28 -56h-205l378 669h94l200 -669h-49zM249 192h108l-25 95l-11 57l-25 -57z" />
    <glyph glyph-name="aogonek" unicode="&#x105;" horiz-adv-x="583" 
d="M527 12q-97 -50 -97 -111q0 -40 35 -40q17 0 29 4l5 -5l-12 -91q-35 -8 -74 -8q-57 0 -93.5 23t-36.5 68q0 78 100 144q-67 11 -79 68q-63 -77 -152 -77q-75 0 -112.5 38.5t-37.5 98.5q0 93 65.5 135t164.5 42q44 0 79 -9q0 2 0.5 7t0.5 8q0 32 -19.5 46.5t-71.5 14.5
q-80 0 -129 -25l-5 2l20 156q24 14 76 25t109 11q229 0 229 -194q0 -30 -4 -55l-10 -73q0 -2 -1.5 -8.5t-1.5 -10.5q0 -16 17 -16q15 0 24 7l5 -2l-26 -173h3zM240 131q41 0 51 27l5 37q-11 2 -36 2q-56 0 -56 -36q0 -30 36 -30z" />
    <glyph glyph-name="Cacute" unicode="&#x106;" horiz-adv-x="577" 
d="M286 696l-33 96l255 142l61 -146l-15 -19zM348 -12q-146 0 -230 78.5t-84 221.5q0 181 114.5 286t290.5 105q88 0 147 -17l-25 -192l-5 -2q-49 26 -113 26q-93 0 -142 -49.5t-49 -133.5q0 -137 155 -137q55 0 110 20l4 -2l-24 -185q-66 -19 -149 -19z" />
    <glyph glyph-name="cacute" unicode="&#x107;" horiz-adv-x="473" 
d="M229 571l-55 109l230 168l106 -146l-8 -22zM279 -14q-114 0 -185.5 61t-71.5 171q0 147 91.5 233t233.5 86q68 0 122 -16l-23 -173l-4 -2q-44 17 -99 17q-54 0 -81.5 -35.5t-27.5 -87.5q0 -40 20 -60t69 -20q36 0 97 28l4 -2l-23 -180q-58 -20 -122 -20z" />
    <glyph glyph-name="Cdotaccent" unicode="&#x10a;" horiz-adv-x="577" 
d="M395 694q-48 0 -79.5 31.5t-31.5 78.5q0 55 37.5 90.5t89.5 35.5q48 0 79 -31.5t31 -78.5q0 -55 -37.5 -90.5t-88.5 -35.5zM348 -12q-146 0 -230 78.5t-84 221.5q0 181 114.5 286t290.5 105q88 0 147 -17l-25 -192l-5 -2q-49 26 -113 26q-93 0 -142 -49.5t-49 -133.5
q0 -137 155 -137q55 0 110 20l4 -2l-24 -185q-66 -19 -149 -19z" />
    <glyph glyph-name="cdotaccent" unicode="&#x10b;" horiz-adv-x="473" 
d="M330 584q-48 0 -79.5 31.5t-31.5 78.5q0 55 37.5 90.5t89.5 35.5q48 0 79 -31.5t31 -78.5q0 -55 -37.5 -90.5t-88.5 -35.5zM279 -14q-114 0 -185.5 61t-71.5 171q0 147 91.5 233t233.5 86q68 0 122 -16l-23 -173l-4 -2q-44 17 -99 17q-54 0 -81.5 -35.5t-27.5 -87.5
q0 -40 20 -60t69 -20q36 0 97 28l4 -2l-23 -180q-58 -20 -122 -20z" />
    <glyph glyph-name="Ccaron" unicode="&#x10c;" horiz-adv-x="577" 
d="M345 703l-120 147l69 74l114 -76l135 76l54 -72l-160 -149h-92zM348 -12q-146 0 -230 78.5t-84 221.5q0 181 114.5 286t290.5 105q88 0 147 -17l-25 -192l-5 -2q-49 26 -113 26q-93 0 -142 -49.5t-49 -133.5q0 -137 155 -137q55 0 110 20l4 -2l-24 -185q-66 -19 -149 -19
z" />
    <glyph glyph-name="ccaron" unicode="&#x10d;" horiz-adv-x="473" 
d="M277 590l-103 163l72 61l101 -78l116 78l54 -61l-145 -163h-95zM279 -14q-114 0 -185.5 61t-71.5 171q0 147 91.5 233t233.5 86q68 0 122 -16l-23 -173l-4 -2q-44 17 -99 17q-54 0 -81.5 -35.5t-27.5 -87.5q0 -40 20 -60t69 -20q36 0 97 28l4 -2l-23 -180
q-58 -20 -122 -20z" />
    <glyph glyph-name="Dcaron" unicode="&#x10e;" horiz-adv-x="711" 
d="M435 710h-92l-120 147l69 74l114 -76l135 76l54 -72zM353 673q171 0 256 -73.5t85 -206.5q0 -185 -117 -290.5t-308 -105.5q-221 2 -245 3l92 663q82 10 237 10zM317 179q76 0 120 49t44 132q0 66 -35.5 97t-89.5 31q-33 0 -60 -4l-42 -304q12 -1 63 -1z" />
    <glyph glyph-name="dcaron" unicode="&#x10f;" horiz-adv-x="717" 
d="M818 723l14 -16l-89 -248h-103l44 264h134zM435 718h206l-102 -718h-167l-8 57q-21 -31 -60 -51t-91 -20q-77 0 -135 58t-58 164q0 154 82.5 241.5t209.5 87.5q52 0 94 -16zM301 172q51 0 61 48l18 126q-24 17 -56 17q-38 0 -62 -33t-24 -90q0 -35 17.5 -51.5t45.5 -16.5
z" />
    <glyph glyph-name="Dcroat" unicode="&#x110;" horiz-adv-x="711" 
d="M353 673q171 0 256 -73.5t85 -206.5q0 -185 -117 -290.5t-308 -105.5q-221 2 -245 3l39 279h-77l16 118h77l37 266q82 10 237 10zM317 179q76 0 120 49t44 132q0 66 -35.5 97t-89.5 31q-33 0 -60 -4l-12 -87h81l-16 -118h-81l-14 -99q12 -1 63 -1z" />
    <glyph glyph-name="dcroat" unicode="&#x111;" horiz-adv-x="630" 
d="M693 683l-16 -118h-58l-80 -565h-167l-8 57q-21 -31 -60 -51t-91 -20q-77 0 -135 58t-58 164q0 154 82.5 241.5t209.5 87.5q52 0 94 -16l7 44h-99l16 118h100l5 35h206l-5 -35h57zM301 172q51 0 61 48l18 126q-24 17 -56 17q-38 0 -62 -33t-24 -90q0 -35 17.5 -51.5
t45.5 -16.5z" />
    <glyph glyph-name="Emacron" unicode="&#x112;" horiz-adv-x="559" 
d="M540 850l-14 -117h-346l16 117h344zM541 503h-240l-12 -87h220l-22 -157h-221l-14 -97h246l-22 -162h-452l95 663h445z" />
    <glyph glyph-name="emacron" unicode="&#x113;" horiz-adv-x="578" 
d="M516 725l-18 -116h-313l17 116h314zM542 215l-1 -10l-306 -2q16 -57 102 -57q72 0 161 31l4 -2l-21 -151q-77 -38 -198 -38q-50 0 -93.5 12t-82.5 39t-62 76.5t-23 116.5q0 136 87 221.5t222 85.5q101 0 163.5 -52.5t62.5 -154.5q0 -48 -15 -115zM308 374q-53 0 -70 -67
l122 -1v10q0 58 -52 58z" />
    <glyph glyph-name="Edotaccent" unicode="&#x116;" horiz-adv-x="559" 
d="M350 694q-48 0 -79.5 31.5t-31.5 78.5q0 55 37.5 90.5t89.5 35.5q48 0 79 -31.5t31 -78.5q0 -55 -37.5 -90.5t-88.5 -35.5zM541 503h-240l-12 -87h220l-22 -157h-221l-14 -97h246l-22 -162h-452l95 663h445z" />
    <glyph glyph-name="edotaccent" unicode="&#x117;" horiz-adv-x="578" 
d="M345 570q-48 0 -79.5 31.5t-31.5 78.5q0 55 37.5 90.5t89.5 35.5q48 0 79 -31.5t31 -78.5q0 -55 -37.5 -90.5t-88.5 -35.5zM542 215l-1 -10l-306 -2q16 -57 102 -57q72 0 161 31l4 -2l-21 -151q-77 -38 -198 -38q-50 0 -93.5 12t-82.5 39t-62 76.5t-23 116.5
q0 136 87 221.5t222 85.5q101 0 163.5 -52.5t62.5 -154.5q0 -48 -15 -115zM308 374q-53 0 -70 -67l122 -1v10q0 58 -52 58z" />
    <glyph glyph-name="Eogonek" unicode="&#x118;" horiz-adv-x="559" 
d="M541 503h-240l-12 -87h220l-22 -157h-221l-14 -97h246l-22 -162q-97 -50 -97 -111q0 -40 35 -40q17 0 29 4l5 -5l-12 -91q-35 -8 -74 -8q-57 0 -93.5 23t-36.5 68q0 87 126 160h-334l95 663h445z" />
    <glyph glyph-name="eogonek" unicode="&#x119;" horiz-adv-x="578" 
d="M542 215l-1 -10l-306 -2q16 -57 102 -57q72 0 161 31l4 -2l-21 -151q-34 -16 -65 -23q-78 -46 -78 -101q0 -40 35 -40q17 0 29 4l5 -5l-12 -91q-35 -8 -74 -8q-57 0 -93.5 23t-36.5 68q0 73 87 135q-49 1 -92 13.5t-81.5 39.5t-60.5 76t-22 115q0 136 87 221.5t222 85.5
q101 0 163.5 -52.5t62.5 -154.5q0 -48 -15 -115zM308 374q-53 0 -70 -67l122 -1v10q0 58 -52 58z" />
    <glyph glyph-name="Ecaron" unicode="&#x11a;" horiz-adv-x="559" 
d="M392 703h-92l-120 147l69 74l114 -76l135 76l54 -72zM541 503h-240l-12 -87h220l-22 -157h-221l-14 -97h246l-22 -162h-452l95 663h445z" />
    <glyph glyph-name="ecaron" unicode="&#x11b;" horiz-adv-x="578" 
d="M387 576h-95l-103 163l72 61l101 -78l116 78l54 -61zM542 215l-1 -10l-306 -2q16 -57 102 -57q72 0 161 31l4 -2l-21 -151q-77 -38 -198 -38q-50 0 -93.5 12t-82.5 39t-62 76.5t-23 116.5q0 136 87 221.5t222 85.5q101 0 163.5 -52.5t62.5 -154.5q0 -48 -15 -115z
M308 374q-53 0 -70 -67l122 -1v10q0 58 -52 58z" />
    <glyph glyph-name="Gbreve" unicode="&#x11e;" horiz-adv-x="652" 
d="M436 722q-79 0 -128.5 49.5t-37.5 128.5l124 13q-4 -71 58 -71q27 0 46 20t25 51l111 -13q-10 -81 -64.5 -129.5t-133.5 -48.5zM350 -11q-141 0 -228 75t-87 215q0 189 114 298.5t304 109.5q119 0 187 -29l-28 -186l-4 -2q-61 32 -160 32q-95 0 -147 -52t-52 -145
q0 -64 34.5 -98t99.5 -34h38l18 133h176l-40 -289q-111 -28 -225 -28z" />
    <glyph glyph-name="gbreve" unicode="&#x11f;" horiz-adv-x="598" 
d="M320 593q-75 0 -119.5 48t-31.5 130l116 13l6 -4q-2 -25 10.5 -42t38.5 -17q45 0 65 59l4 3l107 -12q-13 -85 -64 -131.5t-132 -46.5zM610 522l-17 -135h-71q9 -17 9 -42q0 -69 -68 -113.5t-196 -44.5q-19 0 -49 2q-9 -5 -9 -16q0 -12 25 -17.5t111 -10.5
q97 -6 147.5 -37t50.5 -98q0 -93 -84.5 -139.5t-241.5 -46.5q-242 0 -242 110q0 56 71 106q-34 26 -34 65q0 72 98 116q-68 38 -68 112q0 86 78.5 137.5t212.5 51.5h277zM340 357q0 26 -29 30h-14v1q-53 0 -53 -37q0 -31 42 -31q54 0 54 37zM249 -9q-40 2 -74 6
q-11 -13 -11 -24q0 -17 18.5 -22.5t68.5 -5.5q93 0 93 21q0 14 -17 19t-78 6z" />
    <glyph glyph-name="Gdotaccent" unicode="&#x120;" horiz-adv-x="652" 
d="M425 701q-48 0 -79.5 31.5t-31.5 78.5q0 55 37.5 90.5t89.5 35.5q48 0 79 -31.5t31 -78.5q0 -55 -37.5 -90.5t-88.5 -35.5zM350 -11q-141 0 -228 75t-87 215q0 189 114 298.5t304 109.5q119 0 187 -29l-28 -186l-4 -2q-61 32 -160 32q-95 0 -147 -52t-52 -145
q0 -64 34.5 -98t99.5 -34h38l18 133h176l-40 -289q-111 -28 -225 -28z" />
    <glyph glyph-name="gdotaccent" unicode="&#x121;" horiz-adv-x="598" 
d="M322 584q-48 0 -79.5 31.5t-31.5 78.5q0 55 37.5 90.5t89.5 35.5q48 0 79 -31.5t31 -78.5q0 -55 -37.5 -90.5t-88.5 -35.5zM610 522l-17 -135h-71q9 -17 9 -42q0 -69 -68 -113.5t-196 -44.5q-19 0 -49 2q-9 -5 -9 -16q0 -12 25 -17.5t111 -10.5q97 -6 147.5 -37t50.5 -98
q0 -93 -84.5 -139.5t-241.5 -46.5q-242 0 -242 110q0 56 71 106q-34 26 -34 65q0 72 98 116q-68 38 -68 112q0 86 78.5 137.5t212.5 51.5h277zM340 357q0 26 -29 30h-14v1q-53 0 -53 -37q0 -31 42 -31q54 0 54 37zM249 -9q-40 2 -74 6q-11 -13 -11 -24q0 -17 18.5 -22.5
t68.5 -5.5q93 0 93 21q0 14 -17 19t-78 6z" />
    <glyph glyph-name="Gcommaaccent" unicode="&#x122;" horiz-adv-x="652" 
d="M350 -11q-141 0 -228 75t-87 215q0 189 114 298.5t304 109.5q119 0 187 -29l-28 -186l-4 -2q-61 32 -160 32q-95 0 -147 -52t-52 -145q0 -64 34.5 -98t99.5 -34h38l18 133h176l-40 -289q-111 -28 -225 -28zM217 -264q30 101 36 141q2 12 4 72l150 12l10 -22
q-15 -109 -91 -203h-109z" />
    <glyph glyph-name="gcommaaccent" unicode="&#x123;" horiz-adv-x="598" 
d="M395 587l-150 -12l-10 22q15 109 91 203h109q-30 -101 -36 -141q-2 -12 -4 -72zM610 522l-17 -135h-71q9 -17 9 -42q0 -69 -68 -113.5t-196 -44.5q-19 0 -49 2q-9 -5 -9 -16q0 -12 25 -17.5t111 -10.5q97 -6 147.5 -37t50.5 -98q0 -93 -84.5 -139.5t-241.5 -46.5
q-242 0 -242 110q0 56 71 106q-34 26 -34 65q0 72 98 116q-68 38 -68 112q0 86 78.5 137.5t212.5 51.5h277zM340 357q0 26 -29 30h-14v1q-53 0 -53 -37q0 -31 42 -31q54 0 54 37zM249 -9q-40 2 -74 6q-11 -13 -11 -24q0 -17 18.5 -22.5t68.5 -5.5q93 0 93 21q0 14 -17 19
t-78 6z" />
    <glyph glyph-name="Hbar" unicode="&#x126;" horiz-adv-x="733" 
d="M774 599l-16 -120h-59l-69 -479h-204l34 243h-196l-34 -243h-206l69 479h-58l16 120h59l9 64h205l-9 -64h196l9 64h206l-9 -64h57zM487 430l7 49h-196l-7 -49h196z" />
    <glyph glyph-name="hbar" unicode="&#x127;" horiz-adv-x="627" 
d="M432 537q74 0 116.5 -45.5t42.5 -123.5q0 -24 -5 -51l-45 -317h-206l36 266q2 14 2 19q0 25 -14.5 39t-37.5 14q-46 0 -59 -43l-42 -295h-206l81 568h-69l15 119h71l4 31h207l-4 -31h84l-14 -119h-88l-11 -83q54 52 142 52z" />
    <glyph glyph-name="Itilde" unicode="&#x128;" horiz-adv-x="333" 
d="M140 706l-107 31q8 63 46.5 107t86.5 44q43 0 84.5 -14.5t59.5 -14.5q12 0 24 9t14 23l3 2l108 -30q-8 -65 -45.5 -108t-86.5 -43q-35 0 -81 14t-62 14t-27 -10t-14 -22zM24 0l89 663h207l-89 -663h-207z" />
    <glyph glyph-name="itilde" unicode="&#x129;" horiz-adv-x="311" 
d="M116 593l-115 34q9 61 52 107t108 46q32 0 66 -14t53 -14q16 0 27.5 10.5t13.5 23.5l4 2l114 -32q-10 -70 -56 -112t-106 -42q-28 0 -65 14.5t-51 14.5q-34 0 -41 -35zM14 0l74 522h206l-74 -522h-206z" />
    <glyph glyph-name="Imacron" unicode="&#x12a;" horiz-adv-x="333" 
d="M61 733l16 117h344l-14 -117h-346zM24 0l89 663h207l-89 -663h-207z" />
    <glyph glyph-name="imacron" unicode="&#x12b;" horiz-adv-x="311" 
d="M40 609l17 119h323l-17 -119h-323zM14 0l73 522h206l-73 -522h-206z" />
    <glyph glyph-name="Iogonek" unicode="&#x12e;" horiz-adv-x="333" 
d="M198 0q-77 -46 -77 -100q0 -40 35 -40q17 0 29 4l5 -5l-12 -91q-35 -8 -74 -8q-57 0 -93.5 23t-36.5 68q0 80 108 149h-58l89 663h207l-89 -663h-33z" />
    <glyph glyph-name="iogonek" unicode="&#x12f;" horiz-adv-x="311" 
d="M197 570q-48 0 -79.5 31.5t-31.5 78.5q0 55 37.5 90.5t89.5 35.5q48 0 79 -31.5t31 -78.5q0 -55 -37.5 -90.5t-88.5 -35.5zM14 0l73 522h206l-73 -522h-206zM81 -252q-56 0 -93 23.5t-37 68.5q0 87 127 159l119 1q-98 -50 -98 -111q0 -41 34 -41q12 0 30 4l4 -4l-12 -92
q-35 -8 -74 -8z" />
    <glyph glyph-name="Idotaccent" unicode="&#x130;" horiz-adv-x="333" 
d="M231 694q-48 0 -79.5 31.5t-31.5 78.5q0 55 37.5 90.5t89.5 35.5q48 0 79 -31.5t31 -78.5q0 -55 -37.5 -90.5t-88.5 -35.5zM24 0l89 663h207l-89 -663h-207z" />
    <glyph glyph-name="dotlessi" unicode="&#x131;" horiz-adv-x="311" 
d="M14 0l74 522h206l-74 -522h-206z" />
    <glyph glyph-name="IJ" unicode="&#x132;" horiz-adv-x="731" 
d="M24 0l89 663h207l-89 -663h-207zM372 -3q-33 0 -64 4l26 172l4 2q15 -3 28 -3q50 0 74.5 32.5t33.5 91.5l54 367h206l-51 -346q-23 -162 -100 -241t-211 -79z" />
    <glyph glyph-name="ij" unicode="&#x133;" horiz-adv-x="641" 
d="M206 570q-48 0 -79.5 31.5t-31.5 78.5q0 55 37.5 90.5t89.5 35.5q48 0 79 -31.5t31 -78.5q0 -55 -37.5 -90.5t-88.5 -35.5zM536 570q-48 0 -79.5 31.5t-31.5 78.5q0 55 37.5 90.5t89.5 35.5q48 0 79 -31.5t31 -78.5q0 -55 -37.5 -90.5t-88.5 -35.5zM14 0l74 522h206
l-74 -522h-206zM296 -172q-38 0 -87 7l25 177l4 3q16 -5 37 -5q70 0 82 83l62 429h205l-67 -478q-16 -110 -85.5 -163t-175.5 -53z" />
    <glyph glyph-name="Kcommaaccent" unicode="&#x136;" horiz-adv-x="692" 
d="M744 659l-290 -321l212 -334l-2 -4h-243l-155 256l-36 -256h-206l95 663h205l-35 -247l220 247h233zM220 -51l150 12l10 -22q-15 -109 -91 -203h-109q30 101 36 141q2 12 4 72z" />
    <glyph glyph-name="kcommaaccent" unicode="&#x137;" horiz-adv-x="615" 
d="M634 517l-213 -248l146 -265l-2 -4h-224l-95 180l-26 -180h-206l102 718h207l-51 -353l124 157h235zM187 -51l150 12l10 -22q-15 -109 -91 -203h-109q30 101 36 141q2 12 4 72z" />
    <glyph glyph-name="kgreenlandic" unicode="&#x138;" horiz-adv-x="616" 
d="M646 522l-213 -245l157 -277h-251l-94 174l-25 -174h-206l74 522h207l-25 -172l144 172h232z" />
    <glyph glyph-name="Lacute" unicode="&#x139;" horiz-adv-x="499" 
d="M392 769l-268 -73l-33 96l255 142l61 -146zM253 169h222l-23 -169h-428l94 663h206z" />
    <glyph glyph-name="lacute" unicode="&#x13a;" horiz-adv-x="353" 
d="M112 752l-33 96l255 142l61 -146l-15 -19zM213 -11q-90 0 -140.5 48.5t-35.5 154.5l75 526h205l-69 -478q-12 -69 45 -69q12 0 27 3l4 -2l-24 -174q-41 -9 -87 -9z" />
    <glyph glyph-name="Lcommaaccent" unicode="&#x13b;" horiz-adv-x="499" 
d="M253 169h222l-23 -169h-428l94 663h206zM149 -51l150 12l10 -22q-15 -109 -91 -203h-109q30 101 36 141q2 12 4 72z" />
    <glyph glyph-name="lcommaaccent" unicode="&#x13c;" horiz-adv-x="353" 
d="M213 -11q-90 0 -140.5 48.5t-35.5 154.5l75 526h205l-69 -478q-12 -69 45 -69q12 0 27 3l4 -2l-24 -174q-41 -9 -87 -9zM31 -264q30 101 36 141q2 12 4 72l150 12l10 -22q-15 -109 -91 -203h-109z" />
    <glyph glyph-name="Lcaron" unicode="&#x13d;" horiz-adv-x="508" 
d="M546 664l-88 -248h-103l44 264h135zM325 663l-72 -494h222l-23 -169h-428l96 663h205z" />
    <glyph glyph-name="lcaron" unicode="&#x13e;" horiz-adv-x="392" 
d="M323 458l44 264h134l14 -16l-89 -248h-103zM213 -11q-90 0 -140.5 48.5t-35.5 154.5l75 526h205l-69 -478q-12 -69 45 -69q12 0 27 3l4 -2l-24 -174q-41 -9 -87 -9z" />
    <glyph glyph-name="Ldot" unicode="&#x13f;" horiz-adv-x="514" 
d="M324 663l-71 -494h222l-23 -169h-428l94 663h206zM455 502q47 0 71.5 -24.5t24.5 -62.5q0 -48 -31.5 -80t-90.5 -32q-48 0 -72.5 23t-24.5 61q0 48 32.5 81.5t90.5 33.5z" />
    <glyph glyph-name="ldot" unicode="&#x140;" horiz-adv-x="503" 
d="M213 -11q-90 0 -140.5 48.5t-35.5 154.5l75 526h205l-69 -478q-12 -69 45 -69q12 0 27 3l4 -2l-24 -174q-41 -9 -87 -9zM408 259q-49 0 -74.5 25t-25.5 64q0 47 31.5 78.5t90.5 31.5q46 0 70 -25.5t24 -63.5q0 -49 -29.5 -79.5t-86.5 -30.5z" />
    <glyph glyph-name="Lslash" unicode="&#x141;" horiz-adv-x="499" 
d="M253 169h222l-23 -169h-428l28 198l-62 -37l-5 2l18 134l69 41l46 325h206l-28 -192l69 41h4l-19 -135l-74 -44z" />
    <glyph glyph-name="lslash" unicode="&#x142;" horiz-adv-x="410" 
d="M292 357l-17 -117q-12 -69 45 -69q12 0 27 3l4 -2l-24 -174q-41 -9 -87 -9q-90 0 -140.5 48.5t-35.5 154.5l7 48l-66 -35l-7 5l19 130l74 39l48 339h205l-32 -220l70 37l7 -4l-19 -133z" />
    <glyph glyph-name="Nacute" unicode="&#x143;" horiz-adv-x="719" 
d="M314 704l-33 96l255 142l61 -146l-15 -19zM24 0l96 670h92l261 -289h3l41 290h197l-97 -670h-90l-257 301h-3l-46 -302h-197z" />
    <glyph glyph-name="nacute" unicode="&#x144;" horiz-adv-x="627" 
d="M533 666l-273 -109l-55 109l230 168l106 -146zM433 537q74 0 116.5 -46.5t42.5 -121.5q0 -35 -4 -63l-46 -306h-206l37 268q0 3 0.5 8.5t0.5 8.5q2 24 -12 38.5t-40 14.5q-48 0 -60 -48l-40 -290h-208l74 522h169l8 -69q56 84 168 84z" />
    <glyph glyph-name="Ncommaaccent" unicode="&#x145;" horiz-adv-x="719" 
d="M24 0l96 670h92l261 -289h3l41 290h197l-97 -670h-90l-257 301h-3l-46 -302h-197zM203 -264q30 101 36 141q2 12 4 72l150 12l10 -22q-15 -109 -91 -203h-109z" />
    <glyph glyph-name="ncommaaccent" unicode="&#x146;" horiz-adv-x="627" 
d="M433 537q74 0 116.5 -46.5t42.5 -121.5q0 -35 -4 -63l-46 -306h-206l37 268q0 3 0.5 8.5t0.5 8.5q2 24 -12 38.5t-40 14.5q-48 0 -60 -48l-40 -290h-208l74 522h169l8 -69q56 84 168 84zM186 -51l150 12l10 -22q-15 -109 -91 -203h-109q30 101 36 141q2 12 4 72z" />
    <glyph glyph-name="Ncaron" unicode="&#x147;" horiz-adv-x="719" 
d="M373 711l-120 147l69 74l114 -76l135 76l54 -72l-160 -149h-92zM24 0l96 670h92l261 -289h3l41 290h197l-97 -670h-90l-257 301h-3l-46 -302h-197z" />
    <glyph glyph-name="ncaron" unicode="&#x148;" horiz-adv-x="627" 
d="M403 576h-95l-103 163l72 61l101 -78l116 78l54 -61zM433 537q74 0 116.5 -46.5t42.5 -121.5q0 -35 -4 -63l-46 -306h-206l37 268q0 3 0.5 8.5t0.5 8.5q2 24 -12 38.5t-40 14.5q-48 0 -60 -48l-40 -290h-208l74 522h169l8 -69q56 84 168 84z" />
    <glyph glyph-name="Eng" unicode="&#x14a;" horiz-adv-x="718" 
d="M714 671l-37 -256l-43 -298q-24 -172 -101.5 -246.5t-201.5 -74.5q-34 0 -62 4l23 168l1 1q15 -4 35 -4q90 0 108 133l1 8l-167 196h-3l-46 -302h-197l96 670h92l261 -289h3l41 290h197z" />
    <glyph glyph-name="eng" unicode="&#x14b;" horiz-adv-x="626" 
d="M433 537q74 0 116.5 -46.5t42.5 -121.5q0 -35 -4 -63l-46 -309q-15 -111 -82.5 -166t-173.5 -55q-27 0 -87 8l21 168l3 2q23 -6 43 -6q61 0 74 86l33 234q0 3 0.5 8.5t0.5 8.5q2 24 -12 38.5t-40 14.5q-45 0 -59 -45l-41 -293h-208l74 522h169l9 -68q57 83 167 83z" />
    <glyph glyph-name="Omacron" unicode="&#x14c;" horiz-adv-x="751" 
d="M271 743l16 117h344l-14 -117h-346zM362 -12q-63 0 -121 19.5t-105 56.5t-75 97.5t-28 137.5q0 166 104 273t270 107q64 0 121.5 -19t104.5 -56.5t75 -99t28 -139.5q0 -165 -104.5 -271t-269.5 -106zM371 174q68 0 108 48t40 135q0 65 -31 101t-90 36q-67 0 -107.5 -49
t-40.5 -138q0 -63 31.5 -98t89.5 -35z" />
    <glyph glyph-name="omacron" unicode="&#x14d;" horiz-adv-x="621" 
d="M179 598l17 116h314l-18 -116h-313zM289 -13q-114 0 -188.5 61t-74.5 186q0 132 84.5 217t223.5 85q112 0 186.5 -61t74.5 -187q0 -132 -84 -216.5t-222 -84.5zM303 160q40 0 60.5 37t20.5 86q0 78 -64 78q-43 0 -62.5 -35.5t-19.5 -86.5q0 -79 65 -79z" />
    <glyph glyph-name="Ohungarumlaut" unicode="&#x150;" horiz-adv-x="751" 
d="M340 708l-79 34l83 208l127 -36v-27zM565 708l-79 34l83 208l128 -36l1 -27zM362 -12q-63 0 -121 19.5t-105 56.5t-75 97.5t-28 137.5q0 166 104 273t270 107q64 0 121.5 -19t104.5 -56.5t75 -99t28 -139.5q0 -165 -104.5 -271t-269.5 -106zM371 174q68 0 108 48t40 135
q0 65 -31 101t-90 36q-67 0 -107.5 -49t-40.5 -138q0 -63 31.5 -98t89.5 -35z" />
    <glyph glyph-name="ohungarumlaut" unicode="&#x151;" horiz-adv-x="621" 
d="M222 549l-85 49l104 206l138 -46l-1 -27zM430 549l-84 49l104 206l138 -46l-1 -27zM289 -13q-114 0 -188.5 61t-74.5 186q0 132 84.5 217t223.5 85q112 0 186.5 -61t74.5 -187q0 -132 -84 -216.5t-222 -84.5zM303 160q40 0 60.5 37t20.5 86q0 78 -64 78
q-43 0 -62.5 -35.5t-19.5 -86.5q0 -79 65 -79z" />
    <glyph glyph-name="OE" unicode="&#x152;" horiz-adv-x="1007" 
d="M983 501h-273q17 -42 22 -82h222l-21 -159h-210q-14 -55 -40 -98h263l-22 -162h-461q-48 -12 -101 -12q-63 0 -121 19.5t-105 56.5t-75 97.5t-28 137.5q0 166 104 273t270 107q60 0 112 -16h486zM250 307q0 -63 31.5 -98t89.5 -35q68 0 108 48t40 135q0 65 -31 101
t-90 36q-67 0 -107.5 -49t-40.5 -138z" />
    <glyph glyph-name="oe" unicode="&#x153;" horiz-adv-x="887" 
d="M866 325q0 -57 -15 -117l-1 -8h-287q15 -61 98 -61q75 0 146 37l4 -2l-20 -148q-79 -40 -183 -40q-88 0 -159 63q-71 -63 -173 -63q-105 0 -177.5 60t-72.5 175q0 148 81 232t212 84q111 0 173 -65q73 65 154 65q102 0 161 -55t59 -157zM566 303h113v17q0 55 -44 55
q-53 0 -69 -72zM358 289q2 73 -44 73q-37 0 -55.5 -36.5t-19.5 -89.5q-2 -75 46 -75q36 0 54 37t19 91z" />
    <glyph glyph-name="Racute" unicode="&#x154;" horiz-adv-x="643" 
d="M531 769l-268 -73l-33 96l255 142l61 -146zM622 480q0 -99 -41 -162.5t-109 -92.5l107 -221l-2 -4h-217l-86 199h-17l-28 -199h-205l96 663q99 16 231 16q271 0 271 -199zM344 504q-19 0 -45 -3l-21 -151h42q41 0 66.5 25t25.5 67q0 31 -19 46.5t-49 15.5z" />
    <glyph glyph-name="racute" unicode="&#x155;" horiz-adv-x="433" 
d="M367 834l106 -146l-8 -22l-273 -109l-55 109zM265 450q21 42 58 63.5t78 21.5q25 0 52 -8l-29 -191l-4 -2q-24 8 -50 8q-93 0 -116 -96l-34 -246h-206l74 522h168z" />
    <glyph glyph-name="Rcommaaccent" unicode="&#x156;" horiz-adv-x="643" 
d="M622 480q0 -99 -41 -162.5t-109 -92.5l107 -221l-2 -4h-217l-86 199h-17l-28 -199h-205l96 663q99 16 231 16q271 0 271 -199zM344 504q-19 0 -45 -3l-21 -151h42q41 0 66.5 25t25.5 67q0 31 -19 46.5t-49 15.5zM183 -51l150 12l10 -22q-15 -109 -91 -203h-109
q30 101 36 141q2 12 4 72z" />
    <glyph glyph-name="rcommaaccent" unicode="&#x157;" horiz-adv-x="433" 
d="M401 535q25 0 52 -8l-29 -191l-4 -2q-24 8 -50 8q-93 0 -116 -96l-34 -246h-206l74 522h168l9 -72q21 42 58 63.5t78 21.5zM36 -51l150 12l10 -22q-15 -109 -91 -203h-109q30 101 36 141q2 12 4 72z" />
    <glyph glyph-name="Rcaron" unicode="&#x158;" horiz-adv-x="643" 
d="M414 703h-92l-120 147l69 74l114 -76l135 76l54 -72zM622 480q0 -99 -41 -162.5t-109 -92.5l107 -221l-2 -4h-217l-86 199h-17l-28 -199h-205l96 663q99 16 231 16q271 0 271 -199zM344 504q-19 0 -45 -3l-21 -151h42q41 0 66.5 25t25.5 67q0 31 -19 46.5t-49 15.5z" />
    <glyph glyph-name="rcaron" unicode="&#x159;" horiz-adv-x="433" 
d="M335 576h-95l-103 163l72 61l101 -78l116 78l54 -61zM265 450q21 42 58 63.5t78 21.5q25 0 52 -8l-29 -191l-4 -2q-24 8 -50 8q-93 0 -116 -96l-34 -246h-206l74 522h168z" />
    <glyph glyph-name="Sacute" unicode="&#x15a;" horiz-adv-x="514" 
d="M227 704l-33 96l255 142l61 -146l-15 -19zM204 -11q-109 0 -197 44l29 182l5 1q71 -57 164 -57q63 0 63 39q0 18 -15.5 33t-58.5 40q-59 33 -92 74.5t-33 104.5q0 114 81 172t197 58q103 0 171 -28l-23 -171l-4 -2q-58 27 -135 29q-80 3 -80 -30q0 -10 13.5 -20t53.5 -33
q4 -2 6.5 -3.5t5.5 -3.5q56 -32 89 -73t33 -107q0 -112 -76 -180.5t-197 -68.5z" />
    <glyph glyph-name="sacute" unicode="&#x15b;" horiz-adv-x="494" 
d="M199 571l-55 109l230 168l106 -146l-8 -22zM198 -14q-106 0 -195 38l23 154l4 3q74 -57 180 -57q44 0 44 27q0 11 -16 20t-68 26q-121 39 -121 140q0 92 69.5 146t196.5 54q100 0 162 -27l-22 -159l-4 -2q-51 30 -148 30q-55 0 -55 -19q0 -9 9 -13.5t55 -20.5q4 -2 7 -3
l7.5 -2.5t8.5 -2.5q62 -20 89 -52.5t27 -82.5q0 -90 -68 -143.5t-185 -53.5z" />
    <glyph glyph-name="Scedilla" unicode="&#x15e;" horiz-adv-x="514" 
d="M347 680q103 0 171 -28l-23 -171l-4 -2q-58 27 -135 29q-80 3 -80 -30q0 -10 13.5 -20t53.5 -33q4 -2 6.5 -3.5t5.5 -3.5q56 -32 89 -73t33 -107q0 -99 -60 -165t-160 -80l-34 -32q5 0 15 -2q82 -10 82 -82q0 -126 -177 -126q-44 0 -66 6l10 74l3 1q20 -7 36 -7
q53 0 53 39q0 25 -33 25q-7 0 -16 -0.5t-12 -0.5l-3 1l10 69l29 33q-79 7 -147 42l29 182l5 1q71 -57 164 -57q63 0 63 39q0 18 -15.5 33t-58.5 40q-59 33 -92 74.5t-33 104.5q0 114 81 172t197 58z" />
    <glyph glyph-name="scedilla" unicode="&#x15f;" horiz-adv-x="494" 
d="M315 537q100 0 162 -27l-22 -159l-4 -2q-51 30 -148 30q-55 0 -55 -19q0 -9 9 -13.5t55 -20.5q4 -2 7 -3l7.5 -2.5t8.5 -2.5q62 -20 89 -52.5t27 -82.5q0 -80 -53.5 -131.5t-147.5 -62.5l-30 -28q5 0 15 -2q82 -10 82 -82q0 -126 -177 -126q-44 0 -66 6l10 74l3 1
q20 -7 36 -7q53 0 53 39q0 25 -33 25q-7 0 -16 -0.5t-12 -0.5l-3 1l10 69l26 30q-77 6 -145 36l23 154l4 3q74 -57 180 -57q44 0 44 27q0 11 -16 20t-68 26q-121 39 -121 140q0 92 69.5 146t196.5 54z" />
    <glyph glyph-name="Scaron" unicode="&#x160;" horiz-adv-x="514" 
d="M286 711l-120 147l69 74l114 -76l135 76l54 -72l-160 -149h-92zM204 -11q-109 0 -197 44l29 182l5 1q71 -57 164 -57q63 0 63 39q0 18 -15.5 33t-58.5 40q-59 33 -92 74.5t-33 104.5q0 114 81 172t197 58q103 0 171 -28l-23 -171l-4 -2q-58 27 -135 29q-80 3 -80 -30
q0 -10 13.5 -20t53.5 -33q4 -2 6.5 -3.5t5.5 -3.5q56 -32 89 -73t33 -107q0 -112 -76 -180.5t-197 -68.5z" />
    <glyph glyph-name="scaron" unicode="&#x161;" horiz-adv-x="494" 
d="M247 590l-103 163l72 61l101 -78l116 78l54 -61l-145 -163h-95zM198 -14q-106 0 -195 38l23 154l4 3q74 -57 180 -57q44 0 44 27q0 11 -16 20t-68 26q-121 39 -121 140q0 92 69.5 146t196.5 54q100 0 162 -27l-22 -159l-4 -2q-51 30 -148 30q-55 0 -55 -19q0 -9 9 -13.5
t55 -20.5q4 -2 7 -3l7.5 -2.5t8.5 -2.5q62 -20 89 -52.5t27 -82.5q0 -90 -68 -143.5t-185 -53.5z" />
    <glyph glyph-name="uni0162" unicode="&#x162;" horiz-adv-x="602" 
d="M649 663l-27 -184h-182l-68 -479h-60l-42 -39q5 0 15 -2q82 -10 82 -82q0 -126 -177 -126q-44 0 -66 6l10 74l3 1q20 -7 36 -7q53 0 53 39q0 25 -33 25q-7 0 -16 -0.5t-12 -0.5l-3 1l10 69l37 42h-45l71 479h-193l27 184h580z" />
    <glyph glyph-name="uni0163" unicode="&#x163;" horiz-adv-x="449" 
d="M303 361l-11 -76q-2 -15 -4 -31t-3 -24.5t-1 -14.5q0 -39 55 -39q25 0 58 11l2 -1l-23 -173q-36 -18 -93 -20l-35 -32q5 0 15 -2q82 -10 82 -82q0 -126 -177 -126q-44 0 -66 6l10 74l3 1q20 -7 36 -7q53 0 53 39q0 25 -33 25q-7 0 -16 -0.5t-12 -0.5l-3 1l10 69l38 43h6
q-123 30 -123 162q0 19 3 44l22 154h-73l24 161h72l17 120l211 39l1 -3l-22 -156h122l-20 -161h-125z" />
    <glyph glyph-name="Tcaron" unicode="&#x164;" horiz-adv-x="602" 
d="M407 703h-92l-120 147l69 74l114 -76l135 76l54 -72zM649 663l-27 -184h-182l-68 -479h-208l71 479h-193l27 184h580z" />
    <glyph glyph-name="tcaron" unicode="&#x165;" horiz-adv-x="449" 
d="M544 836l14 -16l-89 -248h-103l44 264h134zM348 678l-22 -156h122l-20 -161h-125l-11 -76q-2 -15 -4 -31t-3 -24.5t-1 -14.5q0 -39 55 -39q25 0 58 11l2 -1l-23 -173q-40 -20 -108 -20q-95 0 -146 43t-51 127q0 19 3 44l22 154h-73l24 161h72l17 120l211 39z" />
    <glyph glyph-name="Tbar" unicode="&#x166;" horiz-adv-x="609" 
d="M625 479h-182l-18 -126h70l-16 -120h-71l-33 -233h-208l34 233h-86l18 120h86l19 126h-193l27 184h580z" />
    <glyph glyph-name="tbar" unicode="&#x167;" horiz-adv-x="450" 
d="M430 361h-125l-5 -37h81l-16 -118h-78q5 -30 54 -30q25 0 58 11l2 -1l-23 -173q-40 -20 -108 -20q-95 0 -146 43t-51 127q0 17 3 43h-74l16 118h75l5 37h-73l24 161h72l17 120l211 39l1 -3l-22 -156h122z" />
    <glyph glyph-name="Utilde" unicode="&#x168;" horiz-adv-x="705" 
d="M328 706l-107 31q8 63 46.5 107t86.5 44q43 0 84.5 -14.5t59.5 -14.5q12 0 24 9t14 23l3 2l108 -30q-8 -65 -45.5 -108t-86.5 -43q-35 0 -81 14t-62 14t-27 -10t-14 -22zM312 -13q-128 0 -193.5 57t-65.5 168q0 35 4 63l55 388h205l-52 -362q-5 -30 -5 -68
q0 -34 20.5 -53t60.5 -19q57 0 80 33t33 107l52 362h199l-55 -388q-20 -135 -109 -211.5t-229 -76.5z" />
    <glyph glyph-name="utilde" unicode="&#x169;" horiz-adv-x="618" 
d="M280 595l-4 -3l-123 36q7 59 51.5 105t105.5 46q36 0 68.5 -15t53.5 -15q14 0 26 9.5t14 22.5l4 2l121 -32q-9 -69 -55 -111.5t-102 -42.5q-32 0 -67 16t-51 16q-35 0 -42 -34zM396 522h206l-75 -522h-168l-9 75q-63 -88 -179 -88q-63 0 -101.5 35.5t-38.5 93.5
q0 27 2 51l52 355h206l-42 -289q-3 -21 -3 -31q-2 -40 40 -40q40 0 62 33z" />
    <glyph glyph-name="Umacron" unicode="&#x16a;" horiz-adv-x="705" 
d="M249 733l16 117h344l-14 -117h-346zM312 -13q-128 0 -193.5 57t-65.5 168q0 35 4 63l55 388h205l-52 -362q-5 -30 -5 -68q0 -34 20.5 -53t60.5 -19q57 0 80 33t33 107l52 362h199l-55 -388q-20 -135 -109 -211.5t-229 -76.5z" />
    <glyph glyph-name="umacron" unicode="&#x16b;" horiz-adv-x="618" 
d="M536 725l-18 -116h-313l17 116h314zM396 522h206l-75 -522h-168l-9 75q-63 -88 -179 -88q-63 0 -101.5 35.5t-38.5 93.5q0 27 2 51l52 355h206l-42 -289q-3 -21 -3 -31q-2 -40 40 -40q40 0 62 33z" />
    <glyph glyph-name="Uring" unicode="&#x16e;" horiz-adv-x="705" 
d="M426 690q-58 0 -92.5 32t-34.5 82q0 62 41 100.5t104 38.5q59 0 93.5 -31.5t34.5 -82.5q0 -62 -41.5 -100.5t-104.5 -38.5zM433 774q20 0 33 13t13 37q0 16 -11 26t-27 10q-20 0 -33 -13t-13 -36q0 -16 10.5 -26.5t27.5 -10.5zM312 -13q-128 0 -193.5 57t-65.5 168
q0 35 4 63l55 388h205l-52 -362q-5 -30 -5 -68q0 -34 20.5 -53t60.5 -19q57 0 80 33t33 107l52 362h199l-55 -388q-20 -135 -109 -211.5t-229 -76.5z" />
    <glyph glyph-name="uring" unicode="&#x16f;" horiz-adv-x="618" 
d="M365 554q-59 0 -92.5 34.5t-33.5 91.5q0 66 43 108t106 42q60 0 94 -34.5t34 -91.5q0 -67 -43 -108.5t-108 -41.5zM384 737q-21 0 -35.5 -13.5t-14.5 -37.5q0 -16 11 -27t28 -11q21 0 35.5 13.5t14.5 37.5q0 16 -11 27t-28 11zM396 522h206l-75 -522h-168l-9 75
q-63 -88 -179 -88q-63 0 -101.5 35.5t-38.5 93.5q0 27 2 51l52 355h206l-42 -289q-3 -21 -3 -31q-2 -40 40 -40q40 0 62 33z" />
    <glyph glyph-name="Uhungarumlaut" unicode="&#x170;" horiz-adv-x="705" 
d="M318 698l-79 34l83 208l127 -36v-27zM543 698l-79 34l83 208l128 -36l1 -27zM312 -13q-128 0 -193.5 57t-65.5 168q0 35 4 63l55 388h205l-52 -362q-5 -30 -5 -68q0 -34 20.5 -53t60.5 -19q57 0 80 33t33 107l52 362h199l-55 -388q-20 -135 -109 -211.5t-229 -76.5z" />
    <glyph glyph-name="uhungarumlaut" unicode="&#x171;" horiz-adv-x="618" 
d="M404 742l-156 -182l-85 49l104 206l138 -46zM476 815l138 -46l-1 -27l-157 -182l-84 49zM348 195l48 327h206l-75 -522h-168l-9 75q-63 -88 -179 -88q-63 0 -101.5 35.5t-38.5 93.5q0 27 2 51l52 355h206l-42 -289q-3 -21 -3 -31q-2 -40 40 -40q40 0 62 33z" />
    <glyph glyph-name="Uogonek" unicode="&#x172;" horiz-adv-x="705" 
d="M506 663h199l-55 -388q-15 -104 -72.5 -174t-149.5 -98q-82 -47 -82 -103q0 -40 35 -40q17 0 29 4l5 -5l-12 -91q-35 -8 -74 -8q-57 0 -93.5 23t-36.5 68q0 74 89 137q-235 11 -235 224q0 35 4 63l55 388h205l-52 -362q-5 -30 -5 -68q0 -34 20.5 -53t60.5 -19q57 0 80 33
t33 107z" />
    <glyph glyph-name="uogonek" unicode="&#x173;" horiz-adv-x="618" 
d="M525 0q-95 -50 -95 -110q0 -40 35 -40q17 0 29 4l5 -5l-12 -91q-35 -8 -74 -8q-57 0 -93.5 23t-36.5 68q0 86 124 159h-48l-9 75q-63 -88 -179 -88q-63 0 -101.5 35.5t-38.5 93.5q0 27 2 51l52 355h206l-42 -289q-3 -21 -3 -31q-2 -40 40 -40q40 0 62 33l48 327h206
l-75 -522h-2z" />
    <glyph glyph-name="Wcircumflex" unicode="&#x174;" horiz-adv-x="940" 
d="M549 793l-134 -77l-54 72l159 149h91l122 -147l-70 -74zM999 663l2 -4l-295 -657h-156l-57 306l-4 46l-20 -46l-141 -306h-162l-121 657l2 4h218l27 -317l3 -61l23 61l137 310h153l49 -288l7 -74l25 74l114 295h196z" />
    <glyph glyph-name="wcircumflex" unicode="&#x175;" horiz-adv-x="795" 
d="M454 669l-118 -78l-57 62l143 162h94l107 -159l-74 -65zM831 522l2 -5l-237 -517h-145l-40 274l-2 33l-10 -33l-122 -274h-147l-98 517l1 5h207l17 -224v-39l10 38l90 225h165l27 -223l3 -34l9 34l78 223h192z" />
    <glyph glyph-name="Ycircumflex" unicode="&#x176;" horiz-adv-x="622" 
d="M256 703l-54 72l159 149h91l122 -147l-70 -74l-114 77zM172 0l37 254l-164 405l2 4h222l69 -224l139 224h207l2 -4l-275 -421l-35 -238h-204z" />
    <glyph glyph-name="ycircumflex" unicode="&#x177;" horiz-adv-x="541" 
d="M330 654l-118 -78l-57 62l143 162h94l107 -159l-74 -65zM582 517l-251 -487q-59 -116 -115 -159t-156 -43q-45 0 -73 11l23 165l4 2q15 -5 37 -5q26 0 43.5 3t37 16.5t30.5 37.5l-130 459l2 5h219l35 -211l84 211h208z" />
    <glyph glyph-name="Ydieresis" unicode="&#x178;" horiz-adv-x="622" 
d="M255 711q-40 0 -65.5 26t-25.5 65q0 46 31 75.5t73 29.5q40 0 66 -26t26 -66q0 -46 -31 -75t-74 -29zM518 711q-40 0 -65.5 26t-25.5 65q0 46 31 75.5t73 29.5q40 0 66 -26t26 -66q0 -46 -31.5 -75t-73.5 -29zM172 0l37 254l-164 405l2 4h222l69 -224l139 224h207l2 -4
l-275 -421l-35 -238h-204z" />
    <glyph glyph-name="Zacute" unicode="&#x179;" horiz-adv-x="606" 
d="M254 695l-33 96l255 142l61 -146l-15 -19zM18 0l-7 70l307 426h-250l21 167h514l4 -69l-315 -426h267l-23 -168h-518z" />
    <glyph glyph-name="zacute" unicode="&#x17a;" horiz-adv-x="524" 
d="M483 666l-273 -109l-55 109l230 168l106 -146zM502 412l-224 -254h211l-24 -158h-442l-8 103l216 254h-182l20 165h426z" />
    <glyph glyph-name="Zdotaccent" unicode="&#x17b;" horiz-adv-x="606" 
d="M363 693q-48 0 -79.5 31.5t-31.5 78.5q0 55 37.5 90.5t89.5 35.5q48 0 79 -31.5t31 -78.5q0 -55 -37.5 -90.5t-88.5 -35.5zM18 0l-7 70l307 426h-250l21 167h514l4 -69l-315 -426h267l-23 -168h-518z" />
    <glyph glyph-name="zdotaccent" unicode="&#x17c;" horiz-adv-x="524" 
d="M311 570q-48 0 -79.5 31.5t-31.5 78.5q0 55 37.5 90.5t89.5 35.5q48 0 79 -31.5t31 -78.5q0 -55 -37.5 -90.5t-88.5 -35.5zM502 412l-224 -254h211l-24 -158h-442l-8 103l216 254h-182l20 165h426z" />
    <glyph glyph-name="Zcaron" unicode="&#x17d;" horiz-adv-x="606" 
d="M313 702l-120 147l69 74l114 -76l135 76l54 -72l-160 -149h-92zM18 0l-7 70l307 426h-250l21 167h514l4 -69l-315 -426h267l-23 -168h-518z" />
    <glyph glyph-name="zcaron" unicode="&#x17e;" horiz-adv-x="524" 
d="M353 576h-95l-103 163l72 61l101 -78l116 78l54 -61zM502 412l-224 -254h211l-24 -158h-442l-8 103l216 254h-182l20 165h426z" />
    <glyph glyph-name="uni01EA" unicode="&#x1ea;" horiz-adv-x="751" 
d="M441 -5q-69 -43 -69 -95q0 -40 35 -40q17 0 29 4l5 -5l-12 -91q-35 -8 -74 -8q-57 0 -93.5 23t-36.5 68q0 76 93 139q-121 14 -203 93t-82 216q0 166 104 273t270 107q64 0 121.5 -19t104.5 -56.5t75 -99t28 -139.5q0 -143 -81 -244t-214 -126zM250 307q0 -63 31.5 -98
t89.5 -35q68 0 108 48t40 135q0 65 -31 101t-90 36q-67 0 -107.5 -49t-40.5 -138z" />
    <glyph glyph-name="uni01EB" unicode="&#x1eb;" horiz-adv-x="621" 
d="M595 288q0 -97 -46.5 -170t-129.5 -107h3q-97 -50 -97 -111q0 -40 35 -40q17 0 29 4l5 -5l-12 -91q-35 -8 -74 -8q-57 0 -93.5 23t-36.5 68q0 73 89 137q-106 6 -173.5 66.5t-67.5 179.5q0 132 84.5 217t223.5 85q112 0 186.5 -61t74.5 -187zM238 239q0 -79 65 -79
q40 0 60.5 37t20.5 86q0 78 -64 78q-43 0 -62.5 -35.5t-19.5 -86.5z" />
    <glyph glyph-name="AEacute" unicode="&#x1fc;" horiz-adv-x="876" 
d="M699 769l-268 -73l-33 96l255 142l61 -146zM859 497h-214l-10 -69h193l-22 -163h-195l-15 -99h220l-23 -166h-428l16 108h-162l-67 -108h-207l455 663h483zM309 252h93l27 184l-110 -168z" />
    <glyph glyph-name="aeacute" unicode="&#x1fd;" horiz-adv-x="916" 
d="M668 666l-273 -109l-55 109l230 168l106 -146zM879 215l-1 -10l-305 -2q15 -57 101 -57q73 0 162 31l4 -2l-22 -151q-77 -38 -198 -38q-148 0 -216 92q-59 -92 -185 -92q-96 0 -150.5 59.5t-54.5 149.5q0 162 87 252t212 90q103 0 170 -55q80 55 185 55q102 0 164 -52
t62 -155q0 -54 -15 -115zM645 374q-51 0 -70 -67l122 -1v10q0 58 -52 58zM282 172q31 0 52 24.5t30 90.5v-1q4 25 14 56q-27 21 -61 21q-39 0 -63 -44t-24 -87q0 -28 13.5 -44t38.5 -16z" />
    <glyph glyph-name="Oslashacute" unicode="&#x1fe;" horiz-adv-x="751" 
d="M595 769l-268 -73l-33 96l255 142l61 -146zM637 600q99 -86 99 -235q0 -165 -104.5 -271t-269.5 -106q-83 0 -156 32l-53 -71h-109v16l80 109q-91 84 -91 225q0 166 104 273t270 107q73 0 142 -26l46 63h119v-13zM250 307q0 -31 7 -52l173 236q-15 3 -32 3
q-67 0 -107.5 -49t-40.5 -138zM371 174q68 0 108 48t40 135q0 39 -12 68l-182 -244q20 -7 46 -7z" />
    <glyph glyph-name="oslashacute" unicode="&#x1ff;" horiz-adv-x="621" 
d="M493 666l-273 -109l-55 109l230 168l106 -146zM522 474q73 -66 73 -186q0 -132 -84 -216.5t-222 -84.5q-47 0 -91 11l-39 -55h-110v16l57 85q-80 64 -80 190q0 132 84.5 217t223.5 85q50 0 94 -12l36 54h120v-13zM303 160q40 0 60.5 37t20.5 86q0 78 -64 78
q-43 0 -62.5 -35.5t-19.5 -86.5q0 -79 65 -79z" />
    <glyph glyph-name="Scommaaccent" unicode="&#x218;" horiz-adv-x="514" 
d="M204 -11q-109 0 -197 44l29 182l5 1q71 -57 164 -57q63 0 63 39q0 18 -15.5 33t-58.5 40q-59 33 -92 74.5t-33 104.5q0 114 81 172t197 58q103 0 171 -28l-23 -171l-4 -2q-58 27 -135 29q-80 3 -80 -30q0 -10 13.5 -20t53.5 -33q4 -2 6.5 -3.5t5.5 -3.5q56 -32 89 -73
t33 -107q0 -112 -76 -180.5t-197 -68.5zM86 -264q30 101 36 141q2 12 4 72l150 12l10 -22q-15 -109 -91 -203h-109z" />
    <glyph glyph-name="scommaaccent" unicode="&#x219;" horiz-adv-x="494" 
d="M198 -14q-106 0 -195 38l23 154l4 3q74 -57 180 -57q44 0 44 27q0 11 -16 20t-68 26q-121 39 -121 140q0 92 69.5 146t196.5 54q100 0 162 -27l-22 -159l-4 -2q-51 30 -148 30q-55 0 -55 -19q0 -9 9 -13.5t55 -20.5q4 -2 7 -3l7.5 -2.5t8.5 -2.5q62 -20 89 -52.5
t27 -82.5q0 -90 -68 -143.5t-185 -53.5zM83 -264q30 101 36 141q2 12 4 72l150 12l10 -22q-15 -109 -91 -203h-109z" />
    <glyph glyph-name="uni021A" unicode="&#x21a;" horiz-adv-x="602" 
d="M649 663l-27 -184h-182l-68 -479h-208l71 479h-193l27 184h580zM173 -51l150 12l10 -22q-15 -109 -91 -203h-109q30 101 36 141q2 12 4 72z" />
    <glyph glyph-name="uni021B" unicode="&#x21b;" horiz-adv-x="449" 
d="M303 361l-11 -76q-2 -15 -4 -31t-3 -24.5t-1 -14.5q0 -39 55 -39q25 0 58 11l2 -1l-23 -173q-40 -20 -108 -20q-95 0 -146 43t-51 127q0 19 3 44l22 154h-73l24 161h72l17 120l211 39l1 -3l-22 -156h122l-20 -161h-125zM151 -51l150 12l10 -22q-15 -109 -91 -203h-109
q30 101 36 141q2 12 4 72z" />
    <glyph glyph-name="uni0237" unicode="&#x237;" horiz-adv-x="330" 
d="M-15 -172q-38 0 -87 7l25 177l4 3q16 -5 37 -5q70 0 82 83l62 429h205l-67 -478q-16 -110 -85.5 -163t-175.5 -53z" />
    <glyph glyph-name="circumflex" unicode="&#x2c6;" horiz-adv-x="445" 
d="M161 576l-57 62l143 162h94l107 -159l-74 -65l-95 78z" />
    <glyph glyph-name="caron" unicode="&#x2c7;" horiz-adv-x="445" 
d="M220 576l-103 163l72 61l101 -78l116 78l54 -61l-145 -163h-95z" />
    <glyph glyph-name="breve" unicode="&#x2d8;" horiz-adv-x="397" 
d="M245 579q-75 0 -119.5 48t-31.5 130l116 13l6 -4q-2 -25 10.5 -42t38.5 -17q45 0 65 59l4 3l107 -12q-13 -85 -64 -131.5t-132 -46.5z" />
    <glyph glyph-name="dotaccent" unicode="&#x2d9;" horiz-adv-x="316" 
d="M209 570q-48 0 -79.5 31.5t-31.5 78.5q0 55 37.5 90.5t89.5 35.5q48 0 79 -31.5t31 -78.5q0 -55 -37.5 -90.5t-88.5 -35.5z" />
    <glyph glyph-name="ring" unicode="&#x2da;" horiz-adv-x="317" 
d="M204 554q-59 0 -92.5 34.5t-33.5 91.5q0 66 43 108t106 42q60 0 94 -34.5t34 -91.5q0 -67 -43 -108.5t-108 -41.5zM212 648q21 0 35.5 13.5t14.5 37.5q0 16 -11 27t-28 11q-21 0 -35.5 -13.5t-14.5 -37.5q0 -16 11 -27t28 -11z" />
    <glyph glyph-name="ogonek" unicode="&#x2db;" horiz-adv-x="238" 
d="M98 -240q-57 0 -93.5 23t-36.5 68q0 87 129 162l115 -2q-97 -50 -97 -111q0 -40 35 -40q17 0 29 4l5 -5l-12 -91q-35 -8 -74 -8z" />
    <glyph glyph-name="tilde" unicode="&#x2dc;" horiz-adv-x="439" 
d="M179 592l-123 36q7 59 51.5 105t105.5 46q36 0 68.5 -15t53.5 -15q15 0 26.5 9.5t13.5 22.5l4 2l121 -32q-9 -69 -55 -111.5t-102 -42.5q-32 0 -67 16t-51 16q-35 0 -42 -34z" />
    <glyph glyph-name="hungarumlaut" unicode="&#x2dd;" horiz-adv-x="471" 
d="M145 560l-85 49l104 206l138 -46l-1 -27zM353 560l-84 49l104 206l138 -46l-1 -27z" />
    <glyph glyph-name="gravecomb" unicode="&#x300;" 
d="M17 561l-275 100l-10 22l102 149l235 -161z" />
    <glyph glyph-name="acutecomb" unicode="&#x301;" 
d="M-195 557l-55 109l230 168l106 -146l-8 -22z" />
    <glyph glyph-name="uni0302" unicode="&#x302;" 
d="M-283 576l-57 62l143 162h94l107 -159l-74 -65l-95 78z" />
    <glyph glyph-name="tildecomb" unicode="&#x303;" 
d="M-257 592l-123 36q7 59 51.5 105t105.5 46q36 0 68.5 -15t53.5 -15q15 0 26.5 9.5t13.5 22.5l4 2l121 -32q-9 -69 -55 -111.5t-102 -42.5q-32 0 -67 16t-51 16q-35 0 -42 -34z" />
    <glyph glyph-name="uni0304" unicode="&#x304;" 
d="M-289 609l17 116h314l-18 -116h-313z" />
    <glyph glyph-name="uni0306" unicode="&#x306;" 
d="M-151 579q-75 0 -119.5 48t-31.5 130l116 13l6 -4q-2 -25 10.5 -42t38.5 -17q45 0 65 59l4 3l107 -12q-13 -85 -64 -131.5t-132 -46.5z" />
    <glyph glyph-name="uni0307" unicode="&#x307;" 
d="M-107 570q-48 0 -79.5 31.5t-31.5 78.5q0 55 37.5 90.5t89.5 35.5q48 0 79 -31.5t31 -78.5q0 -55 -37.5 -90.5t-88.5 -35.5z" />
    <glyph glyph-name="uni0308" unicode="&#x308;" 
d="M-314 576q-46 0 -75.5 30t-29.5 74q0 53 35.5 86t83.5 33q46 0 75.5 -29t29.5 -75q0 -52 -35.5 -85.5t-83.5 -33.5zM-69 576q-45 0 -75 30t-30 74q0 53 35 86t84 33q46 0 75.5 -29t29.5 -75q0 -52 -35.5 -85.5t-83.5 -33.5z" />
    <glyph glyph-name="uni030A" unicode="&#x30a;" 
d="M-104 554q-59 0 -92.5 34.5t-33.5 91.5q0 66 43 108t106 42q60 0 94 -34.5t34 -91.5q0 -67 -43 -108.5t-108 -41.5zM-96 648q21 0 35.5 13.5t14.5 37.5q0 16 -11 27t-28 11q-21 0 -35.5 -13.5t-14.5 -37.5q0 -16 11 -27t28 -11z" />
    <glyph glyph-name="uni030B" unicode="&#x30b;" 
d="M-327 560l-85 49l104 206l138 -46l-1 -27zM-119 560l-84 49l104 206l138 -46l-1 -27z" />
    <glyph glyph-name="uni030C" unicode="&#x30c;" 
d="M-223 576l-103 163l72 61l101 -78l116 78l54 -61l-145 -163h-95z" />
    <glyph glyph-name="uni0326" unicode="&#x326;" 
d="M-275 -264q30 101 36 141q2 12 4 72l150 12l10 -22q-15 -109 -91 -203h-109z" />
    <glyph glyph-name="uni0327" unicode="&#x327;" 
d="M-221 -249q-44 0 -66 6l10 74l3 1q20 -7 36 -7q53 0 53 39q0 25 -33 25q-7 0 -16 -0.5t-12 -0.5l-3 1l10 69l38 43h103l-43 -40q5 0 15 -2q82 -10 82 -82q0 -126 -177 -126z" />
    <glyph glyph-name="uni0328" unicode="&#x328;" 
d="M-168 -240q-57 0 -93.5 23t-36.5 68q0 87 129 162l115 -2q-97 -50 -97 -111q0 -40 35 -40q17 0 29 4l5 -5l-12 -91q-35 -8 -74 -8z" />
    <glyph glyph-name="uni0335" unicode="&#x335;" 
d="M-418 112l16 118h363l-16 -118h-363z" />
    <glyph glyph-name="uni0336" unicode="&#x336;" 
d="M-694 348l16 120h723l-16 -120h-723z" />
    <glyph glyph-name="uni0337" unicode="&#x337;" 
d="M-362 198l19 130l365 195l7 -4l-19 -133l-365 -193z" />
    <glyph glyph-name="uni0338" unicode="&#x338;" 
d="M-566 -40v16l415 619h120v-14l-425 -621h-110z" />
    <glyph glyph-name="Wgrave" unicode="&#x1e80;" horiz-adv-x="940" 
d="M642 704l-265 82l-15 19l72 142l245 -149zM999 663l2 -4l-295 -657h-156l-57 306l-4 46l-20 -46l-141 -306h-162l-121 657l2 4h218l27 -317l3 -61l23 61l137 310h153l49 -288l7 -74l25 74l114 295h196z" />
    <glyph glyph-name="wgrave" unicode="&#x1e81;" horiz-adv-x="795" 
d="M547 576l-275 100l-10 22l102 149l235 -161zM831 522l2 -5l-237 -517h-145l-40 274l-2 33l-10 -33l-122 -274h-147l-98 517l1 5h207l17 -224v-39l10 38l90 225h165l27 -223l3 -34l9 34l78 223h192z" />
    <glyph glyph-name="Wacute" unicode="&#x1e82;" horiz-adv-x="940" 
d="M697 782l-268 -73l-33 96l255 142l61 -146zM999 663l2 -4l-295 -657h-156l-57 306l-4 46l-20 -46l-141 -306h-162l-121 657l2 4h218l27 -317l3 -61l23 61l137 310h153l49 -288l7 -74l25 74l114 295h196z" />
    <glyph glyph-name="wacute" unicode="&#x1e83;" horiz-adv-x="795" 
d="M624 681l-273 -109l-55 109l230 168l106 -146zM831 522l2 -5l-237 -517h-145l-40 274l-2 33l-10 -33l-122 -274h-147l-98 517l1 5h207l17 -224v-39l10 38l90 225h165l27 -223l3 -34l9 34l78 223h192z" />
    <glyph glyph-name="Wdieresis" unicode="&#x1e84;" horiz-adv-x="940" 
d="M414 724q-40 0 -65.5 26t-25.5 65q0 46 31 75.5t73 29.5q40 0 66 -26t26 -66q0 -46 -31 -75t-74 -29zM677 724q-40 0 -65.5 26t-25.5 65q0 46 31 75.5t73 29.5q40 0 66 -26t26 -66q0 -46 -31.5 -75t-73.5 -29zM999 663l2 -4l-295 -657h-156l-57 306l-4 46l-20 -46
l-141 -306h-162l-121 657l2 4h218l27 -317l3 -61l23 61l137 310h153l49 -288l7 -74l25 74l114 295h196z" />
    <glyph glyph-name="wdieresis" unicode="&#x1e85;" horiz-adv-x="795" 
d="M327 591q-45 0 -75 29.5t-30 74.5q0 53 35.5 86t83.5 33q46 0 75.5 -29t29.5 -75q0 -52 -35.5 -85.5t-83.5 -33.5zM572 591q-46 0 -75.5 29.5t-29.5 74.5q0 53 35 86t84 33q46 0 75.5 -29t29.5 -75q0 -52 -35.5 -85.5t-83.5 -33.5zM831 522l2 -5l-237 -517h-145l-40 274
l-2 33l-10 -33l-122 -274h-147l-98 517l1 5h207l17 -224v-39l10 38l90 225h165l27 -223l3 -34l9 34l78 223h192z" />
    <glyph glyph-name="Ygrave" unicode="&#x1ef2;" horiz-adv-x="622" 
d="M483 691l-265 82l-15 19l72 142l245 -149zM172 0l37 254l-164 405l2 4h222l69 -224l139 224h207l2 -4l-275 -421l-35 -238h-204z" />
    <glyph glyph-name="ygrave" unicode="&#x1ef3;" horiz-adv-x="541" 
d="M423 561l-275 100l-10 22l102 149l235 -161zM582 517l-251 -487q-59 -116 -115 -159t-156 -43q-45 0 -73 11l23 165l4 2q15 -5 37 -5q26 0 43.5 3t37 16.5t30.5 37.5l-130 459l2 5h219l35 -211l84 211h208z" />
    <glyph glyph-name="uni1EF8" unicode="&#x1ef8;" horiz-adv-x="622" 
d="M288 706l-107 31q8 63 46.5 107t86.5 44q43 0 84.5 -14.5t59.5 -14.5q12 0 24 9t14 23l3 2l108 -30q-8 -65 -45.5 -108t-86.5 -43q-34 0 -80.5 14t-62.5 14t-27 -10t-14 -22zM172 0l37 254l-164 405l2 4h222l69 -224l139 224h207l2 -4l-275 -421l-35 -238h-204z" />
    <glyph glyph-name="uni1EF9" unicode="&#x1ef9;" horiz-adv-x="541" 
d="M243 595l-4 -3l-123 36q7 59 51.5 105t105.5 46q36 0 68.5 -15t53.5 -15q15 0 26.5 9.5t13.5 22.5l4 2l121 -32q-9 -69 -55 -111.5t-102 -42.5q-32 0 -67 16t-51 16q-35 0 -42 -34zM582 517l-251 -487q-59 -116 -115 -159t-156 -43q-45 0 -73 11l23 165l4 2q15 -5 37 -5
q26 0 43.5 3t37 16.5t30.5 37.5l-130 459l2 5h219l35 -211l84 211h208z" />
    <glyph glyph-name="endash" unicode="&#x2013;" horiz-adv-x="558" 
d="M43 198l23 167h454l-24 -167h-453z" />
    <glyph glyph-name="emdash" unicode="&#x2014;" horiz-adv-x="875" 
d="M43 198l23 167h770l-21 -167h-772z" />
    <glyph glyph-name="quoteleft" unicode="&#x2018;" horiz-adv-x="259" 
d="M281 716q-35 -102 -40 -146q-7 -42 -16 -146l-147 -26l-21 29q20 131 123 289h101z" />
    <glyph glyph-name="quoteright" unicode="&#x2019;" horiz-adv-x="259" 
d="M65 398q24 83 36 146q7 38 19 147l146 26l21 -29q-21 -138 -123 -290h-99z" />
    <glyph glyph-name="quotesinglbase" unicode="&#x201a;" horiz-adv-x="266" 
d="M-30 -196q34 120 38 148q10 54 18 146l146 26l22 -29q-19 -129 -124 -291h-100z" />
    <glyph glyph-name="quotedblleft" unicode="&#x201c;" horiz-adv-x="460" 
d="M281 716q-35 -102 -40 -146q-7 -42 -16 -146l-147 -26l-21 29q20 131 123 289h101zM481 716q-29 -90 -38 -146q-12 -69 -15 -146l-149 -26l-21 29q20 131 123 289h100z" />
    <glyph glyph-name="quotedblright" unicode="&#x201d;" horiz-adv-x="455" 
d="M65 398q24 83 36 146q7 38 19 147l146 26l21 -29q-21 -138 -123 -290h-99zM265 398q27 95 36 146q10 61 18 147l147 26l21 -29q-12 -72 -47.5 -150.5t-76.5 -139.5h-98z" />
    <glyph glyph-name="quotedblbase" unicode="&#x201e;" horiz-adv-x="462" 
d="M-31 -196q32 115 38 148q12 77 17 146l147 26l22 -29q-19 -129 -124 -291h-100zM168 -196q29 99 38 148q12 80 17 146l148 26l21 -29q-20 -132 -125 -291h-99z" />
    <glyph glyph-name="dagger" unicode="&#x2020;" horiz-adv-x="637" 
d="M424 518l204 32l-26 -191l-175 21l-94 -505h-140l48 508l-175 -24l26 191l191 -29l6 213h191z" />
    <glyph glyph-name="daggerdbl" unicode="&#x2021;" horiz-adv-x="635" 
d="M168 -121l58 202l-208 -28l26 191l174 -27l36 91l-12 87l-174 -25l25 191l193 -29l4 201h191l-53 -204l201 32l-26 -191l-174 27l-35 -89l12 -89l174 25l-26 -191l-195 25l-1 -199h-190z" />
    <glyph glyph-name="bullet" unicode="&#x2022;" horiz-adv-x="421" 
d="M199 81q-68 0 -110.5 40.5t-42.5 102.5q0 79 47 129t119 50q73 0 113.5 -41.5t40.5 -103.5q0 -76 -46 -126.5t-121 -50.5z" />
    <glyph glyph-name="ellipsis" unicode="&#x2026;" horiz-adv-x="769" 
d="M104 -17q-46 0 -70 24.5t-24 63.5q0 44 29 76.5t77 32.5q46 0 70.5 -24t24.5 -63q0 -44 -29.5 -77t-77.5 -33zM350 -17q-46 0 -70 24.5t-24 63.5q0 44 29 76.5t77 32.5q46 0 70.5 -24t24.5 -63q0 -44 -29.5 -77t-77.5 -33zM594 -17q-46 0 -70 24.5t-24 63.5q0 44 29 76.5
t77 32.5q46 0 70.5 -24t24.5 -63q0 -44 -29.5 -77t-77.5 -33z" />
    <glyph glyph-name="perthousand" unicode="&#x2030;" horiz-adv-x="1211" 
d="M227 305q-74 0 -123.5 40.5t-49.5 122.5q0 91 56 146.5t143 55.5q74 0 123.5 -41t49.5 -118q0 -95 -55.5 -150.5t-143.5 -55.5zM83 13l543 642h146l-542 -642h-147zM239 423q23 0 35 21t12 55q0 26 -11 40.5t-30 14.5q-25 0 -38 -22t-13 -57q0 -52 45 -52zM599 -6
q-74 0 -123.5 40.5t-49.5 121.5q0 91 56 147t143 56q74 0 123.5 -41.5t49.5 -118.5q0 -95 -55.5 -150t-143.5 -55zM975 -6q-74 0 -123 40.5t-49 121.5q0 91 55.5 147t142.5 56q74 0 124 -41.5t50 -118.5q0 -95 -56 -150t-144 -55zM611 111q47 0 47 77q0 54 -41 54
q-25 0 -37.5 -22t-12.5 -57q0 -52 44 -52zM988 111q23 0 35 21.5t12 55.5q0 26 -11.5 40t-30.5 14q-24 0 -37 -22t-13 -57q0 -52 45 -52z" />
    <glyph glyph-name="guilsinglleft" unicode="&#x2039;" horiz-adv-x="343" 
d="M180 92l-69 210l124 197h188l-3 -15l-124 -194l68 -187l-2 -11h-182z" />
    <glyph glyph-name="guilsinglright" unicode="&#x203a;" horiz-adv-x="343" 
d="M245 499l69 -210l-124 -197h-188l3 15l124 194l-68 187l2 11h182z" />
    <glyph glyph-name="fraction" unicode="&#x2044;" horiz-adv-x="261" 
d="M-172 -11l472 681h146l-474 -681h-144z" />
    <glyph glyph-name="Euro" unicode="&#x20ac;" horiz-adv-x="618" 
d="M544 687q72 0 128 -12l-25 -188l-3 -2q-46 16 -94 16q-98 0 -147 -58h123l-61 -204h-89q32 -66 124 -66q44 0 100 24l4 -4l-26 -183q-48 -22 -122 -22q-128 0 -211.5 66t-97.5 185h-118l61 204h82q43 114 143 179t229 65z" />
    <glyph glyph-name="trademark" unicode="&#x2122;" horiz-adv-x="876" 
d="M412 525h-92l-26 -190h-157l27 190h-93l21 147h340zM703 672h154l-20 -337h-146l10 97h-1l-45 -98h-96l-15 99h-2l-19 -98h-147l77 337h161l25 -138z" />
    <glyph glyph-name="minus" unicode="&#x2212;" horiz-adv-x="580" 
d="M47 230l18 132h476l-19 -132h-475z" />
    <glyph glyph-name="approxequal" unicode="&#x2248;" horiz-adv-x="536" 
d="M169 315l-108 15q9 68 53.5 111.5t105.5 43.5q38 0 81.5 -16.5t68.5 -16.5q32 0 41 35l5 3l100 -21q-10 -66 -53 -107t-105 -41q-28 0 -74 15.5t-67 15.5q-17 0 -29 -10t-14 -24zM138 93l-109 16q11 69 55 113t106 44q37 0 80 -16.5t67 -16.5q34 0 42 35l6 3l99 -21
q-10 -66 -53 -108.5t-104 -42.5q-29 0 -75 16.5t-65 16.5q-38 0 -45 -35z" />
    <glyph glyph-name="notequal" unicode="&#x2260;" horiz-adv-x="615" 
d="M573 346h-139l-65 -107h187l-17 -129h-247l-54 -90h-152l54 90h-109l17 129h169l63 107h-216l19 129h274l48 80h154l-48 -80h80z" />
    <glyph glyph-name="uniF8FF" unicode="&#xf8ff;" horiz-adv-x="1486" 
d="M729 517q-25 0 -43.5 17.5t-18.5 41.5q0 26 18 44t44 18q27 0 45 -18t18 -44q0 -25 -18 -42t-45 -17zM62 267q0 158 8 310h103q11 -209 11 -310h-122zM579 261q-85 0 -85 66q0 13 2 49t2 37h-22l-1 77l123 31l1 -17h181q11 -63 11 -237h-120q0 91 3 146h-63l4 -65
q6 -3 15 -3q13 0 18 4v-73q-14 -15 -69 -15zM296 262q-95 0 -95 114q0 63 34 98t103 35q127 0 127 -116v-126h-84l-8 61q-6 -33 -23.5 -49.5t-53.5 -16.5zM815 267q-4 158 8 237h83q6 -46 6 -75q1 10 4.5 20.5t11.5 25.5t25 24.5t41 9.5q44 0 60.5 -25t18.5 -80l4 -137h-117
q-1 27 0 57.5t1 32.5q0 18 -3 24.5t-12 6.5q-18 0 -18 -28q0 -7 1.5 -37t1.5 -56h-116zM1218 262q-125 0 -125 123q0 124 126 124q125 0 125 -124q0 -123 -126 -123zM334 342q26 0 26 29q0 26 -26 26q-22 0 -22 -26q0 -29 22 -29zM1217 342q24 0 24 29q0 26 -24 26
q-21 0 -21 -26q0 -29 21 -29zM361 -50q-64 0 -91 17v83q24 -16 72 -16q21 0 34.5 6t17 11.5t3.5 9.5q-17 -11 -50 -11q-93 0 -93 83v13h-56l3 -65q6 -4 16 -4q13 0 18 5v-72q-19 -15 -69 -15q-46 0 -64.5 17t-18.5 54q0 38 3 80h-20v79l120 28l-1 -17h183v-118
q0 -16 3 -21.5t12 -5.5q16 0 16 27v118h106q10 -52 10 -138q0 -80 -34 -114t-120 -34zM533 -44q0 168 8 280h81q7 -42 7 -76q17 81 82 81q38 0 60.5 -29.5t22.5 -84.5q0 -132 -141 -132q1 -15 1 -39h-121zM954 -5q-144 0 -144 121q0 58 33.5 91.5t93.5 33.5q57 0 88.5 -30
t31.5 -85q0 -22 -3 -35h-128q11 -18 51 -18q36 0 57 12l1 -74q-25 -16 -81 -16zM921 108h41q3 27 -17 27q-24 0 -24 -27zM647 71q5 0 13 2.5t16.5 11.5t8.5 23q0 23 -21 23q-22 0 -22 -31q0 -14 5 -29zM1086 -10q-25 0 -25 23t25 23q24 0 24 -23t-24 -23zM1086 -5
q18 0 18 18t-18 18q-19 0 -19 -18t19 -18zM1075 2v23h12q10 0 10 -7t-7 -7l6 -9h-6l-4 9h-5v-9h-6zM1081 15h7q4 0 4 3t-4 3h-7v-6z" />
    <glyph glyph-name="i.loclTRK" horiz-adv-x="311" 
d="M206 570q-48 0 -79.5 31.5t-31.5 78.5q0 55 37.5 90.5t89.5 35.5q48 0 79 -31.5t31 -78.5q0 -55 -37.5 -90.5t-88.5 -35.5zM14 0l74 522h206l-74 -522h-206z" />
    <glyph glyph-name="caroncomb.alt" 
d="M-167 458l44 264h134l14 -16l-89 -248h-103z" />
    <glyph glyph-name="uni0308.case" 
d="M-324 718q-40 0 -65.5 26t-25.5 65q0 46 31 75.5t73 29.5q40 0 66 -26t26 -66q0 -46 -31 -75t-74 -29zM-61 718q-40 0 -65.5 26t-25.5 65q0 46 31 75.5t73 29.5q40 0 66 -26t26 -66q0 -46 -31.5 -75t-73.5 -29z" />
    <glyph glyph-name="uni0307.case" 
d="M-61 701q-48 0 -79.5 31.5t-31.5 78.5q0 55 37.5 90.5t89.5 35.5q48 0 79 -31.5t31 -78.5q0 -55 -37.5 -90.5t-88.5 -35.5z" />
    <glyph glyph-name="gravecomb.case" 
d="M-10 698l-265 82l-15 19l72 142l245 -149z" />
    <glyph glyph-name="acutecomb.case" 
d="M-224 703l-33 96l255 142l61 -146l-15 -19z" />
    <glyph glyph-name="uni030B.case" 
d="M-293 705l-79 34l83 208l127 -36v-27zM-68 705l-79 34l83 208l128 -36l1 -27z" />
    <glyph glyph-name="uni0302.case" 
d="M-265 710l-54 72l159 149h91l122 -147l-70 -74l-114 77z" />
    <glyph glyph-name="uni030C.case" 
d="M-189 710l-120 147l69 74l114 -76l135 76l54 -72l-160 -149h-92z" />
    <glyph glyph-name="uni0306.case" 
d="M-125 722q-79 0 -128.5 49.5t-37.5 128.5l124 13q-4 -71 58 -71q27 0 46 20t25 51l111 -13q-10 -81 -64.5 -129.5t-133.5 -48.5z" />
    <glyph glyph-name="uni030A.case" 
d="M-92 697q-58 0 -92.5 32t-34.5 82q0 62 41 100.5t104 38.5q59 0 93.5 -31.5t34.5 -82.5q0 -62 -41.5 -100.5t-104.5 -38.5zM-85 781q20 0 33 13t13 37q0 16 -11 26t-27 10q-20 0 -33 -13t-13 -36q0 -16 10.5 -26.5t27.5 -10.5z" />
    <glyph glyph-name="tildecomb.case" 
d="M-251 713l-107 31q8 63 46.5 107t86.5 44q43 0 84.5 -14.5t59.5 -14.5q12 0 24 9t14 23l3 2l108 -30q-8 -65 -45.5 -108t-86.5 -43q-34 0 -80 14t-63 14q-16 0 -27 -10t-14 -22z" />
    <glyph glyph-name="uni0304.case" 
d="M-295 740l16 117h344l-14 -117h-346z" />
    <glyph glyph-name="uni0337.case" 
d="M-368 161l18 134l362 215h4l-19 -135l-360 -216z" />
    <glyph glyph-name="uni0338.case" 
d="M-702 -59v16l551 751h119v-13l-561 -754h-109z" />
    <glyph glyph-name="caron.alt" horiz-adv-x="226" 
d="M62 458l44 264h134l14 -16l-89 -248h-103z" />
    <glyph glyph-name="acute.case" horiz-adv-x="355" 
d="M131 703l-33 96l255 142l61 -146l-15 -19z" />
    <glyph glyph-name="breve.case" horiz-adv-x="396" 
d="M271 722q-79 0 -128.5 49.5t-37.5 128.5l124 13q-4 -71 58 -71q27 0 46 20t25 51l111 -13q-10 -81 -64.5 -129.5t-133.5 -48.5z" />
    <glyph glyph-name="caron.case" horiz-adv-x="409" 
d="M221 710l-120 147l69 74l114 -76l135 76l54 -72l-160 -149h-92z" />
    <glyph glyph-name="circumflex.case" horiz-adv-x="409" 
d="M146 710l-54 72l159 149h91l122 -147l-70 -74l-114 77z" />
    <glyph glyph-name="dieresis.case" horiz-adv-x="529" 
d="M205 718q-40 0 -65.5 26t-25.5 65q0 46 31 75.5t73 29.5q40 0 66 -26t26 -66q0 -46 -31 -75t-74 -29zM468 718q-40 0 -65.5 26t-25.5 65q0 46 31 75.5t73 29.5q40 0 66 -26t26 -66q0 -46 -31.5 -75t-73.5 -29z" />
    <glyph glyph-name="dotaccent.case" horiz-adv-x="253" 
d="M191 701q-48 0 -79.5 31.5t-31.5 78.5q0 55 37.5 90.5t89.5 35.5q48 0 79 -31.5t31 -78.5q0 -55 -37.5 -90.5t-88.5 -35.5z" />
    <glyph glyph-name="grave.case" horiz-adv-x="354" 
d="M345 698l-265 82l-15 19l72 142l245 -149z" />
    <glyph glyph-name="hungarumlaut.case" horiz-adv-x="520" 
d="M227 705l-79 34l83 208l127 -36v-27zM452 705l-79 34l83 208l128 -36l1 -27z" />
    <glyph glyph-name="macron.case" horiz-adv-x="394" 
d="M87 740l16 117h344l-14 -117h-346z" />
    <glyph glyph-name="ring.case" horiz-adv-x="323" 
d="M231 697q-58 0 -92.5 32t-34.5 82q0 62 41 100.5t104 38.5q59 0 93.5 -31.5t34.5 -82.5q0 -62 -41.5 -100.5t-104.5 -38.5zM238 781q20 0 33 13t13 37q0 16 -11 26t-27 10q-20 0 -33 -13t-13 -36q0 -16 10.5 -26.5t27.5 -10.5z" />
    <glyph glyph-name="tilde.case" horiz-adv-x="451" 
d="M198 713l-107 31q8 63 46.5 107t86.5 44q43 0 84.5 -14.5t59.5 -14.5q12 0 24 9t14 23l3 2l108 -30q-8 -65 -45.5 -108t-86.5 -43q-35 0 -81 14t-62 14t-27 -10t-14 -22z" />
    <glyph glyph-name="IJacute" horiz-adv-x="733" 
d="M119 702l-33 96l255 142l61 -146l-15 -19zM521 702l-33 96l255 142l61 -146l-15 -19zM24 0l89 663h207l-89 -663h-207zM372 -3q-33 0 -64 4l26 172l4 2q15 -3 28 -3q50 0 74.5 32.5t33.5 91.5l54 367h206l-51 -346q-23 -162 -100 -241t-211 -79z" />
    <glyph glyph-name="ijacute" horiz-adv-x="642" 
d="M115 557l-51 80l202 169l91 -118l-8 -22zM448 557l-51 80l202 169l91 -118l-8 -22zM14 0l74 522h206l-74 -522h-206zM297 -172q-36 0 -87 7l25 179l2 1q37 -5 40 -5q38 0 56.5 21.5t24.5 61.5l62 429h205l-67 -478q-16 -110 -85.5 -163t-175.5 -53z" />
    </font>
</defs>
</svg>
