<?xml version="1.0" standalone="no"?>
<!DOCTYPE svg PUBLIC "-//W3C//DTD SVG 1.1//EN" "http://www.w3.org/Graphics/SVG/1.1/DTD/svg11.dtd" >
<svg xmlns="http://www.w3.org/2000/svg" xmlns:xlink="http://www.w3.org/1999/xlink" version="1.1">
<metadata>
Created by FontForge 20170731 at Thu Mar  2 15:41:47 2017
 By Aleksey,,,
Copyright (c) 2017 by Alfonso Garci'a - Latinotype Team. All rights reserved.
</metadata>
<defs>
<font id="RawsonAlt-ExtraBold" horiz-adv-x="0" >
  <font-face 
    font-family="Rawson Alt ExtraBold"
    font-weight="700"
    font-stretch="normal"
    units-per-em="1100"
    panose-1="0 0 8 0 0 0 0 0 0 0"
    ascent="880"
    descent="-220"
    x-height="516"
    cap-height="663"
    bbox="-726 -250 1351 954"
    underline-thickness="50"
    underline-position="-200"
    unicode-range="U+0020-FB02"
  />
<missing-glyph horiz-adv-x="500" 
 />
    <glyph glyph-name="fi" unicode="fi" horiz-adv-x="655" 
d="M508 581q-39 0 -67.5 28t-28.5 68t28.5 68t67.5 28q40 0 68 -28t28 -68t-28 -68t-68 -28zM100 492q0 106 59 165.5t153 59.5q40 0 71 -8v-143l-2 -1q-18 7 -42 7q-75 0 -76 -80h91v-128h-91v-364h-163v364h-71v128h71zM426 0v516h164v-516h-164z" />
    <glyph glyph-name="fl" unicode="fl" horiz-adv-x="656" 
d="M100 492q0 106 59 165.5t153 59.5q40 0 71 -8v-143l-2 -1q-18 7 -42 7q-75 0 -76 -80h91v-127h-91v-365h-163v365h-71v127h71zM427 710h163v-710h-163v710z" />
    <glyph glyph-name=".notdef" horiz-adv-x="500" 
 />
    <glyph glyph-name=".null" 
 />
    <glyph glyph-name="nonmarkingreturn" horiz-adv-x="366" 
 />
    <glyph glyph-name="space" unicode=" " horiz-adv-x="234" 
 />
    <glyph glyph-name="exclam" unicode="!" horiz-adv-x="298" 
d="M81 232l-12 464h162l-12 -464h-138zM148 -13q-43 0 -65.5 24t-22.5 60q0 35 22.5 57.5t65.5 22.5q42 0 64.5 -22.5t22.5 -57.5q0 -36 -22.5 -60t-64.5 -24z" />
    <glyph glyph-name="quotedbl" unicode="&#x22;" horiz-adv-x="399" 
d="M66 403l-9 257h119l13 -13l-36 -244h-87zM234 403l-9 257h119l13 -13l-36 -244h-87z" />
    <glyph glyph-name="numbersign" unicode="#" horiz-adv-x="623" 
d="M573 347h-83l-17 -100h97v-107h-114l-18 -106h-107l18 106h-118l-18 -106h-107l18 106h-75v107h92l17 100h-106v107h123l18 106h107l-18 -106h118l18 106h107l-18 -106h66v-107zM366 247l17 100h-118l-17 -100h118z" />
    <glyph glyph-name="dollar" unicode="$" horiz-adv-x="510" 
d="M469 232q0 -65 -35.5 -106.5t-101.5 -56.5v-101h-152v95q-69 7 -133 34v131l2 1q86 -53 181 -53q94 0 94 42q0 22 -22 33.5t-98 33.5q-155 44 -155 159q0 63 39.5 105t110.5 58v103h152v-97q60 -5 100 -23v-133l-2 -1q-62 32 -153 32q-81 0 -81 -39q0 -17 19.5 -26.5
t84.5 -29.5q77 -25 113.5 -64t36.5 -97z" />
    <glyph glyph-name="percent" unicode="%" horiz-adv-x="832" 
d="M209 314q-79 0 -128 44t-49 129q0 84 50 130.5t128 46.5q80 0 129.5 -46t49.5 -131t-49.5 -129t-130.5 -44zM129 13l458 637h122l-458 -637h-122zM209 411q64 0 64 76q0 80 -64 80q-61 0 -61 -80q0 -76 61 -76zM619 -4q-79 0 -128 43.5t-49 127.5q0 85 49.5 131.5
t127.5 46.5q81 0 130.5 -46t49.5 -132q0 -84 -49.5 -127.5t-130.5 -43.5zM619 93q63 0 63 74q0 80 -63 80q-61 0 -61 -80q0 -74 61 -74z" />
    <glyph glyph-name="ampersand" unicode="&#x26;" horiz-adv-x="695" 
d="M696 0h-179l-45 48q-88 -66 -205 -66q-98 0 -164 48t-66 145q0 132 126 205q-50 65 -50 137q0 75 54.5 122t148.5 47q81 0 143 -28v-130l-3 -1q-59 26 -118 26q-71 0 -71 -44q0 -22 16 -44t84 -97l108 -121q13 32 21 73h-57v116h256v-116h-67q-16 -95 -64 -172zM291 119
q50 0 94 21l-130 138l-13 13q-51 -37 -51 -88q0 -39 26 -61.5t74 -22.5z" />
    <glyph glyph-name="quotesingle" unicode="'" horiz-adv-x="231" 
d="M66 403l-9 257h119l13 -13l-36 -244h-87z" />
    <glyph glyph-name="parenleft" unicode="(" horiz-adv-x="352" 
d="M265 -183q-38 17 -76 55.5t-73 96.5t-57 145t-22 186q0 184 72 312.5t156 166.5l62 -114q-54 -40 -93.5 -132t-39.5 -232q0 -142 39.5 -235.5t93.5 -133.5z" />
    <glyph glyph-name="parenright" unicode=")" horiz-adv-x="353" 
d="M88 789q38 -17 76 -55.5t73 -96.5t57 -145t22 -186q0 -184 -72 -312.5t-156 -166.5l-62 114q54 40 93.5 132t39.5 232q0 142 -39.5 235.5t-93.5 133.5z" />
    <glyph glyph-name="asterisk" unicode="*" horiz-adv-x="510" 
d="M237 563l-11 6l-78 138l4 12l98 26l16 -10l1 -156l-7 -10zM307 547l-13 2l-16 16l-1 12l82 138l12 2l71 -73l-2 -17zM208 521l-160 2l-7 10l25 97l18 8l134 -76l6 -11l-6 -23zM432 420l-135 76l-4 12l5 21l10 8l160 -2l8 -9l-27 -99zM146 343l-71 71l1 19l134 78l12 -1
l16 -16l2 -12l-81 -138zM266 313l-15 11l-2 155l8 9l21 6l12 -4l79 -140l-5 -11z" />
    <glyph glyph-name="plus" unicode="+" horiz-adv-x="543" 
d="M509 346v-108h-182v-186h-111v186h-182v108h183v186h110v-186h182z" />
    <glyph glyph-name="comma" unicode="," horiz-adv-x="254" 
d="M41 -148q20 94 20 171q0 47 -5 100l128 14l19 -23q0 -69 -19 -139.5t-51 -122.5h-92z" />
    <glyph glyph-name="hyphen" unicode="-" horiz-adv-x="425" 
d="M60 222v133h304v-133h-304z" />
    <glyph glyph-name="period" unicode="." horiz-adv-x="263" 
d="M131 -13q-41 0 -64 23.5t-23 59.5t23.5 60.5t63.5 24.5q41 0 64 -24.5t23 -60.5t-23 -59.5t-64 -23.5z" />
    <glyph glyph-name="slash" unicode="/" horiz-adv-x="510" 
d="M26 -121l313 871h146l-313 -871h-146z" />
    <glyph glyph-name="zero" unicode="0" horiz-adv-x="666" 
d="M331 -16q-129 0 -208 86.5t-79 255.5t80.5 260.5t207.5 91.5q130 0 210 -90.5t80 -261.5q0 -169 -80 -255.5t-211 -86.5zM332 121q56 0 87.5 52t31.5 153q0 104 -31.5 158.5t-87.5 54.5q-55 0 -86 -54.5t-31 -158.5q0 -101 31 -153t86 -52z" />
    <glyph glyph-name="one" unicode="1" horiz-adv-x="417" 
d="M174 0v451l-140 -56h-7v167l278 112h26v-674h-157z" />
    <glyph glyph-name="two" unicode="2" horiz-adv-x="582" 
d="M36 0q0 65 27 123.5t67 103t111 106.5q71 55 94 81.5t23 55.5q0 65 -105 65q-62 0 -114.5 -20.5t-81.5 -42.5l-2 1l-1 143q89 62 221 62q47 0 89.5 -10.5t77.5 -32t56 -59.5t21 -87q0 -74 -32 -117t-132 -124q-97 -84 -100 -114h285v-134h-504z" />
    <glyph glyph-name="three" unicode="3" horiz-adv-x="552" 
d="M511 204q1 -100 -72.5 -160t-196.5 -60q-114 0 -196 41v140l2 1q69 -45 172 -45q60 0 97.5 21t37.5 66q0 38 -32.5 56t-117.5 19h-64v122h64q120 0 120 69q0 67 -100 67q-108 0 -165 -31l-2 1v134q98 34 192 34q102 0 166.5 -43.5t64.5 -136.5q0 -87 -69 -140
q94 -47 99 -155z" />
    <glyph glyph-name="four" unicode="4" horiz-adv-x="621" 
d="M586 235v-123h-91v-112h-147v112h-333v75l353 481h127v-433h91zM206 235h142v198z" />
    <glyph glyph-name="five" unicode="5" horiz-adv-x="566" 
d="M266 -16q-114 0 -213 31v146l2 1q96 -40 194 -40q115 0 115 91q0 41 -30 63.5t-86 22.5q-96 0 -187 -24l-2 3l22 388h410v-134h-279l-8 -107q32 7 82 7q111 0 174.5 -51.5t63.5 -157.5q0 -67 -24.5 -116t-64.5 -74.5t-82 -37t-87 -11.5z" />
    <glyph glyph-name="six" unicode="6" horiz-adv-x="613" 
d="M358 442q95 0 154.5 -56.5t59.5 -156.5q0 -107 -70.5 -176.5t-195.5 -69.5q-128 0 -195.5 81t-67.5 231q0 179 94.5 281t246.5 102q92 0 137 -17v-131l-4 -4q-51 17 -128 17q-155 0 -184 -161q58 60 153 60zM310 119q53 0 80 26.5t27 69.5q0 40 -24.5 66t-74.5 26
q-41 0 -72 -25t-40 -72q25 -91 104 -91z" />
    <glyph glyph-name="seven" unicode="7" horiz-adv-x="525" 
d="M90 0l232 514h-296v149h479v-84l-246 -579h-169z" />
    <glyph glyph-name="eight" unicode="8" horiz-adv-x="617" 
d="M458 349q61 -34 87.5 -73.5t26.5 -95.5q0 -86 -71 -141t-191 -55q-130 0 -198 46.5t-68 133.5q0 107 108 180q-85 57 -85 146q0 90 71 139t178 49q102 0 172 -44t70 -129q0 -95 -100 -156zM309 545q-88 0 -88 -54q0 -23 24.5 -41.5t94.5 -46.5q67 33 67 82q0 60 -98 60z
M318 111q104 0 102 66q0 28 -28 47.5t-122 57.5q-2 0 -5 2t-4 2q-61 -40 -61 -101q0 -74 118 -74z" />
    <glyph glyph-name="nine" unicode="9" horiz-adv-x="614" 
d="M301 679q126 0 197.5 -86t71.5 -243q0 -183 -80.5 -274t-226.5 -91q-114 0 -178 27v141l4 3q69 -33 158 -33q81 -1 117.5 37t45.5 108q-59 -46 -145 -46q-100 0 -163 57t-63 158q0 110 69.5 176t192.5 66zM198 446q0 -41 25 -66.5t71 -25.5q72 0 118 43q-7 69 -37 106.5
t-80 37.5q-45 0 -71 -26t-26 -69z" />
    <glyph glyph-name="colon" unicode=":" horiz-adv-x="292" 
d="M146 356q-43 0 -65.5 22.5t-22.5 58.5q0 35 22.5 59t65.5 24t65.5 -24t22.5 -59q0 -36 -22.5 -58.5t-65.5 -22.5zM146 -13q-43 0 -65.5 22.5t-22.5 58.5q0 35 22.5 59t65.5 24t65.5 -24t22.5 -59q0 -36 -22.5 -58.5t-65.5 -22.5z" />
    <glyph glyph-name="semicolon" unicode=";" horiz-adv-x="290" 
d="M146 357q-41 0 -64 23.5t-23 59.5t23.5 60.5t63.5 24.5q41 0 64 -24.5t23 -60.5t-23 -59.5t-64 -23.5zM59 -148q20 94 20 171q0 47 -5 100l128 14l19 -23q0 -69 -19 -139.5t-51 -122.5h-92z" />
    <glyph glyph-name="less" unicode="&#x3c;" horiz-adv-x="494" 
d="M167 299l22 -9l263 -153l-54 -100l-366 211v101l366 211l54 -99l-264 -153z" />
    <glyph glyph-name="equal" unicode="=" horiz-adv-x="607" 
d="M61 346v110h485v-110h-485zM61 121v110h485v-110h-485z" />
    <glyph glyph-name="greater" unicode="&#x3e;" horiz-adv-x="494" 
d="M97 559l366 -211v-101l-366 -211l-54 99l264 153l21 9l-22 9l-263 153z" />
    <glyph glyph-name="question" unicode="?" horiz-adv-x="451" 
d="M105 216q-1 71 19 111t74 76q33 25 46 43.5t13 45.5q0 66 -86 66q-71 0 -124 -32l-2 1l-1 140q62 31 149 31q96 0 160.5 -48t64.5 -140q0 -61 -26.5 -100.5t-82.5 -82.5q-39 -28 -50.5 -53t-11.5 -56zM180 -11q-43 0 -65 22.5t-22 58.5t22 59.5t65 23.5t65.5 -23.5
t22.5 -59.5t-22.5 -58.5t-65.5 -22.5z" />
    <glyph glyph-name="at" unicode="@" horiz-adv-x="841" 
d="M610 434v-233q0 -22 20 -22q44 0 44 123q0 103 -63 160t-167 57q-125 0 -198 -74.5t-73 -194.5q0 -122 70 -191t193 -69q109 0 173 52h5l58 -89q-82 -77 -237 -77q-185 0 -289.5 101.5t-104.5 272.5q0 169 109.5 276.5t293.5 107.5q157 0 259.5 -89.5t102.5 -234.5
q0 -105 -46 -172.5t-144 -67.5q-85 0 -110 57q-14 -27 -43 -44.5t-68 -17.5q-72 0 -117 49.5t-45 136.5q0 88 50.5 140.5t129.5 52.5q56 0 96 -27l4 17h97zM427 174q47 0 63 41v108q-24 20 -60 20q-33 0 -54 -23t-21 -63t20 -61.5t52 -21.5z" />
    <glyph glyph-name="A" unicode="A" horiz-adv-x="648" 
d="M489 0l-40 91h-255l-37 -91h-162l290 665h72l301 -665h-169zM239 204h161l-68 154l-16 46l-15 -46z" />
    <glyph glyph-name="B" unicode="B" horiz-adv-x="611" 
d="M464 359q110 -46 110 -161q0 -95 -66.5 -146.5t-185.5 -51.5h-244v663q82 7 195 7q261 0 261 -176q0 -90 -70 -135zM296 542q-41 0 -61 -2v-148h59q45 0 68 20.5t23 56.5q0 34 -23 53.5t-66 19.5zM306 119q111 0 111 83q0 35 -27.5 56.5t-74.5 21.5h-80v-161h71z" />
    <glyph glyph-name="C" unicode="C" horiz-adv-x="609" 
d="M396 -12q-157 0 -256.5 90t-99.5 246q0 164 97.5 259t255.5 95q90 0 172 -26v-152l-3 -2q-69 33 -146 33q-100 0 -154 -52t-54 -147q0 -94 55 -145.5t157 -51.5q75 0 141 28l4 -3v-147q-73 -25 -169 -25z" />
    <glyph glyph-name="D" unicode="D" horiz-adv-x="733" 
d="M329 672q170 0 266.5 -89.5t96.5 -244.5q0 -162 -101.5 -250.5t-277.5 -88.5q-203 0 -235 1v663q150 9 251 9zM330 142q194 2 194 194q0 93 -54 141t-144 48q-55 0 -87 -4v-377q27 -2 91 -2z" />
    <glyph glyph-name="E" unicode="E" horiz-adv-x="567" 
d="M240 133h279v-133h-441v663h432v-133h-270v-125h251v-130h-251v-142z" />
    <glyph glyph-name="F" unicode="F" horiz-adv-x="534" 
d="M503 516h-263v-144h224v-143h-224v-229h-162v663h425v-147z" />
    <glyph glyph-name="G" unicode="G" horiz-adv-x="681" 
d="M398 -11q-169 0 -263.5 87.5t-94.5 252.5q0 161 103.5 255t281.5 94q101 0 179 -29l-1 -156l-4 -1q-73 39 -179 39q-100 0 -155.5 -53.5t-55.5 -148.5q0 -92 51.5 -143t146.5 -51q35 0 78 10v179h145l1 -297q-110 -38 -233 -38z" />
    <glyph glyph-name="H" unicode="H" horiz-adv-x="750" 
d="M510 663h163v-663h-163v257h-270v-257h-162v663h162v-258h270v258z" />
    <glyph glyph-name="I" unicode="I" horiz-adv-x="319" 
d="M78 0v663h163v-663h-163z" />
    <glyph glyph-name="J" unicode="J" horiz-adv-x="391" 
d="M75 -3q-31 0 -60 4v136l4 2q17 -3 34 -3q105 0 105 134v393h164v-377q0 -289 -247 -289z" />
    <glyph glyph-name="K" unicode="K" horiz-adv-x="679" 
d="M370 337l324 -333l-2 -4h-201l-251 256v-256h-162v663h162v-269l248 269h186l1 -4z" />
    <glyph glyph-name="L" unicode="L" horiz-adv-x="509" 
d="M240 135h258v-135h-420v663h162v-528z" />
    <glyph glyph-name="M" unicode="M" horiz-adv-x="844" 
d="M733 662l61 -662h-154l-25 320h-3l-161 -317h-55l-163 313h-2l-28 -316h-152l60 662h95l222 -422l215 422h90z" />
    <glyph glyph-name="N" unicode="N" horiz-adv-x="740" 
d="M78 0v663h71l354 -356h3v356h156v-663h-71l-355 363h-3v-363h-155z" />
    <glyph glyph-name="O" unicode="O" horiz-adv-x="778" 
d="M389 -12q-69 0 -131 22t-111 63.5t-78 108.5t-29 150q0 159 98 252.5t251 93.5q93 0 171 -37.5t128.5 -118t50.5 -190.5q0 -158 -98.5 -251t-251.5 -93zM389 134q83 0 132 53t49 145t-49 145.5t-132 53.5t-131.5 -53t-48.5 -146q0 -92 48.5 -145t131.5 -53z" />
    <glyph glyph-name="P" unicode="P" horiz-adv-x="602" 
d="M578 444q1 -121 -72 -182.5t-193 -61.5q-37 0 -74 3v-203h-161v663q132 8 214 7q285 -2 286 -226zM292 335q123 0 123 100q0 46 -30.5 71t-81.5 25q-48 0 -64 -1v-192q31 -3 53 -3z" />
    <glyph glyph-name="Q" unicode="Q" horiz-adv-x="778" 
d="M739 332q0 -127 -66 -213.5t-176 -116.5q35 -70 143 -100l2 -4l-60 -115q-185 37 -241 208q-130 14 -215.5 103t-85.5 238q0 159 98 252.5t251 93.5q93 0 171 -37.5t128.5 -118t50.5 -190.5zM389 134q83 0 132 53t49 145t-49 145.5t-132 53.5t-131.5 -53t-48.5 -146
q0 -92 48.5 -145t131.5 -53z" />
    <glyph glyph-name="R" unicode="R" horiz-adv-x="634" 
d="M455 240l149 -236l-2 -4h-174l-131 216h-58v-216h-161v663q102 7 212 7q59 0 107.5 -11t90 -35t64.5 -69t23 -107q0 -152 -120 -208zM239 529v-191h59q51 0 82.5 25.5t31.5 70.5q0 48 -28 72.5t-79 24.5q-48 0 -66 -2z" />
    <glyph glyph-name="S" unicode="S" horiz-adv-x="533" 
d="M249 -11q-112 0 -200 43v149l4 2q82 -57 179 -57q93 0 93 62q0 29 -21.5 49t-86.5 48q-162 67 -162 194q0 97 68 147.5t170 50.5q103 0 174 -28v-140l-4 -1q-56 31 -147 31q-99 2 -99 -51q0 -23 24 -39t88 -44q73 -33 116 -81.5t43 -129.5q0 -94 -65 -149.5t-174 -55.5z
" />
    <glyph glyph-name="T" unicode="T" horiz-adv-x="595" 
d="M583 663v-146h-199v-517h-164v517h-207v146h570z" />
    <glyph glyph-name="U" unicode="U" horiz-adv-x="721" 
d="M361 -13q-141 0 -216.5 72t-75.5 207v397h162v-377q0 -162 132 -162q131 0 131 162v377h158v-397q0 -133 -76.5 -206t-214.5 -73z" />
    <glyph glyph-name="V" unicode="V" horiz-adv-x="642" 
d="M646 663l2 -4l-279 -662h-104l-266 662l2 4h172l138 -387l14 -58l14 58l147 387h160z" />
    <glyph glyph-name="W" unicode="W" horiz-adv-x="965" 
d="M959 663l2 -4l-213 -661h-124l-128 375l-9 39l-11 -39l-128 -375h-127l-223 661l2 4h172l110 -387l10 -54l13 54l123 380h120l123 -363l15 -65l14 65l103 370h156z" />
    <glyph glyph-name="X" unicode="X" horiz-adv-x="668" 
d="M438 348l231 -344l-2 -4h-191l-150 232l-139 -232h-177l-2 4l219 336l-215 319l1 4h195l131 -208l128 208h178l2 -4z" />
    <glyph glyph-name="Y" unicode="Y" horiz-adv-x="622" 
d="M231 0v259l-235 400l2 4h175l143 -257l140 257h166l1 -4l-230 -402v-257h-162z" />
    <glyph glyph-name="Z" unicode="Z" horiz-adv-x="608" 
d="M37 0v55l308 475h-308l-1 133h528v-56l-315 -473h325v-134h-537z" />
    <glyph glyph-name="bracketleft" unicode="[" horiz-adv-x="356" 
d="M321 643h-107v-681h107v-118h-246v917h246v-118z" />
    <glyph glyph-name="backslash" unicode="\" horiz-adv-x="510" 
d="M484 -121h-146l-313 871h146z" />
    <glyph glyph-name="bracketright" unicode="]" horiz-adv-x="356" 
d="M35 762h246v-918h-246v118h106v681h-106v119z" />
    <glyph glyph-name="asciicircum" unicode="^" horiz-adv-x="546" 
d="M322 691l191 -364l-105 -47l-125 255l-9 22l-10 -22l-125 -255l-107 47l192 364h98z" />
    <glyph glyph-name="underscore" unicode="_" horiz-adv-x="538" 
d="M48 -128v128h442v-128h-442z" />
    <glyph glyph-name="grave" unicode="`" horiz-adv-x="273" 
d="M223 557l-223 100l-4 18l96 113l178 -158z" />
    <glyph glyph-name="a" unicode="a" horiz-adv-x="657" 
d="M625 150l3 -2v-137q-39 -18 -89 -18q-91 0 -115 68q-23 -32 -65 -53.5t-97 -21.5q-101 0 -163.5 69.5t-62.5 191.5q0 127 74.5 205t188.5 78q81 0 132 -37l5 23h132v-344q0 -30 29 -30q16 0 28 8zM311 134q30 0 56.5 15t37.5 41v174q-34 27 -86 27q-49 0 -81.5 -37.5
t-32.5 -96.5q0 -60 29 -91.5t77 -31.5z" />
    <glyph glyph-name="b" unicode="b" horiz-adv-x="634" 
d="M372 530q105 0 165 -70t60 -189q0 -130 -79 -207.5t-207 -77.5q-145 0 -248 48v676h164v-232q54 52 145 52zM310 127q53 0 86 33t33 97q0 65 -30 96t-77 31q-31 0 -58 -16t-37 -41v-184q35 -16 83 -16z" />
    <glyph glyph-name="c" unicode="c" horiz-adv-x="494" 
d="M323 -14q-126 0 -206.5 71.5t-80.5 198.5q0 128 77.5 201t204.5 73q75 0 136 -22v-137l-6 -3q-57 23 -110 23q-64 0 -99 -34.5t-35 -95.5t35.5 -97.5t98.5 -37.5q55 0 111 29l5 -4v-139q-54 -26 -131 -26z" />
    <glyph glyph-name="d" unicode="d" horiz-adv-x="658" 
d="M625 151l4 -2l-1 -138q-39 -18 -89 -18q-91 0 -115 67q-23 -32 -65 -53t-96 -21q-100 0 -163 67.5t-63 193.5t74.5 204.5t190.5 78.5q61 0 103 -17v197h164v-538q0 -30 30 -30q15 0 26 9zM311 134q30 0 56.5 15t37.5 41v180q-35 21 -82 21q-53 0 -85.5 -35.5t-32.5 -97.5
q0 -63 29 -93.5t77 -30.5z" />
    <glyph glyph-name="e" unicode="e" horiz-adv-x="586" 
d="M302 530q114 0 180.5 -64t68.5 -182q0 -23 -2 -69h-344q22 -98 148 -98q80 0 160 36l4 -2v-126q-77 -39 -195 -39q-54 0 -103 15t-91 45.5t-67 85t-25 126.5q0 122 74.5 197t191.5 75zM204 307h189q-9 92 -91 92q-80 0 -98 -92z" />
    <glyph glyph-name="f" unicode="f" horiz-adv-x="383" 
d="M315 717q46 0 78 -10v-143l-2 -1q-21 9 -53 9q-73 0 -75 -79h100v-128h-100v-365h-163v365h-71v128h71q1 108 59.5 166t155.5 58z" />
    <glyph glyph-name="g" unicode="g" horiz-adv-x="633" 
d="M458 528h112v-446q0 -124 -81.5 -189.5t-214.5 -65.5q-115 0 -206 37v139l4 2q81 -47 178 -47q86 0 121 28t35 91q-50 -45 -136 -45q-109 0 -171 62t-62 176q0 120 75 190t185 70q90 0 146 -43zM406 226v140q-37 25 -89 25q-50 0 -81 -30.5t-31 -83.5t28 -81.5t74 -28.5
q75 0 99 59z" />
    <glyph glyph-name="h" unicode="h" horiz-adv-x="633" 
d="M381 530q88 0 140.5 -56.5t52.5 -155.5v-318h-163v275q0 100 -88 100q-34 0 -59.5 -17t-34.5 -50v-308h-164v710h164v-245q56 65 152 65z" />
    <glyph glyph-name="i" unicode="i" horiz-adv-x="294" 
d="M147 579q-40 0 -68.5 28.5t-28.5 68.5t28.5 68.5t68.5 28.5t68.5 -28.5t28.5 -68.5t-28.5 -68.5t-68.5 -28.5zM65 0v516h164v-516h-164z" />
    <glyph glyph-name="j" unicode="j" horiz-adv-x="312" 
d="M166 579q-40 0 -68.5 28.5t-28.5 68.5t28.5 68.5t68.5 28.5t68.5 -28.5t28.5 -68.5t-28.5 -68.5t-68.5 -28.5zM36 -171q-29 0 -76 7v141l4 2q16 -4 37 -4q83 0 83 97v444h163v-482q0 -103 -55.5 -154t-155.5 -51z" />
    <glyph glyph-name="k" unicode="k" horiz-adv-x="596" 
d="M372 274l225 -270l-1 -4h-196l-171 203v-203h-164v710h164v-389l168 195h183l2 -4z" />
    <glyph glyph-name="l" unicode="l" horiz-adv-x="331" 
d="M238 -11q-88 0 -133 41.5t-45 134.5v545h164v-507q0 -68 51 -68q18 0 36 8l4 -1v-141q-41 -12 -77 -12z" />
    <glyph glyph-name="m" unicode="m" horiz-adv-x="952" 
d="M706 530q84 0 136 -55t52 -152v-323h-164v273q0 99 -83 99q-30 0 -53.5 -16.5t-32.5 -48.5v-307h-163v273q0 99 -83 99q-31 0 -54.5 -17t-31.5 -51v-304h-164v516h133l16 -69q51 83 160 83q114 0 162 -94q22 40 64.5 67t105.5 27z" />
    <glyph glyph-name="n" unicode="n" horiz-adv-x="633" 
d="M380 530q87 0 140.5 -58t53.5 -157v-315h-163v270q0 102 -90 102q-32 0 -58 -18.5t-34 -49.5v-304h-164v516h133l16 -69q53 83 166 83z" />
    <glyph glyph-name="o" unicode="o" horiz-adv-x="637" 
d="M318 -14q-119 0 -200.5 70t-81.5 202q0 124 79 198t203 74q120 0 201.5 -69.5t81.5 -201.5q0 -125 -79.5 -199t-203.5 -74zM318 126q54 0 84.5 36.5t30.5 96.5q0 59 -30.5 95t-84.5 36t-84 -36t-30 -95q0 -61 29.5 -97t84.5 -36z" />
    <glyph glyph-name="p" unicode="p" horiz-adv-x="635" 
d="M375 530q105 0 164.5 -71.5t59.5 -189.5q0 -127 -75.5 -205t-189.5 -78q-60 0 -105 21v-171h-164v680h133l13 -58q24 31 67 51.5t97 20.5zM313 127q54 0 86 35t32 98q0 64 -29.5 94t-78.5 30q-31 0 -57.5 -16t-36.5 -41v-183q37 -17 84 -17z" />
    <glyph glyph-name="q" unicode="q" horiz-adv-x="634" 
d="M436 516h133v-680h-164v202q-55 -52 -143 -52q-101 0 -163 70.5t-62 195.5q0 126 73.5 202t185.5 76q85 0 135 -35zM311 134q30 0 57 15.5t37 41.5v175q-33 25 -86 25q-51 0 -82.5 -35t-31.5 -96q0 -63 28 -94.5t78 -31.5z" />
    <glyph glyph-name="r" unicode="r" horiz-adv-x="423" 
d="M348 528q29 0 56 -8v-147l-4 -2q-22 8 -52 8q-48 0 -82 -31t-37 -98v-250h-164v516h133l16 -73q20 41 56.5 63t77.5 22z" />
    <glyph glyph-name="s" unicode="s" horiz-adv-x="496" 
d="M236 -14q-109 0 -194 37v132l4 1q37 -23 88 -38t94 -15q78 0 78 39q0 20 -19.5 31t-89.5 32q-82 24 -117.5 62t-35.5 96q0 76 63 121.5t166 45.5q105 0 165 -25v-131l-4 -1q-58 29 -153 29q-35 0 -57 -9t-22 -26t18.5 -26.5t87.5 -29.5q81 -23 117 -60t36 -98
q0 -79 -59.5 -123t-165.5 -44z" />
    <glyph glyph-name="t" unicode="t" horiz-adv-x="433" 
d="M401 387h-140v-165q0 -83 72 -83q35 0 65 15l3 -2v-138q-46 -21 -117 -21q-88 0 -137.5 50t-49.5 145v199h-85v129h85v124l161 31l3 -2v-153h140v-129z" />
    <glyph glyph-name="u" unicode="u" horiz-adv-x="623" 
d="M394 516h164v-516h-133l-16 71q-51 -85 -171 -85q-85 0 -131.5 51t-46.5 140v339h163v-301q0 -89 82 -89q69 0 89 60v330z" />
    <glyph glyph-name="v" unicode="v" horiz-adv-x="567" 
d="M564 516l2 -4l-222 -513h-123l-217 513l2 4h177l105 -301l108 301h168z" />
    <glyph glyph-name="w" unicode="w" horiz-adv-x="812" 
d="M804 516l2 -4l-174 -512h-114l-103 305l-5 19l-6 -19l-108 -305h-115l-176 512l2 4h162l77 -279l3 -25l6 24l90 280h134l87 -278l7 -29l4 31l77 276h150z" />
    <glyph glyph-name="x" unicode="x" horiz-adv-x="572" 
d="M384 266l181 -262l-2 -4h-183l-101 157l-101 -157h-169l-1 4l180 258l-173 250l2 4h184l91 -145l92 145h168l1 -4z" />
    <glyph glyph-name="y" unicode="y" horiz-adv-x="549" 
d="M545 516l1 -4l-216 -518l-65 -158h-169l-2 3l106 211l-192 462l1 4h173l97 -295l102 295h164z" />
    <glyph glyph-name="z" unicode="z" horiz-adv-x="538" 
d="M244 129h260v-129h-468v80l243 303h-241v133h456v-85z" />
    <glyph glyph-name="braceleft" unicode="{" horiz-adv-x="383" 
d="M255 430q0 -54 -34.5 -88.5t-70.5 -34.5v-8q36 0 70.5 -34t34.5 -89v-183q0 -47 57 -47h35v-121h-56q-83 0 -129 42t-46 118v155q0 47 -29 73t-54 26v135q26 0 54.5 23.5t28.5 67.5v156q0 75 46 117t129 42h56v-121h-35q-57 0 -57 -46v-183z" />
    <glyph glyph-name="bar" unicode="|" horiz-adv-x="297" 
d="M75 -111v836h148v-836h-148z" />
    <glyph glyph-name="braceright" unicode="}" horiz-adv-x="383" 
d="M267 465q0 -47 29 -73t54 -26v-134q-25 0 -54 -24t-29 -68v-155q0 -76 -46 -118t-129 -42h-55v121h34q58 0 58 47v183q0 54 34.5 88.5t69.5 34.5v8q-35 0 -69.5 34.5t-34.5 88.5v183q0 46 -58 46h-34v121h55q83 0 129 -42t46 -117v-156z" />
    <glyph glyph-name="asciitilde" unicode="~" horiz-adv-x="555" 
d="M151 217l-93 13q0 61 35.5 99.5t92.5 38.5q42 0 97 -17t83 -17q39 0 42 37l4 2l86 -17q0 -58 -35 -95.5t-91 -37.5q-33 0 -90.5 17.5t-82.5 17.5q-20 0 -32 -10.5t-13 -27.5z" />
    <glyph glyph-name="exclamdown" unicode="&#xa1;" horiz-adv-x="288" 
d="M146 368q-43 0 -65.5 22.5t-22.5 58.5q0 35 22.5 59t65.5 24q42 0 64.5 -24t22.5 -59q0 -36 -22.5 -58.5t-64.5 -22.5zM63 -177l10 465h140l10 -465h-160z" />
    <glyph glyph-name="cent" unicode="&#xa2;" horiz-adv-x="539" 
d="M488 214v-140q-44 -17 -100 -21v-94h-153v105q-92 24 -144.5 90.5t-52.5 166.5q0 107 52 178t145 96v106h153v-96q48 -4 97 -20v-137l-5 -4q-66 23 -121 23q-71 0 -110 -36t-39 -99q0 -64 39 -102t109 -38q64 0 124 25z" />
    <glyph glyph-name="sterling" unicode="&#xa3;" horiz-adv-x="586" 
d="M258 135h284v-135h-480l-4 8q57 109 62 257h-79v133h71q-2 22 -2 33q0 120 76.5 182.5t184.5 62.5q85 0 156 -25v-138l-6 -2q-70 31 -136 31q-54 0 -84 -26t-30 -74q0 -14 2 -44h170v-133h-161q-3 -67 -24 -130z" />
    <glyph glyph-name="currency" unicode="&#xa4;" horiz-adv-x="720" 
d="M618 336q0 -64 -30 -122l89 -88l-109 -107l-87 87q-57 -31 -124 -31q-62 0 -120 29l-86 -85l-107 107l84 84q-32 61 -32 126q0 67 31 124l-83 83l107 108l85 -85q57 30 121 30q66 0 125 -32l86 87l109 -108l-88 -88q29 -55 29 -119zM234 336q0 -52 35.5 -88.5t87.5 -36.5
q53 0 88.5 36.5t35.5 88.5t-35.5 88t-88.5 36q-52 0 -87.5 -36.5t-35.5 -87.5z" />
    <glyph glyph-name="yen" unicode="&#xa5;" horiz-adv-x="687" 
d="M661 669l-222 -389h127v-150h-140v-130h-161v130h-138v150h126l-227 389h179l145 -278l142 278h169z" />
    <glyph glyph-name="brokenbar" unicode="&#xa6;" horiz-adv-x="305" 
d="M79 405v320h148v-320h-148zM79 -111v322h148v-322h-148z" />
    <glyph glyph-name="section" unicode="&#xa7;" horiz-adv-x="555" 
d="M449 135q43 -38 43 -102q0 -80 -68 -131.5t-171 -51.5q-102 0 -179 34v137l5 2q79 -41 165 -41q82 0 82 44q0 21 -22.5 34.5t-100.5 43.5q-86 33 -124.5 68.5t-38.5 103.5q0 77 74 131q-50 43 -50 116q0 78 67 126t171 48q99 0 161 -24v-136l-4 -2q-53 29 -140 29
q-91 0 -91 -47q0 -22 22 -34t96 -38q86 -30 129 -69.5t43 -104.5q0 -73 -69 -136zM295 215q25 -9 71 -29q15 24 15 50t-24.5 46t-103.5 51q-37 14 -58 24q-17 -26 -17 -50q0 -28 22 -46.5t95 -45.5z" />
    <glyph glyph-name="dieresis" unicode="&#xa8;" horiz-adv-x="427" 
d="M97 584q-38 0 -65 26.5t-27 64.5t27 65t65 27q37 0 64.5 -27.5t27.5 -64.5t-27 -64t-65 -27zM330 584q-38 0 -65 26.5t-27 64.5t27 65t65 27t65 -27.5t27 -64.5t-27 -64t-65 -27z" />
    <glyph glyph-name="copyright" unicode="&#xa9;" horiz-adv-x="690" 
d="M347 -18q-139 0 -223.5 86t-84.5 215t84.5 215.5t223.5 86.5q138 0 221 -86.5t83 -215.5t-83 -215t-221 -86zM345 68q101 0 154.5 60t53.5 156q0 94 -56.5 154t-151.5 60t-151 -60t-56 -154t56 -155t151 -61zM369 129q-74 0 -122 39t-48 109q0 73 46.5 115t120.5 42
q45 0 77 -13v-89l-3 -2q-28 11 -57 11q-32 0 -49.5 -16t-17.5 -44t19 -44.5t51 -16.5t54 11l3 -1v-90q-27 -11 -74 -11z" />
    <glyph glyph-name="ordfeminine" unicode="&#xaa;" horiz-adv-x="478" 
d="M436 455l2 -1v-101q-27 -12 -68 -12q-58 0 -74 56q-53 -61 -130 -61q-59 0 -93 32.5t-34 81.5q0 64 46.5 93.5t111.5 29.5q48 0 81 -9q-4 66 -86 66q-68 0 -116 -20l-2 2v97q48 25 139 25q182 0 182 -173v-84q0 -26 20 -26q13 0 21 4zM205 430q23 0 43.5 10t29.5 24v28
q-28 7 -54 7q-60 0 -60 -36q0 -33 41 -33z" />
    <glyph glyph-name="guillemotleft" unicode="&#xab;" horiz-adv-x="590" 
d="M158 92l-130 195l133 193h146v-13l-120 -176l121 -189v-10h-150zM400 92l-130 195l133 193h146v-13l-120 -176l121 -189v-10h-150z" />
    <glyph glyph-name="registered" unicode="&#xae;" horiz-adv-x="655" 
d="M330 745q128 0 204.5 -79.5t76.5 -199.5t-76.5 -199.5t-204.5 -79.5q-130 0 -208 79.5t-78 199.5t78 199.5t208 79.5zM327 269q92 0 140.5 55t48.5 143q0 86 -51 141t-138 55q-86 0 -137.5 -55t-51.5 -141t51.5 -142t137.5 -56zM455 501q0 -61 -43 -86l50 -79h-101
l-38 61h-29v-61h-95v264q55 3 120 3q56 0 96 -24t40 -78zM294 528v-67h23q39 0 39 34t-39 34q-17 0 -23 -1z" />
    <glyph glyph-name="macron" unicode="&#xaf;" horiz-adv-x="363" 
d="M24 607v100h312v-100h-312z" />
    <glyph glyph-name="degree" unicode="&#xb0;" horiz-adv-x="380" 
d="M191 376q-65 0 -108.5 42.5t-43.5 106.5t43.5 106t108.5 42q64 0 107.5 -42.5t43.5 -105.5q0 -64 -43.5 -106.5t-107.5 -42.5zM191 464q25 0 40 17.5t15 43.5t-15 43.5t-40 17.5q-26 0 -41.5 -17.5t-15.5 -43.5t15.5 -43.5t41.5 -17.5z" />
    <glyph glyph-name="plusminus" unicode="&#xb1;" horiz-adv-x="571" 
d="M523 256h-183v-135h174v-110h-458v110h174v135h-183v106h184v170h109v-170h183v-106z" />
    <glyph glyph-name="acute" unicode="&#xb4;" horiz-adv-x="273" 
d="M51 557l-48 73l179 158l96 -113l-4 -18z" />
    <glyph glyph-name="paragraph" unicode="&#xb6;" horiz-adv-x="628" 
d="M577 601v-145h-60v-568h-40v568h-58v-568h-155v304q-234 0 -234 203q0 102 69.5 154t182.5 52h295z" />
    <glyph glyph-name="periodcentered" unicode="&#xb7;" horiz-adv-x="278" 
d="M139 158q-43 0 -65 22.5t-22 58.5t22 59.5t65 23.5t65.5 -23.5t22.5 -59.5t-22.5 -58.5t-65.5 -22.5z" />
    <glyph glyph-name="cedilla" unicode="&#xb8;" horiz-adv-x="221" 
d="M79 -243q-35 0 -67 8v66l4 2q20 -7 38 -7q56 0 56 36q1 17 -10 24.5t-31 7.5q-21 0 -35 -3l-2 4v57l34 49h87l-33 -44q8 1 15 0q44 -4 69 -27.5t25 -65.5q0 -57 -42.5 -82t-107.5 -25z" />
    <glyph glyph-name="ordmasculine" unicode="&#xba;" horiz-adv-x="504" 
d="M253 327q-91 0 -154.5 54t-63.5 153q0 94 61 152.5t157 58.5q90 0 153.5 -55t63.5 -155q0 -93 -61 -150.5t-156 -57.5zM253 444q36 0 56.5 25.5t20.5 65.5q0 41 -20.5 66.5t-56.5 25.5q-37 0 -57 -25.5t-20 -66.5t19.5 -66t57.5 -25z" />
    <glyph glyph-name="guillemotright" unicode="&#xbb;" horiz-adv-x="590" 
d="M190 481l130 -195l-133 -193h-146v13l120 176l-121 189v10h150zM432 481l130 -195l-133 -193h-146v13l120 176l-121 189v10h150z" />
    <glyph glyph-name="onequarter" unicode="&#xbc;" horiz-adv-x="753" 
d="M106 300v217l-77 -18v118l182 55h12v-372h-117zM494 663h119l-403 -674h-117zM722 127v-74h-41v-53h-107v53h-187v52l195 264h99v-242h41zM502 127h72v104z" />
    <glyph glyph-name="onehalf" unicode="&#xbd;" horiz-adv-x="776" 
d="M110 300v217l-78 -18v118l182 55h12v-372h-116zM75 -11l402 674h118l-403 -674h-117zM437 0q0 105 102 178q48 36 60.5 48t12.5 25q0 25 -42 25q-71 0 -123 -36l-1 1v98q57 35 136 35q63 0 107.5 -26.5t44.5 -82.5q0 -42 -20.5 -69.5t-64.5 -56.5q-46 -31 -49 -47h144
v-92h-307z" />
    <glyph glyph-name="threequarters" unicode="&#xbe;" horiz-adv-x="782" 
d="M326 418q0 -59 -45 -93t-121 -34q-68 0 -120 20v90l1 1q44 -20 104 -20q75 0 75 37q0 30 -43 30h-83v78h75q35 0 35 26q0 30 -62 30q-64 0 -95 -15l-1 1v90q52 15 114 15q153 0 153 -101q0 -45 -38 -75q51 -25 51 -80zM546 663h119l-403 -674h-117zM752 127v-74h-42v-53
h-107v53h-186v52l194 264h99v-242h42zM531 127h72v104z" />
    <glyph glyph-name="questiondown" unicode="&#xbf;" horiz-adv-x="445" 
d="M268 531q43 0 65 -22.5t22 -58.5t-22 -59.5t-65 -23.5t-65.5 23.5t-22.5 59.5t22.5 58.5t65.5 22.5zM343 304q1 -71 -19 -111t-74 -76q-33 -25 -46 -43.5t-13 -45.5q0 -66 86 -66q71 0 124 32l2 -1l1 -140q-62 -31 -149 -31q-96 0 -160.5 48t-64.5 140q0 61 26.5 100.5
t82.5 82.5q39 28 50.5 53t11.5 56z" />
    <glyph glyph-name="Agrave" unicode="&#xc0;" horiz-adv-x="648" 
d="M416 699l-239 73l-8 16l72 120l207 -130zM489 0l-40 91h-255l-37 -91h-162l290 665h72l301 -665h-169zM239 204h161l-68 154l-16 46l-15 -46z" />
    <glyph glyph-name="Aacute" unicode="&#xc1;" horiz-adv-x="648" 
d="M457 772l-239 -73l-31 77l206 132l72 -120zM489 0l-40 91h-255l-37 -91h-162l290 665h72l301 -665h-169zM239 204h161l-68 154l-16 46l-15 -46z" />
    <glyph glyph-name="Acircumflex" unicode="&#xc2;" horiz-adv-x="648" 
d="M315 778l-118 -76l-47 62l130 135h73l136 -134l-49 -63zM489 0l-40 91h-255l-37 -91h-162l290 665h72l301 -665h-169zM239 204h161l-68 154l-16 46l-15 -46z" />
    <glyph glyph-name="Atilde" unicode="&#xc3;" horiz-adv-x="648" 
d="M224 709l-2 -2l-94 26q1 57 35 95t88 38q32 0 72 -15.5t59 -15.5q14 0 25 10t11 25l3 2l93 -26q0 -58 -34 -95t-89 -37q-24 0 -66.5 15.5t-61.5 15.5q-17 0 -28 -11t-11 -25zM489 0l-40 91h-255l-37 -91h-162l290 665h72l301 -665h-169zM239 204h161l-68 154l-16 46
l-15 -46z" />
    <glyph glyph-name="Adieresis" unicode="&#xc4;" horiz-adv-x="648" 
d="M198 717q-34 0 -57.5 23.5t-23.5 57.5q0 33 23.5 57t57.5 24q33 0 57 -24t24 -57q0 -34 -24 -57.5t-57 -23.5zM444 717q-34 0 -57.5 23.5t-23.5 57.5q0 33 23.5 57t57.5 24t57.5 -24t23.5 -57q0 -34 -23.5 -57.5t-57.5 -23.5zM489 0l-40 91h-255l-37 -91h-162l290 665h72
l301 -665h-169zM239 204h161l-68 154l-16 46l-15 -46z" />
    <glyph glyph-name="Aring" unicode="&#xc5;" horiz-adv-x="648" 
d="M320 688q-54 0 -88.5 32t-34.5 81t34.5 81t88.5 32t89 -32.5t35 -80.5t-35 -80.5t-89 -32.5zM320 843q-18 0 -30.5 -12.5t-12.5 -29.5q0 -18 12 -30.5t31 -12.5t31.5 12.5t12.5 30.5t-12.5 30t-31.5 12zM489 0l-40 91h-255l-37 -91h-162l290 665h72l301 -665h-169z
M239 204h161l-68 154l-16 46l-15 -46z" />
    <glyph glyph-name="AE" unicode="&#xc6;" horiz-adv-x="869" 
d="M575 132h247v-132h-411v137h-190l-77 -137h-165l383 663h451v-133h-238v-123h219v-130h-219v-145zM285 252h126v234l-76 -145z" />
    <glyph glyph-name="Ccedilla" unicode="&#xc7;" horiz-adv-x="609" 
d="M416 531q-100 0 -154 -52t-54 -147q0 -94 55 -145.5t157 -51.5q75 0 141 28l4 -3v-147q-61 -21 -142 -24l-24 -32q7 1 15 0q44 -4 69 -27.5t25 -65.5q0 -57 -42.5 -82t-107.5 -25q-35 0 -67 8v66l4 2q20 -7 38 -7q56 0 56 36q1 17 -10 24.5t-31 7.5q-22 0 -35 -3l-2 4v57
l27 39q-134 17 -216 104.5t-82 228.5q0 164 97.5 259t255.5 95q90 0 172 -26v-152l-3 -2q-69 33 -146 33z" />
    <glyph glyph-name="Egrave" unicode="&#xc8;" horiz-adv-x="567" 
d="M398 699l-239 73l-8 16l72 120l207 -130zM240 133h279v-133h-441v663h432v-133h-270v-125h251v-130h-251v-142z" />
    <glyph glyph-name="Eacute" unicode="&#xc9;" horiz-adv-x="567" 
d="M439 772l-239 -73l-31 77l206 132l72 -120zM240 133h279v-133h-441v663h432v-133h-270v-125h251v-130h-251v-142z" />
    <glyph glyph-name="Ecircumflex" unicode="&#xca;" horiz-adv-x="567" 
d="M297 778l-118 -76l-47 62l130 135h73l136 -134l-49 -63zM240 133h279v-133h-441v663h432v-133h-270v-125h251v-130h-251v-142z" />
    <glyph glyph-name="Edieresis" unicode="&#xcb;" horiz-adv-x="567" 
d="M180 717q-34 0 -57.5 23.5t-23.5 57.5q0 33 23.5 57t57.5 24q33 0 57 -24t24 -57q0 -34 -24 -57.5t-57 -23.5zM426 717q-34 0 -57.5 23.5t-23.5 57.5q0 33 23.5 57t57.5 24t57.5 -24t23.5 -57q0 -34 -23.5 -57.5t-57.5 -23.5zM240 133h279v-133h-441v663h432v-133h-270
v-125h251v-130h-251v-142z" />
    <glyph glyph-name="Igrave" unicode="&#xcc;" horiz-adv-x="319" 
d="M256 699l-239 73l-8 16l72 120l207 -130zM78 0v663h163v-663h-163z" />
    <glyph glyph-name="Iacute" unicode="&#xcd;" horiz-adv-x="319" 
d="M58 699l-31 77l206 132l72 -120l-8 -16zM78 0v663h163v-663h-163z" />
    <glyph glyph-name="Icircumflex" unicode="&#xce;" horiz-adv-x="319" 
d="M37 702l-47 62l130 135h73l136 -134l-49 -63l-125 76zM78 0v663h163v-663h-163z" />
    <glyph glyph-name="Idieresis" unicode="&#xcf;" horiz-adv-x="319" 
d="M38 717q-34 0 -57.5 23.5t-23.5 57.5q0 33 23.5 57t57.5 24q33 0 57 -24t24 -57q0 -34 -24 -57.5t-57 -23.5zM284 717q-34 0 -57.5 23.5t-23.5 57.5q0 33 23.5 57t57.5 24t57.5 -24t23.5 -57q0 -34 -23.5 -57.5t-57.5 -23.5zM78 0v663h163v-663h-163z" />
    <glyph glyph-name="Eth" unicode="&#xd0;" horiz-adv-x="750" 
d="M347 672q170 0 266.5 -89.5t96.5 -244.5q0 -162 -101.5 -250.5t-277.5 -88.5q-203 0 -235 1v281h-78v100h78v282q150 9 251 9zM348 142q194 2 194 194q0 93 -54 141t-144 48q-55 0 -87 -4v-140h98v-100h-98v-137q27 -2 91 -2z" />
    <glyph glyph-name="Ntilde" unicode="&#xd1;" horiz-adv-x="740" 
d="M273 707l-94 26q1 57 35 95t88 38q32 0 72 -15.5t59 -15.5q14 0 25 10t11 25l3 2l93 -26q0 -58 -34 -95t-89 -37q-24 0 -66.5 15.5t-61.5 15.5q-17 0 -28 -11t-11 -25zM78 0v663h71l354 -356h3v356h156v-663h-71l-355 363h-3v-363h-155z" />
    <glyph glyph-name="Ograve" unicode="&#xd2;" horiz-adv-x="778" 
d="M485 699l-239 73l-8 16l72 120l207 -130zM389 -12q-69 0 -131 22t-111 63.5t-78 108.5t-29 150q0 159 98 252.5t251 93.5q93 0 171 -37.5t128.5 -118t50.5 -190.5q0 -158 -98.5 -251t-251.5 -93zM389 134q83 0 132 53t49 145t-49 145.5t-132 53.5t-131.5 -53t-48.5 -146
q0 -92 48.5 -145t131.5 -53z" />
    <glyph glyph-name="Oacute" unicode="&#xd3;" horiz-adv-x="778" 
d="M287 699l-31 77l206 132l72 -120l-8 -16zM389 -12q-69 0 -131 22t-111 63.5t-78 108.5t-29 150q0 159 98 252.5t251 93.5q93 0 171 -37.5t128.5 -118t50.5 -190.5q0 -158 -98.5 -251t-251.5 -93zM389 134q83 0 132 53t49 145t-49 145.5t-132 53.5t-131.5 -53t-48.5 -146
q0 -92 48.5 -145t131.5 -53z" />
    <glyph glyph-name="Ocircumflex" unicode="&#xd4;" horiz-adv-x="778" 
d="M266 702l-47 62l130 135h73l136 -134l-49 -63l-125 76zM389 -12q-69 0 -131 22t-111 63.5t-78 108.5t-29 150q0 159 98 252.5t251 93.5q93 0 171 -37.5t128.5 -118t50.5 -190.5q0 -158 -98.5 -251t-251.5 -93zM389 134q83 0 132 53t49 145t-49 145.5t-132 53.5
t-131.5 -53t-48.5 -146q0 -92 48.5 -145t131.5 -53z" />
    <glyph glyph-name="Otilde" unicode="&#xd5;" horiz-adv-x="778" 
d="M291 707l-94 26q1 57 35 95t88 38q32 0 72 -15.5t59 -15.5q14 0 25 10t11 25l3 2l93 -26q0 -58 -34 -95t-89 -37q-24 0 -66.5 15.5t-61.5 15.5q-17 0 -28 -11t-11 -25zM389 -12q-69 0 -131 22t-111 63.5t-78 108.5t-29 150q0 159 98 252.5t251 93.5q93 0 171 -37.5
t128.5 -118t50.5 -190.5q0 -158 -98.5 -251t-251.5 -93zM389 134q83 0 132 53t49 145t-49 145.5t-132 53.5t-131.5 -53t-48.5 -146q0 -92 48.5 -145t131.5 -53z" />
    <glyph glyph-name="Odieresis" unicode="&#xd6;" horiz-adv-x="778" 
d="M267 717q-34 0 -57.5 23.5t-23.5 57.5q0 33 23.5 57t57.5 24q33 0 57 -24t24 -57q0 -34 -24 -57.5t-57 -23.5zM513 717q-34 0 -57.5 23.5t-23.5 57.5q0 33 23.5 57t57.5 24t57.5 -24t23.5 -57q0 -34 -23.5 -57.5t-57.5 -23.5zM389 -12q-69 0 -131 22t-111 63.5t-78 108.5
t-29 150q0 159 98 252.5t251 93.5q93 0 171 -37.5t128.5 -118t50.5 -190.5q0 -158 -98.5 -251t-251.5 -93zM389 134q83 0 132 53t49 145t-49 145.5t-132 53.5t-131.5 -53t-48.5 -146q0 -92 48.5 -145t131.5 -53z" />
    <glyph glyph-name="multiply" unicode="&#xd7;" horiz-adv-x="530" 
d="M486 435l-143 -143l143 -143l-78 -77l-143 143l-143 -143l-78 77l143 143l-143 143l78 78l143 -143l143 143z" />
    <glyph glyph-name="Oslash" unicode="&#xd8;" horiz-adv-x="778" 
d="M740 680v-11l-86 -100q85 -93 85 -237q0 -158 -98.5 -251t-251.5 -93q-107 0 -193 50l-45 -53h-112v13l84 99q-83 91 -83 235q0 159 98 252.5t251 93.5q103 0 188 -47l42 49h121zM209 332q0 -63 23 -107l244 287q-40 19 -87 19q-83 0 -131.5 -53t-48.5 -146zM570 332
q0 64 -25 111l-247 -287q38 -22 91 -22q83 0 132 53t49 145z" />
    <glyph glyph-name="Ugrave" unicode="&#xd9;" horiz-adv-x="721" 
d="M457 699l-239 73l-8 16l72 120l207 -130zM361 -13q-141 0 -216.5 72t-75.5 207v397h162v-377q0 -162 132 -162q131 0 131 162v377h158v-397q0 -133 -76.5 -206t-214.5 -73z" />
    <glyph glyph-name="Uacute" unicode="&#xda;" horiz-adv-x="721" 
d="M259 699l-31 77l206 132l72 -120l-8 -16zM361 -13q-141 0 -216.5 72t-75.5 207v397h162v-377q0 -162 132 -162q131 0 131 162v377h158v-397q0 -133 -76.5 -206t-214.5 -73z" />
    <glyph glyph-name="Ucircumflex" unicode="&#xdb;" horiz-adv-x="721" 
d="M238 702l-47 62l130 135h73l136 -134l-49 -63l-125 76zM361 -13q-141 0 -216.5 72t-75.5 207v397h162v-377q0 -162 132 -162q131 0 131 162v377h158v-397q0 -133 -76.5 -206t-214.5 -73z" />
    <glyph glyph-name="Udieresis" unicode="&#xdc;" horiz-adv-x="721" 
d="M239 717q-34 0 -57.5 23.5t-23.5 57.5q0 33 23.5 57t57.5 24q33 0 57 -24t24 -57q0 -34 -24 -57.5t-57 -23.5zM485 717q-34 0 -57.5 23.5t-23.5 57.5q0 33 23.5 57t57.5 24t57.5 -24t23.5 -57q0 -34 -23.5 -57.5t-57.5 -23.5zM361 -13q-141 0 -216.5 72t-75.5 207v397
h162v-377q0 -162 132 -162q131 0 131 162v377h158v-397q0 -133 -76.5 -206t-214.5 -73z" />
    <glyph glyph-name="Yacute" unicode="&#xdd;" horiz-adv-x="622" 
d="M211 699l-31 77l206 132l72 -120l-8 -16zM231 0v259l-235 400l2 4h175l143 -257l140 257h166l1 -4l-230 -402v-257h-162z" />
    <glyph glyph-name="Thorn" unicode="&#xde;" horiz-adv-x="603" 
d="M567 349q1 -123 -72 -185.5t-193 -62.5q-21 0 -63 2v-103h-161v663h161v-100q33 3 70 3q38 0 73 -6.5t69 -22.5t59.5 -40t41 -62t15.5 -86zM281 231q123 0 123 102q0 46 -30.5 70t-82.5 24q-28 0 -52 -2v-192q32 -2 42 -2z" />
    <glyph glyph-name="germandbls" unicode="&#xdf;" horiz-adv-x="658" 
d="M550 301q34 -29 48 -43.5t26.5 -42.5t12.5 -65q0 -74 -55.5 -119t-128.5 -45q-81 0 -139 28v131l4 2q47 -44 108 -44q54 0 54 37q0 20 -13 34t-60 47q-51 38 -70 62.5t-19 66.5q0 29 12 52.5t26 37t26 33t12 39.5q0 32 -21 46.5t-50 14.5q-49 0 -71.5 -28.5t-22.5 -87.5
v-457h-164v471q0 116 70 181t185 65q42 0 80 -8.5t75 -28t59 -58t22 -91.5q0 -41 -17.5 -69.5t-35 -47t-17.5 -35.5q0 -20 13 -34.5t51 -43.5z" />
    <glyph glyph-name="agrave" unicode="&#xe0;" horiz-adv-x="657" 
d="M392 557l-223 100l-4 18l96 113l178 -158zM625 150l3 -2v-137q-39 -18 -89 -18q-91 0 -115 68q-23 -32 -65 -53.5t-97 -21.5q-101 0 -163.5 69.5t-62.5 191.5q0 127 74.5 205t188.5 78q81 0 132 -37l5 23h132v-344q0 -30 29 -30q16 0 28 8zM311 134q30 0 56.5 15t37.5 41
v174q-34 27 -86 27q-49 0 -81.5 -37.5t-32.5 -96.5q0 -60 29 -91.5t77 -31.5z" />
    <glyph glyph-name="aacute" unicode="&#xe1;" horiz-adv-x="657" 
d="M461 657l-223 -100l-48 73l179 158l96 -113zM625 150l3 -2v-137q-39 -18 -89 -18q-91 0 -115 68q-23 -32 -65 -53.5t-97 -21.5q-101 0 -163.5 69.5t-62.5 191.5q0 127 74.5 205t188.5 78q81 0 132 -37l5 23h132v-344q0 -30 29 -30q16 0 28 8zM311 134q30 0 56.5 15
t37.5 41v174q-34 27 -86 27q-49 0 -81.5 -37.5t-32.5 -96.5q0 -60 29 -91.5t77 -31.5z" />
    <glyph glyph-name="acircumflex" unicode="&#xe2;" horiz-adv-x="657" 
d="M318 651l-105 -82l-55 53l123 151h75l127 -151l-55 -53zM625 150l3 -2v-137q-39 -18 -89 -18q-91 0 -115 68q-23 -32 -65 -53.5t-97 -21.5q-101 0 -163.5 69.5t-62.5 191.5q0 127 74.5 205t188.5 78q81 0 132 -37l5 23h132v-344q0 -30 29 -30q16 0 28 8zM311 134
q30 0 56.5 15t37.5 41v174q-34 27 -86 27q-49 0 -81.5 -37.5t-32.5 -96.5q0 -60 29 -91.5t77 -31.5z" />
    <glyph glyph-name="atilde" unicode="&#xe3;" horiz-adv-x="657" 
d="M229 594l-4 -3l-97 26q0 54 32.5 94.5t88.5 40.5q32 0 73 -16t61 -16q17 0 27.5 10.5t10.5 26.5l3 2l98 -26q0 -62 -35.5 -98.5t-89.5 -36.5q-29 -1 -71.5 15.5t-58.5 16.5q-18 0 -28 -10t-10 -26zM625 150l3 -2v-137q-39 -18 -89 -18q-91 0 -115 68q-23 -32 -65 -53.5
t-97 -21.5q-101 0 -163.5 69.5t-62.5 191.5q0 127 74.5 205t188.5 78q81 0 132 -37l5 23h132v-344q0 -30 29 -30q16 0 28 8zM311 134q30 0 56.5 15t37.5 41v174q-34 27 -86 27q-49 0 -81.5 -37.5t-32.5 -96.5q0 -60 29 -91.5t77 -31.5z" />
    <glyph glyph-name="adieresis" unicode="&#xe4;" horiz-adv-x="657" 
d="M204 584q-38 0 -65 26.5t-27 64.5t27 65t65 27t65 -27.5t27 -64.5t-27 -64t-65 -27zM437 584q-38 0 -65 26.5t-27 64.5t27 65t65 27q37 0 64.5 -27.5t27.5 -64.5t-27 -64t-65 -27zM625 150l3 -2v-137q-39 -18 -89 -18q-91 0 -115 68q-23 -32 -65 -53.5t-97 -21.5
q-101 0 -163.5 69.5t-62.5 191.5q0 127 74.5 205t188.5 78q81 0 132 -37l5 23h132v-344q0 -30 29 -30q16 0 28 8zM311 134q30 0 56.5 15t37.5 41v174q-34 27 -86 27q-49 0 -81.5 -37.5t-32.5 -96.5q0 -60 29 -91.5t77 -31.5z" />
    <glyph glyph-name="aring" unicode="&#xe5;" horiz-adv-x="657" 
d="M320 552q-56 0 -91.5 35.5t-35.5 88.5q0 52 36 87.5t91 35.5q56 0 92 -35.5t36 -87.5q0 -53 -36 -88.5t-92 -35.5zM320 721q-20 0 -33.5 -13t-13.5 -32q0 -20 13.5 -33.5t33.5 -13.5q22 0 35 13.5t13 33.5q0 19 -13.5 32t-34.5 13zM625 150l3 -2v-137q-39 -18 -89 -18
q-91 0 -115 68q-23 -32 -65 -53.5t-97 -21.5q-101 0 -163.5 69.5t-62.5 191.5q0 127 74.5 205t188.5 78q81 0 132 -37l5 23h132v-344q0 -30 29 -30q16 0 28 8zM311 134q30 0 56.5 15t37.5 41v174q-34 27 -86 27q-49 0 -81.5 -37.5t-32.5 -96.5q0 -60 29 -91.5t77 -31.5z" />
    <glyph glyph-name="ae" unicode="&#xe6;" horiz-adv-x="881" 
d="M596 530q114 0 180 -62.5t68 -185.5q0 -24 -2 -70h-339q21 -99 126 -99q96 0 175 41l4 -2v-123q-79 -43 -193 -43q-144 0 -221 90q-84 -89 -194 -89q-84 0 -129 40t-45 106q0 42 17.5 73t45 49t70 28.5t82 14.5t92.5 5q-8 88 -114 88q-90 0 -144 -30l-3 2v130
q21 14 69.5 25.5t108.5 11.5q116 0 177 -58q69 58 169 58zM501 303h185q-7 96 -90 96q-79 0 -95 -96zM241 108q33 0 62.5 13.5t46.5 31.5q-10 31 -13 59q-77 -2 -114 -15t-37 -45q0 -19 14.5 -31.5t40.5 -12.5z" />
    <glyph glyph-name="ccedilla" unicode="&#xe7;" horiz-adv-x="494" 
d="M338 391q-64 0 -99 -34.5t-35 -95.5t35.5 -97.5t98.5 -37.5q55 0 111 29l5 -4v-139q-48 -23 -119 -26l-22 -29q7 1 15 0q44 -4 69 -27.5t25 -65.5q0 -57 -42.5 -82t-107.5 -25q-35 0 -67 8v66l4 2q20 -7 38 -7q56 0 56 36q1 17 -10 24.5t-31 7.5q-22 0 -35 -3l-2 4v57
l28 40q-98 19 -157.5 87.5t-59.5 176.5q0 128 77.5 201t204.5 73q75 0 136 -22v-137l-6 -3q-57 23 -110 23z" />
    <glyph glyph-name="egrave" unicode="&#xe8;" horiz-adv-x="586" 
d="M370 557l-223 100l-4 18l96 113l178 -158zM302 530q114 0 180.5 -64t68.5 -182q0 -23 -2 -69h-344q22 -98 148 -98q80 0 160 36l4 -2v-126q-77 -39 -195 -39q-54 0 -103 15t-91 45.5t-67 85t-25 126.5q0 122 74.5 197t191.5 75zM204 307h189q-9 92 -91 92q-80 0 -98 -92z
" />
    <glyph glyph-name="eacute" unicode="&#xe9;" horiz-adv-x="586" 
d="M439 657l-223 -100l-48 73l179 158l96 -113zM302 530q114 0 180.5 -64t68.5 -182q0 -23 -2 -69h-344q22 -98 148 -98q80 0 160 36l4 -2v-126q-77 -39 -195 -39q-54 0 -103 15t-91 45.5t-67 85t-25 126.5q0 122 74.5 197t191.5 75zM204 307h189q-9 92 -91 92
q-80 0 -98 -92z" />
    <glyph glyph-name="ecircumflex" unicode="&#xea;" horiz-adv-x="586" 
d="M296 651l-105 -82l-55 53l123 151h75l127 -151l-55 -53zM302 530q114 0 180.5 -64t68.5 -182q0 -23 -2 -69h-344q22 -98 148 -98q80 0 160 36l4 -2v-126q-77 -39 -195 -39q-54 0 -103 15t-91 45.5t-67 85t-25 126.5q0 122 74.5 197t191.5 75zM204 307h189q-9 92 -91 92
q-80 0 -98 -92z" />
    <glyph glyph-name="edieresis" unicode="&#xeb;" horiz-adv-x="586" 
d="M182 584q-38 0 -65 26.5t-27 64.5t27 65t65 27t65 -27.5t27 -64.5t-27 -64t-65 -27zM415 584q-38 0 -65 26.5t-27 64.5t27 65t65 27q37 0 64.5 -27.5t27.5 -64.5t-27 -64t-65 -27zM302 530q114 0 180.5 -64t68.5 -182q0 -23 -2 -69h-344q22 -98 148 -98q80 0 160 36l4 -2
v-126q-77 -39 -195 -39q-54 0 -103 15t-91 45.5t-67 85t-25 126.5q0 122 74.5 197t191.5 75zM204 307h189q-9 92 -91 92q-80 0 -98 -92z" />
    <glyph glyph-name="igrave" unicode="&#xec;" horiz-adv-x="294" 
d="M219 557l-223 100l-4 18l96 113l178 -158zM65 0v516h164v-516h-164z" />
    <glyph glyph-name="iacute" unicode="&#xed;" horiz-adv-x="294" 
d="M65 557l-48 73l179 158l96 -113l-4 -18zM65 0v516h164v-516h-164z" />
    <glyph glyph-name="icircumflex" unicode="&#xee;" horiz-adv-x="294" 
d="M40 569l-55 53l123 151h75l127 -151l-55 -53l-110 82zM65 0v516h164v-516h-164z" />
    <glyph glyph-name="idieresis" unicode="&#xef;" horiz-adv-x="294" 
d="M46 584q-38 0 -65 26.5t-27 64.5t27 65t65 27t65 -27.5t27 -64.5t-27 -64t-65 -27zM248 584q-38 0 -64.5 26.5t-26.5 64.5t26.5 65t64.5 27t65 -27.5t27 -64.5t-27 -64t-65 -27zM65 0v516h164v-516h-164z" />
    <glyph glyph-name="eth" unicode="&#xf0;" horiz-adv-x="651" 
d="M439 681q168 -88 168 -359q0 -156 -78.5 -246t-215.5 -90q-127 0 -201.5 65t-74.5 177q0 107 69.5 173t180.5 66q81 0 138 -37q-19 100 -79 133l-54 -68l-79 61l23 29q-67 -2 -117 -19l-4 4v132q52 19 141 19q47 0 83 -7l55 69l78 -61zM317 125q54 0 83 33.5t34 107.5
q-13 30 -44 51.5t-72 21.5q-51 0 -80.5 -31.5t-29.5 -75.5q0 -45 28 -76t81 -31z" />
    <glyph glyph-name="ntilde" unicode="&#xf1;" horiz-adv-x="633" 
d="M221 594l-4 -3l-97 26q0 54 32.5 94.5t88.5 40.5q32 0 73 -16t61 -16q17 0 27.5 10.5t10.5 26.5l3 2l98 -26q0 -62 -35.5 -98.5t-89.5 -36.5q-29 -1 -71.5 15.5t-58.5 16.5q-18 0 -28 -10t-10 -26zM380 530q87 0 140.5 -58t53.5 -157v-315h-163v270q0 102 -90 102
q-32 0 -58 -18.5t-34 -49.5v-304h-164v516h133l16 -69q53 83 166 83z" />
    <glyph glyph-name="ograve" unicode="&#xf2;" horiz-adv-x="637" 
d="M390 557l-223 100l-4 18l96 113l178 -158zM318 -14q-119 0 -200.5 70t-81.5 202q0 124 79 198t203 74q120 0 201.5 -69.5t81.5 -201.5q0 -125 -79.5 -199t-203.5 -74zM318 126q54 0 84.5 36.5t30.5 96.5q0 59 -30.5 95t-84.5 36t-84 -36t-30 -95q0 -61 29.5 -97t84.5 -36
z" />
    <glyph glyph-name="oacute" unicode="&#xf3;" horiz-adv-x="637" 
d="M236 557l-48 73l179 158l96 -113l-4 -18zM318 -14q-119 0 -200.5 70t-81.5 202q0 124 79 198t203 74q120 0 201.5 -69.5t81.5 -201.5q0 -125 -79.5 -199t-203.5 -74zM318 126q54 0 84.5 36.5t30.5 96.5q0 59 -30.5 95t-84.5 36t-84 -36t-30 -95q0 -61 29.5 -97t84.5 -36z
" />
    <glyph glyph-name="ocircumflex" unicode="&#xf4;" horiz-adv-x="637" 
d="M211 569l-55 53l123 151h75l127 -151l-55 -53l-110 82zM318 -14q-119 0 -200.5 70t-81.5 202q0 124 79 198t203 74q120 0 201.5 -69.5t81.5 -201.5q0 -125 -79.5 -199t-203.5 -74zM318 126q54 0 84.5 36.5t30.5 96.5q0 59 -30.5 95t-84.5 36t-84 -36t-30 -95
q0 -61 29.5 -97t84.5 -36z" />
    <glyph glyph-name="otilde" unicode="&#xf5;" horiz-adv-x="637" 
d="M223 591l-97 26q0 54 32.5 94.5t88.5 40.5q32 0 73 -16t61 -16q17 0 27.5 10.5t10.5 26.5l3 2l98 -26q0 -62 -35.5 -98.5t-89.5 -36.5q-29 -1 -71.5 15.5t-58.5 16.5q-18 0 -28 -10t-10 -26zM318 -14q-119 0 -200.5 70t-81.5 202q0 124 79 198t203 74q120 0 201.5 -69.5
t81.5 -201.5q0 -125 -79.5 -199t-203.5 -74zM318 126q54 0 84.5 36.5t30.5 96.5q0 59 -30.5 95t-84.5 36t-84 -36t-30 -95q0 -61 29.5 -97t84.5 -36z" />
    <glyph glyph-name="odieresis" unicode="&#xf6;" horiz-adv-x="637" 
d="M202 584q-38 0 -65 26.5t-27 64.5t27 65t65 27t65 -27.5t27 -64.5t-27 -64t-65 -27zM435 584q-38 0 -65 26.5t-27 64.5t27 65t65 27q37 0 64.5 -27.5t27.5 -64.5t-27 -64t-65 -27zM318 -14q-119 0 -200.5 70t-81.5 202q0 124 79 198t203 74q120 0 201.5 -69.5
t81.5 -201.5q0 -125 -79.5 -199t-203.5 -74zM318 126q54 0 84.5 36.5t30.5 96.5q0 59 -30.5 95t-84.5 36t-84 -36t-30 -95q0 -61 29.5 -97t84.5 -36z" />
    <glyph glyph-name="divide" unicode="&#xf7;" horiz-adv-x="558" 
d="M279 393q-44 0 -66.5 23t-22.5 59q0 37 22.5 61t66.5 24t67 -24t23 -61q0 -36 -23 -59t-67 -23zM37 246v109h485v-109h-485zM279 38q-44 0 -66.5 23t-22.5 59t23 60.5t66 24.5t66.5 -24.5t23.5 -60.5t-23 -59t-67 -23z" />
    <glyph glyph-name="oslash" unicode="&#xf8;" horiz-adv-x="637" 
d="M616 537v-10l-76 -88q61 -71 61 -180q0 -125 -79.5 -199t-203.5 -74q-79 0 -141 31l-33 -39h-109v14l67 79q-66 74 -66 187q0 124 79 198t203 74q80 0 146 -32l34 39h118zM204 259q0 -32 9 -58l153 180q-21 9 -48 9q-54 0 -84 -36t-30 -95zM433 259q0 25 -6 48l-150 -174
q17 -7 41 -7q54 0 84.5 36.5t30.5 96.5z" />
    <glyph glyph-name="ugrave" unicode="&#xf9;" horiz-adv-x="623" 
d="M387 557l-223 100l-4 18l96 113l178 -158zM394 516h164v-516h-133l-16 71q-51 -85 -171 -85q-85 0 -131.5 51t-46.5 140v339h163v-301q0 -89 82 -89q69 0 89 60v330z" />
    <glyph glyph-name="uacute" unicode="&#xfa;" horiz-adv-x="623" 
d="M456 657l-223 -100l-48 73l179 158l96 -113zM394 516h164v-516h-133l-16 71q-51 -85 -171 -85q-85 0 -131.5 51t-46.5 140v339h163v-301q0 -89 82 -89q69 0 89 60v330z" />
    <glyph glyph-name="ucircumflex" unicode="&#xfb;" horiz-adv-x="623" 
d="M313 651l-105 -82l-55 53l123 151h75l127 -151l-55 -53zM394 516h164v-516h-133l-16 71q-51 -85 -171 -85q-85 0 -131.5 51t-46.5 140v339h163v-301q0 -89 82 -89q69 0 89 60v330z" />
    <glyph glyph-name="udieresis" unicode="&#xfc;" horiz-adv-x="623" 
d="M199 584q-38 0 -65 26.5t-27 64.5t27 65t65 27q37 0 64.5 -27.5t27.5 -64.5t-27 -64t-65 -27zM432 584q-38 0 -65 26.5t-27 64.5t27 65t65 27t65 -27.5t27 -64.5t-27 -64t-65 -27zM394 516h164v-516h-133l-16 71q-51 -85 -171 -85q-85 0 -131.5 51t-46.5 140v339h163
v-301q0 -89 82 -89q69 0 89 60v330z" />
    <glyph glyph-name="yacute" unicode="&#xfd;" horiz-adv-x="549" 
d="M422 657l-223 -100l-48 73l179 158l96 -113zM545 516l1 -4l-216 -518l-65 -158h-169l-2 3l106 211l-192 462l1 4h173l97 -295l102 295h164z" />
    <glyph glyph-name="thorn" unicode="&#xfe;" horiz-adv-x="635" 
d="M376 530q104 0 163.5 -71.5t59.5 -190.5q0 -127 -76 -204.5t-188 -77.5q-61 0 -106 21v-171h-164v874h164v-233q59 53 147 53zM314 127q53 0 85 34.5t32 97.5q0 65 -30 95t-77 30q-32 0 -58.5 -16t-36.5 -41v-183q37 -17 85 -17z" />
    <glyph glyph-name="ydieresis" unicode="&#xff;" horiz-adv-x="549" 
d="M165 584q-38 0 -65 26.5t-27 64.5t27 65t65 27q37 0 64.5 -27.5t27.5 -64.5t-27 -64t-65 -27zM398 584q-38 0 -65 26.5t-27 64.5t27 65t65 27t65 -27.5t27 -64.5t-27 -64t-65 -27zM545 516l1 -4l-216 -518l-65 -158h-169l-2 3l106 211l-192 462l1 4h173l97 -295l102 295
h164z" />
    <glyph glyph-name="Amacron" unicode="&#x100;" horiz-adv-x="648" 
d="M483 839v-101h-328v101h328zM489 0l-40 91h-255l-37 -91h-162l290 665h72l301 -665h-169zM239 204h161l-68 154l-16 46l-15 -46z" />
    <glyph glyph-name="amacron" unicode="&#x101;" horiz-adv-x="657" 
d="M475 707v-100h-312v100h312zM625 150l3 -2v-137q-39 -18 -89 -18q-91 0 -115 68q-23 -32 -65 -53.5t-97 -21.5q-101 0 -163.5 69.5t-62.5 191.5q0 127 74.5 205t188.5 78q81 0 132 -37l5 23h132v-344q0 -30 29 -30q16 0 28 8zM311 134q30 0 56.5 15t37.5 41v174
q-34 27 -86 27q-49 0 -81.5 -37.5t-32.5 -96.5q0 -60 29 -91.5t77 -31.5z" />
    <glyph glyph-name="Abreve" unicode="&#x102;" horiz-adv-x="648" 
d="M318 712q-70 0 -118.5 44.5t-48.5 117.5l99 10q3 -33 20.5 -52.5t49.5 -19.5q34 0 54 20t22 52l93 -10q0 -73 -50 -117.5t-121 -44.5zM489 0l-40 91h-255l-37 -91h-162l290 665h72l301 -665h-169zM239 204h161l-68 154l-16 46l-15 -46z" />
    <glyph glyph-name="abreve" unicode="&#x103;" horiz-adv-x="657" 
d="M319 574q-68 0 -115.5 44.5t-47.5 119.5l97 11l4 -4q2 -29 18 -47t45 -18q30 0 48.5 18.5t21.5 46.5l3 3l91 -10q0 -75 -47.5 -119.5t-117.5 -44.5zM625 150l3 -2v-137q-39 -18 -89 -18q-91 0 -115 68q-23 -32 -65 -53.5t-97 -21.5q-101 0 -163.5 69.5t-62.5 191.5
q0 127 74.5 205t188.5 78q81 0 132 -37l5 23h132v-344q0 -30 29 -30q16 0 28 8zM311 134q30 0 56.5 15t37.5 41v174q-34 27 -86 27q-49 0 -81.5 -37.5t-32.5 -96.5q0 -60 29 -91.5t77 -31.5z" />
    <glyph glyph-name="Aogonek" unicode="&#x104;" horiz-adv-x="648" 
d="M620 0q-84 -48 -84 -110q0 -45 44 -45q14 0 30 3l4 -3v-80q-29 -8 -68 -8q-58 0 -95.5 24.5t-37.5 71.5q0 83 108 147h-32l-40 91h-255l-37 -91h-162l290 665h72l301 -665h-38zM239 204h161l-68 154l-16 46l-15 -46z" />
    <glyph glyph-name="aogonek" unicode="&#x105;" horiz-adv-x="657" 
d="M628 148v-137l-1 -1h-1q-84 -48 -84 -110q0 -45 44 -45q14 0 30 3l4 -3v-80q-29 -8 -68 -8q-58 0 -95.5 24.5t-37.5 71.5q0 76 85 133q-61 11 -80 65q-23 -32 -65 -53.5t-97 -21.5q-101 0 -163.5 69.5t-62.5 191.5q0 127 74.5 205t188.5 78q81 0 132 -37l5 23h132v-344
q0 -30 29 -30q16 0 28 8zM311 134q30 0 56.5 15t37.5 41v174q-34 27 -86 27q-49 0 -81.5 -37.5t-32.5 -96.5q0 -60 29 -91.5t77 -31.5z" />
    <glyph glyph-name="Cacute" unicode="&#x106;" horiz-adv-x="609" 
d="M266 699l-31 77l206 132l72 -120l-8 -16zM396 -12q-157 0 -256.5 90t-99.5 246q0 164 97.5 259t255.5 95q90 0 172 -26v-152l-3 -2q-69 33 -146 33q-100 0 -154 -52t-54 -147q0 -94 55 -145.5t157 -51.5q75 0 141 28l4 -3v-147q-73 -25 -169 -25z" />
    <glyph glyph-name="cacute" unicode="&#x107;" horiz-adv-x="494" 
d="M207 568l-48 73l179 158l96 -113l-4 -18zM323 -14q-126 0 -206.5 71.5t-80.5 198.5q0 128 77.5 201t204.5 73q75 0 136 -22v-137l-6 -3q-57 23 -110 23q-64 0 -99 -34.5t-35 -95.5t35.5 -97.5t98.5 -37.5q55 0 111 29l5 -4v-139q-54 -26 -131 -26z" />
    <glyph glyph-name="Cdotaccent" unicode="&#x10a;" horiz-adv-x="609" 
d="M368 710q-38 0 -65.5 27t-27.5 66t27.5 66.5t65.5 27.5q39 0 66.5 -27.5t27.5 -66.5t-27.5 -66t-66.5 -27zM396 -12q-157 0 -256.5 90t-99.5 246q0 164 97.5 259t255.5 95q90 0 172 -26v-152l-3 -2q-69 33 -146 33q-100 0 -154 -52t-54 -147q0 -94 55 -145.5t157 -51.5
q75 0 141 28l4 -3v-147q-73 -25 -169 -25z" />
    <glyph glyph-name="cdotaccent" unicode="&#x10b;" horiz-adv-x="494" 
d="M289 590q-40 0 -68.5 28.5t-28.5 68.5t28.5 68.5t68.5 28.5t68.5 -28.5t28.5 -68.5t-28.5 -68.5t-68.5 -28.5zM323 -14q-126 0 -206.5 71.5t-80.5 198.5q0 128 77.5 201t204.5 73q75 0 136 -22v-137l-6 -3q-57 23 -110 23q-64 0 -99 -34.5t-35 -95.5t35.5 -97.5
t98.5 -37.5q55 0 111 29l5 -4v-139q-54 -26 -131 -26z" />
    <glyph glyph-name="Ccaron" unicode="&#x10c;" horiz-adv-x="609" 
d="M334 703l-136 128l49 64l125 -77l118 77l47 -62l-130 -130h-73zM396 -12q-157 0 -256.5 90t-99.5 246q0 164 97.5 259t255.5 95q90 0 172 -26v-152l-3 -2q-69 33 -146 33q-100 0 -154 -52t-54 -147q0 -94 55 -145.5t157 -51.5q75 0 141 28l4 -3v-147q-73 -25 -169 -25z
" />
    <glyph glyph-name="ccaron" unicode="&#x10d;" horiz-adv-x="494" 
d="M255 580l-128 152l56 52l110 -81l104 81l55 -52l-122 -152h-75zM323 -14q-126 0 -206.5 71.5t-80.5 198.5q0 128 77.5 201t204.5 73q75 0 136 -22v-137l-6 -3q-57 23 -110 23q-64 0 -99 -34.5t-35 -95.5t35.5 -97.5t98.5 -37.5q55 0 111 29l5 -4v-139q-54 -26 -131 -26z
" />
    <glyph glyph-name="Dcaron" unicode="&#x10e;" horiz-adv-x="733" 
d="M375 703h-73l-136 128l49 64l125 -77l118 77l47 -62zM329 672q170 0 266.5 -89.5t96.5 -244.5q0 -162 -101.5 -250.5t-277.5 -88.5q-203 0 -235 1v663q150 9 251 9zM330 142q194 2 194 194q0 93 -54 141t-144 48q-55 0 -87 -4v-377q27 -2 91 -2z" />
    <glyph glyph-name="dcaron" unicode="&#x10f;" horiz-adv-x="704" 
d="M735 714l13 -14l-45 -232h-87l7 246h112zM597 142q15 0 29 9l3 -2l-1 -138q-39 -18 -89 -18q-91 0 -115 67q-23 -32 -65 -53t-96 -21q-100 0 -163 67.5t-63 193.5t74.5 204.5t190.5 78.5q61 0 103 -17v197h164v-538q0 -30 28 -30zM311 134q30 0 56.5 15t37.5 41v180
q-35 21 -82 21q-53 0 -85.5 -35.5t-32.5 -97.5q0 -63 29 -93.5t77 -30.5z" />
    <glyph glyph-name="Dcroat" unicode="&#x110;" horiz-adv-x="750" 
d="M347 672q170 0 266.5 -89.5t96.5 -244.5q0 -162 -101.5 -250.5t-277.5 -88.5q-203 0 -235 1v281h-78v100h78v282q150 9 251 9zM348 142q194 2 194 194q0 93 -54 141t-144 48q-55 0 -87 -4v-140h98v-100h-98v-137q27 -2 91 -2z" />
    <glyph glyph-name="dcroat" unicode="&#x111;" horiz-adv-x="658" 
d="M569 566v-394q0 -30 30 -30q15 0 26 9l4 -2l-1 -138q-39 -18 -89 -18q-91 0 -115 67q-23 -32 -65 -53t-96 -21q-100 0 -163 67.5t-63 193.5t74.5 204.5t190.5 78.5q61 0 103 -17v53h-102v100h102v44h164v-44h72v-100h-72zM405 190v180q-35 21 -82 21q-53 0 -85.5 -35.5
t-32.5 -97.5q0 -63 29 -93.5t77 -30.5q30 0 56.5 15t37.5 41z" />
    <glyph glyph-name="Emacron" unicode="&#x112;" horiz-adv-x="567" 
d="M465 839v-101h-328v101h328zM240 133h279v-133h-441v663h432v-133h-270v-125h251v-130h-251v-142z" />
    <glyph glyph-name="emacron" unicode="&#x113;" horiz-adv-x="586" 
d="M453 707v-100h-312v100h312zM302 530q114 0 180.5 -64t68.5 -182q0 -23 -2 -69h-344q22 -98 148 -98q80 0 160 36l4 -2v-126q-77 -39 -195 -39q-54 0 -103 15t-91 45.5t-67 85t-25 126.5q0 122 74.5 197t191.5 75zM204 307h189q-9 92 -91 92q-80 0 -98 -92z" />
    <glyph glyph-name="Edotaccent" unicode="&#x116;" horiz-adv-x="567" 
d="M302 710q-38 0 -65.5 27t-27.5 66t27.5 66.5t65.5 27.5q39 0 66.5 -27.5t27.5 -66.5t-27.5 -66t-66.5 -27zM240 133h279v-133h-441v663h432v-133h-270v-125h251v-130h-251v-142z" />
    <glyph glyph-name="edotaccent" unicode="&#x117;" horiz-adv-x="586" 
d="M298 579q-40 0 -68.5 28.5t-28.5 68.5t28.5 68.5t68.5 28.5t68.5 -28.5t28.5 -68.5t-28.5 -68.5t-68.5 -28.5zM302 530q114 0 180.5 -64t68.5 -182q0 -23 -2 -69h-344q22 -98 148 -98q80 0 160 36l4 -2v-126q-77 -39 -195 -39q-54 0 -103 15t-91 45.5t-67 85t-25 126.5
q0 122 74.5 197t191.5 75zM204 307h189q-9 92 -91 92q-80 0 -98 -92z" />
    <glyph glyph-name="Eogonek" unicode="&#x118;" horiz-adv-x="567" 
d="M519 0q-84 -48 -84 -110q0 -45 44 -45q13 0 30 3l4 -3v-80q-29 -8 -68 -8q-58 0 -95.5 24.5t-37.5 71.5q0 83 108 147h-342v663h432v-133h-270v-125h251v-130h-251v-142h279v-133z" />
    <glyph glyph-name="eogonek" unicode="&#x119;" horiz-adv-x="586" 
d="M302 530q114 0 180.5 -64t68.5 -182q0 -23 -2 -69h-344q22 -98 148 -98q80 0 160 36l4 -2v-126q-26 -13 -61 -23q-72 -46 -72 -103q0 -45 44 -45q14 0 30 3l4 -3v-80q-29 -8 -68 -8q-58 0 -95.5 24.5t-37.5 71.5q0 70 73 124h-12q-54 0 -103 15t-91 45.5t-67 85
t-25 126.5q0 122 74.5 197t191.5 75zM204 307h189q-9 92 -91 92q-80 0 -98 -92z" />
    <glyph glyph-name="Ecaron" unicode="&#x11a;" horiz-adv-x="567" 
d="M341 703h-73l-136 128l49 64l125 -77l118 77l47 -62zM240 133h279v-133h-441v663h432v-133h-270v-125h251v-130h-251v-142z" />
    <glyph glyph-name="ecaron" unicode="&#x11b;" horiz-adv-x="586" 
d="M339 569h-75l-128 152l56 52l110 -81l104 81l55 -52zM302 530q114 0 180.5 -64t68.5 -182q0 -23 -2 -69h-344q22 -98 148 -98q80 0 160 36l4 -2v-126q-77 -39 -195 -39q-54 0 -103 15t-91 45.5t-67 85t-25 126.5q0 122 74.5 197t191.5 75zM204 307h189q-9 92 -91 92
q-80 0 -98 -92z" />
    <glyph glyph-name="Gbreve" unicode="&#x11e;" horiz-adv-x="681" 
d="M379 712q-70 0 -118.5 44.5t-48.5 117.5l99 10q3 -33 20.5 -52.5t49.5 -19.5q33 0 53.5 20t22.5 52l93 -10q0 -73 -50 -117.5t-121 -44.5zM398 -11q-169 0 -263.5 87.5t-94.5 252.5q0 161 103.5 255t281.5 94q101 0 179 -29l-1 -156l-4 -1q-73 39 -179 39
q-100 0 -155.5 -53.5t-55.5 -148.5q0 -92 51.5 -143t146.5 -51q35 0 78 10v179h145l1 -297q-110 -38 -233 -38z" />
    <glyph glyph-name="gbreve" unicode="&#x11f;" horiz-adv-x="633" 
d="M301 574q-68 0 -115.5 44.5t-47.5 119.5l97 11l4 -4q2 -29 18 -47t45 -18q30 0 48.5 18.5t21.5 46.5l3 3l91 -10q0 -75 -47.5 -119.5t-117.5 -44.5zM458 528h112v-446q0 -124 -81.5 -189.5t-214.5 -65.5q-115 0 -206 37v139l4 2q81 -47 178 -47q86 0 121 28t35 91
q-50 -45 -136 -45q-109 0 -171 62t-62 176q0 120 75 190t185 70q90 0 146 -43zM406 226v140q-37 25 -89 25q-50 0 -81 -30.5t-31 -83.5t28 -81.5t74 -28.5q75 0 99 59z" />
    <glyph glyph-name="Gdotaccent" unicode="&#x120;" horiz-adv-x="681" 
d="M381 710q-38 0 -65.5 27t-27.5 66t27.5 66.5t65.5 27.5q39 0 66.5 -27.5t27.5 -66.5t-27.5 -66t-66.5 -27zM398 -11q-169 0 -263.5 87.5t-94.5 252.5q0 161 103.5 255t281.5 94q101 0 179 -29l-1 -156l-4 -1q-73 39 -179 39q-100 0 -155.5 -53.5t-55.5 -148.5
q0 -92 51.5 -143t146.5 -51q35 0 78 10v179h145l1 -297q-110 -38 -233 -38z" />
    <glyph glyph-name="gdotaccent" unicode="&#x121;" horiz-adv-x="633" 
d="M302 579q-40 0 -68.5 28.5t-28.5 68.5t28.5 68.5t68.5 28.5t68.5 -28.5t28.5 -68.5t-28.5 -68.5t-68.5 -28.5zM458 528h112v-446q0 -124 -81.5 -189.5t-214.5 -65.5q-115 0 -206 37v139l4 2q81 -47 178 -47q86 0 121 28t35 91q-50 -45 -136 -45q-109 0 -171 62t-62 176
q0 120 75 190t185 70q90 0 146 -43zM406 226v140q-37 25 -89 25q-50 0 -81 -30.5t-31 -83.5t28 -81.5t74 -28.5q75 0 99 59z" />
    <glyph glyph-name="Gcommaaccent" unicode="&#x122;" horiz-adv-x="681" 
d="M398 -11q-169 0 -263.5 87.5t-94.5 252.5q0 161 103.5 255t281.5 94q101 0 179 -29l-1 -156l-4 -1q-73 39 -179 39q-100 0 -155.5 -53.5t-55.5 -148.5q0 -92 51.5 -143t146.5 -51q35 0 78 10v179h145l1 -297q-110 -38 -233 -38zM312 -250q17 75 17 135q0 18 -4 64l125 10
l12 -18q0 -102 -57 -191h-93z" />
    <glyph glyph-name="gcommaaccent" unicode="&#x123;" horiz-adv-x="633" 
d="M373 567l-125 -10l-12 18q0 102 57 191h93q-17 -75 -17 -135q0 -18 4 -64zM458 528h112v-446q0 -124 -81.5 -189.5t-214.5 -65.5q-115 0 -206 37v139l4 2q81 -47 178 -47q86 0 121 28t35 91q-50 -45 -136 -45q-109 0 -171 62t-62 176q0 120 75 190t185 70q90 0 146 -43z
M406 226v140q-37 25 -89 25q-50 0 -81 -30.5t-31 -83.5t28 -81.5t74 -28.5q75 0 99 59z" />
    <glyph glyph-name="Hbar" unicode="&#x126;" horiz-adv-x="817" 
d="M764 575v-100h-58v-475h-163v257h-270v-257h-162v475h-58v100h58v88h162v-88h270v88h163v-88h58zM543 405v70h-270v-70h270z" />
    <glyph glyph-name="hbar" unicode="&#x127;" horiz-adv-x="633" 
d="M381 530q88 0 140.5 -56.5t52.5 -155.5v-318h-163v275q0 100 -88 100q-34 0 -59.5 -17t-34.5 -50v-308h-164v566h-76v100h76v44h164v-44h98v-100h-98v-101q56 65 152 65z" />
    <glyph glyph-name="Itilde" unicode="&#x128;" horiz-adv-x="319" 
d="M62 707l-94 26q1 57 35 95t88 38q32 0 72 -15.5t59 -15.5q14 0 25 10t11 25l3 2l93 -26q0 -58 -34 -95t-89 -37q-24 0 -66.5 15.5t-61.5 15.5q-17 0 -28 -11t-11 -25zM78 0v663h163v-663h-163z" />
    <glyph glyph-name="itilde" unicode="&#x129;" horiz-adv-x="294" 
d="M52 591l-97 26q0 54 32.5 94.5t88.5 40.5q32 0 73 -16t61 -16q17 0 27.5 10.5t10.5 26.5l3 2l98 -26q0 -62 -35.5 -98.5t-89.5 -36.5q-29 -1 -71.5 15.5t-58.5 16.5q-18 0 -28 -10t-10 -26zM65 0v516h164v-516h-164z" />
    <glyph glyph-name="Imacron" unicode="&#x12a;" horiz-adv-x="319" 
d="M28 741v105h262v-105h-262zM78 0v663h163v-663h-163z" />
    <glyph glyph-name="imacron" unicode="&#x12b;" horiz-adv-x="294" 
d="M-6 607v100h304v-100h-304zM65 0v516h164v-516h-164z" />
    <glyph glyph-name="Iogonek" unicode="&#x12e;" horiz-adv-x="319" 
d="M216 0q-69 -45 -69 -101q0 -45 44 -45q13 0 30 3l4 -3v-80q-29 -8 -68 -8q-58 0 -95.5 24.5t-37.5 71.5q0 78 93 138h-39v663h163v-663h-25z" />
    <glyph glyph-name="iogonek" unicode="&#x12f;" horiz-adv-x="294" 
d="M147 579q-40 0 -68.5 28.5t-28.5 68.5t28.5 68.5t68.5 28.5t68.5 -28.5t28.5 -68.5t-28.5 -68.5t-68.5 -28.5zM65 0v516h164v-516h-18q-84 -48 -84 -110q0 -45 44 -45q13 0 30 3l4 -3v-80q-29 -8 -68 -8q-58 0 -95.5 24.5t-37.5 71.5q0 83 108 147h-47z" />
    <glyph glyph-name="Idotaccent" unicode="&#x130;" horiz-adv-x="319" 
d="M160 710q-38 0 -65.5 27t-27.5 66t27.5 66.5t65.5 27.5q39 0 66.5 -27.5t27.5 -66.5t-27.5 -66t-66.5 -27zM78 0v663h163v-663h-163z" />
    <glyph glyph-name="dotlessi" unicode="&#x131;" horiz-adv-x="294" 
d="M65 0v516h164v-516h-164z" />
    <glyph glyph-name="IJ" unicode="&#x132;" horiz-adv-x="710" 
d="M78 0v663h163v-663h-163zM394 -3q-31 0 -60 4v136l4 2q16 -3 34 -3q105 0 105 134v393h164v-377q0 -289 -247 -289z" />
    <glyph glyph-name="ij" unicode="&#x133;" horiz-adv-x="601" 
d="M147 579q-40 0 -68.5 28.5t-28.5 68.5t28.5 68.5t68.5 28.5t68.5 -28.5t28.5 -68.5t-28.5 -68.5t-68.5 -28.5zM455 579q-40 0 -68.5 28.5t-28.5 68.5t28.5 68.5t68.5 28.5t68.5 -28.5t28.5 -68.5t-28.5 -68.5t-68.5 -28.5zM65 85v431h164v-431h-164zM297 -171
q-68 0 -131 20v141l2 1q47 -16 97 -16q61 0 84.5 34.5t23.5 124.5v382h164v-402q0 -285 -240 -285z" />
    <glyph glyph-name="Kcommaaccent" unicode="&#x136;" horiz-adv-x="679" 
d="M370 337l324 -333l-2 -4h-201l-251 256v-256h-162v663h162v-269l248 269h186l1 -4zM274 -51l125 10l12 -18q0 -102 -57 -191h-93q17 75 17 135q0 18 -4 64z" />
    <glyph glyph-name="kcommaaccent" unicode="&#x137;" horiz-adv-x="596" 
d="M372 274l225 -270l-1 -4h-196l-171 203v-203h-164v710h164v-389l168 195h183l2 -4zM236 -51l125 10l12 -18q0 -102 -57 -191h-93q17 75 17 135q0 18 -4 64z" />
    <glyph glyph-name="kgreenlandic" unicode="&#x138;" horiz-adv-x="596" 
d="M372 274l225 -270l-1 -4h-196l-171 203v-203h-164v516h164v-195l169 195h185l2 -4z" />
    <glyph glyph-name="Lacute" unicode="&#x139;" horiz-adv-x="509" 
d="M323 788l-8 -16l-239 -73l-31 77l206 132zM240 135h258v-135h-420v663h162v-528z" />
    <glyph glyph-name="lacute" unicode="&#x13a;" horiz-adv-x="331" 
d="M40 745l-31 77l206 132l72 -120l-8 -16zM238 -11q-88 0 -133 41.5t-45 134.5v545h164v-507q0 -68 51 -68q18 0 36 8l4 -1v-141q-41 -12 -77 -12z" />
    <glyph glyph-name="Lcommaaccent" unicode="&#x13b;" horiz-adv-x="509" 
d="M240 135h258v-135h-420v663h162v-528zM220 -51l125 10l12 -18q0 -102 -57 -191h-93q17 75 17 135q0 18 -4 64z" />
    <glyph glyph-name="lcommaaccent" unicode="&#x13c;" horiz-adv-x="331" 
d="M238 -11q-88 0 -133 41.5t-45 134.5v545h164v-507q0 -68 51 -68q18 0 36 8l4 -1v-141q-41 -12 -77 -12zM109 -250q17 75 17 135q0 18 -4 64l125 10l12 -18q0 -102 -57 -191h-93z" />
    <glyph glyph-name="Lcaron" unicode="&#x13d;" horiz-adv-x="516" 
d="M475 661l-44 -232h-88l8 246h112zM240 135h258v-135h-420v663h162v-528z" />
    <glyph glyph-name="lcaron" unicode="&#x13e;" horiz-adv-x="359" 
d="M278 468l7 246h112l13 -14l-45 -232h-87zM238 -11q-88 0 -133 41.5t-45 134.5v545h164v-507q0 -68 51 -68q21 0 38 8l2 -1v-141q-41 -12 -77 -12z" />
    <glyph glyph-name="Ldot" unicode="&#x13f;" horiz-adv-x="548" 
d="M240 663v-528h258v-135h-420v663h162zM418 321q-43 0 -65 22.5t-22 58.5t22 59.5t65 23.5t65.5 -23.5t22.5 -59.5t-22.5 -58.5t-65.5 -22.5z" />
    <glyph glyph-name="ldot" unicode="&#x140;" horiz-adv-x="447" 
d="M238 -11q-88 0 -133 41.5t-45 134.5v545h164v-507q0 -68 51 -68q21 0 38 8l2 -1v-141q-41 -12 -77 -12zM369 275q-43 0 -65.5 22.5t-22.5 57.5q0 36 22.5 60t65.5 24q42 0 64.5 -24t22.5 -60q0 -35 -22.5 -57.5t-64.5 -22.5z" />
    <glyph glyph-name="Lslash" unicode="&#x141;" horiz-adv-x="525" 
d="M256 135h258v-135h-421v221l-65 -41l-5 2v114l70 44v323h163v-219l66 42h5v-117l-71 -45v-189z" />
    <glyph glyph-name="lslash" unicode="&#x142;" horiz-adv-x="385" 
d="M347 143l2 -1v-141q-41 -12 -77 -12q-87 0 -132.5 41.5t-45.5 134.5v76l-61 -40h-5v115l66 43v351h164v-244l68 44h5v-115l-73 -48v-144q0 -68 51 -68q21 0 38 8z" />
    <glyph glyph-name="Nacute" unicode="&#x143;" horiz-adv-x="740" 
d="M269 699l-31 77l206 132l72 -120l-8 -16zM78 0v663h71l354 -356h3v356h156v-663h-71l-355 363h-3v-363h-155z" />
    <glyph glyph-name="nacute" unicode="&#x144;" horiz-adv-x="633" 
d="M453 657l-223 -100l-48 73l179 158l96 -113zM380 530q87 0 140.5 -58t53.5 -157v-315h-163v270q0 102 -90 102q-32 0 -58 -18.5t-34 -49.5v-304h-164v516h133l16 -69q53 83 166 83z" />
    <glyph glyph-name="Ncommaaccent" unicode="&#x145;" horiz-adv-x="740" 
d="M78 0v663h71l354 -356h3v356h156v-663h-71l-355 363h-3v-363h-155zM296 -250q17 75 17 135q0 18 -4 64l125 10l12 -18q0 -102 -57 -191h-93z" />
    <glyph glyph-name="ncommaaccent" unicode="&#x146;" horiz-adv-x="633" 
d="M380 530q87 0 140.5 -58t53.5 -157v-315h-163v270q0 102 -90 102q-32 0 -58 -18.5t-34 -49.5v-304h-164v516h133l16 -69q53 83 166 83zM246 -51l125 10l12 -18q0 -102 -57 -191h-93q17 75 17 135q0 18 -4 64z" />
    <glyph glyph-name="Ncaron" unicode="&#x147;" horiz-adv-x="740" 
d="M337 703l-136 128l49 64l125 -77l118 77l47 -62l-130 -130h-73zM78 0v663h71l354 -356h3v356h156v-663h-71l-355 363h-3v-363h-155z" />
    <glyph glyph-name="ncaron" unicode="&#x148;" horiz-adv-x="633" 
d="M353 569h-75l-128 152l56 52l110 -81l104 81l55 -52zM380 530q87 0 140.5 -58t53.5 -157v-315h-163v270q0 102 -90 102q-32 0 -58 -18.5t-34 -49.5v-304h-164v516h133l16 -69q53 83 166 83z" />
    <glyph glyph-name="Eng" unicode="&#x14a;" horiz-adv-x="739" 
d="M506 663h156v-570q0 -155 -62 -223.5t-178 -68.5q-33 0 -61 4v133l1 1q20 -3 38 -3q106 0 106 141v9l-270 277h-3v-363h-155v663h71l354 -356h3v356z" />
    <glyph glyph-name="eng" unicode="&#x14b;" horiz-adv-x="631" 
d="M381 530q87 0 139.5 -55t52.5 -152v-338q0 -101 -54.5 -151t-149.5 -50q-27 0 -67 5l-1 133l2 2q24 -4 31 -4q40 0 57.5 23.5t17.5 71.5v257q0 53 -25 76.5t-64 23.5q-33 0 -57.5 -17t-33.5 -50v-305h-164v516h133l16 -72q56 86 167 86z" />
    <glyph glyph-name="Omacron" unicode="&#x14c;" horiz-adv-x="778" 
d="M224 738v101h328v-101h-328zM389 -12q-69 0 -131 22t-111 63.5t-78 108.5t-29 150q0 159 98 252.5t251 93.5q93 0 171 -37.5t128.5 -118t50.5 -190.5q0 -158 -98.5 -251t-251.5 -93zM389 134q83 0 132 53t49 145t-49 145.5t-132 53.5t-131.5 -53t-48.5 -146
q0 -92 48.5 -145t131.5 -53z" />
    <glyph glyph-name="omacron" unicode="&#x14d;" horiz-adv-x="637" 
d="M161 607v100h312v-100h-312zM318 -14q-119 0 -200.5 70t-81.5 202q0 124 79 198t203 74q120 0 201.5 -69.5t81.5 -201.5q0 -125 -79.5 -199t-203.5 -74zM318 126q54 0 84.5 36.5t30.5 96.5q0 59 -30.5 95t-84.5 36t-84 -36t-30 -95q0 -61 29.5 -97t84.5 -36z" />
    <glyph glyph-name="Ohungarumlaut" unicode="&#x150;" horiz-adv-x="778" 
d="M298 701l-72 29l75 188l108 -29l3 -22zM511 701l-72 29l75 188l108 -29l4 -22zM389 -12q-69 0 -131 22t-111 63.5t-78 108.5t-29 150q0 159 98 252.5t251 93.5q93 0 171 -37.5t128.5 -118t50.5 -190.5q0 -158 -98.5 -251t-251.5 -93zM389 134q83 0 132 53t49 145
t-49 145.5t-132 53.5t-131.5 -53t-48.5 -146q0 -92 48.5 -145t131.5 -53z" />
    <glyph glyph-name="ohungarumlaut" unicode="&#x151;" horiz-adv-x="637" 
d="M229 559l-65 39l88 187l105 -37l1 -21zM422 559l-65 39l88 187l104 -37l2 -21zM318 -14q-119 0 -200.5 70t-81.5 202q0 124 79 198t203 74q120 0 201.5 -69.5t81.5 -201.5q0 -125 -79.5 -199t-203.5 -74zM318 126q54 0 84.5 36.5t30.5 96.5q0 59 -30.5 95t-84.5 36
t-84 -36t-30 -95q0 -61 29.5 -97t84.5 -36z" />
    <glyph glyph-name="OE" unicode="&#x152;" horiz-adv-x="943" 
d="M895 129v-129h-436q-41 -9 -85 -9q-65 0 -123.5 21.5t-106 63t-75.5 107.5t-28 149q0 158 94 251t239 93q53 0 99 -13h413v-128h-235q38 -58 49 -131h167v-127h-164q-10 -83 -53 -148h245zM209 332q0 -89 45.5 -141.5t119.5 -52.5q76 0 120 52t44 142q0 91 -44 144
t-120 53q-74 0 -119.5 -53t-45.5 -144z" />
    <glyph glyph-name="oe" unicode="&#x153;" horiz-adv-x="939" 
d="M902 213h-327q23 -100 141 -100q77 0 150 38l4 -2v-122q-72 -41 -175 -41q-130 0 -204 80q-69 -80 -191 -80q-112 0 -188 70.5t-76 201.5q0 122 74 197t190 75q119 0 190 -77q69 77 178 77q108 0 171 -62.5t65 -185.5q0 -23 -2 -69zM574 304h180q-7 95 -88 95
q-76 0 -92 -95zM305 125q48 0 75 37t27 97q0 59 -27 95t-75 36q-47 0 -74 -36.5t-27 -95.5q0 -60 26.5 -96.5t74.5 -36.5z" />
    <glyph glyph-name="Racute" unicode="&#x154;" horiz-adv-x="634" 
d="M446 772l-239 -73l-31 77l206 132l72 -120zM455 240l149 -236l-2 -4h-174l-131 216h-58v-216h-161v663q102 7 212 7q59 0 107.5 -11t90 -35t64.5 -69t23 -107q0 -152 -120 -208zM239 529v-191h59q51 0 82.5 25.5t31.5 70.5q0 48 -28 72.5t-79 24.5q-48 0 -66 -2z" />
    <glyph glyph-name="racute" unicode="&#x155;" horiz-adv-x="423" 
d="M380 657l-223 -100l-48 73l179 158l96 -113zM348 528q29 0 56 -8v-147l-4 -2q-22 8 -52 8q-48 0 -82 -31t-37 -98v-250h-164v516h133l16 -73q20 41 56.5 63t77.5 22z" />
    <glyph glyph-name="Rcommaaccent" unicode="&#x156;" horiz-adv-x="634" 
d="M455 240l149 -236l-2 -4h-174l-131 216h-58v-216h-161v663q102 7 212 7q59 0 107.5 -11t90 -35t64.5 -69t23 -107q0 -152 -120 -208zM239 529v-191h59q51 0 82.5 25.5t31.5 70.5q0 48 -28 72.5t-79 24.5q-48 0 -66 -2zM250 -51l125 10l12 -18q0 -102 -57 -191h-93
q17 75 17 135q0 18 -4 64z" />
    <glyph glyph-name="rcommaaccent" unicode="&#x157;" horiz-adv-x="423" 
d="M348 528q29 0 56 -8v-147l-4 -2q-22 8 -52 8q-48 0 -82 -31t-37 -98v-250h-164v516h133l16 -73q20 41 56.5 63t77.5 22zM83 -51l125 10l12 -18q0 -102 -57 -191h-93q17 75 17 135q0 18 -4 64z" />
    <glyph glyph-name="Rcaron" unicode="&#x158;" horiz-adv-x="634" 
d="M348 703h-73l-136 128l49 64l125 -77l118 77l47 -62zM455 240l149 -236l-2 -4h-174l-131 216h-58v-216h-161v663q102 7 212 7q59 0 107.5 -11t90 -35t64.5 -69t23 -107q0 -152 -120 -208zM239 529v-191h59q51 0 82.5 25.5t31.5 70.5q0 48 -28 72.5t-79 24.5q-48 0 -66 -2
z" />
    <glyph glyph-name="rcaron" unicode="&#x159;" horiz-adv-x="423" 
d="M280 569h-75l-128 152l56 52l110 -81l104 81l55 -52zM348 528q29 0 56 -8v-147l-4 -2q-22 8 -52 8q-48 0 -82 -31t-37 -98v-250h-164v516h133l16 -73q20 41 56.5 63t77.5 22z" />
    <glyph glyph-name="Sacute" unicode="&#x15a;" horiz-adv-x="533" 
d="M178 699l-31 77l206 132l72 -120l-8 -16zM249 -11q-112 0 -200 43v149l4 2q82 -57 179 -57q93 0 93 62q0 29 -21.5 49t-86.5 48q-162 67 -162 194q0 97 68 147.5t170 50.5q103 0 174 -28v-140l-4 -1q-56 31 -147 31q-99 2 -99 -51q0 -23 24 -39t88 -44q73 -33 116 -81.5
t43 -129.5q0 -94 -65 -149.5t-174 -55.5z" />
    <glyph glyph-name="sacute" unicode="&#x15b;" horiz-adv-x="496" 
d="M167 568l-48 73l179 158l96 -113l-4 -18zM236 -14q-109 0 -194 37v132l4 1q37 -23 88 -38t94 -15q78 0 78 39q0 20 -19.5 31t-89.5 32q-82 24 -117.5 62t-35.5 96q0 76 63 121.5t166 45.5q105 0 165 -25v-131l-4 -1q-58 29 -153 29q-35 0 -57 -9t-22 -26t18.5 -26.5
t87.5 -29.5q81 -23 117 -60t36 -98q0 -79 -59.5 -123t-165.5 -44z" />
    <glyph glyph-name="Scedilla" unicode="&#x15e;" horiz-adv-x="533" 
d="M488 194q0 -82 -49.5 -135t-135.5 -66l-27 -36q8 1 15 0q44 -4 69 -27.5t25 -65.5q0 -57 -42.5 -82t-107.5 -25q-35 0 -67 8v66l4 2q20 -7 38 -7q56 0 56 36q1 17 -10 24.5t-31 7.5q-21 0 -35 -3l-2 4v57l26 38q-89 5 -165 42v149l4 2q82 -57 179 -57q93 0 93 62
q0 29 -21.5 49t-86.5 48q-162 67 -162 194q0 97 68 147.5t170 50.5q103 0 174 -28v-140l-4 -1q-56 31 -147 31q-99 2 -99 -51q0 -23 24 -39t88 -44q73 -33 116 -81.5t43 -129.5z" />
    <glyph glyph-name="scedilla" unicode="&#x15f;" horiz-adv-x="496" 
d="M461 153q0 -69 -45.5 -111.5t-129.5 -52.5l-24 -32q8 1 15 0q44 -4 69 -27.5t25 -65.5q0 -57 -42.5 -82t-107.5 -25q-35 0 -67 8v66l4 2q20 -7 38 -7q56 0 56 36q1 17 -10 24.5t-31 7.5q-21 0 -35 -3l-2 4v57l24 35q-88 6 -156 36v132l4 1q37 -23 88 -38t94 -15
q78 0 78 39q0 20 -19.5 31t-89.5 32q-82 24 -117.5 62t-35.5 96q0 76 63 121.5t166 45.5q105 0 165 -25v-131l-4 -1q-58 29 -153 29q-35 0 -57 -9t-22 -26t18.5 -26.5t87.5 -29.5q81 -23 117 -60t36 -98z" />
    <glyph glyph-name="Scaron" unicode="&#x160;" horiz-adv-x="533" 
d="M246 703l-136 128l49 64l125 -77l118 77l47 -62l-130 -130h-73zM249 -11q-112 0 -200 43v149l4 2q82 -57 179 -57q93 0 93 62q0 29 -21.5 49t-86.5 48q-162 67 -162 194q0 97 68 147.5t170 50.5q103 0 174 -28v-140l-4 -1q-56 31 -147 31q-99 2 -99 -51q0 -23 24 -39
t88 -44q73 -33 116 -81.5t43 -129.5q0 -94 -65 -149.5t-174 -55.5z" />
    <glyph glyph-name="scaron" unicode="&#x161;" horiz-adv-x="496" 
d="M215 580l-128 152l56 52l110 -81l104 81l55 -52l-122 -152h-75zM236 -14q-109 0 -194 37v132l4 1q37 -23 88 -38t94 -15q78 0 78 39q0 20 -19.5 31t-89.5 32q-82 24 -117.5 62t-35.5 96q0 76 63 121.5t166 45.5q105 0 165 -25v-131l-4 -1q-58 29 -153 29q-35 0 -57 -9
t-22 -26t18.5 -26.5t87.5 -29.5q81 -23 117 -60t36 -98q0 -79 -59.5 -123t-165.5 -44z" />
    <glyph glyph-name="uni0162" unicode="&#x162;" horiz-adv-x="595" 
d="M384 0h-43l-32 -43q7 1 15 0q44 -4 69 -27.5t25 -65.5q0 -57 -42.5 -82t-107.5 -25q-35 0 -67 8v66l4 2q20 -7 38 -7q56 0 56 36q1 17 -10 24.5t-31 7.5q-22 0 -35 -3l-2 4v57l33 48h-34v517h-207v146h570v-146h-199v-517z" />
    <glyph glyph-name="uni0163" unicode="&#x163;" horiz-adv-x="433" 
d="M401 387h-140v-165q0 -83 72 -83q35 0 65 15l3 -2v-138q-36 -17 -87 -20l-28 -37q8 1 15 0q44 -4 69 -27.5t25 -65.5q0 -57 -42.5 -82t-107.5 -25q-35 0 -67 8v66l4 2q20 -7 38 -7q56 0 56 36q1 17 -10 24.5t-31 7.5q-21 0 -35 -3l-2 4v57l32 46q-133 30 -133 190v199
h-85v129h85v124l161 31l3 -2v-153h140v-129z" />
    <glyph glyph-name="Tcaron" unicode="&#x164;" horiz-adv-x="595" 
d="M337 703h-73l-136 128l49 64l125 -77l118 77l47 -62zM583 663v-146h-199v-517h-164v517h-207v146h570z" />
    <glyph glyph-name="tcaron" unicode="&#x165;" horiz-adv-x="429" 
d="M445 808l13 -14l-48 -202h-85l8 216h112zM261 669v-153h140v-129h-140v-165q0 -83 72 -83q35 0 65 15l3 -2v-138q-46 -21 -117 -21q-88 0 -137.5 50t-49.5 145v199h-85v129h85v124l161 31z" />
    <glyph glyph-name="Tbar" unicode="&#x166;" horiz-adv-x="602" 
d="M586 517h-199v-171h83v-100h-83v-246h-163v246h-92v100h92v171h-208v146h570v-146z" />
    <glyph glyph-name="tbar" unicode="&#x167;" horiz-adv-x="433" 
d="M401 387h-140v-69h90v-100h-90q2 -79 72 -79q35 0 65 15l3 -2v-138q-46 -21 -117 -21q-88 0 -137.5 50t-49.5 145v30h-84v100h84v69h-85v129h85v124l161 31l3 -2v-153h140v-129z" />
    <glyph glyph-name="Utilde" unicode="&#x168;" horiz-adv-x="721" 
d="M263 707l-94 26q1 57 35 95t88 38q32 0 72 -15.5t59 -15.5q14 0 25 10t11 25l3 2l93 -26q0 -58 -34 -95t-89 -37q-24 0 -66.5 15.5t-61.5 15.5q-17 0 -28 -11t-11 -25zM361 -13q-141 0 -216.5 72t-75.5 207v397h162v-377q0 -162 132 -162q131 0 131 162v377h158v-397
q0 -133 -76.5 -206t-214.5 -73z" />
    <glyph glyph-name="utilde" unicode="&#x169;" horiz-adv-x="623" 
d="M224 594l-4 -3l-97 26q0 54 32.5 94.5t88.5 40.5q32 0 73 -16t61 -16q17 0 27.5 10.5t10.5 26.5l3 2l98 -26q0 -62 -35.5 -98.5t-89.5 -36.5q-29 -1 -71.5 15.5t-58.5 16.5q-18 0 -28 -10t-10 -26zM394 516h164v-516h-133l-16 71q-51 -85 -171 -85q-85 0 -131.5 51
t-46.5 140v339h163v-301q0 -89 82 -89q69 0 89 60v330z" />
    <glyph glyph-name="Umacron" unicode="&#x16a;" horiz-adv-x="721" 
d="M196 738v101h328v-101h-328zM361 -13q-141 0 -216.5 72t-75.5 207v397h162v-377q0 -162 132 -162q131 0 131 162v377h158v-397q0 -133 -76.5 -206t-214.5 -73z" />
    <glyph glyph-name="umacron" unicode="&#x16b;" horiz-adv-x="623" 
d="M470 707v-100h-312v100h312zM394 516h164v-516h-133l-16 71q-51 -85 -171 -85q-85 0 -131.5 51t-46.5 140v339h163v-301q0 -89 82 -89q69 0 89 60v330z" />
    <glyph glyph-name="Uring" unicode="&#x16e;" horiz-adv-x="721" 
d="M361 688q-54 0 -88.5 32t-34.5 81t34.5 81t88.5 32t89 -32.5t35 -80.5t-35 -80.5t-89 -32.5zM361 758q19 0 31.5 12.5t12.5 30.5t-12.5 30t-31.5 12t-31 -12.5t-12 -29.5q0 -18 12 -30.5t31 -12.5zM361 -13q-141 0 -216.5 72t-75.5 207v397h162v-377q0 -162 132 -162
q131 0 131 162v377h158v-397q0 -133 -76.5 -206t-214.5 -73z" />
    <glyph glyph-name="uring" unicode="&#x16f;" horiz-adv-x="623" 
d="M315 552q-56 0 -91.5 35.5t-35.5 88.5q0 52 36 87.5t91 35.5q56 0 92 -35.5t36 -87.5q0 -53 -36 -88.5t-92 -35.5zM315 721q-20 0 -33.5 -13t-13.5 -32q0 -20 13.5 -33.5t33.5 -13.5q21 0 34.5 13.5t13.5 33.5q0 19 -13.5 32t-34.5 13zM394 516h164v-516h-133l-16 71
q-51 -85 -171 -85q-85 0 -131.5 51t-46.5 140v339h163v-301q0 -89 82 -89q69 0 89 60v330z" />
    <glyph glyph-name="Uhungarumlaut" unicode="&#x170;" horiz-adv-x="721" 
d="M270 701l-72 29l75 188l108 -29l3 -22zM483 701l-72 29l75 188l108 -29l4 -22zM361 -13q-141 0 -216.5 72t-75.5 207v397h162v-377q0 -162 132 -162q131 0 131 162v377h158v-397q0 -133 -76.5 -206t-214.5 -73z" />
    <glyph glyph-name="uhungarumlaut" unicode="&#x171;" horiz-adv-x="623" 
d="M355 727l-129 -168l-65 39l88 187l105 -37zM419 559l-65 39l88 187l104 -37l2 -21zM394 516h164v-516h-133l-16 71q-51 -85 -171 -85q-85 0 -131.5 51t-46.5 140v339h163v-301q0 -89 82 -89q69 0 89 60v330z" />
    <glyph glyph-name="Uogonek" unicode="&#x172;" horiz-adv-x="721" 
d="M494 663h158v-397q0 -103 -47 -171t-135 -94q-71 -45 -71 -102q0 -45 44 -45q13 0 30 3l4 -3v-80q-29 -8 -68 -8q-58 0 -95.5 24.5t-37.5 71.5q0 71 74 125q-136 3 -208.5 74.5t-72.5 204.5v397h162v-377q0 -162 132 -162q131 0 131 162v377z" />
    <glyph glyph-name="uogonek" unicode="&#x173;" horiz-adv-x="623" 
d="M394 516h164v-516h-2q-82 -48 -82 -109q0 -45 44 -45q14 0 30 3l4 -3v-80q-29 -8 -68 -8q-58 0 -95.5 24.5t-37.5 71.5q0 84 106 146h-32l-16 71q-51 -85 -171 -85q-85 0 -131.5 51t-46.5 140v339h163v-301q0 -89 82 -89q69 0 89 60v330z" />
    <glyph glyph-name="Wcircumflex" unicode="&#x174;" horiz-adv-x="965" 
d="M479 781l-118 -76l-47 62l130 135h73l136 -134l-49 -63zM959 663l2 -4l-213 -661h-124l-128 375l-9 39l-11 -39l-128 -375h-127l-223 661l2 4h172l110 -387l10 -54l13 54l123 380h120l123 -363l15 -65l14 65l103 370h156z" />
    <glyph glyph-name="wcircumflex" unicode="&#x175;" horiz-adv-x="812" 
d="M406 663l-105 -82l-55 53l123 151h75l127 -151l-55 -53zM804 516l2 -4l-174 -512h-114l-103 305l-5 19l-6 -19l-108 -305h-115l-176 512l2 4h162l77 -279l3 -25l6 24l90 280h134l87 -278l7 -29l4 31l77 276h150z" />
    <glyph glyph-name="Ycircumflex" unicode="&#x176;" horiz-adv-x="622" 
d="M190 702l-47 62l130 135h73l136 -134l-49 -63l-125 76zM231 0v259l-235 400l2 4h175l143 -257l140 257h166l1 -4l-230 -402v-257h-162z" />
    <glyph glyph-name="ycircumflex" unicode="&#x177;" horiz-adv-x="549" 
d="M279 651l-105 -82l-55 53l123 151h75l127 -151l-55 -53zM545 516l1 -4l-216 -518l-65 -158h-169l-2 3l106 211l-192 462l1 4h173l97 -295l102 295h164z" />
    <glyph glyph-name="Ydieresis" unicode="&#x178;" horiz-adv-x="622" 
d="M191 717q-34 0 -57.5 23.5t-23.5 57.5q0 33 23.5 57t57.5 24q33 0 57 -24t24 -57q0 -34 -24 -57.5t-57 -23.5zM437 717q-34 0 -57.5 23.5t-23.5 57.5q0 33 23.5 57t57.5 24t57.5 -24t23.5 -57q0 -34 -23.5 -57.5t-57.5 -23.5zM231 0v259l-235 400l2 4h175l143 -257
l140 257h166l1 -4l-230 -402v-257h-162z" />
    <glyph glyph-name="Zacute" unicode="&#x179;" horiz-adv-x="608" 
d="M198 699l-31 77l206 132l72 -120l-8 -16zM37 0v55l308 475h-308l-1 133h528v-56l-315 -473h325v-134h-537z" />
    <glyph glyph-name="zacute" unicode="&#x17a;" horiz-adv-x="538" 
d="M405 657l-223 -100l-48 73l179 158l96 -113zM244 129h260v-129h-468v80l243 303h-241v133h456v-85z" />
    <glyph glyph-name="Zdotaccent" unicode="&#x17b;" horiz-adv-x="608" 
d="M300 710q-38 0 -65.5 27t-27.5 66t27.5 66.5t65.5 27.5q39 0 66.5 -27.5t27.5 -66.5t-27.5 -66t-66.5 -27zM37 0v55l308 475h-308l-1 133h528v-56l-315 -473h325v-134h-537z" />
    <glyph glyph-name="zdotaccent" unicode="&#x17c;" horiz-adv-x="538" 
d="M264 579q-40 0 -68.5 28.5t-28.5 68.5t28.5 68.5t68.5 28.5t68.5 -28.5t28.5 -68.5t-28.5 -68.5t-68.5 -28.5zM244 129h260v-129h-468v80l243 303h-241v133h456v-85z" />
    <glyph glyph-name="Zcaron" unicode="&#x17d;" horiz-adv-x="608" 
d="M266 703l-136 128l49 64l125 -77l118 77l47 -62l-130 -130h-73zM37 0v55l308 475h-308l-1 133h528v-56l-315 -473h325v-134h-537z" />
    <glyph glyph-name="zcaron" unicode="&#x17e;" horiz-adv-x="538" 
d="M305 569h-75l-128 152l56 52l110 -81l104 81l55 -52zM244 129h260v-129h-468v80l243 303h-241v133h456v-85z" />
    <glyph glyph-name="uni01EA" unicode="&#x1ea;" horiz-adv-x="778" 
d="M510 5q-80 -46 -80 -107q0 -45 44 -45q14 0 30 3l4 -3v-80q-29 -8 -68 -8q-58 0 -95.5 24.5t-37.5 71.5q0 72 77 127q-144 2 -244 92t-100 252q0 159 98 252.5t251 93.5q93 0 171 -37.5t128.5 -118t50.5 -190.5q0 -124 -62 -209.5t-167 -117.5zM209 332q0 -92 48.5 -145
t131.5 -53t132 53t49 145t-49 145.5t-132 53.5t-131.5 -53t-48.5 -146z" />
    <glyph glyph-name="uni01EB" unicode="&#x1eb;" horiz-adv-x="637" 
d="M411 -2q-67 -45 -67 -99q0 -45 44 -45q14 0 30 3l4 -3v-80q-29 -8 -68 -8q-58 0 -95.5 24.5t-37.5 71.5q0 70 74 125q-111 6 -185 76t-74 195q0 124 79 198t203 74q120 0 201.5 -69.5t81.5 -201.5q0 -99 -51.5 -167.5t-138.5 -93.5zM204 259q0 -61 29.5 -97t84.5 -36
q54 0 84.5 36.5t30.5 96.5q0 59 -30.5 95t-84.5 36t-84 -36t-30 -95z" />
    <glyph glyph-name="AEacute" unicode="&#x1fc;" horiz-adv-x="869" 
d="M657 773l-239 -73l-31 77l206 132l72 -120zM575 132h247v-132h-411v137h-190l-77 -137h-165l383 663h451v-133h-238v-123h219v-130h-219v-145zM285 252h126v234l-76 -145z" />
    <glyph glyph-name="aeacute" unicode="&#x1fd;" horiz-adv-x="881" 
d="M578 657l-223 -100l-48 73l179 158l96 -113zM596 530q114 0 180 -62.5t68 -185.5q0 -24 -2 -70h-339q21 -99 126 -99q96 0 175 41l4 -2v-123q-79 -43 -193 -43q-144 0 -221 90q-84 -89 -194 -89q-84 0 -129 40t-45 106q0 42 17.5 73t45 49t70 28.5t82 14.5t92.5 5
q-8 88 -114 88q-90 0 -144 -30l-3 2v130q21 14 69.5 25.5t108.5 11.5q116 0 177 -58q69 58 169 58zM501 303h185q-7 96 -90 96q-79 0 -95 -96zM241 108q33 0 62.5 13.5t46.5 31.5q-10 31 -13 59q-77 -2 -114 -15t-37 -45q0 -19 14.5 -31.5t40.5 -12.5z" />
    <glyph glyph-name="Oslashacute" unicode="&#x1fe;" horiz-adv-x="778" 
d="M521 772l-239 -73l-31 77l206 132l72 -120zM740 680v-11l-86 -100q85 -93 85 -237q0 -158 -98.5 -251t-251.5 -93q-107 0 -193 50l-45 -53h-112v13l84 99q-83 91 -83 235q0 159 98 252.5t251 93.5q103 0 188 -47l42 49h121zM209 332q0 -63 23 -107l244 287q-40 19 -87 19
q-83 0 -131.5 -53t-48.5 -146zM570 332q0 64 -25 111l-247 -287q38 -22 91 -22q83 0 132 53t49 145z" />
    <glyph glyph-name="oslashacute" unicode="&#x1ff;" horiz-adv-x="637" 
d="M460 657l-223 -100l-48 73l179 158l96 -113zM616 537v-10l-76 -88q61 -71 61 -180q0 -125 -79.5 -199t-203.5 -74q-79 0 -141 31l-33 -39h-109v14l67 79q-66 74 -66 187q0 124 79 198t203 74q80 0 146 -32l34 39h118zM204 259q0 -32 9 -58l153 180q-21 9 -48 9
q-54 0 -84 -36t-30 -95zM433 259q0 25 -6 48l-150 -174q17 -7 41 -7q54 0 84.5 36.5t30.5 96.5z" />
    <glyph glyph-name="Scommaaccent" unicode="&#x218;" horiz-adv-x="533" 
d="M249 -11q-112 0 -200 43v149l4 2q82 -57 179 -57q93 0 93 62q0 29 -21.5 49t-86.5 48q-162 67 -162 194q0 97 68 147.5t170 50.5q103 0 174 -28v-140l-4 -1q-56 31 -147 31q-99 2 -99 -51q0 -23 24 -39t88 -44q73 -33 116 -81.5t43 -129.5q0 -94 -65 -149.5t-174 -55.5z
M182 -250q17 75 17 135q0 18 -4 64l125 10l12 -18q0 -102 -57 -191h-93z" />
    <glyph glyph-name="scommaaccent" unicode="&#x219;" horiz-adv-x="496" 
d="M236 -14q-109 0 -194 37v132l4 1q37 -23 88 -38t94 -15q78 0 78 39q0 20 -19.5 31t-89.5 32q-82 24 -117.5 62t-35.5 96q0 76 63 121.5t166 45.5q105 0 165 -25v-131l-4 -1q-58 29 -153 29q-35 0 -57 -9t-22 -26t18.5 -26.5t87.5 -29.5q81 -23 117 -60t36 -98
q0 -79 -59.5 -123t-165.5 -44zM168 -250q17 75 17 135q0 18 -4 64l125 10l12 -18q0 -102 -57 -191h-93z" />
    <glyph glyph-name="uni021A" unicode="&#x21a;" horiz-adv-x="595" 
d="M583 663v-146h-199v-517h-164v517h-207v146h570zM228 -51l125 10l12 -18q0 -102 -57 -191h-93q17 75 17 135q0 18 -4 64z" />
    <glyph glyph-name="uni021B" unicode="&#x21b;" horiz-adv-x="433" 
d="M401 387h-140v-165q0 -83 72 -83q35 0 65 15l3 -2v-138q-46 -21 -117 -21q-88 0 -137.5 50t-49.5 145v199h-85v129h85v124l161 31l3 -2v-153h140v-129zM205 -51l125 10l12 -18q0 -102 -57 -191h-93q17 75 17 135q0 18 -4 64z" />
    <glyph glyph-name="uni0237" unicode="&#x237;" horiz-adv-x="312" 
d="M36 -171q-29 0 -76 7v141l4 2q16 -4 37 -4q83 0 83 97v444h163v-482q0 -103 -55.5 -154t-155.5 -51z" />
    <glyph glyph-name="circumflex" unicode="&#x2c6;" horiz-adv-x="414" 
d="M100 569l-55 53l123 151h75l127 -151l-55 -53l-110 82z" />
    <glyph glyph-name="caron" unicode="&#x2c7;" horiz-adv-x="414" 
d="M182 518l-135 158l53 55l110 -88l109 88l53 -55l-136 -158h-54z" />
    <glyph glyph-name="breve" unicode="&#x2d8;" horiz-adv-x="376" 
d="M187 574q-68 0 -115.5 44.5t-47.5 119.5l97 11l4 -4q2 -29 18 -47t45 -18q30 0 48.5 18.5t21.5 46.5l3 3l91 -10q0 -75 -47.5 -119.5t-117.5 -44.5z" />
    <glyph glyph-name="dotaccent" unicode="&#x2d9;" horiz-adv-x="307" 
d="M154 579q-40 0 -68.5 28.5t-28.5 68.5t28.5 68.5t68.5 28.5t68.5 -28.5t28.5 -68.5t-28.5 -68.5t-68.5 -28.5z" />
    <glyph glyph-name="ring" unicode="&#x2da;" horiz-adv-x="328" 
d="M153 552q-56 0 -91.5 35.5t-35.5 88.5q0 52 36 87.5t91 35.5q56 0 92 -35.5t36 -87.5q0 -53 -36 -88.5t-92 -35.5zM153 629q21 0 34.5 13.5t13.5 33.5q0 19 -13.5 32t-34.5 13q-20 0 -33.5 -13t-13.5 -32q0 -20 13.5 -33.5t33.5 -13.5z" />
    <glyph glyph-name="ogonek" unicode="&#x2db;" horiz-adv-x="225" 
d="M154 -234q-58 0 -95.5 24.5t-37.5 71.5q0 85 111 149l96 -2q-84 -48 -84 -110q0 -45 44 -45q14 0 30 3l4 -3v-80q-29 -8 -68 -8z" />
    <glyph glyph-name="tilde" unicode="&#x2dc;" horiz-adv-x="414" 
d="M112 591l-97 26q0 54 32.5 94.5t88.5 40.5q32 0 73 -16t61 -16q17 0 27.5 10.5t10.5 26.5l3 2l98 -26q0 -62 -35.5 -98.5t-89.5 -36.5q-29 -1 -71.5 15.5t-58.5 16.5q-18 0 -28 -10t-10 -26z" />
    <glyph glyph-name="hungarumlaut" unicode="&#x2dd;" horiz-adv-x="439" 
d="M92 559l-65 39l88 187l105 -37l1 -21zM285 559l-65 39l88 187l104 -37l2 -21z" />
    <glyph glyph-name="gravecomb" unicode="&#x300;" 
d="M-50 557l-223 100l-4 18l96 113l178 -158z" />
    <glyph glyph-name="acutecomb" unicode="&#x301;" 
d="M-222 557l-48 73l179 158l96 -113l-4 -18z" />
    <glyph glyph-name="uni0302" unicode="&#x302;" 
d="M-314 569l-55 53l123 151h75l127 -151l-55 -53l-110 82z" />
    <glyph glyph-name="tildecomb" unicode="&#x303;" 
d="M-302 591l-97 26q0 54 32.5 94.5t88.5 40.5q32 0 73 -16t61 -16q17 0 27.5 10.5t10.5 26.5l3 2l98 -26q0 -62 -35.5 -98.5t-89.5 -36.5q-29 -1 -71.5 15.5t-58.5 16.5q-18 0 -28 -10t-10 -26z" />
    <glyph glyph-name="uni0304" unicode="&#x304;" 
d="M-336 607v100h312v-100h-312z" />
    <glyph glyph-name="uni0306" unicode="&#x306;" 
d="M-189 574q-68 0 -115.5 44.5t-47.5 119.5l97 11l4 -4q2 -29 18 -47t45 -18q30 0 48.5 18.5t21.5 46.5l3 3l91 -10q0 -75 -47.5 -119.5t-117.5 -44.5z" />
    <glyph glyph-name="uni0307" unicode="&#x307;" 
d="M-153 579q-40 0 -68.5 28.5t-28.5 68.5t28.5 68.5t68.5 28.5t68.5 -28.5t28.5 -68.5t-28.5 -68.5t-68.5 -28.5z" />
    <glyph glyph-name="uni0308" unicode="&#x308;" 
d="M-330 584q-38 0 -65 26.5t-27 64.5t27 65t65 27t65 -27.5t27 -64.5t-27 -64t-65 -27zM-97 584q-38 0 -65 26.5t-27 64.5t27 65t65 27q37 0 64.5 -27.5t27.5 -64.5t-27 -64t-65 -27z" />
    <glyph glyph-name="uni030A" unicode="&#x30a;" 
d="M-154 552q-56 0 -91.5 35.5t-35.5 88.5q0 52 36 87.5t91 35.5q56 0 92 -35.5t36 -87.5q0 -53 -36 -88.5t-92 -35.5zM-154 629q22 0 35 13.5t13 33.5q0 19 -13.5 32t-34.5 13q-20 0 -33.5 -13t-13.5 -32q0 -20 13.5 -33.5t33.5 -13.5z" />
    <glyph glyph-name="uni030B" unicode="&#x30b;" 
d="M-347 559l-65 39l88 187l105 -37l1 -21zM-154 559l-65 39l88 187l104 -37l2 -21z" />
    <glyph glyph-name="uni030C" unicode="&#x30c;" 
d="M-241 569l-128 152l56 52l110 -81l104 81l55 -52l-122 -152h-75z" />
    <glyph glyph-name="uni0326" unicode="&#x326;" 
d="M-183 -250q17 75 17 135q0 18 -4 64l125 10l12 -18q0 -102 -57 -191h-93z" />
    <glyph glyph-name="uni0327" unicode="&#x327;" 
d="M-142 -243q-35 0 -67 8v66l4 2q20 -7 38 -7q56 0 56 36q1 17 -10 24.5t-31 7.5q-21 0 -35 -3l-2 4v57l34 49h87l-33 -44q7 1 15 0q44 -4 69 -27.5t25 -65.5q0 -57 -42.5 -82t-107.5 -25z" />
    <glyph glyph-name="uni0328" unicode="&#x328;" 
d="M-93 -234q-58 0 -95.5 24.5t-37.5 71.5q0 85 111 149l96 -2q-84 -48 -84 -110q0 -45 44 -45q13 0 30 3l4 -3v-80q-29 -8 -68 -8z" />
    <glyph glyph-name="uni0335" unicode="&#x335;" 
d="M-371 134v100h338v-100h-338z" />
    <glyph glyph-name="uni0336" unicode="&#x336;" 
d="M-643 337v101h622v-101h-622z" />
    <glyph glyph-name="uni0337" unicode="&#x337;" 
d="M-315 192v115l298 194h5v-115l-298 -194h-5z" />
    <glyph glyph-name="uni0338" unicode="&#x338;" 
d="M-600 -13v14l462 545h119v-11l-473 -548h-108z" />
    <glyph glyph-name="Wgrave" unicode="&#x1e80;" horiz-adv-x="965" 
d="M580 702l-239 73l-8 16l72 120l207 -130zM959 663l2 -4l-213 -661h-124l-128 375l-9 39l-11 -39l-128 -375h-127l-223 661l2 4h172l110 -387l10 -54l13 54l123 380h120l123 -363l15 -65l14 65l103 370h156z" />
    <glyph glyph-name="wgrave" unicode="&#x1e81;" horiz-adv-x="812" 
d="M480 569l-223 100l-4 18l96 113l178 -158zM804 516l2 -4l-174 -512h-114l-103 305l-5 19l-6 -19l-108 -305h-115l-176 512l2 4h162l77 -279l3 -25l6 24l90 280h134l87 -278l7 -29l4 31l77 276h150z" />
    <glyph glyph-name="Wacute" unicode="&#x1e82;" horiz-adv-x="965" 
d="M621 775l-239 -73l-31 77l206 132l72 -120zM959 663l2 -4l-213 -661h-124l-128 375l-9 39l-11 -39l-128 -375h-127l-223 661l2 4h172l110 -387l10 -54l13 54l123 380h120l123 -363l15 -65l14 65l103 370h156z" />
    <glyph glyph-name="wacute" unicode="&#x1e83;" horiz-adv-x="812" 
d="M549 669l-223 -100l-48 73l179 158l96 -113zM804 516l2 -4l-174 -512h-114l-103 305l-5 19l-6 -19l-108 -305h-115l-176 512l2 4h162l77 -279l3 -25l6 24l90 280h134l87 -278l7 -29l4 31l77 276h150z" />
    <glyph glyph-name="Wdieresis" unicode="&#x1e84;" horiz-adv-x="965" 
d="M362 720q-34 0 -57.5 23.5t-23.5 57.5q0 33 23.5 57t57.5 24q33 0 57 -24t24 -57q0 -34 -24 -57.5t-57 -23.5zM608 720q-34 0 -57.5 23.5t-23.5 57.5q0 33 23.5 57t57.5 24t57.5 -24t23.5 -57q0 -34 -23.5 -57.5t-57.5 -23.5zM959 663l2 -4l-213 -661h-124l-128 375
l-9 39l-11 -39l-128 -375h-127l-223 661l2 4h172l110 -387l10 -54l13 54l123 380h120l123 -363l15 -65l14 65l103 370h156z" />
    <glyph glyph-name="wdieresis" unicode="&#x1e85;" horiz-adv-x="812" 
d="M292 596q-38 0 -65 26.5t-27 64.5t27 65t65 27t65 -27.5t27 -64.5t-27 -64t-65 -27zM525 596q-38 0 -65 26.5t-27 64.5t27 65t65 27q37 0 64.5 -27.5t27.5 -64.5t-27 -64t-65 -27zM804 516l2 -4l-174 -512h-114l-103 305l-5 19l-6 -19l-108 -305h-115l-176 512l2 4h162
l77 -279l3 -25l6 24l90 280h134l87 -278l7 -29l4 31l77 276h150z" />
    <glyph glyph-name="Ygrave" unicode="&#x1ef2;" horiz-adv-x="622" 
d="M409 699l-239 73l-8 16l72 120l207 -130zM231 0v259l-235 400l2 4h175l143 -257l140 257h166l1 -4l-230 -402v-257h-162z" />
    <glyph glyph-name="ygrave" unicode="&#x1ef3;" horiz-adv-x="549" 
d="M353 557l-223 100l-4 18l96 113l178 -158zM545 516l1 -4l-216 -518l-65 -158h-169l-2 3l106 211l-192 462l1 4h173l97 -295l102 295h164z" />
    <glyph glyph-name="uni1EF8" unicode="&#x1ef8;" horiz-adv-x="622" 
d="M215 707l-94 26q1 57 35 95t88 38q32 0 72 -15.5t59 -15.5q14 0 25 10t11 25l3 2l93 -26q0 -58 -34 -95t-89 -37q-24 0 -66.5 15.5t-61.5 15.5q-17 0 -28 -11t-11 -25zM231 0v259l-235 400l2 4h175l143 -257l140 257h166l1 -4l-230 -402v-257h-162z" />
    <glyph glyph-name="uni1EF9" unicode="&#x1ef9;" horiz-adv-x="549" 
d="M190 594l-4 -3l-97 26q0 54 32.5 94.5t88.5 40.5q32 0 73 -16t61 -16q17 0 27.5 10.5t10.5 26.5l3 2l98 -26q0 -62 -35.5 -98.5t-89.5 -36.5q-29 -1 -71.5 15.5t-58.5 16.5q-18 0 -28 -10t-10 -26zM545 516l1 -4l-216 -518l-65 -158h-169l-2 3l106 211l-192 462l1 4h173
l97 -295l102 295h164z" />
    <glyph glyph-name="endash" unicode="&#x2013;" horiz-adv-x="553" 
d="M60 212v133h433v-133h-433z" />
    <glyph glyph-name="emdash" unicode="&#x2014;" horiz-adv-x="885" 
d="M60 212v133h765v-133h-765z" />
    <glyph glyph-name="quoteleft" unicode="&#x2018;" horiz-adv-x="244" 
d="M200 704q-12 -72 -15 -147q-1 -47 2 -117l-122 -21l-19 23q1 116 69 262h85z" />
    <glyph glyph-name="quoteright" unicode="&#x2019;" horiz-adv-x="239" 
d="M48 419q12 72 15 147q1 47 -2 117l122 21l19 -23q-1 -116 -69 -262h-85z" />
    <glyph glyph-name="quotesinglbase" unicode="&#x201a;" horiz-adv-x="247" 
d="M38 -179q12 72 15 147q1 47 -2 117l122 21l19 -23q-1 -116 -69 -262h-85z" />
    <glyph glyph-name="quotedblleft" unicode="&#x201c;" horiz-adv-x="428" 
d="M200 704q-12 -72 -15 -147q-1 -47 2 -117l-122 -21l-19 23q1 116 69 262h85zM383 704q-12 -72 -15 -147q-1 -47 2 -117l-122 -21l-19 23q1 116 69 262h85z" />
    <glyph glyph-name="quotedblright" unicode="&#x201d;" horiz-adv-x="423" 
d="M48 419q12 72 15 147q1 47 -2 117l122 21l19 -23q-1 -116 -69 -262h-85zM230 419q12 72 15 147q1 47 -2 117l122 21l19 -23q-1 -116 -69 -262h-85z" />
    <glyph glyph-name="quotedblbase" unicode="&#x201e;" horiz-adv-x="426" 
d="M37 -178q12 72 15 147q1 47 -2 117l122 21l19 -23q-1 -116 -69 -262h-85zM219 -178q12 72 15 147q1 47 -2 117l122 21l19 -23q-1 -116 -69 -262h-85z" />
    <glyph glyph-name="dagger" unicode="&#x2020;" horiz-adv-x="605" 
d="M354 513l197 23v-152l-176 21l-18 -506h-111l-20 504l-171 -19v152l193 -25l-22 203h152z" />
    <glyph glyph-name="daggerdbl" unicode="&#x2021;" horiz-adv-x="605" 
d="M227 -98l23 192l-197 -21v151l176 -21l18 106l-20 103l-171 -19v151l193 -23l-22 193h151l-23 -192l197 22v-151l-176 21l-18 -105l19 -104l171 19v-151l-192 23l22 -194h-151z" />
    <glyph glyph-name="bullet" unicode="&#x2022;" horiz-adv-x="413" 
d="M207 108q-59 0 -100 41.5t-41 100.5q0 58 41.5 99t99.5 41t99.5 -41t41.5 -99q0 -59 -41 -100.5t-100 -41.5z" />
    <glyph glyph-name="ellipsis" unicode="&#x2026;" horiz-adv-x="712" 
d="M131 -13q-41 0 -64 23.5t-23 59.5t23.5 60.5t63.5 24.5q41 0 64 -24.5t23 -60.5t-23 -59.5t-64 -23.5zM359 -13q-41 0 -64 23.5t-23 59.5t23.5 60.5t63.5 24.5q41 0 64 -24.5t23 -60.5t-23 -59.5t-64 -23.5zM585 -13q-41 0 -64 23.5t-23 59.5t23.5 60.5t63.5 24.5
q41 0 64 -24.5t23 -60.5t-23 -59.5t-64 -23.5z" />
    <glyph glyph-name="perthousand" unicode="&#x2030;" horiz-adv-x="1192" 
d="M210 314q-79 0 -128 44t-49 129t50 131t128 46q80 0 129.5 -45.5t49.5 -131.5q0 -85 -49 -129t-131 -44zM121 13l458 637h122l-458 -637h-122zM210 411q64 0 64 77q0 79 -64 79q-61 0 -61 -79q0 -77 61 -77zM603 -4q-79 0 -128.5 43.5t-49.5 127.5q0 85 50 131.5
t128 46.5q80 0 129.5 -46t49.5 -132q0 -84 -49.5 -127.5t-129.5 -43.5zM982 -4q-78 0 -127.5 43.5t-49.5 127.5q0 85 50 131.5t128 46.5q81 0 130.5 -46t49.5 -132q0 -84 -49.5 -127.5t-131.5 -43.5zM603 93q63 0 63 74q0 80 -63 80q-62 0 -62 -80q0 -74 62 -74zM983 93
q63 0 63 74q0 80 -63 80q-61 0 -61 -80q0 -74 61 -74z" />
    <glyph glyph-name="guilsinglleft" unicode="&#x2039;" horiz-adv-x="348" 
d="M158 92l-130 195l133 193h146v-13l-120 -176l121 -189v-10h-150z" />
    <glyph glyph-name="guilsinglright" unicode="&#x203a;" horiz-adv-x="348" 
d="M191 480l130 -195l-133 -193h-146v13l120 176l-121 189v10h150z" />
    <glyph glyph-name="fraction" unicode="&#x2044;" horiz-adv-x="149" 
d="M-155 -11l402 674h118l-403 -674h-117z" />
    <glyph glyph-name="Euro" unicode="&#x20ac;" horiz-adv-x="667" 
d="M482 139q67 0 127 27l4 -3l-26 -145q-53 -25 -130 -25q-132 0 -223.5 73t-110.5 202h-88l24 151h69q25 123 114.5 192.5t215.5 69.5q85 0 155 -20l-27 -143l-3 -1q-47 18 -105 18q-137 0 -174 -116h185l-25 -151h-164q33 -129 182 -129z" />
    <glyph glyph-name="trademark" unicode="&#x2122;" horiz-adv-x="869" 
d="M37 544v117h326v-117h-99v-208h-125v208h-102zM782 661l30 -325h-117l-11 130h-1l-55 -130h-75l-54 131h-1l-12 -131h-117l30 325h128l68 -163l65 163h122z" />
    <glyph glyph-name="minus" unicode="&#x2212;" horiz-adv-x="580" 
d="M61 238v109h458v-109h-458z" />
    <glyph glyph-name="approxequal" unicode="&#x2248;" horiz-adv-x="540" 
d="M153 316l-93 13q0 61 35 99t92 38q38 0 87.5 -17t75.5 -17q38 0 41 37l4 3l86 -17q0 -59 -34 -96t-91 -37q-30 0 -81.5 17t-74.5 17q-42 0 -44 -37zM153 106l-93 13q0 61 35 99.5t92 38.5q38 0 87.5 -17t75.5 -17q38 0 41 36l4 3l86 -17q0 -59 -34 -96t-91 -37
q-30 0 -81.5 17.5t-74.5 17.5q-42 0 -44 -38z" />
    <glyph glyph-name="notequal" unicode="&#x2260;" horiz-adv-x="607" 
d="M546 349h-137l-56 -120h193v-107h-244l-48 -102h-128l48 102h-113v107h164l56 120h-220v107h271l44 94h128l-44 -94h86v-107z" />
    <glyph glyph-name="uniF8FF" unicode="&#xf8ff;" horiz-adv-x="1451" 
d="M752 522q-26 0 -43.5 18t-17.5 43q0 26 17.5 44t43.5 18t44 -18t18 -44t-18 -43.5t-44 -17.5zM100 270q0 134 9 314h100q10 -200 10 -314h-119zM604 264q-82 0 -82 66q0 12 2 49t2 38h-22v79l119 30l1 -17h178q10 -64 10 -239h-118q0 92 3 147h-61l3 -65q4 -4 15 -4
q13 0 18 5v-74q-14 -15 -68 -15zM328 265q-92 0 -92 114q0 135 134 135q124 0 124 -117v-127h-83l-8 61q-6 -33 -23.5 -49.5t-51.5 -16.5zM834 270q0 175 10 239h80q6 -44 6 -76q2 15 6.5 30t24 33t49.5 18q42 0 58.5 -25t18.5 -81l3 -138h-114q0 26 1 56t1 37q0 29 -15 29
q-18 0 -18 -29q0 -7 1.5 -37t1.5 -56h-114zM1228 265q-122 0 -122 124q0 125 124 125q121 0 121 -123q0 -126 -123 -126zM366 345q24 0 24 30q0 26 -24 26q-22 0 -22 -26q0 -30 22 -30zM1228 345q23 0 23 30q0 26 -23 26q-21 0 -21 -26q0 -30 21 -30zM390 -50q-61 0 -88 17
v83q24 -16 70 -16q21 0 34 6t16.5 11.5t3.5 10.5q-16 -11 -49 -11q-90 0 -90 83v13h-55l3 -65q6 -4 15 -4q13 0 18 5v-73q-19 -15 -68 -15q-45 0 -63 17t-18 54q0 39 3 81h-18v80l117 29l-1 -18h177v-119q0 -16 3 -21.5t12 -5.5q16 0 16 27v119h104q10 -52 10 -138
q0 -81 -33.5 -115.5t-118.5 -34.5zM558 -44q0 142 10 282h78q7 -42 7 -76q17 81 80 81q37 0 58.5 -29t21.5 -84q0 -135 -137 -135q1 -15 1 -39h-119zM970 -5q-141 0 -141 122q0 59 32.5 92.5t92.5 33.5q55 0 85.5 -30t30.5 -86q0 -21 -3 -35h-124q11 -18 50 -18q34 0 55 12
v-75q-23 -16 -78 -16zM938 109h40q3 27 -17 27q-23 0 -23 -27zM670 72q5 0 12.5 2.5t16 11.5t8.5 23q0 23 -20 23q-22 0 -22 -31q0 -14 5 -29zM1098 -10q-24 0 -24 23t24 23t24 -23t-24 -23zM1098 -5q18 0 18 18t-18 18t-18 -18t18 -18zM1088 2v23h11q10 0 10 -7t-7 -7l6 -9
h-6l-4 9h-5v-9h-5zM1093 15h7q4 0 4 3t-4 3h-7v-6z" />
    <glyph glyph-name="i.loclTRK" horiz-adv-x="294" 
d="M147 579q-40 0 -68.5 28.5t-28.5 68.5t28.5 68.5t68.5 28.5t68.5 -28.5t28.5 -68.5t-28.5 -68.5t-68.5 -28.5zM65 0v516h164v-516h-164z" />
    <glyph glyph-name="caroncomb.alt" 
d="M-165 468l8 246h112l12 -14l-44 -232h-88z" />
    <glyph glyph-name="uni0308.case" 
d="M-360 717q-34 0 -57.5 23.5t-23.5 57.5q0 33 23.5 57t57.5 24q33 0 57 -24t24 -57q0 -34 -24 -57.5t-57 -23.5zM-114 717q-34 0 -57.5 23.5t-23.5 57.5q0 33 23.5 57t57.5 24t57.5 -24t23.5 -57q0 -34 -23.5 -57.5t-57.5 -23.5z" />
    <glyph glyph-name="uni0307.case" 
d="M-130 710q-38 0 -65.5 27t-27.5 66t27.5 66.5t65.5 27.5q39 0 66.5 -27.5t27.5 -66.5t-27.5 -66t-66.5 -27z" />
    <glyph glyph-name="gravecomb.case" 
d="M-69 699l-239 73l-8 16l72 120l207 -130z" />
    <glyph glyph-name="acutecomb.case" 
d="M-268 699l-31 77l206 132l72 -120l-8 -16z" />
    <glyph glyph-name="uni030B.case" 
d="M-351 701l-72 29l75 188l108 -29l3 -22zM-138 701l-72 29l75 188l108 -29l4 -22z" />
    <glyph glyph-name="uni0302.case" 
d="M-318 702l-47 62l130 135h73l136 -134l-49 -63l-125 76z" />
    <glyph glyph-name="uni030C.case" 
d="M-229 703l-136 128l49 64l125 -77l118 77l47 -62l-130 -130h-73z" />
    <glyph glyph-name="uni0306.case" 
d="M-190 712q-70 0 -118.5 44.5t-48.5 117.5l99 10q3 -33 20.5 -52.5t49.5 -19.5q34 0 54 20t22 52l93 -10q0 -73 -50 -117.5t-121 -44.5z" />
    <glyph glyph-name="uni030A.case" 
d="M-149 688q-54 0 -88.5 32t-34.5 81t34.5 81t88.5 32t89 -32.5t35 -80.5t-35 -80.5t-89 -32.5zM-149 758q19 0 31.5 12.5t12.5 30.5t-12.5 30t-31.5 12t-31 -12.5t-12 -29.5q0 -18 12 -30.5t31 -12.5z" />
    <glyph glyph-name="tildecomb.case" 
d="M-310 707l-94 26q1 57 35 95t88 38q32 0 72 -15.5t59 -15.5q14 0 25 10t11 25l3 2l93 -26q0 -58 -34 -95t-89 -37q-24 0 -66.5 15.5t-61.5 15.5q-17 0 -28 -11t-11 -25z" />
    <glyph glyph-name="uni0304.case" 
d="M-348 738v101h328v-101h-328z" />
    <glyph glyph-name="uni0337.case" 
d="M-324 178v114l299 190h5v-117l-300 -189z" />
    <glyph glyph-name="uni0338.case" 
d="M-726 -14v13l580 682h121v-11l-589 -684h-112z" />
    <glyph glyph-name="caron.alt" horiz-adv-x="199" 
d="M34 418l8 249h109l13 -14l-45 -235h-85z" />
    <glyph glyph-name="acute.case" horiz-adv-x="332" 
d="M64 699l-31 77l206 132l72 -120l-8 -16z" />
    <glyph glyph-name="breve.case" horiz-adv-x="376" 
d="M186 712q-70 0 -118.5 44.5t-48.5 117.5l99 10q3 -33 20.5 -52.5t49.5 -19.5q34 0 54 20t22 52l93 -10q0 -73 -50 -117.5t-121 -44.5z" />
    <glyph glyph-name="caron.case" horiz-adv-x="391" 
d="M162 703l-136 128l49 64l125 -77l118 77l47 -62l-130 -130h-73z" />
    <glyph glyph-name="circumflex.case" horiz-adv-x="391" 
d="M73 702l-47 62l130 135h73l136 -134l-49 -63l-125 76z" />
    <glyph glyph-name="dieresis.case" horiz-adv-x="475" 
d="M115 717q-34 0 -57.5 23.5t-23.5 57.5q0 33 23.5 57t57.5 24q33 0 57 -24t24 -57q0 -34 -24 -57.5t-57 -23.5zM361 717q-34 0 -57.5 23.5t-23.5 57.5q0 33 23.5 57t57.5 24t57.5 -24t23.5 -57q0 -34 -23.5 -57.5t-57.5 -23.5z" />
    <glyph glyph-name="dotaccent.case" horiz-adv-x="259" 
d="M129 710q-38 0 -65.5 27t-27.5 66t27.5 66.5t65.5 27.5q39 0 66.5 -27.5t27.5 -66.5t-27.5 -66t-66.5 -27z" />
    <glyph glyph-name="grave.case" horiz-adv-x="332" 
d="M263 699l-239 73l-8 16l72 120l207 -130z" />
    <glyph glyph-name="hungarumlaut.case" horiz-adv-x="480" 
d="M129 701l-72 29l75 188l108 -29l3 -22zM342 701l-72 29l75 188l108 -29l4 -22z" />
    <glyph glyph-name="macron.case" horiz-adv-x="394" 
d="M20 738v101h328v-101h-328z" />
    <glyph glyph-name="ring.case" horiz-adv-x="297" 
d="M148 688q-54 0 -88.5 32t-34.5 81t34.5 81t88.5 32t89 -32.5t35 -80.5t-35 -80.5t-89 -32.5zM148 758q19 0 31.5 12.5t12.5 30.5t-12.5 30t-31.5 12q-18 0 -30.5 -12.5t-12.5 -29.5q0 -18 12 -30.5t31 -12.5z" />
    <glyph glyph-name="tilde.case" horiz-adv-x="424" 
d="M114 707l-94 26q1 57 35 95t88 38q32 0 72 -15.5t59 -15.5q14 0 25 10t11 25l3 2l93 -26q0 -58 -34 -95t-89 -37q-24 0 -66.5 15.5t-61.5 15.5q-17 0 -28 -11t-11 -25z" />
    <glyph glyph-name="IJacute" horiz-adv-x="717" 
d="M76 695l-31 77l206 132l72 -120l-8 -16zM474 695l-31 77l206 132l72 -120l-8 -16zM78 0v663h163v-663h-163zM401 -3q-31 0 -60 4v136l4 2q16 -3 34 -3q105 0 105 134v393h164v-377q0 -289 -247 -289z" />
    <glyph glyph-name="ijacute" horiz-adv-x="601" 
d="M61 557l-47 73l170 158l97 -98l-4 -18zM371 557l-47 73l170 158l96 -98l-3 -18zM65 85v431h164v-431h-164zM297 -171q-68 0 -131 20v141l2 1q47 -16 97 -16q61 0 84.5 34.5t23.5 124.5v382h164v-402q0 -285 -240 -285z" />
    </font>
</defs>
</svg>
