<?xml version="1.0" standalone="no"?>
<!DOCTYPE svg PUBLIC "-//W3C//DTD SVG 1.1//EN" "http://www.w3.org/Graphics/SVG/1.1/DTD/svg11.dtd" >
<svg xmlns="http://www.w3.org/2000/svg" xmlns:xlink="http://www.w3.org/1999/xlink" version="1.1">
<metadata>
Created by FontForge 20170731 at Tue Mar  7 13:07:39 2017
 By Aleksey,,,
Copyright (c) 2017 by Alfonso Garci'a - Latinotype Team. All rights reserved.
</metadata>
<defs>
<font id="RawsonAlt-ExtraBoldIt" horiz-adv-x="0" >
  <font-face 
    font-family="Rawson Alt ExtraBold It"
    font-weight="700"
    font-style="italic"
    font-stretch="normal"
    units-per-em="1100"
    panose-1="0 0 8 0 0 0 0 0 0 0"
    ascent="880"
    descent="-220"
    x-height="520"
    cap-height="663"
    bbox="-683 -251 1334 960"
    underline-thickness="50"
    underline-position="-200"
    slope="-7.5"
    unicode-range="U+0020-FB02"
  />
<missing-glyph horiz-adv-x="484" 
 />
    <glyph glyph-name="fi" unicode="fi" horiz-adv-x="641" 
d="M562 778q40 0 65 -25t25 -64q0 -46 -30 -74t-72 -28q-40 0 -65.5 25.5t-25.5 63.5q0 45 30.5 73.5t72.5 28.5zM377 488l-16 -128h-86l-76 -525h-163l75 525h-68l17 128h69l1 4q16 113 81.5 172t160.5 59q40 0 65 -8l-20 -143l-2 -1q-19 7 -37 7q-72 0 -84 -87v-3h83z
M377 0l75 520h163l-75 -520h-163z" />
    <glyph glyph-name="fl" unicode="fl" horiz-adv-x="600" 
d="M380 488l-17 -127h-87l-69 -486h-164l69 486h-69l17 127h70l1 10q15 107 80.5 166t159.5 59q40 0 68 -8l-20 -143l-2 -1q-18 6 -38 6q-74 0 -84 -82l-1 -7h86zM480 715h163l-100 -715h-164z" />
    <glyph glyph-name=".notdef" horiz-adv-x="484" 
 />
    <glyph glyph-name=".null" 
 />
    <glyph glyph-name="nonmarkingreturn" horiz-adv-x="366" 
 />
    <glyph glyph-name="space" unicode=" " horiz-adv-x="224" 
 />
    <glyph glyph-name="exclam" unicode="!" horiz-adv-x="291" 
d="M73 233l55 469h161l-78 -469h-138zM112 -14q-38 0 -59 20.5t-21 52.5q0 38 25 64.5t66 26.5q39 0 59.5 -20.5t20.5 -53.5q0 -37 -25 -63.5t-66 -26.5z" />
    <glyph glyph-name="quotedbl" unicode="&#x22;" horiz-adv-x="391" 
d="M83 407l29 259h118l12 -13l-72 -246h-87zM249 407l29 259h118l11 -13l-72 -246h-86z" />
    <glyph glyph-name="numbersign" unicode="#" horiz-adv-x="605" 
d="M569 351h-80l-31 -102h95l-15 -107h-112l-32 -107h-107l32 107h-111l-32 -107h-107l32 107h-71l15 107h88l31 102h-103l16 107h119l32 106h107l-32 -106h111l32 106h107l-32 -106h63zM351 249l31 102h-111l-31 -102h111z" />
    <glyph glyph-name="dollar" unicode="$" horiz-adv-x="494" 
d="M384 620q61 -7 100 -24l-17 -134l-1 -1q-53 32 -146 32q-80 0 -80 -43q0 -16 17.5 -26t71.5 -28q123 -42 123 -140q0 -74 -41 -122t-117 -65l-14 -102h-143l14 96q-63 7 -129 34l19 132l2 1q76 -53 167 -53q50 0 72 12t22 38q0 18 -20.5 30t-83.5 31q-129 40 -129 140
q0 70 44.5 118t122.5 66l14 104h145z" />
    <glyph glyph-name="percent" unicode="%" horiz-adv-x="807" 
d="M219 317q-70 0 -114.5 38.5t-44.5 114.5q0 90 55 145t138 55q70 0 115 -40t45 -113q0 -93 -54.5 -146.5t-139.5 -53.5zM89 13l534 642h121l-533 -642h-122zM230 415q31 0 48.5 25t17.5 67q0 66 -51 66q-32 0 -50.5 -26.5t-18.5 -69.5q0 -62 54 -62zM571 -6
q-70 0 -114 38.5t-44 114.5q0 91 54.5 145.5t138.5 54.5q69 0 114 -40t45 -112q0 -94 -54.5 -147.5t-139.5 -53.5zM583 92q31 0 48.5 25t17.5 67q0 32 -14 49t-38 17q-32 0 -50 -26.5t-18 -69.5q0 -62 54 -62z" />
    <glyph glyph-name="ampersand" unicode="&#x26;" horiz-adv-x="674" 
d="M637 0h-178l-34 46q-89 -64 -204 -64q-86 0 -143 44.5t-57 131.5q0 149 158 228q-37 64 -37 123q0 84 61.5 133.5t163.5 49.5q78 0 134 -28l-18 -130l-2 -1q-58 26 -118 26q-64 0 -64 -48q0 -16 15 -42.5t59 -90.5l75 -107q27 66 39 152h139q-23 -156 -97 -268zM262 119
q50 0 91 26l-106 144l-3 4q-65 -44 -65 -102q0 -34 21.5 -53t61.5 -19z" />
    <glyph glyph-name="quotesingle" unicode="'" horiz-adv-x="227" 
d="M83 407l29 259h118l12 -13l-72 -246h-87z" />
    <glyph glyph-name="parenleft" unicode="(" horiz-adv-x="343" 
d="M195 -184q-67 46 -115 145t-48 245q0 95 18.5 180t48 147.5t69.5 114t80.5 84.5t83.5 54l45 -115q-32 -23 -62.5 -60t-60 -92.5t-47.5 -136.5t-18 -174q0 -104 24 -175t58 -102z" />
    <glyph glyph-name="parenright" unicode=")" horiz-adv-x="344" 
d="M162 795q63 -34 112.5 -136.5t49.5 -254.5q0 -94 -20.5 -181t-52.5 -151t-72.5 -116.5t-79.5 -83.5t-75 -47l-45 115q32 23 62.5 60t60 92.5t47.5 136t18 173.5q0 104 -24 175.5t-58 102.5z" />
    <glyph glyph-name="asterisk" unicode="*" horiz-adv-x="496" 
d="M273 568l-10 6l-56 140l5 11l101 27l15 -11l-23 -157l-8 -9zM340 552l-12 2l-13 16v13l97 138l14 2l60 -72l-5 -18zM236 527l-159 1l1 10l40 97l20 8l124 -75l-4 -12l-10 -22zM443 425l-120 77l-2 11l8 22l10 8l155 -3l7 -9l-40 -99zM155 346l-61 73l4 18l141 80l11 -2
l15 -15v-13l-97 -139zM264 318l-13 10l22 156l10 9l22 7l11 -5l57 -140l-7 -12z" />
    <glyph glyph-name="plus" unicode="+" horiz-adv-x="527" 
d="M508 348l-16 -107h-177l-27 -188h-109l27 188h-177l16 107h177l27 189h109l-27 -189h177z" />
    <glyph glyph-name="comma" unicode="," horiz-adv-x="250" 
d="M-19 -149q33 92 46 187q4 40 7 85l129 14l16 -23q-10 -69 -38.5 -140.5t-67.5 -122.5h-92z" />
    <glyph glyph-name="hyphen" unicode="-" horiz-adv-x="411" 
d="M53 225l19 133h294l-17 -133h-296z" />
    <glyph glyph-name="period" unicode="." horiz-adv-x="256" 
d="M95 -13q-39 0 -59.5 20.5t-20.5 54.5q0 38 25 65.5t66 27.5q39 0 59.5 -21t20.5 -55q0 -38 -25 -65t-66 -27z" />
    <glyph glyph-name="slash" unicode="/" horiz-adv-x="498" 
d="M-29 -122l427 878h145l-427 -878h-145z" />
    <glyph glyph-name="zero" unicode="0" horiz-adv-x="645" 
d="M298 -16q-120 0 -186 68.5t-66 206.5q0 197 93.5 310.5t223.5 113.5q122 0 189 -71t67 -211q0 -200 -92 -308.5t-229 -108.5zM310 121q61 0 99.5 76t38.5 204q0 70 -23 107t-65 37q-65 0 -104 -79t-39 -205q0 -140 93 -140z" />
    <glyph glyph-name="one" unicode="1" horiz-adv-x="405" 
d="M129 0l66 458l-144 -56l-4 1l24 164l286 113h26l-97 -680h-157z" />
    <glyph glyph-name="two" unicode="2" horiz-adv-x="565" 
d="M-3 0q13 95 73 171t174 163q81 61 105 88.5t24 62.5q0 56 -89 56q-60 0 -114 -20.5t-82 -42.5l-3 2l17 143q98 61 222 61q91 0 153 -41.5t62 -126.5q0 -78 -26.5 -115.5t-131.5 -122.5q-22 -19 -35 -29q-103 -83 -110 -115h270l-19 -134h-490z" />
    <glyph glyph-name="three" unicode="3" horiz-adv-x="534" 
d="M411 359q75 -42 75 -133q0 -113 -73 -177.5t-217 -64.5q-112 0 -186 42l21 138l4 2q54 -45 163 -45q60 0 98 22.5t38 71.5q0 67 -93 69l-78 2l16 122h51q112 0 112 77q0 61 -88 61q-93 0 -159 -34l-3 2l18 134q76 37 190 37q90 0 146.5 -40t56.5 -122q0 -105 -92 -164z
" />
    <glyph glyph-name="four" unicode="4" horiz-adv-x="602" 
d="M563 237l-16 -123h-87l-16 -114h-147l17 114h-315l5 74l409 485h128l-63 -436h85zM202 237h129l29 195z" />
    <glyph glyph-name="five" unicode="5" horiz-adv-x="549" 
d="M217 -16q-111 0 -201 32l21 144l4 2q84 -40 178 -40q61 0 92.5 26t31.5 75q0 79 -99 79q-92 0 -181 -24l-3 2l76 392h398l-19 -134h-268l-22 -110q27 8 78 8q95 0 149 -44.5t54 -134.5q0 -62 -19.5 -111t-49 -78.5t-69 -49t-77 -27t-74.5 -7.5z" />
    <glyph glyph-name="six" unicode="6" horiz-adv-x="593" 
d="M364 445q89 0 139 -49.5t50 -151.5q0 -107 -73.5 -184t-200.5 -77q-114 0 -176.5 68t-62.5 191q0 209 110 325t283 116q88 0 131 -16l-19 -133l-4 -1q-51 16 -121 16q-158 0 -207 -162q63 58 151 58zM289 119q53 0 79.5 30.5t26.5 79.5q0 36 -19.5 58.5t-59.5 22.5
t-72 -25t-47 -72q6 -43 30 -68.5t62 -25.5z" />
    <glyph glyph-name="seven" unicode="7" horiz-adv-x="511" 
d="M48 0l289 519h-275l20 149h440l15 -84l-320 -584h-169z" />
    <glyph glyph-name="eight" unicode="8" horiz-adv-x="591" 
d="M450 353q89 -54 89 -143q0 -99 -74.5 -162.5t-205.5 -63.5q-112 0 -171 44.5t-59 123.5q0 120 125 197q-62 54 -62 131q0 95 74 149.5t181 54.5q94 0 158 -41.5t64 -123.5q0 -98 -119 -166zM339 550q-42 0 -64 -16.5t-22 -44.5q0 -22 19 -40.5t68 -40.5q75 35 75 88
q0 54 -76 54zM283 111q48 0 75 20t27 52q0 29 -22 48t-79 44l-29 12q-70 -42 -70 -106q0 -70 98 -70z" />
    <glyph glyph-name="nine" unicode="9" horiz-adv-x="596" 
d="M348 685q105 0 164.5 -69.5t59.5 -198.5q0 -208 -95 -320t-260 -112q-113 0 -172 27l22 141l4 3q61 -33 148 -33q148 0 183 152q-63 -51 -150 -51q-85 0 -138.5 50t-53.5 137q0 122 77 198t211 76zM299 356q66 0 116 44v8q0 138 -90 138q-47 0 -75.5 -30.5t-28.5 -79.5
q0 -37 20.5 -58.5t57.5 -21.5z" />
    <glyph glyph-name="colon" unicode=":" horiz-adv-x="287" 
d="M158 361q-38 0 -59 20.5t-21 52.5q0 38 24.5 64.5t71.5 26.5q38 0 59 -21.5t21 -53.5q0 -39 -24.5 -64t-71.5 -25zM107 -13q-38 0 -59 20.5t-21 52.5q0 38 24.5 64.5t71.5 26.5q38 0 59 -21t21 -53q0 -39 -24.5 -64.5t-71.5 -25.5z" />
    <glyph glyph-name="semicolon" unicode=";" horiz-adv-x="282" 
d="M163 360q-39 0 -59.5 20.5t-20.5 54.5q0 38 25 65.5t66 27.5q39 0 59.5 -21t20.5 -55q0 -38 -25 -65t-66 -27zM-2 -149q34 100 45 187q6 40 7 85l130 14l16 -23q-21 -147 -106 -263h-92z" />
    <glyph glyph-name="less" unicode="&#x3c;" horiz-adv-x="480" 
d="M170 302l21 -10l230 -155l-68 -99l-324 211l14 102l384 212l42 -98l-276 -154z" />
    <glyph glyph-name="equal" unicode="=" horiz-adv-x="590" 
d="M72 350l15 109h472l-15 -109h-472zM39 123l15 110h473l-16 -110h-472z" />
    <glyph glyph-name="greater" unicode="&#x3e;" horiz-adv-x="480" 
d="M136 563l327 -212l-16 -101l-384 -213l-41 99l277 155l22 9l-21 9l-230 154z" />
    <glyph glyph-name="question" unicode="?" horiz-adv-x="437" 
d="M93 217q7 65 33.5 108t82.5 83q39 26 54.5 45.5t15.5 49.5q0 61 -73 61q-65 0 -123 -33l-2 1l20 140q64 32 148 32t139.5 -41.5t55.5 -121.5q0 -50 -17.5 -89t-43 -64t-70.5 -57q-44 -31 -59 -56t-20 -56zM142 -13q-39 0 -60.5 20.5t-21.5 53.5q0 37 25.5 63.5t66.5 26.5
q40 0 61 -20.5t21 -53.5q0 -37 -25.5 -63.5t-66.5 -26.5z" />
    <glyph glyph-name="at" unicode="@" horiz-adv-x="814" 
d="M615 438l-33 -237q-3 -21 14 -21q13 0 26 12t24 50t11 97q0 88 -53.5 137t-145.5 49q-134 0 -214 -87t-80 -221q0 -106 59.5 -167t158.5 -61q103 0 171 53h5l48 -91q-92 -76 -241 -76q-154 0 -244 89t-90 239q0 188 122 312t319 124q144 0 231.5 -79.5t87.5 -213.5
q0 -49 -12.5 -95.5t-37.5 -88t-70.5 -66.5t-104.5 -25q-80 0 -98 56q-35 -62 -112 -62q-62 0 -99 44t-37 116q0 102 59.5 162.5t145.5 60.5q53 0 87 -27l6 17h97zM402 174q39 0 62 42l16 111q-20 20 -51 20q-35 0 -59.5 -29t-24.5 -77q0 -32 15 -49.5t42 -17.5z" />
    <glyph glyph-name="A" unicode="A" horiz-adv-x="628" 
d="M432 0l-24 94h-239l-49 -94h-162l374 671h73l196 -671h-169zM227 206h152l-41 157l-9 47l-21 -47z" />
    <glyph glyph-name="B" unicode="B" horiz-adv-x="592" 
d="M469 362q81 -40 81 -139q0 -104 -75 -163.5t-203 -59.5h-236l94 663q82 7 193 7q230 0 230 -154q0 -106 -84 -154zM320 542q-29 0 -49 -1l-21 -147h50q49 0 73.5 23t24.5 63q0 62 -78 62zM278 119q114 0 114 96q0 69 -78 69h-80l-23 -165h67z" />
    <glyph glyph-name="C" unicode="C" horiz-adv-x="586" 
d="M356 -12q-146 0 -230 78t-84 222q0 178 110 284.5t281 106.5q90 0 159 -25l-20 -152l-4 -2q-58 32 -135 32q-102 0 -160.5 -63t-58.5 -162q0 -85 47.5 -129t135.5 -44q67 0 126 28l4 -1l-20 -148q-65 -25 -151 -25z" />
    <glyph glyph-name="D" unicode="D" horiz-adv-x="707" 
d="M355 673q163 0 245.5 -74t82.5 -206q0 -185 -113.5 -290.5t-304.5 -105.5q-207 2 -229 3l93 663q108 10 226 10zM302 142q100 0 156 61t56 166q0 78 -44 117t-118 39q-52 0 -81 -4l-53 -377q27 -2 84 -2z" />
    <glyph glyph-name="E" unicode="E" horiz-adv-x="549" 
d="M532 530h-258l-18 -127h239l-19 -129h-239l-20 -141h266l-18 -133h-429l94 663h421z" />
    <glyph glyph-name="F" unicode="F" horiz-adv-x="516" 
d="M523 516h-251l-20 -141h214l-20 -143h-214l-33 -232h-163l94 663h414z" />
    <glyph glyph-name="G" unicode="G" horiz-adv-x="656" 
d="M350 -11q-140 0 -223.5 75.5t-83.5 212.5q0 185 113 295.5t299 110.5q113 0 183 -31l-22 -150l-4 -2q-63 36 -166 36q-108 0 -170.5 -64.5t-62.5 -173.5q0 -77 42.5 -120t121.5 -43q35 0 73 11l21 154h142l-38 -272q-107 -39 -225 -39z" />
    <glyph glyph-name="H" unicode="H" horiz-adv-x="725" 
d="M545 663h162l-94 -663h-162l37 264h-252l-37 -264h-163l94 663h163l-36 -252h252z" />
    <glyph glyph-name="I" unicode="I" horiz-adv-x="312" 
d="M36 0l90 663h164l-90 -663h-164z" />
    <glyph glyph-name="J" unicode="J" horiz-adv-x="381" 
d="M35 -3q-30 0 -58 4l20 136l4 2q15 -3 30 -3q100 0 121 135l56 392h164l-54 -376q-42 -290 -283 -290z" />
    <glyph glyph-name="K" unicode="K" horiz-adv-x="659" 
d="M706 659l-319 -323l243 -332l-2 -4h-194l-196 274l-39 -274h-163l94 663h163l-38 -268l262 268h187z" />
    <glyph glyph-name="L" unicode="L" horiz-adv-x="493" 
d="M218 135h245l-19 -135h-408l94 663h163z" />
    <glyph glyph-name="M" unicode="M" horiz-adv-x="815" 
d="M677 667h90l-38 -667h-154l24 320h-2l-197 -317h-55l-106 320h-3l-73 -323h-152l153 667h95l151 -416z" />
    <glyph glyph-name="N" unicode="N" horiz-adv-x="714" 
d="M36 0l95 668h72l285 -361h3l51 360h156l-96 -668h-71l-282 370h-3l-54 -369h-156z" />
    <glyph glyph-name="O" unicode="O" horiz-adv-x="751" 
d="M364 -12q-136 0 -228.5 83t-92.5 228q0 166 101.5 273t262.5 107q136 0 228.5 -84t92.5 -230q0 -165 -101.5 -271t-262.5 -106zM373 134q84 0 134 61.5t50 161.5q0 82 -42 128.5t-117 46.5q-85 0 -134.5 -62t-49.5 -163q0 -82 41.5 -127.5t117.5 -45.5z" />
    <glyph glyph-name="P" unicode="P" horiz-adv-x="585" 
d="M342 675q249 -2 249 -195q0 -136 -83 -207.5t-212 -71.5q-37 0 -69 4l-29 -205h-162l94 663q110 12 212 12zM295 336q130 0 130 118q0 39 -24.5 60t-67.5 21q-31 0 -59 -2l-28 -194q30 -3 49 -3z" />
    <glyph glyph-name="Q" unicode="Q" horiz-adv-x="729" 
d="M811 -89l2 -4l-26 -134q-71 1 -144.5 23t-127.5 48t-135 49.5t-163 27.5l3 146q149 10 232.5 87t83.5 198q0 88 -42 134t-120 46q-68 0 -110 -44.5t-42 -109.5q0 -114 118 -114q31 0 59 11l3 -1l-1 -134q-45 -15 -96 -15q-112 1 -181 62t-69 173q0 137 91.5 228t239.5 91
q139 0 230 -81t91 -232q0 -119 -66.5 -218.5t-183.5 -141.5q57 -12 156 -48t198 -47z" />
    <glyph glyph-name="R" unicode="R" horiz-adv-x="615" 
d="M589 485q0 -96 -42 -157t-111 -89l112 -235l-2 -4h-171l-96 218h-50l-31 -218h-162l95 663q89 12 209 12q52 0 94.5 -9.5t78.5 -30.5t56 -59t20 -91zM273 533l-27 -193h55q54 0 87.5 30.5t33.5 84.5q0 39 -23.5 60t-64.5 21q-34 0 -61 -3z" />
    <glyph glyph-name="S" unicode="S" horiz-adv-x="522" 
d="M206 -11q-114 0 -191 44l23 148l3 1q73 -56 166 -56q48 0 73.5 17.5t25.5 48.5q0 27 -18.5 46t-72.5 48q-62 32 -98 72.5t-36 103.5q0 107 76 162.5t188 55.5q100 0 166 -30l-18 -140l-4 -2q-58 31 -139 33q-104 2 -104 -55q0 -11 4.5 -19.5t20 -19.5t27 -17.5
t44.5 -23.5q61 -33 95 -74.5t34 -108.5q0 -107 -73 -170.5t-192 -63.5z" />
    <glyph glyph-name="T" unicode="T" horiz-adv-x="579" 
d="M624 663l-21 -146h-191l-73 -517h-165l75 517h-199l21 146h553z" />
    <glyph glyph-name="U" unicode="U" horiz-adv-x="697" 
d="M310 -13q-120 0 -183.5 56.5t-63.5 159.5q0 37 4 65l56 395h162l-53 -374q-5 -32 -5 -62q0 -49 27.5 -75.5t77.5 -26.5q68 0 100 39t45 125l52 374h159l-57 -395q-20 -135 -103 -208t-218 -73z" />
    <glyph glyph-name="V" unicode="V" horiz-adv-x="621" 
d="M681 663l2 -4l-362 -662h-104l-159 662l2 4h171l69 -383l7 -57l22 57l192 383h160z" />
    <glyph glyph-name="W" unicode="W" horiz-adv-x="932" 
d="M984 663l2 -4l-297 -661h-124l-68 373l-4 39l-16 -39l-174 -373h-128l-120 661l2 4h172l44 -387l3 -55l21 55l171 380h119l64 -363l5 -62l22 62l150 370h156z" />
    <glyph glyph-name="X" unicode="X" horiz-adv-x="650" 
d="M681 659l-249 -319l172 -336l-2 -4h-184l-105 220l-162 -220h-179l-2 4l261 340l-162 315l2 4h187l92 -204l150 204h180z" />
    <glyph glyph-name="Y" unicode="Y" horiz-adv-x="603" 
d="M184 0l38 263l-166 396l1 4h176l92 -252l167 252h165l1 -4l-276 -406l-36 -253h-162z" />
    <glyph glyph-name="Z" unicode="Z" horiz-adv-x="589" 
d="M16 0l-7 56l356 474h-290l16 133h500l4 -56l-362 -473h305l-19 -134h-503z" />
    <glyph glyph-name="bracketleft" unicode="[" horiz-adv-x="348" 
d="M369 650h-104l-97 -689h102l-17 -118h-242l132 925h243z" />
    <glyph glyph-name="backslash" unicode="\" horiz-adv-x="498" 
d="M418 -122h-145l-178 878h146z" />
    <glyph glyph-name="bracketright" unicode="]" horiz-adv-x="348" 
d="M107 769h242l-133 -926h-242l17 118h103l98 689h-102z" />
    <glyph glyph-name="asciicircum" unicode="^" horiz-adv-x="530" 
d="M375 696l134 -367l-111 -47l-83 258l-6 22l-13 -22l-156 -258l-100 47l237 367h98z" />
    <glyph glyph-name="underscore" unicode="_" horiz-adv-x="525" 
d="M-8 -128l19 128h428l-18 -128h-429z" />
    <glyph glyph-name="grave" unicode="`" horiz-adv-x="267" 
d="M281 565l-237 100l-6 18l88 120l200 -149z" />
    <glyph glyph-name="a" unicode="a" horiz-adv-x="569" 
d="M528 151l3 -2l-20 -138q-41 -18 -90 -18q-94 0 -104 72q-65 -78 -159 -78q-72 0 -110.5 39t-38.5 100q0 91 65 134t162 43q59 0 95 -13q4 20 4 30q0 41 -24.5 60t-80.5 19q-78 0 -136 -35l-3 2l16 129q24 15 73 27.5t104 12.5q216 0 216 -185q0 -29 -4 -54l-16 -113
q-2 -14 -2 -18q0 -23 22 -23q17 0 28 9zM223 106q29 0 53.5 15t36.5 38l6 43q-29 8 -63 8q-86 0 -86 -58q0 -22 14.5 -34t38.5 -12z" />
    <glyph glyph-name="b" unicode="b" horiz-adv-x="614" 
d="M391 535q86 0 138.5 -59t52.5 -159q0 -150 -81.5 -240.5t-227.5 -90.5q-148 0 -245 49l95 681h165l-32 -227q51 46 135 46zM286 126q55 0 90 43.5t35 118.5q0 51 -23.5 75t-62.5 24q-31 0 -58 -18.5t-36 -52.5l-25 -174q32 -16 80 -16z" />
    <glyph glyph-name="c" unicode="c" horiz-adv-x="475" 
d="M275 -14q-108 0 -176.5 61.5t-68.5 170.5q0 145 87 231t224 86q71 0 128 -20l-19 -140l-4 -2q-52 22 -110 22q-65 0 -101.5 -45t-36.5 -112q0 -52 27.5 -82t84.5 -30q50 0 106 30l4 -2l-19 -144q-53 -24 -126 -24z" />
    <glyph glyph-name="d" unicode="d" horiz-adv-x="615" 
d="M454 716h164l-102 -716h-133l-5 58q-54 -72 -156 -72q-81 0 -137.5 58.5t-56.5 161.5q0 152 83 240.5t209 88.5q59 0 105 -22zM288 134q32 0 59.5 21t33.5 57v-1l23 159q-33 25 -78 25q-54 0 -90 -44.5t-36 -118.5q0 -49 23.5 -73.5t64.5 -24.5z" />
    <glyph glyph-name="e" unicode="e" horiz-adv-x="567" 
d="M540 332q0 -52 -15 -114l-328 -1q10 -100 121 -100q82 0 163 39l4 -2l-19 -128q-74 -40 -185 -40q-106 0 -178.5 59t-72.5 183q0 136 83 221.5t210 85.5q98 0 157.5 -53.5t59.5 -149.5zM306 402q-74 0 -101 -93h178v12q0 81 -77 81z" />
    <glyph glyph-name="f" unicode="f" horiz-adv-x="374" 
d="M369 723q51 0 78 -9l-19 -143h-2q-18 7 -49 7q-71 0 -83 -82v-3h94l-17 -128h-96l-77 -530h-164l77 530h-67l17 128h69v1q15 109 80.5 169t158.5 60z" />
    <glyph glyph-name="g" unicode="g" horiz-adv-x="581" 
d="M591 520l-15 -110h-81q19 -24 19 -59q0 -74 -64.5 -120t-182.5 -46q-35 0 -67 6q-10 -8 -10 -20q0 -15 26.5 -22.5t109.5 -13.5q97 -9 144.5 -39t47.5 -92q0 -88 -78.5 -133t-224.5 -45q-229 0 -229 110q0 65 82 117q-35 24 -35 63q0 65 82 107q-59 39 -59 110
q0 85 72 136t192 51h271zM282 295q38 0 58.5 16.5t20.5 45.5q0 52 -63 52q-38 0 -59.5 -16t-21.5 -46q0 -25 17 -38.5t48 -13.5zM360 -30q0 20 -21 28t-86 12q-55 4 -83 8q-33 -24 -33 -49q0 -22 25 -31.5t81 -9.5q117 0 117 42z" />
    <glyph glyph-name="h" unicode="h" horiz-adv-x="614" 
d="M403 535q76 0 120.5 -46t44.5 -125q0 -19 -3 -49l-45 -315h-164l38 274q2 20 2 27q0 77 -73 77q-34 0 -59 -19.5t-33 -59.5l-43 -299h-164l102 716h164l-34 -238q57 57 147 57z" />
    <glyph glyph-name="i" unicode="i" horiz-adv-x="288" 
d="M197 587q-40 0 -65.5 25.5t-25.5 63.5q0 45 30.5 73.5t72.5 28.5q39 0 64.5 -25t25.5 -64q0 -46 -30 -74t-72 -28zM24 0l74 520h164l-74 -520h-164z" />
    <glyph glyph-name="j" unicode="j" horiz-adv-x="305" 
d="M215 587q-40 0 -65.5 25.5t-25.5 63.5q0 45 30.5 73.5t72.5 28.5q39 0 64.5 -25t25.5 -64q0 -46 -30 -74t-72 -28zM-25 -172q-29 0 -75 7l21 141l4 2q15 -4 34 -4q44 0 65.5 25t27.5 73l65 448h162l-68 -486q-15 -103 -77.5 -154.5t-158.5 -51.5z" />
    <glyph glyph-name="k" unicode="k" horiz-adv-x="580" 
d="M594 517l-234 -248l177 -265l-2 -4h-183l-135 207l-29 -207h-164l102 716h164l-54 -382l168 186h189z" />
    <glyph glyph-name="l" unicode="l" horiz-adv-x="323" 
d="M194 -11q-79 0 -121 42.5t-29 133.5l79 551h162l-73 -512q-12 -69 43 -69q17 0 31 5l4 -1l-19 -139q-44 -11 -77 -11z" />
    <glyph glyph-name="m" unicode="m" horiz-adv-x="922" 
d="M721 535q71 0 114 -45.5t43 -126.5q0 -21 -3 -45l-45 -318h-164l38 272q2 24 2 42q0 32 -17.5 48t-46.5 16q-36 0 -60 -21.5t-31 -61.5l-42 -295h-164l38 272q2 24 2 42q0 32 -17.5 48t-46.5 16q-70 0 -90 -71l-43 -307h-164l74 520h133l5 -66q57 81 165 81
q53 0 91 -25.5t54 -73.5q55 99 175 99z" />
    <glyph glyph-name="n" unicode="n" horiz-adv-x="614" 
d="M404 535q75 0 120 -46t45 -127q0 -31 -4 -56l-44 -306h-164l37 272q3 18 3 29q1 40 -19.5 58.5t-53.5 18.5q-34 0 -59.5 -20.5t-33.5 -59.5l-42 -298h-165l74 520h134l5 -68q57 83 167 83z" />
    <glyph glyph-name="o" unicode="o" horiz-adv-x="615" 
d="M285 -13q-109 0 -181 61.5t-72 181.5q0 133 82.5 218.5t215.5 85.5q110 0 181 -61.5t71 -182.5q0 -132 -82.5 -217.5t-214.5 -85.5zM297 126q56 0 86.5 46.5t30.5 110.5q0 51 -25 81t-71 30q-57 0 -87 -46t-30 -111q0 -51 24.5 -81t71.5 -30z" />
    <glyph glyph-name="p" unicode="p" horiz-adv-x="615" 
d="M391 535q88 0 140 -59.5t52 -160.5q0 -149 -83.5 -239t-217.5 -90q-55 0 -94 15l-24 -166h-164l98 685h133l4 -53q57 68 156 68zM285 126q57 0 92 43.5t35 117.5q0 52 -24 76t-62 24q-30 0 -56.5 -17t-35.5 -49l-26 -178q30 -17 77 -17z" />
    <glyph glyph-name="q" unicode="q" horiz-adv-x="613" 
d="M455 520h134l-98 -685h-164l28 197q-49 -46 -132 -46q-89 0 -141.5 60.5t-52.5 166.5q0 143 81.5 232.5t199.5 89.5q87 0 137 -37zM378 191l26 178q-34 26 -78 26q-55 0 -90 -44.5t-35 -117.5q0 -49 23.5 -74t65.5 -25q27 0 51 15.5t37 41.5z" />
    <glyph glyph-name="r" unicode="r" horiz-adv-x="412" 
d="M378 533q28 0 52 -8l-23 -151l-4 -2q-20 8 -50 8q-102 0 -128 -118l-37 -262h-164l74 520h133l5 -69q48 82 142 82z" />
    <glyph glyph-name="s" unicode="s" horiz-adv-x="482" 
d="M190 -14q-105 0 -183 38l19 131l4 1q71 -53 174 -53q73 0 73 44q0 18 -18.5 30t-76.5 31q-126 42 -126 141q0 86 66 136t185 50q95 0 153 -27l-18 -130l-4 -2q-54 30 -143 30q-80 0 -80 -38q0 -16 16.5 -25.5t75.5 -28.5q66 -22 96.5 -54t30.5 -84q0 -89 -65.5 -139.5
t-178.5 -50.5z" />
    <glyph glyph-name="t" unicode="t" horiz-adv-x="420" 
d="M275 392l-21 -149q-6 -52 -6 -55q0 -49 66 -49q27 0 60 12l2 -1l-19 -137q-36 -20 -98 -20q-85 0 -132.5 40t-47.5 114q0 21 3 43l29 202h-82l18 128h82l18 122l166 30l1 -2l-21 -150h134l-16 -128h-136z" />
    <glyph glyph-name="u" unicode="u" horiz-adv-x="603" 
d="M415 520h164l-75 -520h-133l-5 69q-63 -82 -174 -82q-70 0 -110 38.5t-40 102.5q0 26 3 52l49 340h164l-43 -295q-3 -30 -3 -38q-1 -30 15 -45.5t47 -15.5q62 0 93 60z" />
    <glyph glyph-name="v" unicode="v" horiz-adv-x="550" 
d="M583 520l2 -3l-288 -518h-124l-134 518l2 3h178l53 -299l144 299h167z" />
    <glyph glyph-name="w" unicode="w" horiz-adv-x="785" 
d="M814 520l2 -3l-237 -517h-122l-46 318l-2 26l-8 -26l-141 -318h-124l-95 517l1 3h164l30 -283l1 -35l9 34l119 284h140l36 -282l3 -30l8 30l110 282h152z" />
    <glyph glyph-name="x" unicode="x" horiz-adv-x="548" 
d="M565 517l-198 -250l136 -263l-1 -4h-181l-69 151l-112 -151h-170l-2 4l208 255l-133 258l2 3h181l64 -144l104 144h169z" />
    <glyph glyph-name="y" unicode="y" horiz-adv-x="531" 
d="M565 517l-218 -418l-35 -68q-59 -114 -113 -158.5t-143 -44.5q-39 0 -67 11l19 131l4 2q15 -6 43 -6q80 0 118 82l-133 469l2 3h173l58 -283l124 283h166z" />
    <glyph glyph-name="z" unicode="z" horiz-adv-x="513" 
d="M492 435l-269 -307h245l-18 -128h-431l-6 80l261 308h-217l16 132h413z" />
    <glyph glyph-name="braceleft" unicode="{" horiz-adv-x="375" 
d="M358 787h56l-17 -121h-35q-53 0 -61 -48l-27 -184q-8 -55 -46 -89.5t-72 -34.5l-1 -8q34 0 62.5 -35t20.5 -90l-27 -185q-6 -47 47 -47h35l-17 -121h-54q-82 0 -122 42.5t-29 118.5l23 157q7 47 -17 73.5t-48 26.5l19 134q24 0 55 24t37 68l22 159q10 76 62 118t134 42z
" />
    <glyph glyph-name="bar" unicode="|" horiz-adv-x="290" 
d="M18 -112l119 844h148l-119 -844h-148z" />
    <glyph glyph-name="braceright" unicode="}" horiz-adv-x="375" 
d="M357 369l-19 -134q-24 0 -54.5 -24t-36.5 -68l-24 -159q-12 -76 -62.5 -118t-132.5 -42h-55l17 121h34q56 0 62 47l26 186q8 55 45.5 89.5t72.5 34.5l2 8q-35 0 -63.5 34.5t-20.5 89.5l27 185q6 47 -47 47h-35l18 121h54q81 0 120.5 -42.5t29.5 -118.5l-22 -157
q-7 -48 16.5 -74t47.5 -26z" />
    <glyph glyph-name="asciitilde" unicode="~" horiz-adv-x="538" 
d="M142 219l-90 13q8 62 48.5 101t95.5 39q41 0 91.5 -18t77.5 -18q37 0 44 38l5 3l83 -18q-8 -59 -47 -96.5t-95 -37.5q-32 0 -85 18t-77 18q-41 0 -48 -39z" />
    <glyph glyph-name="exclamdown" unicode="&#xa1;" horiz-adv-x="281" 
d="M164 373q-39 0 -59.5 20t-20.5 53q0 37 25 63.5t65 26.5q39 0 60 -20.5t21 -53.5q0 -36 -25.5 -62.5t-65.5 -26.5zM-3 -178l77 469h139l-56 -469h-160z" />
    <glyph glyph-name="cent" unicode="&#xa2;" horiz-adv-x="518" 
d="M425 610q49 -6 89 -21l-20 -136l-5 -4q-59 24 -110 24q-77 0 -120 -44t-43 -118q0 -55 31.5 -87.5t90.5 -32.5q55 0 119 26l4 -3l-19 -139q-43 -17 -96 -22l-14 -95h-153l15 108q-73 23 -113 78.5t-40 139.5q0 122 61.5 205t168.5 110l15 108h153z" />
    <glyph glyph-name="sterling" unicode="&#xa3;" horiz-adv-x="568" 
d="M410 682q91 0 156 -26l-19 -137l-6 -3q-59 31 -126 31q-107 0 -121 -106l-5 -44h158l-17 -133h-154q-13 -69 -41 -129h271l-20 -135h-463l-4 8q75 113 95 256h-74l19 133h69q0 4 0.5 11t1.5 11q12 136 89.5 199.5t190.5 63.5z" />
    <glyph glyph-name="currency" unicode="&#xa4;" horiz-adv-x="695" 
d="M611 371q0 -86 -45 -160l70 -85l-123 -107l-68 82q-52 -26 -108 -26q-72 0 -126 31l-97 -87l-92 107l97 88q-16 45 -16 92q0 89 47 161l-69 81l123 108l67 -80q53 25 109 25q71 0 126 -33l97 88l92 -108l-99 -89q15 -41 15 -88zM242 320q0 -49 26.5 -79t76.5 -30
q58 0 92.5 43t34.5 102q0 49 -26 79t-75 30q-59 0 -94 -42.5t-35 -102.5z" />
    <glyph glyph-name="yen" unicode="&#xa5;" horiz-adv-x="687" 
d="M661 669l-214 -374h119v-173h-140v-122h-161v122h-138v173h118l-219 374h179l145 -278l142 278h169z" />
    <glyph glyph-name="brokenbar" unicode="&#xa6;" horiz-adv-x="297" 
d="M96 409l45 323h148l-45 -323h-148zM22 -112l46 324h148l-46 -324h-148z" />
    <glyph glyph-name="section" unicode="&#xa7;" horiz-adv-x="538" 
d="M506 294q0 -88 -88 -158q29 -32 29 -78q0 -92 -75.5 -150.5t-185.5 -58.5q-105 0 -169 35l21 136l4 2q24 -16 66 -29t87 -13q82 0 82 53q0 18 -20 30.5t-84 41.5q-69 30 -101.5 62t-32.5 88q0 93 92 155q-35 36 -35 89q0 93 74.5 149t184.5 56q96 0 152 -25l-18 -136
l-5 -2q-45 29 -130 29q-37 0 -64.5 -12.5t-27.5 -41.5q0 -19 20 -32t81 -36q70 -28 106.5 -63.5t36.5 -90.5zM181 297q0 -22 21 -39.5t79 -40.5q32 -13 61 -27q21 27 21 58q0 22 -22.5 40.5t-86.5 46.5q-30 13 -50 24q-23 -32 -23 -62z" />
    <glyph glyph-name="dieresis" unicode="&#xa8;" horiz-adv-x="420" 
d="M146 591q-37 0 -61.5 24t-24.5 61q0 43 29 70t69 27q37 0 61.5 -24t24.5 -60q0 -43 -29 -70.5t-69 -27.5zM373 591q-38 0 -62.5 24t-24.5 61q0 43 29 70t69 27q38 0 62 -24t24 -60q0 -44 -28.5 -71t-68.5 -27z" />
    <glyph glyph-name="copyright" unicode="&#xa9;" horiz-adv-x="667" 
d="M294 -18q-121 0 -189 73t-68 188q0 144 97 245t248 101q119 0 186.5 -73t67.5 -188q0 -145 -96.5 -245.5t-245.5 -100.5zM305 68q111 0 172 73t61 179q0 82 -45 132.5t-125 50.5q-103 0 -167 -71.5t-64 -179.5q0 -82 44 -133t124 -51zM337 131q-63 0 -103.5 34t-40.5 95
q0 81 53.5 129.5t132.5 48.5q45 0 71 -13l-12 -89l-4 -2q-21 10 -51 10q-34 0 -52.5 -19t-18.5 -51q0 -24 15 -38t40 -14q34 0 53 11l3 -2l-13 -90q-28 -10 -73 -10z" />
    <glyph glyph-name="ordfeminine" unicode="&#xaa;" horiz-adv-x="462" 
d="M447 457l2 -1l-14 -101q-25 -11 -64 -11q-61 0 -73 52q-52 -57 -120 -57q-57 0 -86.5 29.5t-29.5 76.5q0 69 47 101.5t118 32.5q48 0 83 -11q4 36 -14 53t-57 17q-64 0 -115 -21l-2 2l14 96q50 26 137 26q180 0 153 -175l-13 -85q-4 -28 15 -28q9 0 19 4zM223 429
q21 0 41.5 11t30.5 24l4 29q-26 8 -53 8q-59 0 -59 -40q0 -32 36 -32z" />
    <glyph glyph-name="guillemotleft" unicode="&#xab;" horiz-adv-x="573" 
d="M197 94l-90 202l144 188h152l-2 -13l-140 -184l84 -184l-1 -9h-147zM432 94l-90 202l144 188h152l-2 -13l-140 -184l84 -184l-1 -9h-147z" />
    <glyph glyph-name="registered" unicode="&#xae;" horiz-adv-x="634" 
d="M388 751q111 0 173.5 -67.5t62.5 -173.5q0 -134 -88.5 -227.5t-227.5 -93.5q-113 0 -177 68t-64 174q0 134 90 227t231 93zM317 272q103 0 157.5 66t54.5 165q0 74 -41 120t-114 46q-93 0 -152.5 -66t-59.5 -162q0 -75 41.5 -122t113.5 -47zM357 608q50 0 85 -21t35 -68
q0 -69 -53 -100l36 -80h-102l-27 62h-26l-9 -62h-95l38 266q56 3 118 3zM323 532l-9 -66h22q41 0 41 40q0 27 -31 27q-16 0 -23 -1z" />
    <glyph glyph-name="macron" unicode="&#xaf;" horiz-adv-x="352" 
d="M73 613l15 99h302l-15 -99h-302z" />
    <glyph glyph-name="degree" unicode="&#xb0;" horiz-adv-x="369" 
d="M224 376q-65 0 -108.5 42.5t-43.5 106.5t43.5 106t108.5 42t108 -42t43 -106t-43 -106.5t-108 -42.5zM224 464q25 0 40 17.5t15 43.5t-15 43.5t-40 17.5q-26 0 -41 -17.5t-15 -43.5t15 -43.5t41 -17.5z" />
    <glyph glyph-name="plusminus" unicode="&#xb1;" horiz-adv-x="554" 
d="M508 258h-177l-19 -137h167l-15 -109h-445l15 109h168l20 137h-177l16 107h176l25 172h108l-24 -172h178z" />
    <glyph glyph-name="acute" unicode="&#xb4;" horiz-adv-x="266" 
d="M96 561l-48 88l194 156l93 -117l-6 -18z" />
    <glyph glyph-name="paragraph" unicode="&#xb6;" horiz-adv-x="610" 
d="M610 606l-20 -145h-59l-82 -574h-39l82 574h-56l-82 -574h-155l43 307q-96 0 -148 43t-48 133q3 117 80.5 176.5t195.5 59.5h288z" />
    <glyph glyph-name="periodcentered" unicode="&#xb7;" horiz-adv-x="272" 
d="M125 161q-39 0 -59.5 20t-20.5 52q0 38 26 64.5t73 26.5q38 0 57.5 -20.5t19.5 -51.5q0 -40 -24.5 -65.5t-71.5 -25.5z" />
    <glyph glyph-name="cedilla" unicode="&#xb8;" horiz-adv-x="216" 
d="M4 -244q-39 0 -63 7l9 68l3 1q20 -7 39 -7q57 0 57 41q0 27 -35 27q-20 0 -35 -3l-1 1l8 61l40 49h87l-40 -44h17q78 -8 78 -80q0 -65 -46.5 -93t-117.5 -28z" />
    <glyph glyph-name="ordmasculine" unicode="&#xba;" horiz-adv-x="487" 
d="M262 330q-85 0 -138 46t-53 135q0 109 66.5 175t166.5 66q84 0 138 -47t54 -137q0 -109 -67 -173.5t-167 -64.5zM273 448q39 0 61 32t22 79q0 35 -15 55t-43 20q-40 0 -62.5 -33.5t-22.5 -82.5q0 -70 60 -70z" />
    <glyph glyph-name="guillemotright" unicode="&#xbb;" horiz-adv-x="573" 
d="M221 484l90 -202l-144 -188h-152l2 13l140 184l-84 184l1 9h147zM461 484l90 -202l-144 -188h-152l2 13l140 184l-84 184l1 9h147z" />
    <glyph glyph-name="onequarter" unicode="&#xbc;" horiz-adv-x="728" 
d="M107 303l33 221l-76 -20l16 119l186 55h11l-54 -375h-116zM534 668h117l-485 -679h-115zM678 127l-11 -73h-38l-8 -54h-105l8 54h-180l8 51l224 268h98l-35 -246h39zM468 127h67l16 107z" />
    <glyph glyph-name="onehalf" unicode="&#xbd;" horiz-adv-x="753" 
d="M109 303l33 221l-76 -20l16 119l186 55h11l-54 -375h-116zM37 -11l483 679h117l-485 -679h-115zM387 0q11 104 121 179q53 37 66 50t13 28q0 21 -36 21q-68 0 -123 -36l-1 1l15 99q60 35 135 35q57 0 96 -24t39 -73q0 -47 -23 -76.5t-76 -64.5q-51 -32 -55 -47h137
l-13 -92h-295z" />
    <glyph glyph-name="threequarters" unicode="&#xbe;" horiz-adv-x="755" 
d="M341 434q0 -63 -48.5 -101.5t-131.5 -38.5q-70 0 -113 20l13 90l1 1q37 -21 98 -21q76 0 76 44q0 26 -37 26h-80l11 77h67q43 0 43 31q0 26 -55 26q-61 0 -93 -15l-2 1l12 91q57 15 112 15q138 0 138 -91q0 -54 -49 -88q38 -23 38 -67zM584 668h117l-485 -679h-115z
M706 127l-11 -73h-39l-8 -54h-105l8 54h-180l8 51l224 268h99l-36 -246h40zM495 127h67l16 107z" />
    <glyph glyph-name="questiondown" unicode="&#xbf;" horiz-adv-x="432" 
d="M366 538q39 0 60.5 -20.5t21.5 -53.5q0 -37 -25.5 -63.5t-66.5 -26.5q-40 0 -61 20.5t-21 53.5q0 37 25.5 63.5t66.5 26.5zM415 308q-7 -65 -33.5 -108t-82.5 -83q-39 -26 -54.5 -45.5t-15.5 -49.5q0 -61 73 -61q65 0 123 33l2 -1l-20 -140q-64 -32 -148 -32t-139.5 41.5
t-55.5 121.5q0 50 17.5 89t43 64t70.5 57q44 31 59 56t20 56z" />
    <glyph glyph-name="Agrave" unicode="&#xc0;" horiz-adv-x="628" 
d="M471 699l-236 82l-11 17l68 117l212 -137zM432 0l-24 94h-239l-49 -94h-162l374 671h73l196 -671h-169zM227 206h152l-41 157l-9 47l-21 -47z" />
    <glyph glyph-name="Aacute" unicode="&#xc1;" horiz-adv-x="628" 
d="M515 775l-239 -73l-31 80l222 130l59 -120zM432 0l-24 94h-239l-49 -94h-162l374 671h73l196 -671h-169zM227 206h152l-41 157l-9 47l-21 -47z" />
    <glyph glyph-name="Acircumflex" unicode="&#xc2;" horiz-adv-x="628" 
d="M384 784l-126 -77l-45 62l149 136h73l115 -135l-58 -63zM432 0l-24 94h-239l-49 -94h-162l374 671h73l196 -671h-169zM227 206h152l-41 157l-9 47l-21 -47z" />
    <glyph glyph-name="Atilde" unicode="&#xc3;" horiz-adv-x="628" 
d="M283 714l-3 -2l-88 27q8 56 43.5 95t81.5 39q37 0 77 -16.5t58 -16.5q13 0 25.5 10.5t14.5 25.5l3 2l89 -26q-8 -58 -42.5 -95t-80.5 -37q-31 0 -74.5 15t-60.5 15t-29 -10.5t-14 -25.5zM432 0l-24 94h-239l-49 -94h-162l374 671h73l196 -671h-169zM227 206h152l-41 157
l-9 47l-21 -47z" />
    <glyph glyph-name="Adieresis" unicode="&#xc4;" horiz-adv-x="628" 
d="M263 722q-33 0 -54.5 21.5t-21.5 53.5q0 38 26 62.5t61 24.5q33 0 54 -21.5t21 -54.5q0 -38 -25.5 -62t-60.5 -24zM503 722q-33 0 -54.5 21.5t-21.5 53.5q0 38 26 62.5t61 24.5q33 0 54 -21.5t21 -54.5q0 -38 -25.5 -62t-60.5 -24zM432 0l-24 94h-239l-49 -94h-162
l374 671h73l196 -671h-169zM227 206h152l-41 157l-9 47l-21 -47z" />
    <glyph glyph-name="Aring" unicode="&#xc5;" horiz-adv-x="628" 
d="M378 692q-51 0 -81.5 28.5t-30.5 74.5q0 55 36.5 89.5t93.5 34.5q51 0 82.5 -28.5t31.5 -74.5q0 -55 -37.5 -89.5t-94.5 -34.5zM391 849q-20 0 -33 -13t-13 -36q0 -16 11.5 -26.5t28.5 -10.5q20 0 33 12.5t13 35.5q0 17 -11.5 27.5t-28.5 10.5zM432 0l-24 94h-239
l-49 -94h-162l374 671h73l196 -671h-169zM227 206h152l-41 157l-9 47l-21 -47z" />
    <glyph glyph-name="AE" unicode="&#xc6;" horiz-adv-x="843" 
d="M828 530h-227l-18 -119h208l-18 -131h-209l-21 -148h235l-18 -132h-401l20 139h-178l-93 -139h-165l463 663h441zM278 254h118l33 228l-93 -141z" />
    <glyph glyph-name="Ccedilla" unicode="&#xc7;" horiz-adv-x="586" 
d="M433 679q90 0 159 -25l-20 -152l-4 -2q-58 32 -135 32q-102 0 -160.5 -63t-58.5 -162q0 -85 47.5 -129t135.5 -44q67 0 126 28l4 -1l-20 -148q-55 -22 -135 -25l-28 -31h17q78 -8 78 -80q0 -65 -46.5 -93t-117.5 -28q-39 0 -63 7l9 68l3 1q20 -7 39 -7q57 0 57 41
q0 27 -35 27q-20 0 -35 -3l-1 1l8 61l33 41q-117 17 -182.5 92.5t-65.5 202.5q0 178 110 284.5t281 106.5z" />
    <glyph glyph-name="Egrave" unicode="&#xc8;" horiz-adv-x="549" 
d="M446 695l-236 82l-11 17l68 117l212 -137zM532 530h-258l-18 -127h239l-19 -129h-239l-20 -141h266l-18 -133h-429l94 663h421z" />
    <glyph glyph-name="Eacute" unicode="&#xc9;" horiz-adv-x="549" 
d="M490 771l-239 -73l-31 80l222 130l59 -120zM532 530h-258l-18 -127h239l-19 -129h-239l-20 -141h266l-18 -133h-429l94 663h421z" />
    <glyph glyph-name="Ecircumflex" unicode="&#xca;" horiz-adv-x="549" 
d="M359 780l-126 -77l-45 62l149 136h73l115 -135l-58 -63zM532 530h-258l-18 -127h239l-19 -129h-239l-20 -141h266l-18 -133h-429l94 663h421z" />
    <glyph glyph-name="Edieresis" unicode="&#xcb;" horiz-adv-x="549" 
d="M238 718q-33 0 -54.5 21.5t-21.5 53.5q0 38 26 62.5t61 24.5q33 0 54 -21.5t21 -54.5q0 -38 -25.5 -62t-60.5 -24zM478 718q-33 0 -54.5 21.5t-21.5 53.5q0 38 26 62.5t61 24.5q33 0 54 -21.5t21 -54.5q0 -38 -25.5 -62t-60.5 -24zM36 0l94 663h421l-19 -133h-258
l-18 -127h239l-19 -129h-239l-20 -141h266l-18 -133h-429z" />
    <glyph glyph-name="Igrave" unicode="&#xcc;" horiz-adv-x="312" 
d="M317 695l-236 82l-11 17l68 117l212 -137zM36 0l90 663h164l-90 -663h-164z" />
    <glyph glyph-name="Iacute" unicode="&#xcd;" horiz-adv-x="312" 
d="M122 698l-31 80l222 130l59 -120l-11 -17zM36 0l90 663h164l-90 -663h-164z" />
    <glyph glyph-name="Icircumflex" unicode="&#xce;" horiz-adv-x="312" 
d="M104 703l-45 62l149 136h73l115 -135l-58 -63l-108 77zM36 0l90 663h164l-90 -663h-164z" />
    <glyph glyph-name="Idieresis" unicode="&#xcf;" horiz-adv-x="312" 
d="M109 718q-33 0 -54.5 21.5t-21.5 53.5q0 38 26 62.5t61 24.5q33 0 54 -21.5t21 -54.5q0 -38 -25.5 -62t-60.5 -24zM349 718q-33 0 -54.5 21.5t-21.5 53.5q0 38 26 62.5t61 24.5q33 0 54 -21.5t21 -54.5q0 -38 -25.5 -62t-60.5 -24zM36 0l90 663h164l-90 -663h-164z" />
    <glyph glyph-name="Eth" unicode="&#xd0;" horiz-adv-x="707" 
d="M355 673q163 0 245.5 -74t82.5 -206q0 -185 -113.5 -290.5t-304.5 -105.5q-207 2 -229 3l40 285h-80l14 99h80l39 279q108 10 226 10zM302 142q100 0 156 61t56 166q0 78 -44 117t-118 39q-52 0 -81 -4l-19 -137h87l-14 -99h-87l-20 -141q27 -2 84 -2z" />
    <glyph glyph-name="Ntilde" unicode="&#xd1;" horiz-adv-x="714" 
d="M328 712l-88 27q8 56 43.5 95t81.5 39q36 0 76 -16.5t59 -16.5q13 0 25.5 10.5t14.5 25.5l3 2l89 -26q-8 -58 -42.5 -95t-80.5 -37q-31 0 -74.5 15t-60.5 15t-29 -10.5t-14 -25.5zM36 0l95 668h72l285 -361h3l51 360h156l-96 -668h-71l-282 370h-3l-54 -369h-156z" />
    <glyph glyph-name="Ograve" unicode="&#xd2;" horiz-adv-x="751" 
d="M524 699l-236 82l-11 17l68 117l212 -137zM364 -12q-136 0 -228.5 83t-92.5 228q0 166 101.5 273t262.5 107q136 0 228.5 -84t92.5 -230q0 -165 -101.5 -271t-262.5 -106zM373 134q84 0 134 61.5t50 161.5q0 82 -42 128.5t-117 46.5q-85 0 -134.5 -62t-49.5 -163
q0 -82 41.5 -127.5t117.5 -45.5z" />
    <glyph glyph-name="Oacute" unicode="&#xd3;" horiz-adv-x="751" 
d="M329 702l-31 80l222 130l59 -120l-11 -17zM364 -12q-136 0 -228.5 83t-92.5 228q0 166 101.5 273t262.5 107q136 0 228.5 -84t92.5 -230q0 -165 -101.5 -271t-262.5 -106zM373 134q84 0 134 61.5t50 161.5q0 82 -42 128.5t-117 46.5q-85 0 -134.5 -62t-49.5 -163
q0 -82 41.5 -127.5t117.5 -45.5z" />
    <glyph glyph-name="Ocircumflex" unicode="&#xd4;" horiz-adv-x="751" 
d="M311 707l-45 62l149 136h73l115 -135l-58 -63l-108 77zM364 -12q-136 0 -228.5 83t-92.5 228q0 166 101.5 273t262.5 107q136 0 228.5 -84t92.5 -230q0 -165 -101.5 -271t-262.5 -106zM373 134q84 0 134 61.5t50 161.5q0 82 -42 128.5t-117 46.5q-85 0 -134.5 -62
t-49.5 -163q0 -82 41.5 -127.5t117.5 -45.5z" />
    <glyph glyph-name="Otilde" unicode="&#xd5;" horiz-adv-x="751" 
d="M333 712l-88 27q8 56 43.5 95t81.5 39q36 0 76 -16.5t59 -16.5q13 0 25.5 10.5t14.5 25.5l3 2l89 -26q-8 -58 -42.5 -95t-80.5 -37q-31 0 -74.5 15t-60.5 15t-29 -10.5t-14 -25.5zM364 -12q-136 0 -228.5 83t-92.5 228q0 166 101.5 273t262.5 107q136 0 228.5 -84
t92.5 -230q0 -165 -101.5 -271t-262.5 -106zM373 134q84 0 134 61.5t50 161.5q0 82 -42 128.5t-117 46.5q-85 0 -134.5 -62t-49.5 -163q0 -82 41.5 -127.5t117.5 -45.5z" />
    <glyph glyph-name="Odieresis" unicode="&#xd6;" horiz-adv-x="751" 
d="M316 722q-33 0 -54.5 21.5t-21.5 53.5q0 38 26 62.5t61 24.5q33 0 54 -21.5t21 -54.5q0 -38 -25.5 -62t-60.5 -24zM556 722q-33 0 -54.5 21.5t-21.5 53.5q0 38 26 62.5t61 24.5q33 0 54 -21.5t21 -54.5q0 -38 -25.5 -62t-60.5 -24zM364 -12q-136 0 -228.5 83t-92.5 228
q0 166 101.5 273t262.5 107q136 0 228.5 -84t92.5 -230q0 -165 -101.5 -271t-262.5 -106zM373 134q84 0 134 61.5t50 161.5q0 82 -42 128.5t-117 46.5q-85 0 -134.5 -62t-49.5 -163q0 -82 41.5 -127.5t117.5 -45.5z" />
    <glyph glyph-name="multiply" unicode="&#xd7;" horiz-adv-x="513" 
d="M500 436l-164 -147l116 -143l-86 -69l-112 138l-158 -141l-74 82l162 145l-114 140l86 70l110 -136l160 143z" />
    <glyph glyph-name="Oslash" unicode="&#xd8;" horiz-adv-x="751" 
d="M633 598q95 -87 95 -233q0 -165 -101.5 -271t-262.5 -106q-85 0 -156 34l-55 -74h-99v14l80 110q-91 85 -91 227q0 166 101.5 273t262.5 107q79 0 149 -31l49 67h106v-11zM214 307q0 -57 21 -98l228 312q-30 11 -65 11q-85 0 -134.5 -62t-49.5 -163zM373 134
q84 0 134 61.5t50 161.5q0 61 -25 105l-232 -314q33 -14 73 -14z" />
    <glyph glyph-name="Ugrave" unicode="&#xd9;" horiz-adv-x="697" 
d="M509 695l-236 82l-11 17l68 117l212 -137zM310 -13q-120 0 -183.5 56.5t-63.5 159.5q0 37 4 65l56 395h162l-53 -374q-5 -32 -5 -62q0 -49 27.5 -75.5t77.5 -26.5q68 0 100 39t45 125l52 374h159l-57 -395q-20 -135 -103 -208t-218 -73z" />
    <glyph glyph-name="Uacute" unicode="&#xda;" horiz-adv-x="697" 
d="M314 698l-31 80l222 130l59 -120l-11 -17zM310 -13q-120 0 -183.5 56.5t-63.5 159.5q0 37 4 65l56 395h162l-53 -374q-5 -32 -5 -62q0 -49 27.5 -75.5t77.5 -26.5q68 0 100 39t45 125l52 374h159l-57 -395q-20 -135 -103 -208t-218 -73z" />
    <glyph glyph-name="Ucircumflex" unicode="&#xdb;" horiz-adv-x="697" 
d="M296 703l-45 62l149 136h73l115 -135l-58 -63l-108 77zM310 -13q-120 0 -183.5 56.5t-63.5 159.5q0 37 4 65l56 395h162l-53 -374q-5 -32 -5 -62q0 -49 27.5 -75.5t77.5 -26.5q68 0 100 39t45 125l52 374h159l-57 -395q-20 -135 -103 -208t-218 -73z" />
    <glyph glyph-name="Udieresis" unicode="&#xdc;" horiz-adv-x="697" 
d="M301 718q-33 0 -54.5 21.5t-21.5 53.5q0 38 26 62.5t61 24.5q33 0 54 -21.5t21 -54.5q0 -38 -25.5 -62t-60.5 -24zM541 718q-33 0 -54.5 21.5t-21.5 53.5q0 38 26 62.5t61 24.5q33 0 54 -21.5t21 -54.5q0 -38 -25.5 -62t-60.5 -24zM310 -13q-120 0 -183.5 56.5
t-63.5 159.5q0 37 4 65l56 395h162l-53 -374q-5 -32 -5 -62q0 -49 27.5 -75.5t77.5 -26.5q68 0 100 39t45 125l52 374h159l-57 -395q-20 -135 -103 -208t-218 -73z" />
    <glyph glyph-name="Yacute" unicode="&#xdd;" horiz-adv-x="603" 
d="M270 698l-31 80l222 130l59 -120l-11 -17zM184 0l38 263l-166 396l1 4h176l92 -252l167 252h165l1 -4l-276 -406l-36 -253h-162z" />
    <glyph glyph-name="Thorn" unicode="&#xde;" horiz-adv-x="585" 
d="M346 570q41 0 78 -10t69.5 -32t52 -61t19.5 -92q0 -132 -82.5 -202.5t-210.5 -70.5q-19 0 -59 2l-15 -104h-162l94 663h162l-14 -96q33 3 68 3zM275 232q59 0 92 29.5t33 84.5q0 43 -25 64t-67 21q-27 0 -49 -2l-28 -195q32 -2 44 -2z" />
    <glyph glyph-name="germandbls" unicode="&#xdf;" horiz-adv-x="637" 
d="M401 -14q-81 0 -130 30l17 123l3 2q44 -38 99 -38q54 0 54 45q0 18 -11.5 33t-45.5 43q-38 31 -53 53.5t-15 56.5q0 29 10.5 54t19.5 35.5t29 30.5q38 40 38 74q0 51 -63 51q-42 0 -66 -28.5t-33 -89.5l-67 -461h-163l65 458q19 133 92.5 199t186.5 66q54 0 100.5 -14.5
t80.5 -51.5t34 -92q0 -35 -11.5 -64t-21 -40.5t-29.5 -31.5q-31 -31 -31 -54q0 -4 0.5 -8t2 -8t3 -6.5t5 -7.5t5.5 -7.5t7.5 -8l8 -8l9.5 -9.5l10 -10q33 -32 48.5 -60t15.5 -74q0 -83 -57 -132.5t-147 -49.5z" />
    <glyph glyph-name="agrave" unicode="&#xe0;" horiz-adv-x="569" 
d="M392 565l-237 100l-6 18l88 120l200 -149zM528 151l3 -2l-20 -138q-41 -18 -90 -18q-94 0 -104 72q-65 -78 -159 -78q-72 0 -110.5 39t-38.5 100q0 91 65 134t162 43q59 0 95 -13q4 20 4 30q0 41 -24.5 60t-80.5 19q-78 0 -136 -35l-3 2l16 129q24 15 73 27.5t104 12.5
q216 0 216 -185q0 -29 -4 -54l-16 -113q-2 -14 -2 -18q0 -23 22 -23q17 0 28 9zM223 106q29 0 53.5 15t36.5 38l6 43q-29 8 -63 8q-86 0 -86 -58q0 -22 14.5 -34t38.5 -12z" />
    <glyph glyph-name="aacute" unicode="&#xe1;" horiz-adv-x="569" 
d="M459 670l-233 -109l-48 88l194 156l93 -117zM528 151l3 -2l-20 -138q-41 -18 -90 -18q-94 0 -104 72q-65 -78 -159 -78q-72 0 -110.5 39t-38.5 100q0 91 65 134t162 43q59 0 95 -13q4 20 4 30q0 41 -24.5 60t-80.5 19q-78 0 -136 -35l-3 2l16 129q24 15 73 27.5t104 12.5
q216 0 216 -185q0 -29 -4 -54l-16 -113q-2 -14 -2 -18q0 -23 22 -23q17 0 28 9zM223 106q29 0 53.5 15t36.5 38l6 43q-29 8 -63 8q-86 0 -86 -58q0 -22 14.5 -34t38.5 -12z" />
    <glyph glyph-name="acircumflex" unicode="&#xe2;" horiz-adv-x="569" 
d="M314 656l-115 -82l-49 53l140 152h75l103 -150l-63 -55zM528 151l3 -2l-20 -138q-41 -18 -90 -18q-94 0 -104 72q-65 -78 -159 -78q-72 0 -110.5 39t-38.5 100q0 91 65 134t162 43q59 0 95 -13q4 20 4 30q0 41 -24.5 60t-80.5 19q-78 0 -136 -35l-3 2l16 129
q24 15 73 27.5t104 12.5q216 0 216 -185q0 -29 -4 -54l-16 -113q-2 -14 -2 -18q0 -23 22 -23q17 0 28 9zM223 106q29 0 53.5 15t36.5 38l6 43q-29 8 -63 8q-86 0 -86 -58q0 -22 14.5 -34t38.5 -12z" />
    <glyph glyph-name="atilde" unicode="&#xe3;" horiz-adv-x="569" 
d="M219 599l-4 -3l-98 28q7 54 45 94t91 40q33 0 66 -17t54 -17q17 0 28.5 10t13.5 26l4 2l98 -25q-8 -63 -48 -99.5t-90 -36.5q-30 0 -66 17t-52 17q-35 0 -42 -36zM528 151l3 -2l-20 -138q-41 -18 -90 -18q-94 0 -104 72q-65 -78 -159 -78q-72 0 -110.5 39t-38.5 100
q0 91 65 134t162 43q59 0 95 -13q4 20 4 30q0 41 -24.5 60t-80.5 19q-78 0 -136 -35l-3 2l16 129q24 15 73 27.5t104 12.5q216 0 216 -185q0 -29 -4 -54l-16 -113q-2 -14 -2 -18q0 -23 22 -23q17 0 28 9zM223 106q29 0 53.5 15t36.5 38l6 43q-29 8 -63 8q-86 0 -86 -58
q0 -22 14.5 -34t38.5 -12z" />
    <glyph glyph-name="adieresis" unicode="&#xe4;" horiz-adv-x="569" 
d="M195 591q-37 0 -61.5 24t-24.5 61q0 43 29 70t69 27q37 0 61.5 -24t24.5 -60q0 -43 -29 -70.5t-69 -27.5zM422 591q-38 0 -62.5 24t-24.5 61q0 43 29 70t69 27q38 0 62 -24t24 -60q0 -44 -28.5 -71t-68.5 -27zM528 151l3 -2l-20 -138q-41 -18 -90 -18q-94 0 -104 72
q-65 -78 -159 -78q-72 0 -110.5 39t-38.5 100q0 91 65 134t162 43q59 0 95 -13q4 20 4 30q0 41 -24.5 60t-80.5 19q-78 0 -136 -35l-3 2l16 129q24 15 73 27.5t104 12.5q216 0 216 -185q0 -29 -4 -54l-16 -113q-2 -14 -2 -18q0 -23 22 -23q17 0 28 9zM223 106q29 0 53.5 15
t36.5 38l6 43q-29 8 -63 8q-86 0 -86 -58q0 -22 14.5 -34t38.5 -12z" />
    <glyph glyph-name="aring" unicode="&#xe5;" horiz-adv-x="569" 
d="M306 558q-52 0 -83 31t-31 81q0 59 38 96t96 37q52 0 83 -31t31 -81q0 -59 -38 -96t-96 -37zM321 727q-21 0 -35 -14t-14 -38q0 -18 11.5 -29t29.5 -11q21 0 35 13.5t14 37.5q0 18 -11.5 29.5t-29.5 11.5zM528 151l3 -2l-20 -138q-41 -18 -90 -18q-94 0 -104 72
q-65 -78 -159 -78q-72 0 -110.5 39t-38.5 100q0 91 65 134t162 43q59 0 95 -13q4 20 4 30q0 41 -24.5 60t-80.5 19q-78 0 -136 -35l-3 2l16 129q24 15 73 27.5t104 12.5q216 0 216 -185q0 -29 -4 -54l-16 -113q-2 -14 -2 -18q0 -23 22 -23q17 0 28 9zM223 106q29 0 53.5 15
t36.5 38l6 43q-29 8 -63 8q-86 0 -86 -58q0 -22 14.5 -34t38.5 -12z" />
    <glyph glyph-name="ae" unicode="&#xe6;" horiz-adv-x="914" 
d="M887 332q0 -52 -15 -114l-328 -1q10 -100 121 -100q82 0 163 39l4 -2l-18 -128q-74 -40 -186 -40q-69 0 -126.5 26t-90.5 79q-62 -105 -187 -105q-94 0 -149 59t-55 152q0 158 85 248t208 90q108 0 176 -59q78 59 181 59q98 0 157.5 -53t59.5 -150zM653 402
q-74 0 -101 -93h178v12q0 81 -77 81zM271 134q37 0 66.5 32t41.5 103q6 53 25 95q-37 31 -87 31q-54 0 -89.5 -51t-35.5 -120q0 -43 21 -66.5t58 -23.5z" />
    <glyph glyph-name="ccedilla" unicode="&#xe7;" horiz-adv-x="475" 
d="M341 535q71 0 128 -20l-19 -140l-4 -2q-52 22 -110 22q-65 0 -101.5 -45t-36.5 -112q0 -52 27.5 -82t84.5 -30q50 0 106 30l4 -2l-19 -144q-51 -23 -116 -24l-26 -29h17q78 -8 78 -80q0 -65 -46.5 -93t-117.5 -28q-39 0 -63 7l9 68l3 1q20 -7 39 -7q57 0 57 41
q0 27 -35 27q-20 0 -35 -3l-1 1l8 61l34 41q-80 18 -128 76t-48 149q0 145 87 231t224 86z" />
    <glyph glyph-name="egrave" unicode="&#xe8;" horiz-adv-x="567" 
d="M419 565l-237 100l-6 18l88 120l200 -149zM540 332q0 -52 -15 -114l-328 -1q10 -100 121 -100q82 0 163 39l4 -2l-19 -128q-74 -40 -185 -40q-106 0 -178.5 59t-72.5 183q0 136 83 221.5t210 85.5q98 0 157.5 -53.5t59.5 -149.5zM306 402q-74 0 -101 -93h178v12
q0 81 -77 81z" />
    <glyph glyph-name="eacute" unicode="&#xe9;" horiz-adv-x="567" 
d="M486 670l-233 -109l-48 88l194 156l93 -117zM540 332q0 -52 -15 -114l-328 -1q10 -100 121 -100q82 0 163 39l4 -2l-19 -128q-74 -40 -185 -40q-106 0 -178.5 59t-72.5 183q0 136 83 221.5t210 85.5q98 0 157.5 -53.5t59.5 -149.5zM306 402q-74 0 -101 -93h178v12
q0 81 -77 81z" />
    <glyph glyph-name="ecircumflex" unicode="&#xea;" horiz-adv-x="567" 
d="M341 656l-115 -82l-49 53l140 152h75l103 -150l-63 -55zM540 332q0 -52 -15 -114l-328 -1q10 -100 121 -100q82 0 163 39l4 -2l-19 -128q-74 -40 -185 -40q-106 0 -178.5 59t-72.5 183q0 136 83 221.5t210 85.5q98 0 157.5 -53.5t59.5 -149.5zM306 402q-74 0 -101 -93
h178v12q0 81 -77 81z" />
    <glyph glyph-name="edieresis" unicode="&#xeb;" horiz-adv-x="567" 
d="M222 591q-37 0 -61.5 24t-24.5 61q0 43 29 70t69 27q37 0 61.5 -24t24.5 -60q0 -43 -29 -70.5t-69 -27.5zM449 591q-38 0 -62.5 24t-24.5 61q0 43 29 70t69 27q38 0 62 -24t24 -60q0 -44 -28.5 -71t-68.5 -27zM323 535q98 0 157.5 -53.5t59.5 -149.5q0 -52 -15 -114
l-328 -1q10 -100 121 -100q82 0 163 39l4 -2l-19 -128q-74 -40 -185 -40q-106 0 -178.5 59t-72.5 183q0 136 83 221.5t210 85.5zM306 402q-74 0 -101 -93h178v12q0 81 -77 81z" />
    <glyph glyph-name="igrave" unicode="&#xec;" horiz-adv-x="288" 
d="M277 562l-233 104l-6 18l90 119l196 -153zM24 0l74 520h164l-74 -520h-164z" />
    <glyph glyph-name="iacute" unicode="&#xed;" horiz-adv-x="288" 
d="M99 561l-48 88l194 156l93 -117l-6 -18zM24 0l74 520h164l-74 -520h-164z" />
    <glyph glyph-name="icircumflex" unicode="&#xee;" horiz-adv-x="288" 
d="M85 573l-47 53l141 153h74l101 -153l-62 -53l-94 82zM24 0l74 520h164l-74 -520h-164z" />
    <glyph glyph-name="idieresis" unicode="&#xef;" horiz-adv-x="303" 
d="M92 591q-38 0 -62.5 24t-24.5 61q0 43 29 70t69 27q38 0 62 -24t24 -60q0 -44 -28.5 -71t-68.5 -27zM308 591q-37 0 -61.5 24t-24.5 61q0 43 29 70t68 27q38 0 62 -24t24 -60q0 -44 -28.5 -71t-68.5 -27zM32 0l74 520h164l-74 -520h-164z" />
    <glyph glyph-name="eth" unicode="&#xf0;" horiz-adv-x="629" 
d="M495 677q109 -77 109 -268q0 -195 -93 -309t-248 -114q-110 0 -172.5 56t-62.5 153q0 121 77.5 198.5t188.5 77.5q99 0 148 -56q-5 94 -44 136l-44 -57l-72 54l32 42q-8 1 -26 1q-74 0 -129 -19l-3 4l18 133q52 18 139 18q54 0 99 -12l52 68l71 -54zM286 125
q106 0 141 134q-7 37 -34.5 61.5t-70.5 24.5q-55 0 -88.5 -37.5t-33.5 -92.5q0 -39 22 -64.5t64 -25.5z" />
    <glyph glyph-name="ntilde" unicode="&#xf1;" horiz-adv-x="614" 
d="M264 599l-4 -3l-98 28q7 54 45 94t91 40q32 0 66 -17t54 -17q17 0 28.5 10t13.5 26l4 2l98 -25q-8 -63 -48 -99.5t-90 -36.5q-30 0 -66 17t-52 17q-35 0 -42 -36zM404 535q75 0 120 -46t45 -127q0 -31 -4 -56l-44 -306h-164l37 272q3 18 3 29q1 40 -19.5 58.5t-53.5 18.5
q-34 0 -59.5 -20.5t-33.5 -59.5l-42 -298h-165l74 520h134l5 -68q57 83 167 83z" />
    <glyph glyph-name="ograve" unicode="&#xf2;" horiz-adv-x="615" 
d="M423 556l-237 100l-6 18l88 120l200 -149zM285 -13q-109 0 -181 61.5t-72 181.5q0 133 82.5 218.5t215.5 85.5q110 0 181 -61.5t71 -182.5q0 -132 -82.5 -217.5t-214.5 -85.5zM297 126q56 0 86.5 46.5t30.5 110.5q0 51 -25 81t-71 30q-57 0 -87 -46t-30 -111
q0 -51 24.5 -81t71.5 -30z" />
    <glyph glyph-name="oacute" unicode="&#xf3;" horiz-adv-x="615" 
d="M257 552l-48 88l194 156l93 -117l-6 -18zM285 -13q-109 0 -181 61.5t-72 181.5q0 133 82.5 218.5t215.5 85.5q110 0 181 -61.5t71 -182.5q0 -132 -82.5 -217.5t-214.5 -85.5zM297 126q56 0 86.5 46.5t30.5 110.5q0 51 -25 81t-71 30q-57 0 -87 -46t-30 -111
q0 -51 24.5 -81t71.5 -30z" />
    <glyph glyph-name="ocircumflex" unicode="&#xf4;" horiz-adv-x="615" 
d="M230 565l-49 53l140 152h75l103 -150l-63 -55l-91 82zM285 -13q-109 0 -181 61.5t-72 181.5q0 133 82.5 218.5t215.5 85.5q110 0 181 -61.5t71 -182.5q0 -132 -82.5 -217.5t-214.5 -85.5zM297 126q56 0 86.5 46.5t30.5 110.5q0 51 -25 81t-71 30q-57 0 -87 -46t-30 -111
q0 -51 24.5 -81t71.5 -30z" />
    <glyph glyph-name="otilde" unicode="&#xf5;" horiz-adv-x="615" 
d="M246 587l-98 28q7 54 45 94t91 40q32 0 66 -17t54 -17q17 0 28.5 10t13.5 26l4 2l98 -25q-8 -63 -48 -99.5t-90 -36.5q-30 0 -66 17t-52 17q-35 0 -42 -36zM285 -13q-109 0 -181 61.5t-72 181.5q0 133 82.5 218.5t215.5 85.5q110 0 181 -61.5t71 -182.5
q0 -132 -82.5 -217.5t-214.5 -85.5zM297 126q56 0 86.5 46.5t30.5 110.5q0 51 -25 81t-71 30q-57 0 -87 -46t-30 -111q0 -51 24.5 -81t71.5 -30z" />
    <glyph glyph-name="odieresis" unicode="&#xf6;" horiz-adv-x="615" 
d="M226 582q-37 0 -61.5 24t-24.5 61q0 43 29 70t69 27q37 0 61.5 -24t24.5 -60q0 -43 -29 -70.5t-69 -27.5zM453 582q-38 0 -62.5 24t-24.5 61q0 43 29 70t69 27q38 0 62 -24t24 -60q0 -44 -28.5 -71t-68.5 -27zM285 -13q-109 0 -181 61.5t-72 181.5q0 133 82.5 218.5
t215.5 85.5q110 0 181 -61.5t71 -182.5q0 -132 -82.5 -217.5t-214.5 -85.5zM297 126q56 0 86.5 46.5t30.5 110.5q0 51 -25 81t-71 30q-57 0 -87 -46t-30 -111q0 -51 24.5 -81t71.5 -30z" />
    <glyph glyph-name="divide" unicode="&#xf7;" horiz-adv-x="541" 
d="M289 396q-38 0 -57.5 19.5t-19.5 51.5q0 40 27 68t75 28q38 0 58 -20t20 -52q0 -41 -27 -68t-76 -27zM34 249l14 109h472l-14 -109h-472zM239 39q-38 0 -57.5 19.5t-19.5 51.5q0 39 26.5 67.5t74.5 28.5q38 0 57.5 -21t19.5 -52q0 -40 -26 -67t-75 -27z" />
    <glyph glyph-name="oslash" unicode="&#xf8;" horiz-adv-x="615" 
d="M508 475q74 -66 74 -185q0 -132 -82.5 -217.5t-214.5 -85.5q-53 0 -95 14l-39 -59h-95v14l56 85q-80 65 -80 189q0 133 82.5 218.5t215.5 85.5q52 0 98 -15l35 54h103v-11zM201 237q0 -29 7 -50l135 204q-12 3 -25 3q-57 0 -87 -46t-30 -111zM297 126q56 0 86.5 46.5
t30.5 110.5q0 25 -6 44l-133 -199q14 -2 22 -2z" />
    <glyph glyph-name="ugrave" unicode="&#xf9;" horiz-adv-x="603" 
d="M439 565l-237 100l-6 18l88 120l200 -149zM415 520h164l-75 -520h-133l-5 69q-63 -82 -174 -82q-70 0 -110 38.5t-40 102.5q0 26 3 52l49 340h164l-43 -295q-3 -30 -3 -38q-1 -30 15 -45.5t47 -15.5q62 0 93 60z" />
    <glyph glyph-name="uacute" unicode="&#xfa;" horiz-adv-x="603" 
d="M506 670l-233 -109l-48 88l194 156l93 -117zM415 520h164l-75 -520h-133l-5 69q-63 -82 -174 -82q-70 0 -110 38.5t-40 102.5q0 26 3 52l49 340h164l-43 -295q-3 -30 -3 -38q-1 -30 15 -45.5t47 -15.5q62 0 93 60z" />
    <glyph glyph-name="ucircumflex" unicode="&#xfb;" horiz-adv-x="603" 
d="M361 656l-115 -82l-49 53l140 152h75l103 -150l-63 -55zM415 520h164l-75 -520h-133l-5 69q-63 -82 -174 -82q-70 0 -110 38.5t-40 102.5q0 26 3 52l49 340h164l-43 -295q-3 -30 -3 -38q-1 -30 15 -45.5t47 -15.5q62 0 93 60z" />
    <glyph glyph-name="udieresis" unicode="&#xfc;" horiz-adv-x="603" 
d="M242 591q-37 0 -61.5 24t-24.5 61q0 43 29 70t69 27q37 0 61.5 -24t24.5 -60q0 -43 -29 -70.5t-69 -27.5zM469 591q-38 0 -62.5 24t-24.5 61q0 43 29 70t69 27q38 0 62 -24t24 -60q0 -44 -28.5 -71t-68.5 -27zM415 520h164l-75 -520h-133l-5 69q-63 -82 -174 -82
q-70 0 -110 38.5t-40 102.5q0 26 3 52l49 340h164l-43 -295q-3 -30 -3 -38q-1 -30 15 -45.5t47 -15.5q62 0 93 60z" />
    <glyph glyph-name="yacute" unicode="&#xfd;" horiz-adv-x="531" 
d="M473 670l-233 -109l-48 88l194 156l93 -117zM565 517l-218 -418l-35 -68q-59 -114 -113 -158.5t-143 -44.5q-39 0 -67 11l19 131l4 2q15 -6 43 -6q80 0 118 82l-133 469l2 3h173l58 -283l124 283h166z" />
    <glyph glyph-name="thorn" unicode="&#xfe;" horiz-adv-x="615" 
d="M396 535q90 0 139.5 -58.5t49.5 -157.5q0 -148 -88 -240.5t-212 -92.5q-58 0 -97 20l-24 -171h-164l126 881h163l-33 -231q61 50 140 50zM283 127q57 0 94 43.5t37 118.5q0 52 -23.5 76t-61.5 24q-30 0 -57 -17.5t-39 -47.5l-25 -181q32 -16 75 -16z" />
    <glyph glyph-name="ydieresis" unicode="&#xff;" horiz-adv-x="531" 
d="M209 591q-37 0 -61.5 24t-24.5 61q0 43 29 70t69 27q37 0 61.5 -24t24.5 -60q0 -43 -29 -70.5t-69 -27.5zM436 591q-38 0 -62.5 24t-24.5 61q0 43 29 70t69 27q38 0 62 -24t24 -60q0 -44 -28.5 -71t-68.5 -27zM565 517l-218 -418l-35 -68q-59 -114 -113 -158.5
t-143 -44.5q-39 0 -67 11l19 131l4 2q15 -6 43 -6q80 0 118 82l-133 469l2 3h173l58 -283l124 283h166z" />
    <glyph glyph-name="Amacron" unicode="&#x100;" horiz-adv-x="628" 
d="M552 845l-14 -102h-319l14 102h319zM432 0l-24 94h-239l-49 -94h-162l374 671h73l196 -671h-169zM227 206h152l-41 157l-9 47l-21 -47z" />
    <glyph glyph-name="amacron" unicode="&#x101;" horiz-adv-x="569" 
d="M473 712l-15 -99h-302l15 99h302zM528 151l3 -2l-20 -138q-41 -18 -90 -18q-94 0 -104 72q-65 -78 -159 -78q-72 0 -110.5 39t-38.5 100q0 91 65 134t162 43q59 0 95 -13q4 20 4 30q0 41 -24.5 60t-80.5 19q-78 0 -136 -35l-3 2l16 129q24 15 73 27.5t104 12.5
q216 0 216 -185q0 -29 -4 -54l-16 -113q-2 -14 -2 -18q0 -23 22 -23q17 0 28 9zM223 106q29 0 53.5 15t36.5 38l6 43q-29 8 -63 8q-86 0 -86 -58q0 -22 14.5 -34t38.5 -12z" />
    <glyph glyph-name="Abreve" unicode="&#x102;" horiz-adv-x="628" 
d="M383 717q-72 0 -116 45t-34 118l101 11q-3 -73 60 -73q30 0 51.5 20t27.5 53l91 -11q-10 -74 -60.5 -118.5t-120.5 -44.5zM432 0l-24 94h-239l-49 -94h-162l374 671h73l196 -671h-169zM227 206h152l-41 157l-9 47l-21 -47z" />
    <glyph glyph-name="abreve" unicode="&#x103;" horiz-adv-x="569" 
d="M308 579q-69 0 -110.5 44.5t-29.5 120.5l97 11l4 -3q-2 -29 11.5 -47.5t41.5 -18.5t47 18t27 47l3 3l89 -10q-11 -78 -59 -121.5t-121 -43.5zM528 151l3 -2l-20 -138q-41 -18 -90 -18q-94 0 -104 72q-65 -78 -159 -78q-72 0 -110.5 39t-38.5 100q0 91 65 134t162 43
q59 0 95 -13q4 20 4 30q0 41 -24.5 60t-80.5 19q-78 0 -136 -35l-3 2l16 129q24 15 73 27.5t104 12.5q216 0 216 -185q0 -29 -4 -54l-16 -113q-2 -14 -2 -18q0 -23 22 -23q17 0 28 9zM223 106q29 0 53.5 15t36.5 38l6 43q-29 8 -63 8q-86 0 -86 -58q0 -22 14.5 -34t38.5 -12
z" />
    <glyph glyph-name="Aogonek" unicode="&#x104;" horiz-adv-x="628" 
d="M563 0q-99 -54 -99 -119q0 -38 37 -38q14 0 29 4l3 -3l-10 -80q-32 -8 -68 -8q-52 0 -84.5 21t-32.5 63q0 89 124 160h-30l-24 94h-239l-49 -94h-162l374 671h73l196 -671h-38zM227 206h152l-41 157l-9 47l-21 -47z" />
    <glyph glyph-name="aogonek" unicode="&#x105;" horiz-adv-x="569" 
d="M506 9q-97 -54 -97 -118q0 -38 37 -38q14 0 29 4l3 -3l-10 -80q-32 -8 -68 -8q-52 0 -84.5 21t-32.5 63q0 80 102 146q-60 12 -68 69q-65 -78 -159 -78q-72 0 -110.5 39t-38.5 100q0 91 65 134t162 43q59 0 95 -13q4 20 4 30q0 41 -24.5 60t-80.5 19q-78 0 -136 -35l-3 2
l16 129q24 15 73 27.5t104 12.5q216 0 216 -185q0 -29 -4 -54l-16 -113q-2 -14 -2 -18q0 -23 22 -23q17 0 28 9l3 -2l-20 -138zM223 106q29 0 53.5 15t36.5 38l6 43q-29 8 -63 8q-86 0 -86 -58q0 -22 14.5 -34t38.5 -12z" />
    <glyph glyph-name="Cacute" unicode="&#x106;" horiz-adv-x="586" 
d="M308 698l-31 80l222 130l59 -120l-11 -17zM356 -12q-146 0 -230 78t-84 222q0 178 110 284.5t281 106.5q90 0 159 -25l-20 -152l-4 -2q-58 32 -135 32q-102 0 -160.5 -63t-58.5 -162q0 -85 47.5 -129t135.5 -44q67 0 126 28l4 -1l-20 -148q-65 -25 -151 -25z" />
    <glyph glyph-name="cacute" unicode="&#x107;" horiz-adv-x="475" 
d="M248 573l-48 88l194 156l93 -117l-6 -18zM275 -14q-108 0 -176.5 61.5t-68.5 170.5q0 145 87 231t224 86q71 0 128 -20l-19 -140l-4 -2q-52 22 -110 22q-65 0 -101.5 -45t-36.5 -112q0 -52 27.5 -82t84.5 -30q50 0 106 30l4 -2l-19 -144q-53 -24 -126 -24z" />
    <glyph glyph-name="Cdotaccent" unicode="&#x10a;" horiz-adv-x="586" 
d="M411 708q-40 0 -65.5 25.5t-25.5 63.5q0 45 30.5 73.5t72.5 28.5q39 0 64.5 -25.5t25.5 -63.5q0 -46 -30 -74t-72 -28zM356 -12q-146 0 -230 78t-84 222q0 178 110 284.5t281 106.5q90 0 159 -25l-20 -152l-4 -2q-58 32 -135 32q-102 0 -160.5 -63t-58.5 -162
q0 -85 47.5 -129t135.5 -44q67 0 126 28l4 -1l-20 -148q-65 -25 -151 -25z" />
    <glyph glyph-name="cdotaccent" unicode="&#x10b;" horiz-adv-x="475" 
d="M334 599q-40 0 -65.5 25.5t-25.5 63.5q0 45 30.5 73.5t72.5 28.5q40 0 65 -25t25 -64q0 -46 -30 -74t-72 -28zM275 -14q-108 0 -176.5 61.5t-68.5 170.5q0 145 87 231t224 86q71 0 128 -20l-19 -140l-4 -2q-52 22 -110 22q-65 0 -101.5 -45t-36.5 -112q0 -52 27.5 -82
t84.5 -30q50 0 106 30l4 -2l-19 -144q-53 -24 -126 -24z" />
    <glyph glyph-name="Ccaron" unicode="&#x10c;" horiz-adv-x="586" 
d="M370 703l-116 134l59 64l107 -78l125 78l46 -62l-148 -136h-73zM356 -12q-146 0 -230 78t-84 222q0 178 110 284.5t281 106.5q90 0 159 -25l-20 -152l-4 -2q-58 32 -135 32q-102 0 -160.5 -63t-58.5 -162q0 -85 47.5 -129t135.5 -44q67 0 126 28l4 -1l-20 -148
q-65 -25 -151 -25z" />
    <glyph glyph-name="ccaron" unicode="&#x10d;" horiz-adv-x="475" 
d="M289 586l-101 153l62 52l95 -82l114 82l46 -52l-141 -153h-75zM275 -14q-108 0 -176.5 61.5t-68.5 170.5q0 145 87 231t224 86q71 0 128 -20l-19 -140l-4 -2q-52 22 -110 22q-65 0 -101.5 -45t-36.5 -112q0 -52 27.5 -82t84.5 -30q50 0 106 30l4 -2l-19 -144
q-53 -24 -126 -24z" />
    <glyph glyph-name="Dcaron" unicode="&#x10e;" horiz-adv-x="707" 
d="M425 708h-73l-116 134l59 64l107 -78l125 78l46 -62zM355 673q163 0 245.5 -74t82.5 -206q0 -185 -113.5 -290.5t-304.5 -105.5q-207 2 -229 3l93 663q108 10 226 10zM302 142q100 0 156 61t56 166q0 78 -44 117t-118 39q-52 0 -81 -4l-53 -377q27 -2 84 -2z" />
    <glyph glyph-name="dcaron" unicode="&#x10f;" horiz-adv-x="682" 
d="M777 719l12 -14l-79 -233h-86l42 247h111zM425 513l29 203h164l-102 -716h-133l-5 58q-54 -72 -156 -72q-81 0 -137.5 58.5t-56.5 161.5q0 152 83 240.5t209 88.5q59 0 105 -22zM288 134q32 0 59.5 21t33.5 57v-1l23 159q-33 25 -78 25q-54 0 -90 -44.5t-36 -118.5
q0 -49 23.5 -73.5t64.5 -24.5z" />
    <glyph glyph-name="Dcroat" unicode="&#x110;" horiz-adv-x="707" 
d="M355 673q163 0 245.5 -74t82.5 -206q0 -185 -113.5 -290.5t-304.5 -105.5q-207 2 -229 3l40 285h-80l14 99h80l39 279q108 10 226 10zM302 142q100 0 156 61t56 166q0 78 -44 117t-118 39q-52 0 -81 -4l-19 -137h87l-14 -99h-87l-20 -141q27 -2 84 -2z" />
    <glyph glyph-name="dcroat" unicode="&#x111;" horiz-adv-x="615" 
d="M676 674l-14 -99h-64l-82 -575h-133l-5 58q-54 -72 -156 -72q-81 0 -137.5 58.5t-56.5 161.5q0 152 83 240.5t209 88.5q59 0 105 -22l9 62h-101l14 99h101l6 42h164l-6 -42h64zM288 134q32 0 59.5 21t33.5 57v-1l23 159q-33 25 -78 25q-54 0 -90 -44.5t-36 -118.5
q0 -49 23.5 -73.5t64.5 -24.5z" />
    <glyph glyph-name="Emacron" unicode="&#x112;" horiz-adv-x="549" 
d="M527 841l-14 -102h-319l14 102h319zM532 530h-258l-18 -127h239l-19 -129h-239l-20 -141h266l-18 -133h-429l94 663h421z" />
    <glyph glyph-name="emacron" unicode="&#x113;" horiz-adv-x="567" 
d="M500 712l-15 -99h-302l15 99h302zM540 332q0 -52 -15 -114l-328 -1q10 -100 121 -100q82 0 163 39l4 -2l-19 -128q-74 -40 -185 -40q-106 0 -178.5 59t-72.5 183q0 136 83 221.5t210 85.5q98 0 157.5 -53.5t59.5 -149.5zM306 402q-74 0 -101 -93h178v12q0 81 -77 81z" />
    <glyph glyph-name="Edotaccent" unicode="&#x116;" horiz-adv-x="549" 
d="M354 708q-40 0 -65.5 25.5t-25.5 63.5q0 45 30.5 73.5t72.5 28.5q40 0 65 -25.5t25 -63.5q0 -46 -30 -74t-72 -28zM532 530h-258l-18 -127h239l-19 -129h-239l-20 -141h266l-18 -133h-429l94 663h421z" />
    <glyph glyph-name="edotaccent" unicode="&#x117;" horiz-adv-x="567" 
d="M339 587q-40 0 -65.5 25.5t-25.5 63.5q0 45 30.5 73.5t72.5 28.5q39 0 64.5 -25t25.5 -64q0 -46 -30 -74t-72 -28zM540 332q0 -52 -15 -114l-328 -1q10 -100 121 -100q82 0 163 39l4 -2l-19 -128q-74 -40 -185 -40q-106 0 -178.5 59t-72.5 183q0 136 83 221.5t210 85.5
q98 0 157.5 -53.5t59.5 -149.5zM306 402q-74 0 -101 -93h178v12q0 81 -77 81z" />
    <glyph glyph-name="Eogonek" unicode="&#x118;" horiz-adv-x="549" 
d="M532 530h-258l-18 -127h239l-19 -129h-239l-20 -141h266l-18 -133q-99 -54 -99 -119q0 -38 37 -38q14 0 29 4l3 -3l-10 -80q-32 -8 -68 -8q-52 0 -84.5 21t-32.5 63q0 89 124 160h-328l94 663h421z" />
    <glyph glyph-name="eogonek" unicode="&#x119;" horiz-adv-x="567" 
d="M540 332q0 -52 -15 -114l-328 -1q10 -100 121 -100q82 0 163 39l4 -2l-19 -128q-28 -15 -62 -25q-85 -51 -85 -111q0 -38 37 -38q14 0 29 4l3 -3l-10 -80q-32 -8 -68 -8q-52 0 -84.5 21t-32.5 63q0 75 88 137q-106 0 -178.5 59t-72.5 183q0 136 83 221.5t210 85.5
q98 0 157.5 -53.5t59.5 -149.5zM306 402q-74 0 -101 -93h178v12q0 81 -77 81z" />
    <glyph glyph-name="Ecaron" unicode="&#x11a;" horiz-adv-x="549" 
d="M386 703h-73l-116 134l59 64l107 -78l125 78l46 -62zM532 530h-258l-18 -127h239l-19 -129h-239l-20 -141h266l-18 -133h-429l94 663h421z" />
    <glyph glyph-name="ecaron" unicode="&#x11b;" horiz-adv-x="567" 
d="M369 574h-75l-101 153l62 52l95 -82l114 82l46 -52zM540 332q0 -52 -15 -114l-328 -1q10 -100 121 -100q82 0 163 39l4 -2l-19 -128q-74 -40 -185 -40q-106 0 -178.5 59t-72.5 183q0 136 83 221.5t210 85.5q98 0 157.5 -53.5t59.5 -149.5zM306 402q-74 0 -101 -93h178v12
q0 81 -77 81z" />
    <glyph glyph-name="Gbreve" unicode="&#x11e;" horiz-adv-x="656" 
d="M437 718q-72 0 -116 45t-34 118l101 11q-3 -73 60 -73q30 0 51.5 20t27.5 53l91 -11q-10 -74 -60.5 -118.5t-120.5 -44.5zM350 -11q-140 0 -223.5 75.5t-83.5 212.5q0 185 113 295.5t299 110.5q113 0 183 -31l-22 -150l-4 -2q-63 36 -166 36q-108 0 -170.5 -64.5
t-62.5 -173.5q0 -77 42.5 -120t121.5 -43q35 0 73 11l21 154h142l-38 -272q-107 -39 -225 -39z" />
    <glyph glyph-name="gbreve" unicode="&#x11f;" horiz-adv-x="581" 
d="M316 591q-69 0 -110.5 44.5t-29.5 120.5l97 11l4 -3q-2 -29 11.5 -47.5t41.5 -18.5t47 18t27 47l3 3l89 -10q-11 -78 -59 -121.5t-121 -43.5zM591 520l-15 -110h-81q19 -24 19 -59q0 -74 -64.5 -120t-182.5 -46q-35 0 -67 6q-10 -8 -10 -20q0 -15 26.5 -22.5t109.5 -13.5
q97 -9 144.5 -39t47.5 -92q0 -88 -78.5 -133t-224.5 -45q-229 0 -229 110q0 65 82 117q-35 24 -35 63q0 65 82 107q-59 39 -59 110q0 85 72 136t192 51h271zM282 295q38 0 58.5 16.5t20.5 45.5q0 52 -63 52q-38 0 -59.5 -16t-21.5 -46q0 -25 17 -38.5t48 -13.5zM360 -30
q0 20 -21 28t-86 12q-55 4 -83 8q-33 -24 -33 -49q0 -22 25 -31.5t81 -9.5q117 0 117 42z" />
    <glyph glyph-name="Gdotaccent" unicode="&#x120;" horiz-adv-x="656" 
d="M433 713q-40 0 -65.5 25.5t-25.5 63.5q0 45 30.5 73.5t72.5 28.5q39 0 64.5 -25t25.5 -64q0 -46 -30 -74t-72 -28zM350 -11q-140 0 -223.5 75.5t-83.5 212.5q0 185 113 295.5t299 110.5q113 0 183 -31l-22 -150l-4 -2q-63 36 -166 36q-108 0 -170.5 -64.5t-62.5 -173.5
q0 -77 42.5 -120t121.5 -43q35 0 73 11l21 154h142l-38 -272q-107 -39 -225 -39z" />
    <glyph glyph-name="gdotaccent" unicode="&#x121;" horiz-adv-x="581" 
d="M320 599q-40 0 -65.5 25.5t-25.5 63.5q0 45 30.5 73.5t72.5 28.5q40 0 65 -25t25 -64q0 -46 -30 -74t-72 -28zM591 520l-15 -110h-81q19 -24 19 -59q0 -74 -64.5 -120t-182.5 -46q-35 0 -67 6q-10 -8 -10 -20q0 -15 26.5 -22.5t109.5 -13.5q97 -9 144.5 -39t47.5 -92
q0 -88 -78.5 -133t-224.5 -45q-229 0 -229 110q0 65 82 117q-35 24 -35 63q0 65 82 107q-59 39 -59 110q0 85 72 136t192 51h271zM282 295q38 0 58.5 16.5t20.5 45.5q0 52 -63 52q-38 0 -59.5 -16t-21.5 -46q0 -25 17 -38.5t48 -13.5zM360 -30q0 20 -21 28t-86 12
q-55 4 -83 8q-33 -24 -33 -49q0 -22 25 -31.5t81 -9.5q117 0 117 42z" />
    <glyph glyph-name="Gcommaaccent" unicode="&#x122;" horiz-adv-x="656" 
d="M350 -11q-140 0 -223.5 75.5t-83.5 212.5q0 185 113 295.5t299 110.5q113 0 183 -31l-22 -150l-4 -2q-63 36 -166 36q-108 0 -170.5 -64.5t-62.5 -173.5q0 -77 42.5 -120t121.5 -43q35 0 73 11l21 154h142l-38 -272q-107 -39 -225 -39zM227 -251q26 76 36 139q2 10 4 61
l127 10l8 -18q-15 -104 -83 -192h-92z" />
    <glyph glyph-name="gcommaaccent" unicode="&#x123;" horiz-adv-x="581" 
d="M381 583l-127 -10l-8 18q15 104 83 192h92q-26 -76 -36 -139q-2 -10 -4 -61zM591 520l-15 -110h-81q19 -24 19 -59q0 -74 -64.5 -120t-182.5 -46q-35 0 -67 6q-10 -8 -10 -20q0 -15 26.5 -22.5t109.5 -13.5q97 -9 144.5 -39t47.5 -92q0 -88 -78.5 -133t-224.5 -45
q-229 0 -229 110q0 65 82 117q-35 24 -35 63q0 65 82 107q-59 39 -59 110q0 85 72 136t192 51h271zM282 295q38 0 58.5 16.5t20.5 45.5q0 52 -63 52q-38 0 -59.5 -16t-21.5 -46q0 -25 17 -38.5t48 -13.5zM360 -30q0 20 -21 28t-86 12q-55 4 -83 8q-33 -24 -33 -49
q0 -22 25 -31.5t81 -9.5q117 0 117 42z" />
    <glyph glyph-name="Hbar" unicode="&#x126;" horiz-adv-x="725" 
d="M755 581l-14 -101h-60l-68 -480h-162l37 264h-252l-37 -264h-163l68 480h-59l14 101h59l12 82h163l-12 -82h252l12 82h162l-12 -82h60zM509 411l10 69h-252l-10 -69h252z" />
    <glyph glyph-name="hbar" unicode="&#x127;" horiz-adv-x="613" 
d="M403 535q76 0 120.5 -46t44.5 -125q0 -19 -3 -49l-45 -315h-164l38 275q2 20 2 26q0 77 -73 77q-34 0 -59 -19.5t-33 -59.5l-43 -299h-164l81 570h-70l13 100h71l7 46h164l-7 -46h94l-13 -100h-95l-13 -92q57 57 147 57z" />
    <glyph glyph-name="Itilde" unicode="&#x128;" horiz-adv-x="312" 
d="M126 708l-88 27q8 56 43.5 95t81.5 39q36 0 76.5 -16.5t58.5 -16.5q13 0 25.5 10.5t14.5 25.5l3 2l89 -26q-8 -58 -42.5 -95t-80.5 -37q-31 0 -74.5 15t-60.5 15t-29 -10.5t-14 -25.5zM36 0l90 663h164l-90 -663h-164z" />
    <glyph glyph-name="itilde" unicode="&#x129;" horiz-adv-x="288" 
d="M102 595l-93 26q7 54 45 95t94 41q31 0 67.5 -16.5t55.5 -16.5q16 0 28 11t14 26l4 2l93 -26q-9 -62 -49 -98.5t-93 -36.5q-27 0 -65.5 16.5t-54.5 16.5q-35 0 -43 -37zM24 0l74 520h164l-74 -520h-164z" />
    <glyph glyph-name="Imacron" unicode="&#x12a;" horiz-adv-x="312" 
d="M65 739l14 102h319l-14 -102h-319zM36 0l90 663h164l-90 -663h-164z" />
    <glyph glyph-name="imacron" unicode="&#x12b;" horiz-adv-x="288" 
d="M45 611l14 101h298l-15 -101h-297zM24 0l74 520h163l-73 -520h-164z" />
    <glyph glyph-name="Iogonek" unicode="&#x12e;" horiz-adv-x="312" 
d="M174 0q-83 -51 -83 -110q0 -38 37 -38q14 0 29 4l3 -3l-10 -80q-32 -8 -68 -8q-52 0 -84.5 21t-32.5 63q0 83 109 151h-38l90 663h164l-90 -663h-26z" />
    <glyph glyph-name="iogonek" unicode="&#x12f;" horiz-adv-x="288" 
d="M203 778q39 0 64.5 -25t25.5 -64q0 -46 -30 -74t-72 -28q-40 0 -65.5 25.5t-25.5 63.5q0 45 30.5 73.5t72.5 28.5zM24 0l73 520h164l-73 -520h-16q-98 -55 -98 -119q0 -38 36 -38q15 0 30 4l2 -3l-10 -80q-32 -8 -68 -8q-51 0 -84 21.5t-33 62.5q0 90 125 160h-48z" />
    <glyph glyph-name="Idotaccent" unicode="&#x130;" horiz-adv-x="312" 
d="M225 708q-40 0 -65.5 25.5t-25.5 63.5q0 45 30.5 73.5t72.5 28.5q39 0 64.5 -25.5t25.5 -63.5q0 -46 -30 -74t-72 -28zM36 0l90 663h164l-90 -663h-164z" />
    <glyph glyph-name="dotlessi" unicode="&#x131;" horiz-adv-x="288" 
d="M24 0l74 520h164l-74 -520h-164z" />
    <glyph glyph-name="IJ" unicode="&#x132;" horiz-adv-x="693" 
d="M36 0l90 663h164l-90 -663h-164zM347 -3q-30 0 -58 4l20 136l4 2q15 -3 30 -3q100 0 121 135l56 392h164l-54 -376q-42 -290 -283 -290z" />
    <glyph glyph-name="ij" unicode="&#x133;" horiz-adv-x="593" 
d="M197 587q-40 0 -65.5 25.5t-25.5 63.5q0 45 30.5 73.5t72.5 28.5q39 0 64.5 -25t25.5 -64q0 -46 -30 -74t-72 -28zM503 587q-40 0 -65.5 25.5t-25.5 63.5q0 45 30.5 73.5t72.5 28.5q39 0 64.5 -25t25.5 -64q0 -46 -30 -74t-72 -28zM24 0l74 520h164l-74 -520h-164z
M263 -172q-30 0 -75 7l21 141l4 2q15 -4 34 -4q44 0 65.5 25t27.5 73l65 448h162l-68 -486q-15 -103 -77.5 -154.5t-158.5 -51.5z" />
    <glyph glyph-name="Kcommaaccent" unicode="&#x136;" horiz-adv-x="659" 
d="M706 659l-319 -323l243 -332l-2 -4h-194l-196 274l-39 -274h-163l94 663h163l-38 -268l262 268h187zM219 -51l127 10l8 -18q-15 -104 -83 -192h-92q26 76 36 139q2 10 4 61z" />
    <glyph glyph-name="kcommaaccent" unicode="&#x137;" horiz-adv-x="580" 
d="M594 517l-234 -248l177 -265l-2 -4h-183l-135 207l-29 -207h-164l102 716h164l-54 -382l168 186h189zM183 -51l127 10l8 -18q-15 -104 -83 -192h-92q26 76 36 139q2 10 4 61z" />
    <glyph glyph-name="kgreenlandic" unicode="&#x138;" horiz-adv-x="580" 
d="M606 520l-238 -247l180 -273h-201l-130 201l-29 -201h-164l74 520h164l-28 -195l185 195h187z" />
    <glyph glyph-name="Lacute" unicode="&#x139;" horiz-adv-x="493" 
d="M365 771l-239 -73l-31 80l222 130l59 -120zM218 135h245l-19 -135h-408l94 663h163z" />
    <glyph glyph-name="lacute" unicode="&#x13a;" horiz-adv-x="323" 
d="M111 750l-31 80l222 130l59 -120l-11 -17zM194 -11q-79 0 -121 42.5t-29 133.5l79 551h162l-73 -512q-12 -69 43 -69q17 0 31 5l4 -1l-19 -139q-44 -11 -77 -11z" />
    <glyph glyph-name="Lcommaaccent" unicode="&#x13b;" horiz-adv-x="493" 
d="M218 135h245l-19 -135h-408l94 663h163zM165 -51l127 10l8 -18q-15 -104 -83 -192h-92q26 76 36 139q2 10 4 61z" />
    <glyph glyph-name="lcommaaccent" unicode="&#x13c;" horiz-adv-x="323" 
d="M194 -11q-79 0 -121 42.5t-29 133.5l79 551h162l-73 -512q-12 -69 43 -69q17 0 31 5l4 -1l-19 -139q-44 -11 -77 -11zM33 -251q26 76 36 139q2 10 4 61l127 10l8 -18q-15 -104 -83 -192h-92z" />
    <glyph glyph-name="Lcaron" unicode="&#x13d;" horiz-adv-x="499" 
d="M519 666l-77 -234h-87l42 248h112zM293 663l-75 -528h245l-19 -135h-408l95 663h162z" />
    <glyph glyph-name="lcaron" unicode="&#x13e;" horiz-adv-x="350" 
d="M300 473l42 247h111l12 -14l-79 -233h-86zM194 -11q-79 0 -121 42.5t-29 133.5l79 551h162l-73 -512q-12 -69 43 -69q17 0 31 5l4 -1l-19 -139q-44 -11 -77 -11z" />
    <glyph glyph-name="Ldot" unicode="&#x13f;" horiz-adv-x="507" 
d="M293 663l-75 -528h245l-19 -135h-408l94 663h163zM436 477q38 0 57.5 -20t19.5 -51q0 -40 -26 -66t-73 -26q-38 0 -58 19t-20 50q0 39 26 66.5t74 27.5z" />
    <glyph glyph-name="ldot" unicode="&#x140;" horiz-adv-x="436" 
d="M194 -11q-79 0 -121 42.5t-29 133.5l79 551h162l-73 -512q-12 -69 43 -69q17 0 31 5l4 -1l-19 -139q-44 -11 -77 -11zM364 278q-39 0 -59.5 20t-20.5 52q0 38 26 64.5t73 26.5q38 0 57.5 -20.5t19.5 -51.5q0 -40 -24.5 -65.5t-71.5 -25.5z" />
    <glyph glyph-name="Lslash" unicode="&#x141;" horiz-adv-x="493" 
d="M218 135h245l-19 -135h-408l31 222l-66 -40l-4 2l15 115l72 43l46 321h163l-31 -216l72 42h4l-17 -116l-76 -45z" />
    <glyph glyph-name="lslash" unicode="&#x142;" horiz-adv-x="375" 
d="M261 355l-22 -151q-11 -69 43 -69q17 0 31 5l4 -1l-19 -139q-44 -11 -77 -11q-79 0 -121 42.5t-29 133.5l13 93l-68 -38l-6 3l16 111l75 42l49 340h162l-34 -242l71 40l5 -3l-16 -113z" />
    <glyph glyph-name="Nacute" unicode="&#x143;" horiz-adv-x="714" 
d="M324 702l-31 80l222 130l59 -120l-11 -17zM36 0l95 668h72l285 -361h3l51 360h156l-96 -668h-71l-282 370h-3l-54 -369h-156z" />
    <glyph glyph-name="nacute" unicode="&#x144;" horiz-adv-x="614" 
d="M504 670l-233 -109l-48 88l194 156l93 -117zM404 535q75 0 120 -46t45 -127q0 -31 -4 -56l-44 -306h-164l37 272q3 18 3 29q1 40 -19.5 58.5t-53.5 18.5q-34 0 -59.5 -20.5t-33.5 -59.5l-42 -298h-165l74 520h134l5 -68q57 83 167 83z" />
    <glyph glyph-name="Ncommaaccent" unicode="&#x145;" horiz-adv-x="714" 
d="M36 0l95 668h72l285 -361h3l51 360h156l-96 -668h-71l-282 370h-3l-54 -369h-156zM211 -251q26 76 36 139q2 10 4 61l127 10l8 -18q-15 -104 -83 -192h-92z" />
    <glyph glyph-name="ncommaaccent" unicode="&#x146;" horiz-adv-x="614" 
d="M404 535q75 0 120 -46t45 -127q0 -31 -4 -56l-44 -306h-164l37 272q3 18 3 29q1 40 -19.5 58.5t-53.5 18.5q-34 0 -59.5 -20.5t-33.5 -59.5l-42 -298h-165l74 520h134l5 -68q57 83 167 83zM198 -51l127 10l8 -18q-15 -104 -83 -192h-92q26 76 36 139q2 10 4 61z" />
    <glyph glyph-name="Ncaron" unicode="&#x147;" horiz-adv-x="714" 
d="M386 707l-116 134l59 64l107 -78l125 78l46 -62l-148 -136h-73zM36 0l95 668h72l285 -361h3l51 360h156l-96 -668h-71l-282 370h-3l-54 -369h-156z" />
    <glyph glyph-name="ncaron" unicode="&#x148;" horiz-adv-x="614" 
d="M387 574h-75l-101 153l62 52l95 -82l114 82l46 -52zM404 535q75 0 120 -46t45 -127q0 -31 -4 -56l-44 -306h-164l37 272q3 18 3 29q1 40 -19.5 58.5t-53.5 18.5q-34 0 -59.5 -20.5t-33.5 -59.5l-42 -298h-165l74 520h134l5 -68q57 83 167 83z" />
    <glyph glyph-name="Eng" unicode="&#x14a;" horiz-adv-x="713" 
d="M698 667l-62 -436l-19 -135q-22 -157 -93 -226.5t-185 -69.5q-31 0 -58 4l19 133l1 1q15 -4 36 -4q101 0 122 143l2 15l-212 277h-3l-54 -369h-156l95 668h72l285 -360h3l51 359h156z" />
    <glyph glyph-name="eng" unicode="&#x14b;" horiz-adv-x="613" 
d="M404 535q75 0 120 -46t45 -127q0 -31 -4 -56l-46 -321q-15 -102 -75.5 -152.5t-153.5 -50.5q-33 0 -66 6l17 133l3 2q15 -4 30 -4q38 0 58 23.5t27 72.5l35 257q3 18 3 29q1 40 -19.5 58.5t-53.5 18.5t-58 -19.5t-34 -56.5l-43 -302h-165l74 520h134l5 -68q57 83 167 83z
" />
    <glyph glyph-name="Omacron" unicode="&#x14c;" horiz-adv-x="751" 
d="M272 743l14 102h319l-14 -102h-319zM364 -12q-136 0 -228.5 83t-92.5 228q0 166 101.5 273t262.5 107q136 0 228.5 -84t92.5 -230q0 -165 -101.5 -271t-262.5 -106zM373 134q84 0 134 61.5t50 161.5q0 82 -42 128.5t-117 46.5q-85 0 -134.5 -62t-49.5 -163
q0 -82 41.5 -127.5t117.5 -45.5z" />
    <glyph glyph-name="omacron" unicode="&#x14d;" horiz-adv-x="615" 
d="M187 604l15 99h302l-15 -99h-302zM285 -13q-109 0 -181 61.5t-72 181.5q0 133 82.5 218.5t215.5 85.5q110 0 181 -61.5t71 -182.5q0 -132 -82.5 -217.5t-214.5 -85.5zM297 126q56 0 86.5 46.5t30.5 110.5q0 51 -25 81t-71 30q-57 0 -87 -46t-30 -111q0 -51 24.5 -81
t71.5 -30z" />
    <glyph glyph-name="Ohungarumlaut" unicode="&#x150;" horiz-adv-x="751" 
d="M327 706l-67 30l80 189l109 -29v-22zM535 706l-67 30l80 189l109 -29l1 -22zM364 -12q-136 0 -228.5 83t-92.5 228q0 166 101.5 273t262.5 107q136 0 228.5 -84t92.5 -230q0 -165 -101.5 -271t-262.5 -106zM373 134q84 0 134 61.5t50 161.5q0 82 -42 128.5t-117 46.5
q-85 0 -134.5 -62t-49.5 -163q0 -82 41.5 -127.5t117.5 -45.5z" />
    <glyph glyph-name="ohungarumlaut" unicode="&#x151;" horiz-adv-x="615" 
d="M234 553l-69 40l99 190l111 -37l-1 -22zM426 553l-69 40l99 190l111 -37l-1 -22zM285 -13q-109 0 -181 61.5t-72 181.5q0 133 82.5 218.5t215.5 85.5q110 0 181 -61.5t71 -182.5q0 -132 -82.5 -217.5t-214.5 -85.5zM297 126q56 0 86.5 46.5t30.5 110.5q0 51 -25 81
t-71 30q-57 0 -87 -46t-30 -111q0 -51 24.5 -81t71.5 -30z" />
    <glyph glyph-name="OE" unicode="&#x152;" horiz-adv-x="988" 
d="M966 535h-282q35 -58 42 -131h205l-17 -127h-194q-19 -86 -64 -148h267l-18 -129h-442q-47 -12 -99 -12q-136 0 -228.5 83t-92.5 228q0 166 101.5 273t262.5 107q59 0 110 -16h467zM214 307q0 -82 41.5 -127.5t117.5 -45.5q84 0 134 61.5t50 161.5q0 82 -42 128.5
t-117 46.5q-85 0 -134.5 -62t-49.5 -163z" />
    <glyph glyph-name="oe" unicode="&#x153;" horiz-adv-x="906" 
d="M863 215h-312q7 -102 116 -102q75 0 153 42l3 -2l-17 -125q-76 -42 -177 -42q-104 0 -170 75q-72 -75 -187 -75q-103 0 -171.5 61.5t-68.5 171.5q0 146 80 231t207 85q120 0 179 -78q73 78 167 78q99 0 156.5 -55t57.5 -155q0 -48 -16 -110zM559 307h169v17
q0 38 -18.5 58.5t-53.5 19.5q-35 0 -60.5 -25t-36.5 -70zM392 287q1 50 -19 79t-61 29q-50 0 -80 -46t-31 -117q-1 -48 20.5 -77.5t61.5 -29.5q51 0 79.5 45.5t29.5 116.5z" />
    <glyph glyph-name="Racute" unicode="&#x154;" horiz-adv-x="615" 
d="M500 771l-239 -73l-31 80l222 130l59 -120zM589 485q0 -96 -42 -157t-111 -89l112 -235l-2 -4h-171l-96 218h-50l-31 -218h-162l95 663q89 12 209 12q52 0 94.5 -9.5t78.5 -30.5t56 -59t20 -91zM273 533l-27 -193h55q54 0 87.5 30.5t33.5 84.5q0 39 -23.5 60t-64.5 21
q-34 0 -61 -3z" />
    <glyph glyph-name="racute" unicode="&#x155;" horiz-adv-x="412" 
d="M346 805l93 -117l-6 -18l-233 -109l-48 88zM236 451q48 82 142 82q28 0 52 -8l-23 -151l-4 -2q-20 8 -50 8q-102 0 -128 -118l-37 -262h-164l74 520h133z" />
    <glyph glyph-name="Rcommaaccent" unicode="&#x156;" horiz-adv-x="615" 
d="M589 485q0 -96 -42 -157t-111 -89l112 -235l-2 -4h-171l-96 218h-50l-31 -218h-162l95 663q89 12 209 12q52 0 94.5 -9.5t78.5 -30.5t56 -59t20 -91zM273 533l-27 -193h55q54 0 87.5 30.5t33.5 84.5q0 39 -23.5 60t-64.5 21q-34 0 -61 -3zM187 -51l127 10l8 -18
q-15 -104 -83 -192h-92q26 76 36 139q2 10 4 61z" />
    <glyph glyph-name="rcommaaccent" unicode="&#x157;" horiz-adv-x="412" 
d="M378 533q28 0 52 -8l-23 -151l-4 -2q-20 8 -50 8q-102 0 -128 -118l-37 -262h-164l74 520h133l5 -69q48 82 142 82zM35 -51l127 10l8 -18q-15 -104 -83 -192h-92q26 76 36 139q2 10 4 61z" />
    <glyph glyph-name="Rcaron" unicode="&#x158;" horiz-adv-x="615" 
d="M396 703h-73l-116 134l59 64l107 -78l125 78l46 -62zM589 485q0 -96 -42 -157t-111 -89l112 -235l-2 -4h-171l-96 218h-50l-31 -218h-162l95 663q89 12 209 12q52 0 94.5 -9.5t78.5 -30.5t56 -59t20 -91zM273 533l-27 -193h55q54 0 87.5 30.5t33.5 84.5q0 39 -23.5 60
t-64.5 21q-34 0 -61 -3z" />
    <glyph glyph-name="rcaron" unicode="&#x159;" horiz-adv-x="412" 
d="M316 574h-75l-101 153l62 52l95 -82l114 82l46 -52zM236 451q48 82 142 82q28 0 52 -8l-23 -151l-4 -2q-20 8 -50 8q-102 0 -128 -118l-37 -262h-164l74 520h133z" />
    <glyph glyph-name="Sacute" unicode="&#x15a;" horiz-adv-x="522" 
d="M241 702l-31 80l222 130l59 -120l-11 -17zM206 -11q-114 0 -191 44l23 148l3 1q73 -56 166 -56q48 0 73.5 17.5t25.5 48.5q0 27 -18.5 46t-72.5 48q-62 32 -98 72.5t-36 103.5q0 107 76 162.5t188 55.5q100 0 166 -30l-18 -140l-4 -2q-58 31 -139 33q-104 2 -104 -55
q0 -11 4.5 -19.5t20 -19.5t27 -17.5t44.5 -23.5q61 -33 95 -74.5t34 -108.5q0 -107 -73 -170.5t-192 -63.5z" />
    <glyph glyph-name="sacute" unicode="&#x15b;" horiz-adv-x="482" 
d="M210 573l-48 88l194 156l93 -117l-6 -18zM190 -14q-105 0 -183 38l19 131l4 1q71 -53 174 -53q73 0 73 44q0 18 -18.5 30t-76.5 31q-126 42 -126 141q0 86 66 136t185 50q95 0 153 -27l-18 -130l-4 -2q-54 30 -143 30q-80 0 -80 -38q0 -16 16.5 -25.5t75.5 -28.5
q66 -22 96.5 -54t30.5 -84q0 -89 -65.5 -139.5t-178.5 -50.5z" />
    <glyph glyph-name="Scedilla" unicode="&#x15e;" horiz-adv-x="522" 
d="M345 680q100 0 166 -30l-18 -140l-4 -2q-58 31 -139 33q-104 2 -104 -55q0 -11 4.5 -19.5t20 -19.5t27 -17.5t44.5 -23.5q61 -33 95 -74.5t34 -108.5q0 -94 -57 -155t-155 -75l-32 -36h17q78 -8 78 -80q0 -65 -46.5 -93t-117.5 -28q-39 0 -63 7l9 68l3 1q20 -7 39 -7
q57 0 57 41q0 27 -35 27q-20 0 -35 -3l-1 1l8 61l31 38q-90 5 -156 43l23 148l3 1q73 -56 166 -56q48 0 73.5 17.5t25.5 48.5q0 27 -18.5 46t-72.5 48q-62 32 -98 72.5t-36 103.5q0 107 76 162.5t188 55.5z" />
    <glyph glyph-name="scedilla" unicode="&#x15f;" horiz-adv-x="482" 
d="M307 535q95 0 153 -27l-18 -130l-4 -2q-54 30 -143 30q-80 0 -80 -38q0 -16 16.5 -25.5t75.5 -28.5q66 -22 96.5 -54t30.5 -84q0 -78 -51.5 -127t-142.5 -60l-29 -32h17q78 -8 78 -80q0 -65 -46.5 -93t-117.5 -28q-39 0 -63 7l9 68l3 1q20 -7 39 -7q57 0 57 41
q0 27 -35 27q-20 0 -35 -3l-1 1l8 61l29 35q-82 5 -146 37l19 131l4 1q71 -53 174 -53q73 0 73 44q0 18 -18.5 30t-76.5 31q-126 42 -126 141q0 86 66 136t185 50z" />
    <glyph glyph-name="Scaron" unicode="&#x160;" horiz-adv-x="522" 
d="M303 707l-116 134l59 64l107 -78l125 78l46 -62l-148 -136h-73zM206 -11q-114 0 -191 44l23 148l3 1q73 -56 166 -56q48 0 73.5 17.5t25.5 48.5q0 27 -18.5 46t-72.5 48q-62 32 -98 72.5t-36 103.5q0 107 76 162.5t188 55.5q100 0 166 -30l-18 -140l-4 -2q-58 31 -139 33
q-104 2 -104 -55q0 -11 4.5 -19.5t20 -19.5t27 -17.5t44.5 -23.5q61 -33 95 -74.5t34 -108.5q0 -107 -73 -170.5t-192 -63.5z" />
    <glyph glyph-name="scaron" unicode="&#x161;" horiz-adv-x="482" 
d="M251 586l-101 153l62 52l95 -82l114 82l46 -52l-141 -153h-75zM190 -14q-105 0 -183 38l19 131l4 1q71 -53 174 -53q73 0 73 44q0 18 -18.5 30t-76.5 31q-126 42 -126 141q0 86 66 136t185 50q95 0 153 -27l-18 -130l-4 -2q-54 30 -143 30q-80 0 -80 -38
q0 -16 16.5 -25.5t75.5 -28.5q66 -22 96.5 -54t30.5 -84q0 -89 -65.5 -139.5t-178.5 -50.5z" />
    <glyph glyph-name="uni0162" unicode="&#x162;" horiz-adv-x="579" 
d="M339 0h-44l-39 -43h17q78 -8 78 -80q0 -65 -46.5 -93t-117.5 -28q-39 0 -63 7l9 68l3 1q20 -7 39 -7q57 0 57 41q0 27 -35 27q-20 0 -35 -3l-1 1l8 61l39 48h-34l75 517h-199l21 146h553l-21 -146h-191z" />
    <glyph glyph-name="uni0163" unicode="&#x163;" horiz-adv-x="420" 
d="M275 392l-21 -149q-6 -52 -6 -55q0 -49 66 -49q27 0 60 12l2 -1l-19 -137q-31 -18 -89 -20l-33 -36h17q78 -8 78 -80q0 -65 -46.5 -93t-117.5 -28q-39 0 -63 7l9 68l3 1q20 -7 39 -7q57 0 57 41q0 27 -35 27q-20 0 -35 -3l-1 1l8 61l40 49h3q-112 30 -112 146q0 21 3 43
l29 202h-82l18 128h82l18 122l166 30l1 -2l-21 -150h134l-16 -128h-136z" />
    <glyph glyph-name="Tcaron" unicode="&#x164;" horiz-adv-x="579" 
d="M390 703h-73l-116 134l59 64l107 -78l125 78l46 -62zM624 663l-21 -146h-191l-73 -517h-165l75 517h-199l21 146h553z" />
    <glyph glyph-name="tcaron" unicode="&#x165;" horiz-adv-x="420" 
d="M500 823l12 -14l-79 -233h-86l42 247h111zM314 670l-21 -150h134l-16 -128h-136l-21 -149q-6 -52 -6 -55q0 -49 66 -49q27 0 60 12l2 -1l-19 -137q-36 -20 -98 -20q-85 0 -132.5 40t-47.5 114q0 21 3 43l29 202h-82l18 128h82l18 122l166 30z" />
    <glyph glyph-name="Tbar" unicode="&#x166;" horiz-adv-x="584" 
d="M606 517h-191l-24 -169h79l-14 -100h-79l-35 -248h-165l36 248h-88l15 100h87l25 169h-199l21 146h553z" />
    <glyph glyph-name="tbar" unicode="&#x167;" horiz-adv-x="421" 
d="M413 392h-136l-10 -71h87l-14 -99h-87q-3 -21 -3 -34q0 -49 66 -49q27 0 60 12l2 -1l-19 -137q-36 -20 -98 -20q-85 0 -132.5 40t-47.5 114q0 21 3 43l5 32h-78l14 99h78l10 71h-82l18 128h82l18 122l166 30l1 -2l-21 -150h134z" />
    <glyph glyph-name="Utilde" unicode="&#x168;" horiz-adv-x="697" 
d="M318 708l-88 27q8 56 43.5 95t81.5 39q36 0 76 -16.5t59 -16.5q13 0 25.5 10.5t14.5 25.5l3 2l89 -26q-8 -58 -42.5 -95t-80.5 -37q-31 0 -74.5 15t-60.5 15t-29 -10.5t-14 -25.5zM310 -13q-120 0 -183.5 56.5t-63.5 159.5q0 37 4 65l56 395h162l-53 -374q-5 -32 -5 -62
q0 -49 27.5 -75.5t77.5 -26.5q68 0 100 39t45 125l52 374h159l-57 -395q-20 -135 -103 -208t-218 -73z" />
    <glyph glyph-name="utilde" unicode="&#x169;" horiz-adv-x="603" 
d="M266 599l-4 -3l-98 28q7 54 45 94t91 40q32 0 66 -17t54 -17q17 0 28.5 10t13.5 26l4 2l98 -25q-8 -63 -48 -99.5t-90 -36.5q-30 0 -66 17t-52 17q-35 0 -42 -36zM415 520h164l-75 -520h-133l-5 69q-63 -82 -174 -82q-70 0 -110 38.5t-40 102.5q0 26 3 52l49 340h164
l-43 -295q-3 -30 -3 -38q-1 -30 15 -45.5t47 -15.5q62 0 93 60z" />
    <glyph glyph-name="Umacron" unicode="&#x16a;" horiz-adv-x="697" 
d="M257 739l14 102h319l-14 -102h-319zM310 -13q-120 0 -183.5 56.5t-63.5 159.5q0 37 4 65l56 395h162l-53 -374q-5 -32 -5 -62q0 -49 27.5 -75.5t77.5 -26.5q68 0 100 39t45 125l52 374h159l-57 -395q-20 -135 -103 -208t-218 -73z" />
    <glyph glyph-name="umacron" unicode="&#x16b;" horiz-adv-x="603" 
d="M520 712l-15 -99h-302l15 99h302zM415 520h164l-75 -520h-133l-5 69q-63 -82 -174 -82q-70 0 -110 38.5t-40 102.5q0 26 3 52l49 340h164l-43 -295q-3 -30 -3 -38q-1 -30 15 -45.5t47 -15.5q62 0 93 60z" />
    <glyph glyph-name="Uring" unicode="&#x16e;" horiz-adv-x="697" 
d="M416 688q-51 0 -81.5 28.5t-30.5 74.5q0 55 36.5 89.5t93.5 34.5q51 0 82.5 -28.5t31.5 -74.5q0 -55 -37.5 -89.5t-94.5 -34.5zM423 759q20 0 33 12.5t13 35.5q0 17 -11.5 27.5t-28.5 10.5q-20 0 -33 -13t-13 -36q0 -16 11.5 -26.5t28.5 -10.5zM310 -13
q-120 0 -183.5 56.5t-63.5 159.5q0 37 4 65l56 395h162l-53 -374q-5 -32 -5 -62q0 -49 27.5 -75.5t77.5 -26.5q68 0 100 39t45 125l52 374h159l-57 -395q-20 -135 -103 -208t-218 -73z" />
    <glyph glyph-name="uring" unicode="&#x16f;" horiz-adv-x="603" 
d="M353 558q-52 0 -83 31t-31 81q0 59 38 96t96 37q52 0 83 -31t31 -81q0 -59 -38 -96t-96 -37zM368 727q-21 0 -35 -14t-14 -38q0 -18 11.5 -29t29.5 -11q21 0 35 13.5t14 37.5q0 18 -11.5 29.5t-29.5 11.5zM415 520h164l-75 -520h-133l-5 69q-63 -82 -174 -82
q-70 0 -110 38.5t-40 102.5q0 26 3 52l49 340h164l-43 -295q-3 -30 -3 -38q-1 -30 15 -45.5t47 -15.5q62 0 93 60z" />
    <glyph glyph-name="Uhungarumlaut" unicode="&#x170;" horiz-adv-x="697" 
d="M312 702l-67 30l80 189l109 -29v-22zM520 702l-67 30l80 189l109 -29l1 -22zM310 -13q-120 0 -183.5 56.5t-63.5 159.5q0 37 4 65l56 395h162l-53 -374q-5 -32 -5 -62q0 -49 27.5 -75.5t77.5 -26.5q68 0 100 39t45 125l52 374h159l-57 -395q-20 -135 -103 -208t-218 -73z
" />
    <glyph glyph-name="uhungarumlaut" unicode="&#x171;" horiz-adv-x="603" 
d="M390 733l-140 -171l-69 40l99 190l111 -37zM472 792l111 -37l-1 -22l-140 -171l-69 40zM367 186l48 334h164l-75 -520h-133l-5 69q-63 -82 -174 -82q-70 0 -110 38.5t-40 102.5q0 26 3 52l49 340h164l-43 -295q-3 -30 -3 -38q-1 -30 15 -45.5t47 -15.5q62 0 93 60z" />
    <glyph glyph-name="Uogonek" unicode="&#x172;" horiz-adv-x="697" 
d="M529 663h159l-57 -395q-15 -105 -70 -173.5t-144 -93.5q-85 -50 -85 -111q0 -38 37 -38q14 0 29 4l3 -3l-10 -80q-32 -8 -68 -8q-52 0 -84.5 21t-32.5 63q0 75 90 138q-113 4 -173 60t-60 156q0 37 4 65l56 395h162l-53 -374q-5 -32 -5 -62q0 -49 27.5 -75.5t77.5 -26.5
q68 0 100 39t45 125z" />
    <glyph glyph-name="uogonek" unicode="&#x173;" horiz-adv-x="603" 
d="M502 0q-97 -54 -97 -118q0 -38 37 -38q14 0 29 4l3 -3l-10 -80q-32 -8 -68 -8q-52 0 -84.5 21t-32.5 63q0 88 123 159h-31l-5 69q-63 -82 -174 -82q-70 0 -110 38.5t-40 102.5q0 26 3 52l49 340h164l-43 -295q-3 -30 -3 -38q-1 -30 15 -45.5t47 -15.5q62 0 93 60l48 334
h164l-75 -520h-2z" />
    <glyph glyph-name="Wcircumflex" unicode="&#x174;" horiz-adv-x="932" 
d="M543 787l-126 -77l-45 62l149 136h73l115 -135l-58 -63zM984 663l2 -4l-297 -661h-124l-68 373l-4 39l-16 -39l-174 -373h-128l-120 661l2 4h172l44 -387l3 -55l21 55l171 380h119l64 -363l5 -62l22 62l150 370h156z" />
    <glyph glyph-name="wcircumflex" unicode="&#x175;" horiz-adv-x="785" 
d="M451 669l-115 -82l-49 53l140 152h75l103 -150l-63 -55zM814 520l2 -3l-237 -517h-122l-46 318l-2 26l-8 -26l-141 -318h-124l-95 517l1 3h164l30 -283l1 -35l9 34l119 284h140l36 -282l3 -30l8 30l110 282h152z" />
    <glyph glyph-name="Ycircumflex" unicode="&#x176;" horiz-adv-x="603" 
d="M252 703l-45 62l149 136h73l115 -135l-58 -63l-108 77zM184 0l38 263l-166 396l1 4h176l92 -252l167 252h165l1 -4l-276 -406l-36 -253h-162z" />
    <glyph glyph-name="ycircumflex" unicode="&#x177;" horiz-adv-x="531" 
d="M328 656l-115 -82l-49 53l140 152h75l103 -150l-63 -55zM565 517l-218 -418l-35 -68q-59 -114 -113 -158.5t-143 -44.5q-39 0 -67 11l19 131l4 2q15 -6 43 -6q80 0 118 82l-133 469l2 3h173l58 -283l124 283h166z" />
    <glyph glyph-name="Ydieresis" unicode="&#x178;" horiz-adv-x="603" 
d="M257 718q-33 0 -54.5 21.5t-21.5 53.5q0 38 26 62.5t61 24.5q33 0 54 -21.5t21 -54.5q0 -38 -25.5 -62t-60.5 -24zM497 718q-33 0 -54.5 21.5t-21.5 53.5q0 38 26 62.5t61 24.5q33 0 54 -21.5t21 -54.5q0 -38 -25.5 -62t-60.5 -24zM184 0l38 263l-166 396l1 4h176
l92 -252l167 252h165l1 -4l-276 -406l-36 -253h-162z" />
    <glyph glyph-name="Zacute" unicode="&#x179;" horiz-adv-x="589" 
d="M257 699l-31 80l222 130l59 -120l-11 -17zM16 0l-7 56l356 474h-290l16 133h500l4 -56l-362 -473h305l-19 -134h-503z" />
    <glyph glyph-name="zacute" unicode="&#x17a;" horiz-adv-x="513" 
d="M455 670l-233 -109l-48 88l194 156l93 -117zM492 435l-269 -307h245l-18 -128h-431l-6 80l261 308h-217l16 132h413z" />
    <glyph glyph-name="Zdotaccent" unicode="&#x17b;" horiz-adv-x="589" 
d="M360 709q-40 0 -65.5 25.5t-25.5 63.5q0 45 30.5 73.5t72.5 28.5q40 0 65 -25t25 -64q0 -46 -30 -74t-72 -28zM16 0l-7 56l356 474h-290l16 133h500l4 -56l-362 -473h305l-19 -134h-503z" />
    <glyph glyph-name="zdotaccent" unicode="&#x17c;" horiz-adv-x="513" 
d="M308 587q-40 0 -65.5 25.5t-25.5 63.5q0 45 30.5 73.5t72.5 28.5q40 0 65 -25t25 -64q0 -46 -30 -74t-72 -28zM492 435l-269 -307h245l-18 -128h-431l-6 80l261 308h-217l16 132h413z" />
    <glyph glyph-name="Zcaron" unicode="&#x17d;" horiz-adv-x="589" 
d="M319 704l-116 134l59 64l107 -78l125 78l46 -62l-148 -136h-73zM16 0l-7 56l356 474h-290l16 133h500l4 -56l-362 -473h305l-19 -134h-503z" />
    <glyph glyph-name="zcaron" unicode="&#x17e;" horiz-adv-x="513" 
d="M338 574h-75l-101 153l62 52l95 -82l114 82l46 -52zM492 435l-269 -307h245l-18 -128h-431l-6 80l261 308h-217l16 132h413z" />
    <glyph glyph-name="uni01EA" unicode="&#x1ea;" horiz-adv-x="751" 
d="M448 -4q-78 -49 -78 -106q0 -38 37 -38q14 0 29 4l3 -3l-10 -80q-32 -8 -68 -8q-52 0 -84.5 21t-32.5 63q0 77 92 140q-126 9 -209.5 91t-83.5 219q0 166 101.5 273t262.5 107q136 0 228.5 -84t92.5 -230q0 -141 -76.5 -241.5t-203.5 -127.5zM214 307q0 -82 41.5 -127.5
t117.5 -45.5q84 0 134 61.5t50 161.5q0 82 -42 128.5t-117 46.5q-85 0 -134.5 -62t-49.5 -163z" />
    <glyph glyph-name="uni01EB" unicode="&#x1eb;" horiz-adv-x="615" 
d="M394 5q-92 -52 -92 -115q0 -38 37 -38q14 0 29 4l3 -3l-10 -80q-32 -8 -68 -8q-52 0 -84.5 21t-32.5 63q0 77 90 138q-103 6 -168.5 67.5t-65.5 175.5q0 133 82.5 218.5t215.5 85.5q110 0 181 -61.5t71 -182.5q0 -101 -50.5 -177.5t-137.5 -107.5zM201 237
q0 -51 24.5 -81t71.5 -30q56 0 86.5 46.5t30.5 110.5q0 51 -25 81t-71 30q-57 0 -87 -46t-30 -111z" />
    <glyph glyph-name="AEacute" unicode="&#x1fc;" horiz-adv-x="843" 
d="M680 771l-239 -73l-31 80l222 130l59 -120zM828 530h-227l-18 -119h208l-18 -131h-209l-21 -148h235l-18 -132h-401l20 139h-178l-93 -139h-165l463 663h441zM278 254h118l33 228l-93 -141z" />
    <glyph glyph-name="aeacute" unicode="&#x1fd;" horiz-adv-x="914" 
d="M652 670l-233 -109l-48 88l194 156l93 -117zM887 332q0 -52 -15 -114l-328 -1q10 -100 121 -100q82 0 163 39l4 -2l-18 -128q-74 -40 -186 -40q-69 0 -126.5 26t-90.5 79q-62 -105 -187 -105q-94 0 -149 59t-55 152q0 158 85 248t208 90q108 0 176 -59q78 59 181 59
q98 0 157.5 -53t59.5 -150zM653 402q-74 0 -101 -93h178v12q0 81 -77 81zM271 134q37 0 66.5 32t41.5 103q6 53 25 95q-37 31 -87 31q-54 0 -89.5 -51t-35.5 -120q0 -43 21 -66.5t58 -23.5z" />
    <glyph glyph-name="Oslashacute" unicode="&#x1fe;" horiz-adv-x="751" 
d="M576 771l-239 -73l-31 80l222 130l59 -120zM633 598q95 -87 95 -233q0 -165 -101.5 -271t-262.5 -106q-85 0 -156 34l-55 -74h-99v14l80 110q-91 85 -91 227q0 166 101.5 273t262.5 107q79 0 149 -31l49 67h106v-11zM214 307q0 -57 21 -98l228 312q-30 11 -65 11
q-85 0 -134.5 -62t-49.5 -163zM373 134q84 0 134 61.5t50 161.5q0 61 -25 105l-232 -314q33 -14 73 -14z" />
    <glyph glyph-name="oslashacute" unicode="&#x1ff;" horiz-adv-x="615" 
d="M505 670l-233 -109l-48 88l194 156l93 -117zM508 475q74 -66 74 -185q0 -132 -82.5 -217.5t-214.5 -85.5q-53 0 -95 14l-39 -59h-95v14l56 85q-80 65 -80 189q0 133 82.5 218.5t215.5 85.5q52 0 98 -15l35 54h103v-11zM201 237q0 -29 7 -50l135 204q-12 3 -25 3
q-57 0 -87 -46t-30 -111zM297 126q56 0 86.5 46.5t30.5 110.5q0 25 -6 44l-133 -199q14 -2 22 -2z" />
    <glyph glyph-name="Scommaaccent" unicode="&#x218;" horiz-adv-x="522" 
d="M206 -11q-114 0 -191 44l23 148l3 1q73 -56 166 -56q48 0 73.5 17.5t25.5 48.5q0 27 -18.5 46t-72.5 48q-62 32 -98 72.5t-36 103.5q0 107 76 162.5t188 55.5q100 0 166 -30l-18 -140l-4 -2q-58 31 -139 33q-104 2 -104 -55q0 -11 4.5 -19.5t20 -19.5t27 -17.5
t44.5 -23.5q61 -33 95 -74.5t34 -108.5q0 -107 -73 -170.5t-192 -63.5zM105 -251q26 76 36 139q2 10 4 61l127 10l8 -18q-15 -104 -83 -192h-92z" />
    <glyph glyph-name="scommaaccent" unicode="&#x219;" horiz-adv-x="482" 
d="M190 -14q-105 0 -183 38l19 131l4 1q71 -53 174 -53q73 0 73 44q0 18 -18.5 30t-76.5 31q-126 42 -126 141q0 86 66 136t185 50q95 0 153 -27l-18 -130l-4 -2q-54 30 -143 30q-80 0 -80 -38q0 -16 16.5 -25.5t75.5 -28.5q66 -22 96.5 -54t30.5 -84q0 -89 -65.5 -139.5
t-178.5 -50.5zM89 -251q26 76 36 139q2 10 4 61l127 10l8 -18q-15 -104 -83 -192h-92z" />
    <glyph glyph-name="uni021A" unicode="&#x21a;" horiz-adv-x="579" 
d="M624 663l-21 -146h-191l-73 -517h-165l75 517h-199l21 146h553zM174 -51l127 10l8 -18q-15 -104 -83 -192h-92q26 76 36 139q2 10 4 61z" />
    <glyph glyph-name="uni021B" unicode="&#x21b;" horiz-adv-x="420" 
d="M275 392l-21 -149q-6 -52 -6 -55q0 -49 66 -49q27 0 60 12l2 -1l-19 -137q-36 -20 -98 -20q-85 0 -132.5 40t-47.5 114q0 21 3 43l29 202h-82l18 128h82l18 122l166 30l1 -2l-21 -150h134l-16 -128h-136zM153 -51l127 10l8 -18q-15 -104 -83 -192h-92q26 76 36 139
q2 10 4 61z" />
    <glyph glyph-name="uni0237" unicode="&#x237;" horiz-adv-x="305" 
d="M-25 -172q-29 0 -75 7l21 141l4 2q15 -4 34 -4q44 0 65.5 25t27.5 73l65 448h162l-68 -486q-15 -103 -77.5 -154.5t-158.5 -51.5z" />
    <glyph glyph-name="circumflex" unicode="&#x2c6;" horiz-adv-x="405" 
d="M145 574l-49 53l140 152h75l103 -150l-63 -55l-91 82z" />
    <glyph glyph-name="caron" unicode="&#x2c7;" horiz-adv-x="405" 
d="M211 574l-101 153l62 52l95 -82l114 82l46 -52l-141 -153h-75z" />
    <glyph glyph-name="breve" unicode="&#x2d8;" horiz-adv-x="368" 
d="M232 579q-69 0 -110.5 44.5t-29.5 120.5l97 11l4 -3q-2 -29 11.5 -47.5t41.5 -18.5t47 18t27 47l3 3l89 -10q-11 -78 -59 -121.5t-121 -43.5z" />
    <glyph glyph-name="dotaccent" unicode="&#x2d9;" horiz-adv-x="299" 
d="M203 587q-40 0 -65.5 25.5t-25.5 63.5q0 45 30.5 73.5t72.5 28.5q39 0 64.5 -25t25.5 -64q0 -46 -30 -74t-72 -28z" />
    <glyph glyph-name="ring" unicode="&#x2da;" horiz-adv-x="317" 
d="M196 558q-52 0 -83 31t-31 81q0 59 38 96t96 37q52 0 83 -31t31 -81q0 -59 -38 -96t-96 -37zM203 635q21 0 35 13.5t14 37.5q0 18 -11.5 29.5t-29.5 11.5q-21 0 -35 -14t-14 -38q0 -18 11.5 -29t29.5 -11z" />
    <glyph glyph-name="ogonek" unicode="&#x2db;" horiz-adv-x="221" 
d="M81 -235q-52 0 -84.5 21t-32.5 63q0 90 128 162l97 -2q-99 -54 -99 -119q0 -38 37 -38q14 0 29 4l3 -3l-10 -80q-32 -8 -68 -8z" />
    <glyph glyph-name="tilde" unicode="&#x2dc;" horiz-adv-x="406" 
d="M158 596l-98 28q7 54 45 94t91 40q33 0 66.5 -17t53.5 -17q17 0 28.5 10t13.5 26l4 2l98 -25q-8 -63 -48 -99.5t-90 -36.5q-30 0 -66 17t-52 17q-35 0 -42 -36z" />
    <glyph glyph-name="hungarumlaut" unicode="&#x2dd;" horiz-adv-x="429" 
d="M134 562l-69 40l99 190l111 -37l-1 -22zM326 562l-69 40l99 190l111 -37l-1 -22z" />
    <glyph glyph-name="gravecomb" unicode="&#x300;" 
d="M13 565l-237 100l-6 18l88 120l200 -149z" />
    <glyph glyph-name="acutecomb" unicode="&#x301;" 
d="M-170 561l-48 88l194 156l93 -117l-6 -18z" />
    <glyph glyph-name="uni0302" unicode="&#x302;" 
d="M-259 574l-49 53l140 152h75l103 -150l-63 -55l-91 82z" />
    <glyph glyph-name="tildecomb" unicode="&#x303;" 
d="M-246 596l-98 28q7 54 45 94t91 40q32 0 66 -17t54 -17q17 0 28.5 10t13.5 26l4 2l98 -25q-8 -63 -48 -99.5t-90 -36.5q-30 0 -66 17t-52 17q-35 0 -42 -36z" />
    <glyph glyph-name="uni0304" unicode="&#x304;" 
d="M-276 613l15 99h302l-15 -99h-302z" />
    <glyph glyph-name="uni0306" unicode="&#x306;" 
d="M-135 579q-69 0 -110.5 44.5t-29.5 120.5l97 11l4 -3q-2 -29 11.5 -47.5t41.5 -18.5t47 18t27 47l3 3l89 -10q-11 -78 -59 -121.5t-121 -43.5z" />
    <glyph glyph-name="uni0307" unicode="&#x307;" 
d="M-96 587q-40 0 -65.5 25.5t-25.5 63.5q0 45 30.5 73.5t72.5 28.5q40 0 65 -25t25 -64q0 -46 -30 -74t-72 -28z" />
    <glyph glyph-name="uni0308" unicode="&#x308;" 
d="M-274 591q-37 0 -61.5 24t-24.5 61q0 43 29 70t69 27q37 0 61.5 -24t24.5 -60q0 -43 -29 -70.5t-69 -27.5zM-47 591q-38 0 -62.5 24t-24.5 61q0 43 29 70t69 27q38 0 62 -24t24 -60q0 -44 -28.5 -71t-68.5 -27z" />
    <glyph glyph-name="uni030A" unicode="&#x30a;" 
d="M-101 558q-52 0 -83 31t-31 81q0 59 38 96t96 37q52 0 83 -31t31 -81q0 -59 -38 -96t-96 -37zM-94 635q21 0 35 13.5t14 37.5q0 18 -11.5 29.5t-29.5 11.5q-21 0 -35 -14t-14 -38q0 -18 11.5 -29t29.5 -11z" />
    <glyph glyph-name="uni030B" unicode="&#x30b;" 
d="M-296 562l-69 40l99 190l111 -37l-1 -22zM-104 562l-69 40l99 190l111 -37l-1 -22z" />
    <glyph glyph-name="uni030C" unicode="&#x30c;" 
d="M-194 574l-101 153l62 52l95 -82l114 82l46 -52l-141 -153h-75z" />
    <glyph glyph-name="uni0326" unicode="&#x326;" 
d="M-252 -251q26 76 36 139q2 10 4 61l127 10l8 -18q-15 -104 -83 -192h-92z" />
    <glyph glyph-name="uni0327" unicode="&#x327;" 
d="M-211 -244q-39 0 -63 7l9 68l3 1q20 -7 39 -7q57 0 57 41q0 27 -35 27q-20 0 -35 -3l-1 1l8 61l40 49h87l-40 -44h5h6h6q78 -8 78 -80q0 -65 -46.5 -93t-117.5 -28z" />
    <glyph glyph-name="uni0328" unicode="&#x328;" 
d="M-162 -235q-52 0 -84.5 21t-32.5 63q0 90 128 162l97 -2q-99 -54 -99 -119q0 -38 37 -38q14 0 29 4l3 -3l-10 -80q-32 -8 -68 -8z" />
    <glyph glyph-name="uni0335" unicode="&#x335;" 
d="M-380 137l14 99h329l-14 -99h-329z" />
    <glyph glyph-name="uni0336" unicode="&#x336;" 
d="M-661 340l14 101h696l-14 -101h-696z" />
    <glyph glyph-name="uni0337" unicode="&#x337;" 
d="M-322 215l16 111l323 180l5 -3l-16 -113l-322 -178z" />
    <glyph glyph-name="uni0338" unicode="&#x338;" 
d="M-550 -44v14l407 617h103v-11l-415 -620h-95z" />
    <glyph glyph-name="Wgrave" unicode="&#x1e80;" horiz-adv-x="932" 
d="M630 702l-236 82l-11 17l68 117l212 -137zM984 663l2 -4l-297 -661h-124l-68 373l-4 39l-16 -39l-174 -373h-128l-120 661l2 4h172l44 -387l3 -55l21 55l171 380h119l64 -363l5 -62l22 62l150 370h156z" />
    <glyph glyph-name="wgrave" unicode="&#x1e81;" horiz-adv-x="785" 
d="M529 578l-237 100l-6 18l88 120l200 -149zM814 520l2 -3l-237 -517h-122l-46 318l-2 26l-8 -26l-141 -318h-124l-95 517l1 3h164l30 -283l1 -35l9 34l119 284h140l36 -282l3 -30l8 30l110 282h152z" />
    <glyph glyph-name="Wacute" unicode="&#x1e82;" horiz-adv-x="932" 
d="M674 778l-239 -73l-31 80l222 130l59 -120zM984 663l2 -4l-297 -661h-124l-68 373l-4 39l-16 -39l-174 -373h-128l-120 661l2 4h172l44 -387l3 -55l21 55l171 380h119l64 -363l5 -62l22 62l150 370h156z" />
    <glyph glyph-name="wacute" unicode="&#x1e83;" horiz-adv-x="785" 
d="M596 683l-233 -109l-48 88l194 156l93 -117zM814 520l2 -3l-237 -517h-122l-46 318l-2 26l-8 -26l-141 -318h-124l-95 517l1 3h164l30 -283l1 -35l9 34l119 284h140l36 -282l3 -30l8 30l110 282h152z" />
    <glyph glyph-name="Wdieresis" unicode="&#x1e84;" horiz-adv-x="932" 
d="M422 725q-33 0 -54.5 21.5t-21.5 53.5q0 38 26 62.5t61 24.5q33 0 54 -21.5t21 -54.5q0 -38 -25.5 -62t-60.5 -24zM662 725q-33 0 -54.5 21.5t-21.5 53.5q0 38 26 62.5t61 24.5q33 0 54 -21.5t21 -54.5q0 -38 -25.5 -62t-60.5 -24zM984 663l2 -4l-297 -661h-124l-68 373
l-4 39l-16 -39l-174 -373h-128l-120 661l2 4h172l44 -387l3 -55l21 55l171 380h119l64 -363l5 -62l22 62l150 370h156z" />
    <glyph glyph-name="wdieresis" unicode="&#x1e85;" horiz-adv-x="785" 
d="M332 604q-37 0 -61.5 24t-24.5 61q0 43 29 70t69 27q37 0 61.5 -24t24.5 -60q0 -43 -29 -70.5t-69 -27.5zM559 604q-38 0 -62.5 24t-24.5 61q0 43 29 70t69 27q38 0 62 -24t24 -60q0 -44 -28.5 -71t-68.5 -27zM814 520l2 -3l-237 -517h-122l-46 318l-2 26l-8 -26
l-141 -318h-124l-95 517l1 3h164l30 -283l1 -35l9 34l119 284h140l36 -282l3 -30l8 30l110 282h152z" />
    <glyph glyph-name="Ygrave" unicode="&#x1ef2;" horiz-adv-x="603" 
d="M465 695l-236 82l-11 17l68 117l212 -137zM184 0l38 263l-166 396l1 4h176l92 -252l167 252h165l1 -4l-276 -406l-36 -253h-162z" />
    <glyph glyph-name="ygrave" unicode="&#x1ef3;" horiz-adv-x="531" 
d="M406 565l-237 100l-6 18l88 120l200 -149zM565 517l-218 -418l-35 -68q-59 -114 -113 -158.5t-143 -44.5q-39 0 -67 11l19 131l4 2q15 -6 43 -6q80 0 118 82l-133 469l2 3h173l58 -283l124 283h166z" />
    <glyph glyph-name="uni1EF8" unicode="&#x1ef8;" horiz-adv-x="603" 
d="M274 708l-88 27q8 56 43.5 95t81.5 39q37 0 77 -16.5t58 -16.5q13 0 25.5 10.5t14.5 25.5l3 2l89 -26q-8 -58 -42.5 -95t-80.5 -37q-31 0 -74.5 15t-60.5 15t-29 -10.5t-14 -25.5zM184 0l38 263l-166 396l1 4h176l92 -252l167 252h165l1 -4l-276 -406l-36 -253h-162z" />
    <glyph glyph-name="uni1EF9" unicode="&#x1ef9;" horiz-adv-x="531" 
d="M233 599l-4 -3l-98 28q7 54 45 94t91 40q33 0 66 -17t54 -17q17 0 28.5 10t13.5 26l4 2l98 -25q-8 -63 -48 -99.5t-90 -36.5q-30 0 -66 17t-52 17q-35 0 -42 -36zM565 517l-218 -418l-35 -68q-59 -114 -113 -158.5t-143 -44.5q-39 0 -67 11l19 131l4 2q15 -6 43 -6
q80 0 118 82l-133 469l2 3h173l58 -283l124 283h166z" />
    <glyph glyph-name="endash" unicode="&#x2013;" horiz-adv-x="537" 
d="M52 215l18 133h421l-18 -133h-421z" />
    <glyph glyph-name="emdash" unicode="&#x2014;" horiz-adv-x="856" 
d="M52 215l18 133h740l-16 -133h-742z" />
    <glyph glyph-name="quoteleft" unicode="&#x2018;" horiz-adv-x="240" 
d="M260 710q-30 -99 -38 -148q-8 -59 -12 -117l-124 -22l-16 23q18 120 106 264h84z" />
    <glyph glyph-name="quoteright" unicode="&#x2019;" horiz-adv-x="236" 
d="M70 423q22 84 35 148q8 44 15 118l123 22l17 -23q-19 -123 -107 -265h-83z" />
    <glyph glyph-name="quotesinglbase" unicode="&#x201a;" horiz-adv-x="243" 
d="M-26 -179q22 74 36 148q10 60 14 117l123 21l18 -23q-19 -119 -107 -263h-84z" />
    <glyph glyph-name="quotedblleft" unicode="&#x201c;" horiz-adv-x="420" 
d="M260 710q-30 -99 -38 -148q-8 -59 -12 -117l-124 -22l-16 23q18 120 106 264h84zM439 710q-28 -97 -36 -148q-11 -65 -13 -117l-124 -22l-17 23q19 121 107 264h83z" />
    <glyph glyph-name="quotedblright" unicode="&#x201d;" horiz-adv-x="415" 
d="M70 423q22 84 35 148q8 44 15 118l123 22l17 -23q-19 -123 -107 -265h-83zM249 423q26 99 35 148q10 65 14 118l124 22l17 -23q-19 -119 -107 -265h-83z" />
    <glyph glyph-name="quotedblbase" unicode="&#x201e;" horiz-adv-x="418" 
d="M-27 -179q26 88 36 148q8 41 15 117l122 21l18 -23q-17 -117 -107 -263h-84zM151 -179q23 76 36 148q8 45 15 117l123 21l17 -23q-17 -117 -107 -263h-84z" />
    <glyph glyph-name="dagger" unicode="&#x2020;" horiz-adv-x="591" 
d="M387 516l191 24l-20 -151l-169 16l-89 -504h-111l52 507l-168 -20l21 152l182 -22l9 201h151z" />
    <glyph glyph-name="daggerdbl" unicode="&#x2021;" horiz-adv-x="591" 
d="M168 -98l52 194l-195 -22l21 151l168 -21l33 108l-5 104l-168 -19l21 152l183 -23l8 194h151l-47 -197l189 26l-20 -152l-168 21l-33 -106l4 -106l168 19l-20 -151l-185 20l-5 -192h-152z" />
    <glyph glyph-name="bullet" unicode="&#x2022;" horiz-adv-x="402" 
d="M189 111q-58 0 -94 35.5t-36 89.5q0 68 43 112.5t106 44.5q61 0 96 -36t35 -90q0 -66 -42.5 -111t-107.5 -45z" />
    <glyph glyph-name="ellipsis" unicode="&#x2026;" horiz-adv-x="697" 
d="M95 -13q-39 0 -59.5 20.5t-20.5 54.5q0 38 25 65.5t66 27.5q39 0 59.5 -21t20.5 -55q0 -38 -25 -65t-66 -27zM318 -13q-39 0 -59.5 20.5t-20.5 54.5q0 38 25 65.5t66 27.5q39 0 59.5 -21t20.5 -55q0 -38 -25 -65t-66 -27zM539 -13q-39 0 -59.5 20.5t-20.5 54.5
q0 38 25 65.5t66 27.5q39 0 59.5 -21t20.5 -55q0 -38 -25 -65t-66 -27z" />
    <glyph glyph-name="perthousand" unicode="&#x2030;" horiz-adv-x="1157" 
d="M219 317q-70 0 -114.5 38.5t-44.5 114.5q0 90 55 145t138 55q70 0 115 -40t45 -113q0 -93 -54.5 -146.5t-139.5 -53.5zM81 13l534 642h121l-533 -642h-122zM230 415q32 0 49.5 25t17.5 67q0 32 -14 49t-38 17q-32 0 -50 -26.5t-18 -69.5q0 -30 14 -46t39 -16zM561 -6
q-70 0 -114 38.5t-44 114.5q0 91 54.5 145.5t138.5 54.5q70 0 115 -39.5t45 -112.5q0 -94 -55 -147.5t-140 -53.5zM924 -6q-70 0 -114.5 38.5t-44.5 114.5q0 91 55 145.5t139 54.5q69 0 114 -39.5t45 -112.5q0 -94 -54 -147.5t-140 -53.5zM573 92q31 0 48.5 25t17.5 67
q0 32 -13.5 49t-37.5 17q-32 0 -50.5 -26t-18.5 -70q0 -62 54 -62zM936 92q31 0 48.5 25t17.5 67q0 32 -13.5 49t-37.5 17q-32 0 -50.5 -26t-18.5 -70q0 -62 54 -62z" />
    <glyph glyph-name="guilsinglleft" unicode="&#x2039;" horiz-adv-x="337" 
d="M200 94l-90 202l144 188h152l-2 -13l-140 -184l84 -184l-1 -9h-147z" />
    <glyph glyph-name="guilsinglright" unicode="&#x203a;" horiz-adv-x="337" 
d="M218 484l90 -202l-144 -188h-152l2 13l140 184l-84 184l1 9h147z" />
    <glyph glyph-name="fraction" unicode="&#x2044;" horiz-adv-x="211" 
d="M-185 -11l483 679h117l-485 -679h-115z" />
    <glyph glyph-name="Euro" unicode="&#x20ac;" horiz-adv-x="631" 
d="M540 683q78 0 138 -17l-20 -149l-3 -2q-50 22 -112 22q-142 0 -195 -113h176l-48 -166h-147q13 -59 54.5 -91t105.5 -32q53 0 115 27l2 -3l-20 -145q-52 -26 -126 -26q-131 0 -214 71.5t-92 198.5h-108l49 166h78q39 121 137.5 190t229.5 69z" />
    <glyph glyph-name="trademark" unicode="&#x2122;" horiz-adv-x="843" 
d="M395 550h-96l-30 -211h-124l30 211h-98l17 117h317zM695 667h122l-18 -328h-117l10 133h-1l-70 -134h-75l-30 135h-1l-30 -134h-117l76 328h128l38 -167z" />
    <glyph glyph-name="minus" unicode="&#x2212;" horiz-adv-x="563" 
d="M55 241l16 109h445l-15 -109h-446z" />
    <glyph glyph-name="approxequal" unicode="&#x2248;" horiz-adv-x="523" 
d="M158 319l-90 13q8 61 47.5 99.5t95.5 38.5q37 0 82 -17.5t71 -17.5q37 0 43 37l5 3l83 -17q-8 -59 -47 -96t-94 -37q-29 0 -76.5 17.5t-69.5 17.5q-19 0 -31.5 -11t-15.5 -27zM128 107l-91 13q10 62 49.5 101t95.5 39q37 0 81.5 -18t69.5 -18q36 0 44 38l6 3l82 -17
q-8 -60 -47 -97.5t-95 -37.5q-29 0 -75.5 17.5t-68.5 17.5q-41 0 -48 -38z" />
    <glyph glyph-name="notequal" unicode="&#x2260;" horiz-adv-x="590" 
d="M544 352h-132l-72 -121h186l-15 -108h-235l-61 -103h-127l61 103h-110l15 108h159l72 121h-213l15 108h262l56 95h127l-56 -95h83z" />
    <glyph glyph-name="uniF8FF" unicode="&#xf8ff;" horiz-adv-x="1474" 
d="M725 517q-26 0 -44 18t-18 43q0 26 18 44t44 18q27 0 45 -18t18 -44t-18 -43.5t-45 -17.5zM64 267q0 152 8 312h101q11 -220 11 -312h-120zM575 261q-83 0 -83 66q0 13 2 49t2 37h-22l-1 79l121 29l1 -17h181q10 -63 10 -237h-119q0 91 3 146h-63l4 -65q6 -3 15 -3
q13 0 18 4v-73q-14 -15 -69 -15zM296 262q-95 0 -95 114q0 133 137 133q125 0 125 -116v-126h-84l-8 61q-6 -33 -23.5 -49.5t-51.5 -16.5zM809 267q-2 167 9 237h82q6 -42 6 -75q1 10 4.5 20.5t11.5 25.5t25 24.5t40 9.5q43 0 59.5 -24.5t18.5 -80.5l4 -137h-116
q0 26 1 55.5t1 36.5q0 29 -15 29q-18 0 -18 -28q0 -7 1.5 -37t1.5 -56h-116zM1209 262q-63 0 -93.5 32.5t-30.5 90.5q0 124 125 124q124 0 124 -122q0 -125 -125 -125zM334 342q24 0 24 29q0 26 -24 26q-22 0 -22 -26q0 -29 22 -29zM1208 342q24 0 24 29q0 26 -24 26
q-21 0 -21 -26q0 -29 21 -29zM359 -50q-62 0 -89 17v83q24 -16 70 -16q21 0 34.5 6t17 11.5t3.5 9.5q-17 -11 -50 -11q-91 0 -91 83v13h-56l3 -65q6 -4 16 -4q13 0 18 5v-72q-19 -15 -69 -15q-46 0 -64.5 17t-18.5 54q0 38 3 80h-18v79l118 28l-1 -17h181v-118
q0 -16 3 -21.5t12 -5.5q16 0 16 27v118h106q10 -52 10 -138q0 -80 -34 -114t-120 -34zM529 -44q0 140 10 280h79q7 -42 7 -76q17 81 82 81q38 0 59.5 -29.5t21.5 -84.5q0 -132 -139 -132q1 -15 1 -39h-121zM947 -5q-143 0 -143 121q0 58 33.5 91.5t93.5 33.5q56 0 87 -30
t31 -85q0 -22 -3 -35h-126q11 -18 50 -18q35 0 56 12l1 -74q-25 -16 -80 -16zM915 108h40q3 27 -17 27q-23 0 -23 -27zM643 71q5 0 13 2.5t16.5 11.5t8.5 23q0 23 -21 23q-22 0 -22 -31q0 -14 5 -29zM1078 -10q-25 0 -25 23t25 23q24 0 24 -23t-24 -23zM1078 -5q18 0 18 18
t-18 18q-19 0 -19 -18t19 -18zM1067 2v23h12q10 0 10 -7t-7 -7l6 -9h-6l-4 9h-5v-9h-6zM1073 15h7q4 0 4 3t-4 3h-7v-6z" />
    <glyph glyph-name="i.loclTRK" horiz-adv-x="288" 
d="M197 587q-40 0 -65.5 25.5t-25.5 63.5q0 45 30.5 73.5t72.5 28.5q39 0 64.5 -25t25.5 -64q0 -46 -30 -74t-72 -28zM24 0l74 520h164l-74 -520h-164z" />
    <glyph glyph-name="caroncomb.alt" 
d="M-134 473l42 247h111l12 -14l-79 -233h-86z" />
    <glyph glyph-name="uni0308.case" 
d="M-282 723q-33 0 -54.5 21.5t-21.5 53.5q0 38 26 62.5t61 24.5q33 0 54 -21.5t21 -54.5q0 -38 -25.5 -62t-60.5 -24zM-42 723q-33 0 -54.5 21.5t-21.5 53.5q0 38 26 62.5t61 24.5q33 0 54 -21.5t21 -54.5q0 -38 -25.5 -62t-60.5 -24z" />
    <glyph glyph-name="uni0307.case" 
d="M-57 713q-40 0 -65.5 25.5t-25.5 63.5q0 45 30.5 73.5t72.5 28.5q39 0 64.5 -25t25.5 -64q0 -46 -30 -74t-72 -28z" />
    <glyph glyph-name="gravecomb.case" 
d="M-1 700l-236 82l-11 17l68 117l212 -137z" />
    <glyph glyph-name="acutecomb.case" 
d="M-194 703l-31 80l222 130l59 -120l-11 -17z" />
    <glyph glyph-name="uni030B.case" 
d="M-270 707l-67 30l80 189l109 -29v-22zM-62 707l-67 30l80 189l109 -29l1 -22z" />
    <glyph glyph-name="uni0302.case" 
d="M-243 708l-45 62l149 136h73l115 -135l-58 -63l-108 77z" />
    <glyph glyph-name="uni030C.case" 
d="M-163 708l-116 134l59 64l107 -78l125 78l46 -62l-148 -136h-73z" />
    <glyph glyph-name="uni0306.case" 
d="M-112 718q-72 0 -116 45t-34 118l101 11q-3 -73 60 -73q30 0 51.5 20t27.5 53l91 -11q-10 -74 -60.5 -118.5t-120.5 -44.5z" />
    <glyph glyph-name="uni030A.case" 
d="M-80 693q-51 0 -81.5 28.5t-30.5 74.5q0 55 36.5 89.5t93.5 34.5q51 0 82.5 -28.5t31.5 -74.5q0 -55 -37.5 -89.5t-94.5 -34.5zM-73 764q20 0 33 12.5t13 35.5q0 17 -11.5 27.5t-28.5 10.5q-20 0 -33 -13t-13 -36q0 -16 11.5 -26.5t28.5 -10.5z" />
    <glyph glyph-name="tildecomb.case" 
d="M-238 713l-88 27q8 56 43.5 95t81.5 39q37 0 77 -16.5t58 -16.5q13 0 25.5 10.5t14.5 25.5l3 2l89 -26q-8 -58 -42.5 -95t-80.5 -37q-31 0 -74.5 15t-60.5 15t-29 -10.5t-14 -25.5z" />
    <glyph glyph-name="uni0304.case" 
d="M-270 744l14 102h319l-14 -102h-319z" />
    <glyph glyph-name="uni0337.case" 
d="M-329 180l15 115l322 190h4l-17 -116l-320 -191z" />
    <glyph glyph-name="uni0338.case" 
d="M-683 -55v14l551 753h106v-11l-558 -756h-99z" />
    <glyph glyph-name="caron.alt" horiz-adv-x="196" 
d="M64 473l42 247h111l12 -14l-79 -233h-86z" />
    <glyph glyph-name="acute.case" horiz-adv-x="325" 
d="M131 703l-31 80l222 130l59 -120l-11 -17z" />
    <glyph glyph-name="breve.case" horiz-adv-x="367" 
d="M255 718q-72 0 -116 45t-34 118l101 11q-3 -73 60 -73q30 0 51.5 20t27.5 53l91 -11q-10 -74 -60.5 -118.5t-120.5 -44.5z" />
    <glyph glyph-name="caron.case" horiz-adv-x="382" 
d="M219 708l-116 134l59 64l107 -78l125 78l46 -62l-148 -136h-73z" />
    <glyph glyph-name="circumflex.case" horiz-adv-x="381" 
d="M139 708l-45 62l149 136h73l115 -135l-58 -63l-108 77z" />
    <glyph glyph-name="dieresis.case" horiz-adv-x="468" 
d="M186 723q-33 0 -54.5 21.5t-21.5 53.5q0 38 26 62.5t61 24.5q33 0 54 -21.5t21 -54.5q0 -38 -25.5 -62t-60.5 -24zM426 723q-33 0 -54.5 21.5t-21.5 53.5q0 38 26 62.5t61 24.5q33 0 54 -21.5t21 -54.5q0 -38 -25.5 -62t-60.5 -24z" />
    <glyph glyph-name="dotaccent.case" horiz-adv-x="251" 
d="M193 713q-40 0 -65.5 25.5t-25.5 63.5q0 45 30.5 73.5t72.5 28.5q39 0 64.5 -25t25.5 -64q0 -46 -30 -74t-72 -28z" />
    <glyph glyph-name="grave.case" horiz-adv-x="325" 
d="M324 700l-236 82l-11 17l68 117l212 -137z" />
    <glyph glyph-name="hungarumlaut.case" horiz-adv-x="472" 
d="M202 707l-67 30l80 189l109 -29v-22zM410 707l-67 30l80 189l109 -29l1 -22z" />
    <glyph glyph-name="macron.case" horiz-adv-x="382" 
d="M89 744l14 102h319l-14 -102h-319z" />
    <glyph glyph-name="ring.case" horiz-adv-x="292" 
d="M212 693q-51 0 -81.5 28.5t-30.5 74.5q0 55 36.5 89.5t93.5 34.5q51 0 82.5 -28.5t31.5 -74.5q0 -55 -37.5 -89.5t-94.5 -34.5zM219 764q20 0 33 12.5t13 35.5q0 17 -11.5 27.5t-28.5 10.5q-20 0 -33 -13t-13 -36q0 -16 11.5 -26.5t28.5 -10.5z" />
    <glyph glyph-name="tilde.case" horiz-adv-x="416" 
d="M177 713l-88 27q8 56 43.5 95t81.5 39q36 0 76.5 -16.5t58.5 -16.5q13 0 25.5 10.5t14.5 25.5l3 2l89 -26q-8 -58 -42.5 -95t-80.5 -37q-31 0 -74.5 15t-60.5 15t-29 -10.5t-14 -25.5z" />
    <glyph glyph-name="IJacute" horiz-adv-x="691" 
d="M124 704l-31 80l222 130l59 -120l-11 -17zM508 704l-31 80l222 130l59 -120l-11 -17zM36 0l90 663h164l-90 -663h-164zM347 -3q-30 0 -58 4l20 136l4 2q15 -3 30 -3q100 0 121 135l56 392h164l-54 -376q-42 -290 -283 -290z" />
    <glyph glyph-name="ijacute" horiz-adv-x="592" 
d="M117 561l-46 68l176 160l85 -101l-6 -18zM423 561l-47 68l177 160l84 -101l-5 -18zM24 0l74 520h164l-74 -520h-164zM261 -172q-30 0 -74 7l20 142l2 1q26 -4 37 -4q43 0 64.5 25t28.5 73l64 448h163l-69 -486q-15 -103 -77 -154.5t-159 -51.5z" />
    </font>
</defs>
</svg>
