<?xml version="1.0" standalone="no"?>
<!DOCTYPE svg PUBLIC "-//W3C//DTD SVG 1.1//EN" "http://www.w3.org/Graphics/SVG/1.1/DTD/svg11.dtd" >
<svg xmlns="http://www.w3.org/2000/svg" xmlns:xlink="http://www.w3.org/1999/xlink" version="1.1">
<metadata>
Created by FontForge 20170731 at Thu Mar  2 15:41:41 2017
 By Aleksey,,,
Copyright (c) 2017 by Alfonso Garci'a - Latinotype Team. All rights reserved.
</metadata>
<defs>
<font id="RawsonAlt-ExtraLight" horiz-adv-x="0" >
  <font-face 
    font-family="Rawson Alt ExtraLight"
    font-weight="300"
    font-stretch="normal"
    units-per-em="1100"
    panose-1="0 0 4 0 0 0 0 0 0 0"
    ascent="880"
    descent="-220"
    x-height="516"
    cap-height="660"
    bbox="-696 -227 1351 868"
    underline-thickness="50"
    underline-position="-200"
    unicode-range="U+0020-FB02"
  />
<missing-glyph horiz-adv-x="500" 
 />
    <glyph glyph-name="fi" unicode="fi" horiz-adv-x="499" 
d="M110 556q0 77 41.5 117t103.5 40q38 0 61 -13v-30l-2 -1q-21 13 -55 13q-51 0 -82.5 -31.5t-31.5 -93.5v-41h140v-29h-140v-487h-35v487h-72v29h72v40zM388 694q12 0 20.5 -8t8.5 -19q0 -12 -8.5 -20.5t-20.5 -8.5q-11 0 -19.5 8.5t-8.5 20.5q0 11 8.5 19t19.5 8zM371 0
v516h34v-516h-34z" />
    <glyph glyph-name="fl" unicode="fl" horiz-adv-x="497" 
d="M110 556q0 77 41.5 117t103.5 40q38 0 61 -13v-30l-2 -1q-24 13 -55 13q-51 0 -82.5 -31.5t-31.5 -93.5v-41h140v-29h-140v-487h-35v487h-72v29h72v40zM369 710h34v-710h-34v710z" />
    <glyph glyph-name=".notdef" horiz-adv-x="500" 
 />
    <glyph glyph-name=".null" 
 />
    <glyph glyph-name="nonmarkingreturn" horiz-adv-x="366" 
 />
    <glyph glyph-name="space" unicode=" " horiz-adv-x="277" 
 />
    <glyph glyph-name="exclam" unicode="!" horiz-adv-x="236" 
d="M103 173l-3 501h36l-3 -501h-30zM118 -10q-12 0 -20 8t-8 19t8 18.5t20 7.5t19.5 -7.5t7.5 -18.5t-7.5 -19t-19.5 -8z" />
    <glyph glyph-name="quotedbl" unicode="&#x22;" horiz-adv-x="293" 
d="M81 454l-1 208h30l5 -6l-12 -202h-22zM187 454l-1 208h30l5 -6l-12 -202h-22z" />
    <glyph glyph-name="numbersign" unicode="#" horiz-adv-x="541" 
d="M480 377h-79l-30 -174h91v-27h-96l-18 -104h-26l18 104h-177l-18 -104h-27l18 104h-75v27h80l30 174h-92v27h97l18 104h27l-18 -104h176l18 104h27l-18 -104h74v-27zM345 203l29 174h-176l-30 -174h177z" />
    <glyph glyph-name="dollar" unicode="$" horiz-adv-x="472" 
d="M417 210q0 -67 -43.5 -105.5t-117.5 -44.5v-92h-33v91q-103 1 -167 41v33l2 1q68 -45 169 -45q73 0 115 29.5t42 89.5q0 53 -39 79t-117 45q-83 21 -122.5 50.5t-39.5 95.5q0 62 48.5 96.5t124.5 37.5v94h33v-94q72 -3 128 -26v-32l-2 -1q-68 28 -144 28
q-67 0 -109.5 -25t-42.5 -77q0 -29 10 -48.5t34.5 -33t44.5 -20t61 -17.5q77 -19 121 -53t44 -97z" />
    <glyph glyph-name="percent" unicode="%" horiz-adv-x="705" 
d="M195 359q-68 0 -109 40t-41 112t41.5 113.5t108.5 41.5t108 -41.5t41 -113.5q0 -71 -41 -111.5t-108 -40.5zM113 10l440 643h32l-440 -643h-32zM195 385q53 0 85 33.5t32 92.5t-32 93.5t-85 34.5q-54 0 -86.5 -34.5t-32.5 -93.5t32.5 -92.5t86.5 -33.5zM513 -5
q-67 0 -108 40.5t-41 111.5q0 72 41 113.5t108 41.5t107.5 -41t40.5 -114q0 -71 -40.5 -111.5t-107.5 -40.5zM513 21q53 0 85 33.5t32 92.5q0 60 -32 94.5t-85 34.5q-54 0 -86 -34.5t-32 -94.5q0 -59 31.5 -92.5t86.5 -33.5z" />
    <glyph glyph-name="ampersand" unicode="&#x26;" horiz-adv-x="642" 
d="M644 360h-90q-7 -141 -57 -233l128 -127h-41l-102 101q-78 -116 -221 -116q-91 0 -148 47t-57 130q0 78 39 128.5t110 87.5q-66 76 -66 151q0 67 49 109.5t115 42.5q74 0 130 -34v-31h-1q-57 35 -126 35q-52 0 -93 -34t-41 -89q0 -49 29 -92t87 -100l187 -186
q40 81 47 210h-102v26h224v-26zM264 16q127 0 196 107l-196 194q-27 27 -39 40q-65 -34 -100 -77.5t-35 -114.5q0 -70 47.5 -109.5t126.5 -39.5z" />
    <glyph glyph-name="quotesingle" unicode="'" horiz-adv-x="187" 
d="M81 454l-1 208h30l5 -6l-12 -202h-22z" />
    <glyph glyph-name="parenleft" unicode="(" horiz-adv-x="270" 
d="M231 -168q-66 29 -118 147.5t-52 306.5q0 185 52 304.5t118 151.5l13 -27q-59 -35 -105 -146t-46 -283t47 -285.5t104 -141.5z" />
    <glyph glyph-name="parenright" unicode=")" horiz-adv-x="270" 
d="M39 743q66 -29 118 -147.5t52 -306.5q0 -185 -52 -304.5t-118 -151.5l-13 27q59 35 105 146t46 283t-47 285.5t-104 141.5z" />
    <glyph glyph-name="asterisk" unicode="*" horiz-adv-x="452" 
d="M228 581l-4 3l-48 140l2 4l24 7l4 -3l30 -146l-2 -3zM246 577l-4 2l-2 5l75 82l26 32l8 -7l11 -13l-81 -78zM218 569l-146 29l-3 3l6 25l6 2l140 -48l2 -3l-2 -7zM387 514l-141 48l-1 3l1 6l3 2l147 -29l2 -3l-6 -25zM125 444l-17 18v5l111 98l5 -1l4 -3v-5l-98 -112h-5z
M265 407l-4 3l-29 146l3 3l5 2l3 -3l49 -141l-2 -4z" />
    <glyph glyph-name="plus" unicode="+" horiz-adv-x="466" 
d="M415 307v-29h-167v-184h-29v184h-167v29h167v185h29v-185h167z" />
    <glyph glyph-name="comma" unicode="," horiz-adv-x="168" 
d="M45 -145q24 81 24 153q0 20 -2 31l33 4l5 -6q0 -91 -38 -182h-22z" />
    <glyph glyph-name="hyphen" unicode="-" horiz-adv-x="417" 
d="M79 274v30h259v-30h-259z" />
    <glyph glyph-name="period" unicode="." horiz-adv-x="184" 
d="M92 -2q-13 0 -21 8.5t-8 20.5q0 11 8.5 19.5t20.5 8.5q13 0 21 -8t8 -20t-8 -20.5t-21 -8.5z" />
    <glyph glyph-name="slash" unicode="/" horiz-adv-x="423" 
d="M38 -117l314 864h33l-314 -864h-33z" />
    <glyph glyph-name="zero" unicode="0" horiz-adv-x="614" 
d="M308 -13q-110 0 -176.5 90.5t-66.5 248.5q0 161 66.5 253t176.5 92q108 0 174.5 -92t66.5 -253q0 -158 -66.5 -248.5t-174.5 -90.5zM308 18q93 0 149.5 82.5t56.5 225.5q0 145 -56.5 229.5t-149.5 84.5q-95 0 -151.5 -84t-56.5 -230q0 -143 56.5 -225.5t151.5 -82.5z" />
    <glyph glyph-name="one" unicode="1" horiz-adv-x="352" 
d="M208 0v619l-182 -106h-2v36l208 122h10v-671h-34z" />
    <glyph glyph-name="two" unicode="2" horiz-adv-x="517" 
d="M50 0q-2 57 48 129t138 144q93 75 131.5 124t38.5 100q0 64 -43 104t-119 40q-113 0 -181 -81l-1 1v34q64 78 185 78q87 0 140 -48.5t53 -125.5q0 -58 -41.5 -112.5t-136.5 -132.5q-78 -64 -123 -125t-48 -98h380v-31h-421z" />
    <glyph glyph-name="three" unicode="3" horiz-adv-x="522" 
d="M459 180q1 -87 -58.5 -141t-151.5 -54q-120 0 -195 59v38l1 1q73 -68 191 -68q78 0 129 45t51 120q0 152 -202 155l-57 1v29l57 1q79 2 126.5 37.5t47.5 104.5q0 60 -44 97t-117 37q-93 0 -160 -58l-1 1v32q67 56 165 56q85 0 138 -44t53 -117q0 -59 -31 -99.5t-84 -58.5
q141 -32 142 -174z" />
    <glyph glyph-name="four" unicode="4" horiz-adv-x="576" 
d="M544 193v-31h-129v-162h-33v162h-359v11l366 499h26v-479h129zM73 193h309v420z" />
    <glyph glyph-name="five" unicode="5" horiz-adv-x="525" 
d="M251 -15q-56 0 -97.5 11.5t-91.5 38.5v36h2q92 -54 185 -54q84 0 135 47.5t51 133.5q0 70 -49 119.5t-142 49.5q-88 0 -163 -23l-1 1l23 316h342v-31h-312l-18 -247q52 16 133 16q105 0 163.5 -57t58.5 -141q0 -104 -61.5 -160t-157.5 -56z" />
    <glyph glyph-name="six" unicode="6" horiz-adv-x="561" 
d="M304 399q94 0 148 -57t54 -143q0 -94 -61 -154t-154 -60q-106 0 -166 75t-60 225q0 174 74.5 280t202.5 106q74 0 126 -21v-29l-2 -1q-54 21 -124 21q-116 0 -179 -99.5t-63 -260.5v-25q22 64 76 103.5t128 39.5zM292 16q77 0 128.5 50.5t51.5 130.5q0 73 -46 121.5
t-128 48.5q-79 0 -133 -53.5t-58 -123.5q16 -87 64.5 -130.5t120.5 -43.5z" />
    <glyph glyph-name="seven" unicode="7" horiz-adv-x="465" 
d="M144 0l258 628h-379v32h422v-12l-265 -648h-36z" />
    <glyph glyph-name="eight" unicode="8" horiz-adv-x="577" 
d="M515 168q1 -80 -59 -131.5t-161 -51.5q-109 0 -170.5 46.5t-62.5 132.5q-1 126 139 209q-107 53 -107 144q0 70 54.5 112.5t152.5 42.5q87 0 141 -40t54 -113q0 -103 -123 -178q72 -32 106.5 -70.5t35.5 -102.5zM130 517q0 -52 42 -84.5t125 -60.5q25 -9 48 -18
q60 36 88.5 74t28.5 89q0 58 -43.5 90.5t-117.5 32.5q-84 0 -127.5 -33t-43.5 -90zM296 16q86 0 136 42.5t48 109.5q-1 67 -46 101t-151 71q-41 15 -54 20q-133 -79 -132 -193q1 -73 53.5 -112t145.5 -39z" />
    <glyph glyph-name="nine" unicode="9" horiz-adv-x="558" 
d="M265 674q105 0 166 -79t61 -231q0 -178 -68.5 -275t-199.5 -97q-69 0 -129 21v31l2 1q63 -23 124 -23q237 0 237 347v20q-25 -59 -77 -95t-124 -36q-92 0 -149 58.5t-57 143.5q0 95 62 154.5t152 59.5zM261 290q75 0 127.5 47t63.5 111q-15 96 -64 145t-123 49
q-76 0 -128 -50t-52 -131q0 -71 48.5 -121t127.5 -50z" />
    <glyph glyph-name="colon" unicode=":" horiz-adv-x="211" 
d="M105 416q-12 0 -19.5 7.5t-7.5 18.5t7.5 19t19.5 8q13 0 20.5 -7.5t7.5 -19.5q0 -11 -7.5 -18.5t-20.5 -7.5zM105 -2q-12 0 -19.5 8t-7.5 19t7.5 19t19.5 8t20 -8t8 -19t-7.5 -19t-20.5 -8z" />
    <glyph glyph-name="semicolon" unicode=";" horiz-adv-x="242" 
d="M128 416q-13 0 -21 8.5t-8 20.5q0 11 8.5 19.5t20.5 8.5q13 0 21 -8t8 -20t-8 -20.5t-21 -8.5zM82 -145q24 81 24 153q0 20 -2 31l33 4l5 -6q0 -91 -38 -182h-22z" />
    <glyph glyph-name="less" unicode="&#x3c;" horiz-adv-x="444" 
d="M80 290l9 -4l278 -160l-14 -27l-308 178v26l308 177l14 -27l-279 -159z" />
    <glyph glyph-name="equal" unicode="=" horiz-adv-x="529" 
d="M82 376v29h365v-29h-365zM82 172v30h365v-30h-365z" />
    <glyph glyph-name="greater" unicode="&#x3e;" horiz-adv-x="444" 
d="M91 481l308 -178v-26l-308 -177l-14 27l279 159l8 4l-9 4l-278 160z" />
    <glyph glyph-name="question" unicode="?" horiz-adv-x="418" 
d="M156 175q0 64 17 105t67 80q30 23 46 39.5t30 49t14 73.5q0 56 -37.5 93.5t-100.5 37.5q-89 0 -146 -59h-1v34q49 56 150 56q76 0 122.5 -44t46.5 -115q0 -66 -27 -106.5t-82 -85.5q-67 -52 -67 -157zM174 -4q-12 0 -19.5 8t-7.5 19q0 12 7.5 19.5t19.5 7.5t19.5 -7.5
t7.5 -19.5q0 -11 -7.5 -19t-19.5 -8z" />
    <glyph glyph-name="at" unicode="@" horiz-adv-x="789" 
d="M610 74q-36 0 -54.5 21t-18.5 55v19q-45 -100 -151 -100q-68 0 -112 47t-44 132q0 86 49.5 138.5t124.5 52.5q84 0 134 -57l3 46h23v-271q0 -57 49 -57q46 0 70.5 48.5t24.5 138.5q0 116 -77.5 203.5t-216.5 87.5t-231 -92t-92 -238t92 -235t242 -89q136 0 225 87h2
l15 -19q-95 -95 -242 -95q-164 0 -264 97t-100 254q0 158 100 257.5t253 99.5q102 0 178 -48t111 -118.5t35 -149.5q0 -102 -32 -158.5t-96 -56.5zM390 96q100 0 146 110v145q-45 62 -130 62q-65 0 -106 -45t-41 -118t38 -113.5t93 -40.5z" />
    <glyph glyph-name="A" unicode="A" horiz-adv-x="626" 
d="M574 0l-96 220h-331l-92 -220h-35l286 674h10l294 -674h-36zM159 249h307l-149 342l-7 18l-7 -18z" />
    <glyph glyph-name="B" unicode="B" horiz-adv-x="569" 
d="M359 350q70 -12 111.5 -57t41.5 -108q0 -185 -257 -185h-145v660q75 7 148 7q107 0 158 -44.5t51 -118.5q0 -118 -108 -154zM260 637q-61 0 -117 -4v-276h132q72 0 115 38.5t43 105.5q0 136 -173 136zM253 28q123 0 173.5 41t50.5 115q0 64 -46.5 104.5t-130.5 40.5h-157
v-301h110z" />
    <glyph glyph-name="C" unicode="C" horiz-adv-x="648" 
d="M405 -12q-158 1 -251 93.5t-93 243.5q0 154 96 249t251 95q110 0 198 -43v-33l-3 -1q-82 46 -192 46q-142 0 -228.5 -85.5t-86.5 -226.5q0 -138 83.5 -221.5t229.5 -84.5q102 0 194 49l3 -1v-31q-92 -49 -201 -49z" />
    <glyph glyph-name="D" unicode="D" horiz-adv-x="732" 
d="M297 668q187 0 280.5 -89t93.5 -244q0 -161 -95.5 -248.5t-275.5 -87.5q-138 0 -190 4v657q96 8 187 8zM304 30q163 1 247 79.5t84 224.5q0 140 -85.5 221t-253.5 81q-92 0 -152 -6v-596q43 -4 160 -4z" />
    <glyph glyph-name="E" unicode="E" horiz-adv-x="543" 
d="M144 32h348v-32h-382v660h367v-32h-333v-269h314v-32h-314v-295z" />
    <glyph glyph-name="F" unicode="F" horiz-adv-x="502" 
d="M475 628h-331v-284h282v-31h-282v-313h-34v660h365v-32z" />
    <glyph glyph-name="G" unicode="G" horiz-adv-x="704" 
d="M391 -10q-158 0 -244 92t-86 247q0 149 95 244.5t250 95.5q115 0 203 -41v-33l-2 -1q-50 24 -94.5 33.5t-107.5 9.5q-140 0 -224 -86t-84 -222q0 -140 76 -223.5t219 -83.5q126 0 215 53v226h32v-247q-104 -64 -248 -64z" />
    <glyph glyph-name="H" unicode="H" horiz-adv-x="741" 
d="M596 660h35v-660h-35v322h-452v-322h-34v660h34v-307h452v307z" />
    <glyph glyph-name="I" unicode="I" horiz-adv-x="254" 
d="M110 0v660h34v-660h-34z" />
    <glyph glyph-name="J" unicode="J" horiz-adv-x="340" 
d="M61 -3q-22 0 -47 3v30l2 1q16 -3 42 -3q73 0 109.5 44.5t36.5 123.5v464h34v-464q0 -96 -44.5 -147.5t-132.5 -51.5z" />
    <glyph glyph-name="K" unicode="K" horiz-adv-x="587" 
d="M178 337l404 -335l-1 -2h-46l-391 323v-323h-34v660h34v-315l375 315h43l1 -2z" />
    <glyph glyph-name="L" unicode="L" horiz-adv-x="497" 
d="M144 30h339v-30h-373v660h34v-630z" />
    <glyph glyph-name="M" unicode="M" horiz-adv-x="859" 
d="M712 660l70 -660h-33l-62 580h-2l-249 -574h-11l-250 574h-2l-63 -580h-33l70 660h25l260 -587l256 587h24z" />
    <glyph glyph-name="N" unicode="N" horiz-adv-x="738" 
d="M110 0v666h13l470 -595h2v589h33v-668h-10l-473 597h-2v-589h-33z" />
    <glyph glyph-name="O" unicode="O" horiz-adv-x="792" 
d="M396 -15q-144 0 -239.5 92.5t-95.5 251.5q0 158 95 251t240 93q144 0 239.5 -92.5t95.5 -251.5q0 -157 -95 -250.5t-240 -93.5zM396 16q131 0 215 84.5t84 228.5t-84 228.5t-215 84.5t-215 -84.5t-84 -228.5t84 -228.5t215 -84.5z" />
    <glyph glyph-name="P" unicode="P" horiz-adv-x="529" 
d="M488 473q1 -93 -62.5 -145t-182.5 -52q-51 0 -99 5v-281h-34v660q64 6 146 6q119 0 175 -52.5t57 -140.5zM240 306q104 0 159 43t55 123q0 73 -47.5 118t-149.5 45q-77 0 -113 -4v-319q54 -6 96 -6z" />
    <glyph glyph-name="Q" unicode="Q" horiz-adv-x="792" 
d="M731 329q0 -147 -83.5 -238.5t-215.5 -103.5q23 -70 64.5 -100.5t113.5 -39.5l1 -2l-10 -25q-81 9 -128 47t-74 118h-3q-144 0 -239.5 92.5t-95.5 251.5q0 158 95 251t240 93q144 0 239.5 -92.5t95.5 -251.5zM396 16q131 0 215 84.5t84 228.5t-84 228.5t-215 84.5
t-215 -84.5t-84 -228.5t84 -228.5t215 -84.5z" />
    <glyph glyph-name="R" unicode="R" horiz-adv-x="557" 
d="M329 289l182 -287l-1 -2h-36l-179 283q-24 -2 -36 -2h-115v-281h-34v660q76 6 150 6q107 0 163 -49t56 -143q0 -74 -41.5 -121t-108.5 -64zM247 309q86 0 142 42t56 121q0 78 -45.5 120.5t-137.5 42.5q-38 0 -118 -4v-322h103z" />
    <glyph glyph-name="S" unicode="S" horiz-adv-x="509" 
d="M245 -15q-114 0 -193 53v37l3 1q80 -59 188 -59q79 0 126.5 38t47.5 100q0 68 -42.5 106.5t-125.5 71.5q-39 16 -66 30.5t-55 35.5t-42 49.5t-14 63.5q0 78 56.5 120.5t142.5 42.5q97 0 163 -37v-33l-2 -1q-63 40 -159 40q-72 0 -119 -33t-47 -95q0 -55 42 -88t123 -66
q87 -36 133.5 -80t46.5 -123t-57.5 -126.5t-149.5 -47.5z" />
    <glyph glyph-name="T" unicode="T" horiz-adv-x="535" 
d="M518 660v-31h-233v-629h-34v629h-235v31h502z" />
    <glyph glyph-name="U" unicode="U" horiz-adv-x="710" 
d="M355 -15q-121 0 -188 68.5t-67 194.5v412h34v-408q0 -114 58 -174.5t163 -60.5t163 60.5t58 174.5v408h34v-412q0 -126 -67 -194.5t-188 -68.5z" />
    <glyph glyph-name="V" unicode="V" horiz-adv-x="617" 
d="M593 660l1 -2l-277 -677h-15l-282 677l1 2h34l250 -601l6 -17l6 17l242 601h34z" />
    <glyph glyph-name="W" unicode="W" horiz-adv-x="963" 
d="M935 660l1 -2l-222 -675h-23l-204 599l-5 16l-5 -16l-204 -599h-23l-224 675l1 2h35l195 -596l6 -26l7 27l200 594h24l202 -593l7 -26l6 26l193 594h33z" />
    <glyph glyph-name="X" unicode="X" horiz-adv-x="589" 
d="M317 343l253 -341l-1 -2h-39l-237 320l-236 -320h-36l-1 2l252 342l-233 314l1 2h38l219 -295l213 295h37l1 -2z" />
    <glyph glyph-name="Y" unicode="Y" horiz-adv-x="574" 
d="M270 0v284l-247 374l1 2h35l229 -344l227 344h34l1 -2l-246 -374v-284h-34z" />
    <glyph glyph-name="Z" unicode="Z" horiz-adv-x="571" 
d="M35 0v13l446 618h-441v29h492v-12l-449 -619h451v-29h-499z" />
    <glyph glyph-name="bracketleft" unicode="[" horiz-adv-x="277" 
d="M244 713h-111v-846h111v-26h-141v899h141v-27z" />
    <glyph glyph-name="backslash" unicode="\" horiz-adv-x="423" 
d="M386 -117h-33l-314 864h33z" />
    <glyph glyph-name="bracketright" unicode="]" horiz-adv-x="277" 
d="M33 740h142v-899h-142v26h111v846h-111v27z" />
    <glyph glyph-name="asciicircum" unicode="^" horiz-adv-x="468" 
d="M246 665l165 -305l-24 -13l-149 278l-4 10l-4 -10l-148 -278l-25 13l165 305h24z" />
    <glyph glyph-name="underscore" unicode="_" horiz-adv-x="445" 
d="M32 -30v29h381v-29h-381z" />
    <glyph glyph-name="grave" unicode="`" horiz-adv-x="222" 
d="M184 566l-160 121l-1 7l25 25l149 -135z" />
    <glyph glyph-name="a" unicode="a" horiz-adv-x="617" 
d="M593 42l2 -1v-31q-19 -17 -49 -17q-70 0 -70 81v17q-62 -102 -192 -102q-102 0 -164 66.5t-62 190.5q0 126 72 203.5t186 77.5q101 0 160 -57l4 46h28v-425q0 -36 10.5 -51t36.5 -15q21 0 38 17zM290 20q62 0 109 30t75 82v303q-58 61 -158 61q-96 0 -159 -68.5
t-63 -179.5t54.5 -169.5t141.5 -58.5z" />
    <glyph glyph-name="b" unicode="b" horiz-adv-x="601" 
d="M317 527q98 0 162 -67t64 -190q0 -132 -71.5 -206.5t-182.5 -74.5q-122 0 -198 46v675h35v-282q61 99 191 99zM290 20q95 0 156 65t61 182q0 109 -55.5 169t-139.5 60q-61 0 -110.5 -30t-75.5 -83v-327q63 -36 164 -36z" />
    <glyph glyph-name="c" unicode="c" horiz-adv-x="503" 
d="M322 -11q-119 0 -192 74t-73 196q0 120 75 194.5t191 74.5q78 0 134 -23v-29l-2 -2q-56 23 -129 23q-103 0 -168.5 -65.5t-65.5 -170.5q0 -109 63 -174.5t170 -66.5q73 0 133 35l3 -2v-30q-61 -34 -139 -34z" />
    <glyph glyph-name="d" unicode="d" horiz-adv-x="624" 
d="M594 43l2 -1v-31q-20 -18 -49 -18q-39 0 -54.5 20.5t-15.5 60.5v17q-60 -102 -192 -102q-101 0 -164 68t-63 193q0 124 71.5 200.5t184.5 76.5q101 0 161 -53v236h35v-619q0 -36 10.5 -51t35.5 -15q21 0 38 18zM291 20q124 0 184 111v306q-61 59 -159 59
q-97 0 -159.5 -67.5t-62.5 -177.5q0 -111 55.5 -171t141.5 -60z" />
    <glyph glyph-name="e" unicode="e" horiz-adv-x="569" 
d="M297 527q104 0 162.5 -67t58.5 -183v-18h-425q0 -116 65.5 -178.5t168.5 -62.5q89 0 163 45l2 -1v-30q-73 -45 -170 -45q-115 0 -190 70t-75 202q0 121 68.5 194.5t171.5 73.5zM297 497q-82 0 -138.5 -55.5t-64.5 -152.5h390q-3 96 -52 152t-135 56z" />
    <glyph glyph-name="f" unicode="f" horiz-adv-x="308" 
d="M255 713q38 0 63 -13v-30l-2 -1q-23 13 -57 13q-51 0 -82.5 -31.5t-31.5 -93.5v-41h141v-29h-141v-487h-35v487h-72v29h72v37q0 79 41.5 119.5t103.5 40.5z" />
    <glyph glyph-name="g" unicode="g" horiz-adv-x="601" 
d="M482 518h26v-475q0 -102 -59.5 -156.5t-174.5 -54.5q-110 0 -180 49v36l2 1q67 -54 177 -54q200 0 200 179v65q-62 -97 -190 -97q-100 0 -162.5 66t-62.5 184q0 121 72 193.5t182 72.5q104 0 165 -56zM473 154v284q-58 58 -159 58q-97 0 -159 -63.5t-62 -169.5
q0 -104 55 -162.5t141 -58.5q125 0 184 112z" />
    <glyph glyph-name="h" unicode="h" horiz-adv-x="604" 
d="M313 527q93 0 149 -55.5t56 -171.5v-300h-34v294q0 103 -48.5 151.5t-128.5 48.5q-61 0 -108 -32.5t-71 -93.5v-368h-35v710h35v-290q24 48 72.5 77.5t112.5 29.5z" />
    <glyph glyph-name="i" unicode="i" horiz-adv-x="221" 
d="M111 636q-11 0 -20 9t-9 21q0 11 9 19.5t20 8.5q12 0 20.5 -8.5t8.5 -19.5q0 -13 -8.5 -21.5t-20.5 -8.5zM93 0v516h35v-516h-35z" />
    <glyph glyph-name="j" unicode="j" horiz-adv-x="238" 
d="M127 636q-11 0 -20 9t-9 21q0 11 9 19.5t20 8.5q12 0 20.5 -8.5t8.5 -19.5q0 -13 -8.5 -21.5t-20.5 -8.5zM-1 -168q-18 0 -37 4v30l2 1q14 -3 30 -3q116 0 116 144v508h34v-514q0 -170 -145 -170z" />
    <glyph glyph-name="k" unicode="k" horiz-adv-x="493" 
d="M163 268l313 -266l-1 -2h-45l-302 255v-255h-35v710h35v-433l292 239h43l1 -2z" />
    <glyph glyph-name="l" unicode="l" horiz-adv-x="243" 
d="M178 -8q-87 0 -87 89v629h34v-615q0 -38 13.5 -54.5t45.5 -16.5q20 0 40 14l2 -1v-31q-20 -14 -48 -14z" />
    <glyph glyph-name="m" unicode="m" horiz-adv-x="933" 
d="M660 527q83 0 135 -54t52 -164v-309h-34v302q0 97 -43.5 144.5t-115.5 47.5q-57 0 -102 -32.5t-69 -89.5q5 -32 5 -63v-309h-35v302q0 97 -43.5 144.5t-114.5 47.5q-57 0 -101.5 -33t-65.5 -89v-372h-35v516h29l5 -94q23 46 68 75.5t106 29.5t106 -29t66 -88
q23 51 71.5 84t115.5 33z" />
    <glyph glyph-name="n" unicode="n" horiz-adv-x="605" 
d="M316 527q89 0 146.5 -57.5t57.5 -178.5v-291h-35v285q0 107 -49.5 158t-126.5 51q-61 0 -109.5 -35t-71.5 -94v-365h-35v516h29l5 -98q26 49 75.5 79t113.5 30z" />
    <glyph glyph-name="o" unicode="o" horiz-adv-x="628" 
d="M313 -13q-111 0 -183.5 73t-72.5 199q0 123 73 195.5t183 72.5q112 0 185.5 -72t73.5 -197q0 -124 -74 -197.5t-185 -73.5zM313 18q97 0 160 65.5t63 175.5q0 109 -62.5 173t-160.5 64q-97 0 -159 -64t-62 -173q0 -110 62 -175.5t159 -65.5z" />
    <glyph glyph-name="p" unicode="p" horiz-adv-x="603" 
d="M319 527q100 0 163 -69t63 -191q0 -132 -70.5 -205t-180.5 -73q-101 0 -166 49v-202h-35v680h29l5 -90q61 101 192 101zM293 20q95 0 155.5 63.5t60.5 181.5q0 108 -54.5 169.5t-140.5 61.5q-62 0 -111 -30.5t-75 -82.5v-309q64 -54 165 -54z" />
    <glyph glyph-name="q" unicode="q" horiz-adv-x="603" 
d="M481 516h29v-680h-35v253q-60 -100 -190 -100q-101 0 -164 68t-63 192q0 126 72 202t183 76q104 0 164 -57zM291 20q62 0 109 30t75 82v304q-58 60 -159 60q-97 0 -159.5 -67.5t-62.5 -177.5q0 -111 55 -171t142 -60z" />
    <glyph glyph-name="r" unicode="r" horiz-adv-x="361" 
d="M279 527q40 0 66 -13v-31l-2 -1q-26 13 -63 13q-55 0 -94 -30.5t-58 -112.5v-352h-35v516h29l4 -95q40 106 153 106z" />
    <glyph glyph-name="s" unicode="s" horiz-adv-x="468" 
d="M215 -12q-104 0 -165 41v35l2 1q65 -46 162 -46q79 0 125 28.5t46 83.5q0 50 -35 74.5t-120 45.5q-82 21 -125 50t-43 88q0 63 53 100.5t137 37.5q80 0 141 -26v-32l-3 -1q-63 28 -138 28q-69 0 -112.5 -28t-43.5 -77q0 -45 38 -67.5t114 -41.5q91 -23 131.5 -54.5
t40.5 -93.5q0 -71 -55.5 -108.5t-149.5 -37.5z" />
    <glyph glyph-name="t" unicode="t" horiz-adv-x="382" 
d="M374 54l3 -1v-30q-40 -27 -101 -27q-134 0 -134 137v353h-112v30h112v128l32 7l3 -1v-134h195v-30h-195v-348q0 -111 105 -111q57 0 92 27z" />
    <glyph glyph-name="u" unicode="u" horiz-adv-x="589" 
d="M461 516h35v-516h-29l-5 86q-25 -44 -72 -70.5t-111 -26.5q-89 0 -140.5 53t-51.5 162v312h34v-307q0 -96 44.5 -142.5t120.5 -46.5q59 0 105.5 30.5t69.5 84.5v381z" />
    <glyph glyph-name="v" unicode="v" horiz-adv-x="537" 
d="M510 516l1 -2l-230 -523h-23l-234 523l1 2h37l208 -478l205 478h35z" />
    <glyph glyph-name="w" unicode="w" horiz-adv-x="797" 
d="M765 516l1 -2l-170 -514h-28l-162 452l-6 20l-5 -20l-165 -452h-28l-173 514l1 2h34l150 -453l4 -18l5 18l163 453h29l162 -452l5 -18l4 19l148 451h31z" />
    <glyph glyph-name="x" unicode="x" horiz-adv-x="508" 
d="M277 266l206 -264l-1 -2h-38l-190 242l-192 -242h-35l-1 2l208 263l-198 249l1 2h38l181 -228l180 228h35l1 -3z" />
    <glyph glyph-name="y" unicode="y" horiz-adv-x="510" 
d="M485 516l1 -2l-221 -519l-68 -156h-36l-1 3l78 166l-212 506l1 2h37l192 -470l195 470h34z" />
    <glyph glyph-name="z" unicode="z" horiz-adv-x="498" 
d="M88 30h375v-30h-426v14l368 472h-364v30h415v-15z" />
    <glyph glyph-name="braceleft" unicode="{" horiz-adv-x="287" 
d="M244 713q-47 0 -67 -16.5t-19 -67.5v-239q0 -47 -32 -73t-61 -26v-2q29 0 61 -26.5t32 -73.5v-239q0 -52 19.5 -68t66.5 -16h10v-28h-17q-59 0 -85 22.5t-26 88.5v233q0 42 -28.5 66.5t-57.5 24.5v34q29 0 57.5 24.5t28.5 64.5v234q0 65 26 88t85 23h17v-28h-10z" />
    <glyph glyph-name="bar" unicode="|" horiz-adv-x="237" 
d="M103 -103v829h32v-829h-32z" />
    <glyph glyph-name="braceright" unicode="}" horiz-adv-x="287" 
d="M161 396q0 -41 28.5 -65.5t57.5 -24.5v-34q-29 0 -57.5 -24.5t-28.5 -65.5v-233q0 -66 -25.5 -88.5t-84.5 -22.5h-17v28h10q47 0 66.5 16t19.5 68v239q0 47 32 73.5t61 26.5v2q-29 0 -61 26t-32 73v239q0 52 -19.5 68t-66.5 16h-10v28h17q58 0 84 -23t26 -88v-234z" />
    <glyph glyph-name="asciitilde" unicode="~" horiz-adv-x="512" 
d="M106 249l-25 4q0 34 25 55t62 21t93 -23t83 -23q26 0 44 12.5t18 36.5l2 2l24 -4q0 -35 -25 -56t-62 -21q-32 0 -89 23.5t-87 23.5q-26 0 -44 -13t-18 -37z" />
    <glyph glyph-name="exclamdown" unicode="&#xa1;" horiz-adv-x="217" 
d="M109 480q-13 0 -20.5 7.5t-7.5 18.5q0 12 7.5 19.5t20.5 7.5q12 0 19.5 -7.5t7.5 -19.5q0 -26 -27 -26zM91 -151l3 500h29l3 -500h-35z" />
    <glyph glyph-name="cent" unicode="&#xa2;" horiz-adv-x="589" 
d="M526 132v-30q-79 -47 -179 -47v-92h-33v93q-119 9 -188.5 83t-69.5 190q0 117 72 192.5t189 84.5v95h33v-94q92 0 166 -34v-31l-2 -2q-74 35 -166 35q-115 0 -185 -67t-70 -177t67.5 -177t185.5 -67q100 0 177 47z" />
    <glyph glyph-name="sterling" unicode="&#xa3;" horiz-adv-x="574" 
d="M135 30h388v-30h-443l-1 5q38 37 55.5 84.5t17.5 117.5q0 40 -17 117h-97v29h91q-12 68 -12 108q0 98 60 153.5t152 55.5q102 0 167 -42v-33l-2 -1q-67 45 -164 45q-79 0 -129 -47t-50 -129q0 -40 12 -110h248v-29h-242q17 -77 17 -117q0 -121 -51 -177z" />
    <glyph glyph-name="currency" unicode="&#xa4;" horiz-adv-x="708" 
d="M623 333q0 -102 -68 -180l74 -74l-24 -23l-73 74q-78 -68 -179 -68q-99 0 -176 64l-70 -70l-23 23l70 70q-73 78 -73 184q0 103 68 179l-65 65l23 24l66 -66q77 69 180 69q104 0 183 -72l69 69l24 -24l-70 -69q64 -75 64 -175zM113 333q0 -100 70.5 -171t169.5 -71
q100 0 170 70.5t70 171.5q0 99 -70 169.5t-170 70.5q-99 0 -169.5 -70.5t-70.5 -169.5z" />
    <glyph glyph-name="yen" unicode="&#xa5;" horiz-adv-x="603" 
d="M566 666l-232 -353h178v-28h-194v-122h194v-28h-194v-135h-32v135h-193v28h193v122h-193v28h176l-233 353h38l228 -347l228 347h36z" />
    <glyph glyph-name="brokenbar" unicode="&#xa6;" horiz-adv-x="245" 
d="M107 421v305h32v-305h-32zM107 -103v311h32v-311h-32z" />
    <glyph glyph-name="section" unicode="&#xa7;" horiz-adv-x="510" 
d="M394 96q42 -37 42 -90q0 -73 -55.5 -113t-139.5 -40q-100 0 -164 40v31l2 1q65 -42 161 -42q70 0 115.5 31t45.5 91q0 12 -2.5 23t-9 20.5t-11.5 17t-18 16.5t-20.5 14.5t-25.5 14.5t-26.5 13.5t-31 15t-31.5 14.5q-88 43 -128.5 79t-40.5 91q0 70 64 115q-44 38 -44 93
q0 72 54.5 111t137.5 39q98 0 160 -38v-32h-2q-62 40 -155 40q-69 0 -115 -30.5t-46 -89.5q0 -12 2.5 -23t9 -21.5t12 -18t18 -16.5t20.5 -14.5t25.5 -14.5t26.5 -13.5t30.5 -14.5t31.5 -15q87 -41 128.5 -78t41.5 -92q0 -70 -62 -115zM88 328q0 -45 37 -76.5t121 -71.5
q99 -47 131 -70q47 36 47 96q0 46 -36.5 77t-121.5 72q-108 54 -129 70q-49 -37 -49 -97z" />
    <glyph glyph-name="dieresis" unicode="&#xa8;" horiz-adv-x="256" 
d="M44 636q-12 0 -20 8.5t-8 20.5q0 11 8 19t20 8q11 0 19.5 -8t8.5 -19q0 -12 -8.5 -20.5t-19.5 -8.5zM214 636q-11 0 -19.5 8.5t-8.5 20.5q0 11 8.5 19t19.5 8q12 0 20.5 -8t8.5 -19q0 -12 -8.5 -20.5t-20.5 -8.5z" />
    <glyph glyph-name="copyright" unicode="&#xa9;" horiz-adv-x="698" 
d="M349 -9q-125 0 -207 82.5t-82 210.5t82 210t207 82t207 -82t82 -210t-82 -210.5t-207 -82.5zM348 15q115 0 189 75t74 194q0 118 -74.5 193t-188.5 75q-112 0 -186.5 -75t-74.5 -193t74.5 -193.5t186.5 -75.5zM359 132q-71 0 -114 40.5t-43 107.5q0 69 43.5 110.5
t113.5 41.5q51 0 89 -16v-27l-2 -1q-41 18 -84 18q-59 0 -94.5 -34t-35.5 -90t34.5 -89.5t95.5 -33.5q50 0 89 22l1 -1v-26q-42 -22 -93 -22z" />
    <glyph glyph-name="ordfeminine" unicode="&#xaa;" horiz-adv-x="469" 
d="M416 382h2v-25q-12 -11 -39 -11q-48 0 -48 60v10q-27 -35 -68.5 -55t-87.5 -20q-51 0 -84.5 27.5t-33.5 77.5q0 57 42.5 84.5t103.5 27.5q83 0 127 -20v43q0 61 -37 92.5t-98 31.5q-66 0 -104 -27l-2 1v25q33 27 110 27q74 0 116.5 -37.5t42.5 -111.5v-162q0 -48 30 -48
q17 0 28 10zM181 366q42 0 84 21.5t65 59.5v66q-45 20 -123 20q-52 0 -86 -20.5t-34 -64.5q0 -40 26.5 -61t67.5 -21z" />
    <glyph glyph-name="guillemotleft" unicode="&#xab;" horiz-adv-x="524" 
d="M224 87l-181 185l182 183h38v-6l-175 -177l174 -180v-5h-38zM419 87l-181 185l182 183h38v-6l-175 -177l174 -180v-5h-38z" />
    <glyph glyph-name="registered" unicode="&#xae;" horiz-adv-x="629" 
d="M315 717q107 0 177.5 -70.5t70.5 -180.5t-70.5 -180.5t-177.5 -70.5q-108 0 -179 70.5t-71 180.5t71 180.5t179 70.5zM315 237q97 0 159.5 64t62.5 165t-63 165t-159 64q-97 0 -160.5 -64t-63.5 -165t63.5 -165t160.5 -64zM406 517q0 -56 -48 -74l69 -94h-31l-66 89
q-4 -1 -14 -1h-64v-88h-26v245q26 2 88 2q92 0 92 -79zM252 461h76q24 0 37.5 14.5t13.5 40.5q0 55 -65 55q-54 0 -62 -1v-109z" />
    <glyph glyph-name="macron" unicode="&#xaf;" horiz-adv-x="341" 
d="M28 628v28h267v-28h-267z" />
    <glyph glyph-name="degree" unicode="&#xb0;" horiz-adv-x="343" 
d="M172 449q-48 0 -80 31.5t-32 78.5t32 79t80 32t79 -31.5t31 -79.5q0 -47 -31 -78.5t-79 -31.5zM172 472q37 0 61 25t24 62t-24 62.5t-61 25.5q-38 0 -62 -25.5t-24 -62.5t24 -62t62 -25z" />
    <glyph glyph-name="plusminus" unicode="&#xb1;" horiz-adv-x="521" 
d="M442 281h-167v-164h166v-29h-361v29h166v164h-167v29h167v182h29v-182h167v-29z" />
    <glyph glyph-name="acute" unicode="&#xb4;" horiz-adv-x="222" 
d="M36 566l-13 18l149 135l25 -25l-2 -7z" />
    <glyph glyph-name="paragraph" unicode="&#xb6;" horiz-adv-x="553" 
d="M504 600v-31h-66v-679h-17v679h-74v-679h-33v342q-144 -1 -211.5 43t-66.5 144q2 181 253 181h215z" />
    <glyph glyph-name="periodcentered" unicode="&#xb7;" horiz-adv-x="211" 
d="M105 217q-27 0 -27 26q0 12 7.5 19.5t19.5 7.5q13 0 20.5 -8t7.5 -19t-7.5 -18.5t-20.5 -7.5z" />
    <glyph glyph-name="cedilla" unicode="&#xb8;" horiz-adv-x="194" 
d="M70 -221q-34 0 -59 11v24l2 1q20 -10 53 -10q78 0 78 63q0 53 -56 53q-31 0 -52 -10l-1 2v21l38 66h26l-34 -59q18 4 33 4q35 0 56.5 -19t21.5 -57q0 -45 -29.5 -67.5t-76.5 -22.5z" />
    <glyph glyph-name="ordmasculine" unicode="&#xba;" horiz-adv-x="501" 
d="M250 332q-83 0 -139 55.5t-56 149.5q0 93 55.5 149t139.5 56t140 -55t56 -149t-55.5 -150t-140.5 -56zM250 359q72 0 118.5 48.5t46.5 130.5q0 81 -46.5 129t-118.5 48q-71 0 -117.5 -48t-46.5 -129q0 -82 46.5 -130.5t117.5 -48.5z" />
    <glyph glyph-name="guillemotright" unicode="&#xbb;" horiz-adv-x="525" 
d="M106 454l181 -185l-182 -183h-38v6l175 177l-174 180v5h38zM301 454l181 -185l-182 -183h-38v6l175 177l-174 180v5h38z" />
    <glyph glyph-name="onequarter" unicode="&#xbc;" horiz-adv-x="732" 
d="M115 300v329l-90 -42v33l116 52h4v-372h-30zM546 660h32l-447 -672h-32zM699 107v-22h-74v-85h-28v85h-212v11l220 282h20v-271h74zM421 107h176v224z" />
    <glyph glyph-name="onehalf" unicode="&#xbd;" horiz-adv-x="723" 
d="M131 300v329l-90 -42v33l116 52h4v-372h-30zM65 -12l447 672h32l-447 -672h-32zM425 0q-2 32 27.5 73.5t81.5 79.5q56 42 78.5 68t22.5 53q0 32 -24.5 52.5t-66.5 20.5q-67 0 -111 -44l-1 1v28q46 42 115 42q53 0 85.5 -26.5t32.5 -70.5q0 -35 -24.5 -65.5t-79.5 -72.5
q-91 -69 -95 -113h218v-26h-259z" />
    <glyph glyph-name="threequarters" unicode="&#xbe;" horiz-adv-x="773" 
d="M288 401q0 -49 -36.5 -79t-93.5 -30q-72 0 -117 32v28h1q43 -35 113 -35q45 0 74.5 23t29.5 62q0 41 -27.5 61.5t-69.5 20.5h-40v22h38q34 0 58 19t24 52q0 34 -24.5 52.5t-67.5 18.5q-56 0 -95 -29h-1v27q39 28 99 28q54 0 86.5 -24t32.5 -68q0 -59 -59 -85
q75 -23 75 -96zM608 660h32l-447 -672h-32zM738 107v-22h-73v-85h-29v85h-212v11l220 282h21v-271h73zM461 107h175v224z" />
    <glyph glyph-name="questiondown" unicode="&#xbf;" horiz-adv-x="411" 
d="M239 528q12 0 19.5 -8t7.5 -19q0 -12 -7.5 -19.5t-19.5 -7.5t-19.5 7.5t-7.5 19.5q0 11 7.5 19t19.5 8zM257 349q0 -64 -17 -105t-67 -80q-30 -23 -46 -39.5t-30 -49t-14 -73.5q0 -56 37.5 -93.5t100.5 -37.5q89 0 146 59h1v-34q-49 -56 -150 -56q-76 0 -122.5 44
t-46.5 115q0 66 27 106.5t82 85.5q67 52 67 157z" />
    <glyph glyph-name="Agrave" unicode="&#xc0;" horiz-adv-x="626" 
d="M388 702l-181 91l-3 7l16 27l176 -105zM574 0l-96 220h-331l-92 -220h-35l286 674h10l294 -674h-36zM159 249h307l-149 342l-7 18l-7 -18z" />
    <glyph glyph-name="Aacute" unicode="&#xc1;" horiz-adv-x="626" 
d="M403 793l-180 -91l-9 20l176 105l16 -27zM574 0l-96 220h-331l-92 -220h-35l286 674h10l294 -674h-36zM159 249h307l-149 342l-7 18l-7 -18z" />
    <glyph glyph-name="Acircumflex" unicode="&#xc2;" horiz-adv-x="626" 
d="M307 794l-112 -94l-14 18l119 109h16l122 -109l-14 -18zM574 0l-96 220h-331l-92 -220h-35l286 674h10l294 -674h-36zM159 249h307l-149 342l-7 18l-7 -18z" />
    <glyph glyph-name="Atilde" unicode="&#xc3;" horiz-adv-x="626" 
d="M199 722l-2 -1l-25 6q1 32 21 52.5t49 20.5q26 0 71 -21t64 -21t32 12.5t13 35.5l1 1l25 -6q-1 -34 -20.5 -54t-48.5 -20q-23 0 -68 21.5t-67 21.5q-19 0 -32 -12.5t-13 -35.5zM574 0l-96 220h-331l-92 -220h-35l286 674h10l294 -674h-36zM159 249h307l-149 342l-7 18
l-7 -18z" />
    <glyph glyph-name="Adieresis" unicode="&#xc4;" horiz-adv-x="626" 
d="M218 742q-11 0 -19 8t-8 19t8 18.5t19 7.5t19 -7.5t8 -18.5t-8 -19t-19 -8zM404 742q-11 0 -18.5 8t-7.5 19t8 18.5t18 7.5q11 0 19 -7.5t8 -18.5t-8 -19t-19 -8zM574 0l-96 220h-331l-92 -220h-35l286 674h10l294 -674h-36zM159 249h307l-149 342l-7 18l-7 -18z" />
    <glyph glyph-name="Aring" unicode="&#xc5;" horiz-adv-x="626" 
d="M310 679q-33 0 -55 21.5t-22 53.5q0 33 21.5 54.5t55.5 21.5t55.5 -21.5t21.5 -54.5q0 -32 -21.5 -53.5t-55.5 -21.5zM310 808q-23 0 -38 -15.5t-15 -38.5q0 -22 15 -37.5t38 -15.5q24 0 39 15.5t15 37.5q0 23 -15 38.5t-39 15.5zM574 0l-96 220h-331l-92 -220h-35
l286 674h10l294 -674h-36zM159 249h307l-149 342l-7 18l-7 -18z" />
    <glyph glyph-name="AE" unicode="&#xc6;" horiz-adv-x="808" 
d="M456 30h301v-30h-336v231h-246l-149 -231h-37l426 660h327v-30h-286v-272h267v-30h-267v-298zM192 258h229v360l-33 -55z" />
    <glyph glyph-name="Ccedilla" unicode="&#xc7;" horiz-adv-x="648" 
d="M411 638q-142 0 -228.5 -85.5t-86.5 -226.5q0 -138 83.5 -221.5t229.5 -84.5q102 0 194 49l3 -1v-31q-88 -46 -188 -49l-27 -47q18 4 33 4q35 0 56.5 -19t21.5 -57q0 -45 -29.5 -67.5t-76.5 -22.5q-34 0 -59 11v24l2 1q20 -10 53 -10q78 0 78 63q0 53 -56 53
q-31 0 -52 -10l-1 2v21l31 54q-152 5 -241.5 97t-89.5 240q0 154 96 249t251 95q110 0 198 -43v-33l-3 -1q-82 46 -192 46z" />
    <glyph glyph-name="Egrave" unicode="&#xc8;" horiz-adv-x="543" 
d="M380 702l-181 91l-3 7l16 27l176 -105zM144 32h348v-32h-382v660h367v-32h-333v-269h314v-32h-314v-295z" />
    <glyph glyph-name="Eacute" unicode="&#xc9;" horiz-adv-x="543" 
d="M395 793l-180 -91l-9 20l176 105l16 -27zM144 32h348v-32h-382v660h367v-32h-333v-269h314v-32h-314v-295z" />
    <glyph glyph-name="Ecircumflex" unicode="&#xca;" horiz-adv-x="543" 
d="M299 794l-112 -94l-14 18l119 109h16l122 -109l-14 -18zM144 32h348v-32h-382v660h367v-32h-333v-269h314v-32h-314v-295z" />
    <glyph glyph-name="Edieresis" unicode="&#xcb;" horiz-adv-x="543" 
d="M210 742q-11 0 -19 8t-8 19t8 18.5t19 7.5t19 -7.5t8 -18.5t-8 -19t-19 -8zM396 742q-11 0 -18.5 8t-7.5 19t8 18.5t18 7.5q11 0 19 -7.5t8 -18.5t-8 -19t-19 -8zM144 32h348v-32h-382v660h367v-32h-333v-269h314v-32h-314v-295z" />
    <glyph glyph-name="Igrave" unicode="&#xcc;" horiz-adv-x="254" 
d="M205 702l-181 91l-3 7l16 27l176 -105zM110 0v660h34v-660h-34z" />
    <glyph glyph-name="Iacute" unicode="&#xcd;" horiz-adv-x="254" 
d="M40 702l-9 20l176 105l16 -27l-3 -7zM110 0v660h34v-660h-34z" />
    <glyph glyph-name="Icircumflex" unicode="&#xce;" horiz-adv-x="254" 
d="M12 700l-14 18l119 109h16l122 -109l-14 -18l-117 94zM110 0v660h34v-660h-34z" />
    <glyph glyph-name="Idieresis" unicode="&#xcf;" horiz-adv-x="254" 
d="M35 742q-11 0 -19 8t-8 19t8 18.5t19 7.5t19 -7.5t8 -18.5t-8 -19t-19 -8zM221 742q-11 0 -18.5 8t-7.5 19t7.5 18.5t18.5 7.5t19 -7.5t8 -18.5t-8 -19t-19 -8zM110 0v660h34v-660h-34z" />
    <glyph glyph-name="Eth" unicode="&#xd0;" horiz-adv-x="735" 
d="M300 668q187 0 280.5 -89t93.5 -244q0 -161 -95.5 -248.5t-275.5 -87.5q-138 0 -190 4v313h-91v27h91v317q96 8 187 8zM307 30q163 1 247 79.5t84 224.5q0 140 -85.5 221t-253.5 81q-92 0 -152 -6v-287h117v-27h-117v-282q43 -4 160 -4z" />
    <glyph glyph-name="Ntilde" unicode="&#xd1;" horiz-adv-x="738" 
d="M261 721l-25 6q1 32 21 52.5t49 20.5q26 0 71 -21t64 -21t32 12.5t13 35.5l1 1l25 -6q-1 -34 -20.5 -54t-48.5 -20q-23 0 -68 21.5t-67 21.5q-19 0 -32 -12.5t-13 -35.5zM110 0v666h13l470 -595h2v589h33v-668h-10l-473 597h-2v-589h-33z" />
    <glyph glyph-name="Ograve" unicode="&#xd2;" horiz-adv-x="792" 
d="M474 702l-181 91l-3 7l16 27l176 -105zM396 -15q-144 0 -239.5 92.5t-95.5 251.5q0 158 95 251t240 93q144 0 239.5 -92.5t95.5 -251.5q0 -157 -95 -250.5t-240 -93.5zM396 16q131 0 215 84.5t84 228.5t-84 228.5t-215 84.5t-215 -84.5t-84 -228.5t84 -228.5t215 -84.5z
" />
    <glyph glyph-name="Oacute" unicode="&#xd3;" horiz-adv-x="792" 
d="M309 702l-9 20l176 105l16 -27l-3 -7zM396 -15q-144 0 -239.5 92.5t-95.5 251.5q0 158 95 251t240 93q144 0 239.5 -92.5t95.5 -251.5q0 -157 -95 -250.5t-240 -93.5zM396 16q131 0 215 84.5t84 228.5t-84 228.5t-215 84.5t-215 -84.5t-84 -228.5t84 -228.5t215 -84.5z
" />
    <glyph glyph-name="Ocircumflex" unicode="&#xd4;" horiz-adv-x="792" 
d="M281 700l-14 18l119 109h16l122 -109l-14 -18l-117 94zM396 -15q-144 0 -239.5 92.5t-95.5 251.5q0 158 95 251t240 93q144 0 239.5 -92.5t95.5 -251.5q0 -157 -95 -250.5t-240 -93.5zM396 16q131 0 215 84.5t84 228.5t-84 228.5t-215 84.5t-215 -84.5t-84 -228.5
t84 -228.5t215 -84.5z" />
    <glyph glyph-name="Otilde" unicode="&#xd5;" horiz-adv-x="792" 
d="M283 721l-25 6q1 32 21 52.5t49 20.5q26 0 71 -21t64 -21t32 12.5t13 35.5l1 1l25 -6q-1 -34 -20.5 -54t-48.5 -20q-23 0 -68 21.5t-67 21.5q-19 0 -32 -12.5t-13 -35.5zM396 -15q-144 0 -239.5 92.5t-95.5 251.5q0 158 95 251t240 93q144 0 239.5 -92.5t95.5 -251.5
q0 -157 -95 -250.5t-240 -93.5zM396 16q131 0 215 84.5t84 228.5t-84 228.5t-215 84.5t-215 -84.5t-84 -228.5t84 -228.5t215 -84.5z" />
    <glyph glyph-name="Odieresis" unicode="&#xd6;" horiz-adv-x="792" 
d="M304 742q-11 0 -19 8t-8 19t8 18.5t19 7.5t19 -7.5t8 -18.5t-8 -19t-19 -8zM490 742q-11 0 -18.5 8t-7.5 19t8 18.5t18 7.5q11 0 19 -7.5t8 -18.5t-8 -19t-19 -8zM396 -15q-144 0 -239.5 92.5t-95.5 251.5q0 158 95 251t240 93q144 0 239.5 -92.5t95.5 -251.5
q0 -157 -95 -250.5t-240 -93.5zM396 16q131 0 215 84.5t84 228.5t-84 228.5t-215 84.5t-215 -84.5t-84 -228.5t84 -228.5t215 -84.5z" />
    <glyph glyph-name="multiply" unicode="&#xd7;" horiz-adv-x="500" 
d="M424 444l-153 -153l153 -154l-20 -20l-154 153l-153 -153l-21 20l154 154l-154 153l21 21l153 -154l154 154z" />
    <glyph glyph-name="Oslash" unicode="&#xd8;" horiz-adv-x="792" 
d="M732 677v-4l-91 -99q90 -93 90 -245q0 -157 -95 -250.5t-240 -93.5q-134 0 -224 79l-75 -82h-36v5l89 97q-89 94 -89 245q0 158 95 251t240 93q134 0 225 -79l76 83h35zM97 329q0 -136 76 -220l425 461q-80 72 -202 72q-131 0 -215 -84.5t-84 -228.5zM695 329
q0 134 -76 221l-425 -462q81 -72 202 -72q131 0 215 84.5t84 228.5z" />
    <glyph glyph-name="Ugrave" unicode="&#xd9;" horiz-adv-x="710" 
d="M433 702l-181 91l-3 7l16 27l176 -105zM355 -15q-121 0 -188 68.5t-67 194.5v412h34v-408q0 -114 58 -174.5t163 -60.5t163 60.5t58 174.5v408h34v-412q0 -126 -67 -194.5t-188 -68.5z" />
    <glyph glyph-name="Uacute" unicode="&#xda;" horiz-adv-x="710" 
d="M268 702l-9 20l176 105l16 -27l-3 -7zM355 -15q-121 0 -188 68.5t-67 194.5v412h34v-408q0 -114 58 -174.5t163 -60.5t163 60.5t58 174.5v408h34v-412q0 -126 -67 -194.5t-188 -68.5z" />
    <glyph glyph-name="Ucircumflex" unicode="&#xdb;" horiz-adv-x="710" 
d="M240 700l-14 18l119 109h16l122 -109l-14 -18l-117 94zM355 -15q-121 0 -188 68.5t-67 194.5v412h34v-408q0 -114 58 -174.5t163 -60.5t163 60.5t58 174.5v408h34v-412q0 -126 -67 -194.5t-188 -68.5z" />
    <glyph glyph-name="Udieresis" unicode="&#xdc;" horiz-adv-x="710" 
d="M263 742q-11 0 -19 8t-8 19t8 18.5t19 7.5t19 -7.5t8 -18.5t-8 -19t-19 -8zM449 742q-11 0 -18.5 8t-7.5 19t7.5 18.5t18.5 7.5t19 -7.5t8 -18.5t-8 -19t-19 -8zM355 -15q-121 0 -188 68.5t-67 194.5v412h34v-408q0 -114 58 -174.5t163 -60.5t163 60.5t58 174.5v408h34
v-412q0 -126 -67 -194.5t-188 -68.5z" />
    <glyph glyph-name="Yacute" unicode="&#xdd;" horiz-adv-x="574" 
d="M200 702l-9 20l176 105l16 -27l-3 -7zM270 0v284l-247 374l1 2h35l229 -344l227 344h34l1 -2l-246 -374v-284h-34z" />
    <glyph glyph-name="Thorn" unicode="&#xde;" horiz-adv-x="540" 
d="M485 339q1 -95 -61.5 -147.5t-182.5 -52.5q-60 0 -97 4v-143h-34v660h34v-138q48 6 105 6q119 0 177 -50.5t59 -138.5zM238 169q105 0 159 43.5t54 123.5q0 75 -50 118t-155 43q-64 0 -102 -5v-318q47 -5 94 -5z" />
    <glyph glyph-name="germandbls" unicode="&#xdf;" horiz-adv-x="600" 
d="M455 266q58 -32 82.5 -61.5t24.5 -84.5q0 -62 -43.5 -97t-109.5 -35q-82 0 -129 39v34l2 1q51 -43 125 -43q52 0 86.5 26t34.5 73q0 45 -21.5 69t-76.5 54q-36 18 -55 30t-35 35t-16 53q0 33 17.5 60t38 42.5t38 43.5t17.5 62q0 54 -43.5 84t-101.5 30q-74 0 -118 -41.5
t-44 -126.5v-513h-35v516q0 98 53.5 147.5t142.5 49.5q73 0 126.5 -37.5t53.5 -107.5q0 -40 -17 -70t-37.5 -45.5t-37.5 -38.5t-17 -50q0 -32 23 -52.5t72 -45.5z" />
    <glyph glyph-name="agrave" unicode="&#xe0;" horiz-adv-x="617" 
d="M367 566l-160 121l-1 7l25 25l149 -135zM593 42l2 -1v-31q-19 -17 -49 -17q-70 0 -70 81v17q-62 -102 -192 -102q-102 0 -164 66.5t-62 190.5q0 126 72 203.5t186 77.5q101 0 160 -57l4 46h28v-425q0 -36 10.5 -51t36.5 -15q21 0 38 17zM290 20q62 0 109 30t75 82v303
q-58 61 -158 61q-96 0 -159 -68.5t-63 -179.5t54.5 -169.5t141.5 -58.5z" />
    <glyph glyph-name="aacute" unicode="&#xe1;" horiz-adv-x="617" 
d="M403 687l-159 -121l-13 18l149 135l25 -25zM593 42l2 -1v-31q-19 -17 -49 -17q-70 0 -70 81v17q-62 -102 -192 -102q-102 0 -164 66.5t-62 190.5q0 126 72 203.5t186 77.5q101 0 160 -57l4 46h28v-425q0 -36 10.5 -51t36.5 -15q21 0 38 17zM290 20q62 0 109 30t75 82v303
q-58 61 -158 61q-96 0 -159 -68.5t-63 -179.5t54.5 -169.5t141.5 -58.5z" />
    <glyph glyph-name="acircumflex" unicode="&#xe2;" horiz-adv-x="617" 
d="M307 678l-104 -110l-16 16l113 130h16l115 -130l-16 -16zM593 42l2 -1v-31q-19 -17 -49 -17q-70 0 -70 81v17q-62 -102 -192 -102q-102 0 -164 66.5t-62 190.5q0 126 72 203.5t186 77.5q101 0 160 -57l4 46h28v-425q0 -36 10.5 -51t36.5 -15q21 0 38 17zM290 20
q62 0 109 30t75 82v303q-58 61 -158 61q-96 0 -159 -68.5t-63 -179.5t54.5 -169.5t141.5 -58.5z" />
    <glyph glyph-name="atilde" unicode="&#xe3;" horiz-adv-x="617" 
d="M189 609l-1 -2l-25 5q0 33 19.5 53.5t48.5 20.5q30 0 80.5 -21.5t72.5 -21.5q19 0 32 12t13 35l1 2l25 -5q0 -34 -19.5 -54t-49.5 -20q-27 0 -77 21.5t-75 21.5q-19 0 -32 -12.5t-13 -34.5zM593 42l2 -1v-31q-19 -17 -49 -17q-70 0 -70 81v17q-62 -102 -192 -102
q-102 0 -164 66.5t-62 190.5q0 126 72 203.5t186 77.5q101 0 160 -57l4 46h28v-425q0 -36 10.5 -51t36.5 -15q21 0 38 17zM290 20q62 0 109 30t75 82v303q-58 61 -158 61q-96 0 -159 -68.5t-63 -179.5t54.5 -169.5t141.5 -58.5z" />
    <glyph glyph-name="adieresis" unicode="&#xe4;" horiz-adv-x="617" 
d="M224 636q-12 0 -20 8.5t-8 20.5q0 11 8 19t20 8q11 0 19.5 -8t8.5 -19q0 -12 -8.5 -20.5t-19.5 -8.5zM394 636q-11 0 -19.5 8.5t-8.5 20.5q0 11 8.5 19t19.5 8q12 0 20.5 -8t8.5 -19q0 -12 -8.5 -20.5t-20.5 -8.5zM593 42l2 -1v-31q-19 -17 -49 -17q-70 0 -70 81v17
q-62 -102 -192 -102q-102 0 -164 66.5t-62 190.5q0 126 72 203.5t186 77.5q101 0 160 -57l4 46h28v-425q0 -36 10.5 -51t36.5 -15q21 0 38 17zM290 20q62 0 109 30t75 82v303q-58 61 -158 61q-96 0 -159 -68.5t-63 -179.5t54.5 -169.5t141.5 -58.5z" />
    <glyph glyph-name="aring" unicode="&#xe5;" horiz-adv-x="617" 
d="M308 567q-34 0 -56 22.5t-22 54.5q0 33 22 55t56 22q35 0 56.5 -22t21.5 -55t-21.5 -55t-56.5 -22zM308 699q-24 0 -39 -16t-15 -39t15 -39t39 -16t39.5 16t15.5 39t-15.5 39t-39.5 16zM593 42l2 -1v-31q-19 -17 -49 -17q-70 0 -70 81v17q-62 -102 -192 -102
q-102 0 -164 66.5t-62 190.5q0 126 72 203.5t186 77.5q101 0 160 -57l4 46h28v-425q0 -36 10.5 -51t36.5 -15q21 0 38 17zM290 20q62 0 109 30t75 82v303q-58 61 -158 61q-96 0 -159 -68.5t-63 -179.5t54.5 -169.5t141.5 -58.5z" />
    <glyph glyph-name="ae" unicode="&#xe6;" horiz-adv-x="908" 
d="M636 527q102 0 160 -68t58 -186v-19h-414q1 -113 63.5 -174t159.5 -61q92 0 162 46l3 -1v-32q-74 -45 -167 -45q-76 0 -136 34t-91 99q-34 -61 -93.5 -96t-137.5 -35q-67 0 -112.5 35.5t-45.5 103.5q0 33 13 58.5t38.5 42t56.5 27.5t74.5 16.5t84 8t93.5 2.5v38
q0 87 -46.5 131.5t-125.5 44.5q-94 0 -143 -37l-3 2v28q47 37 150 37q76 0 127 -35t66 -105q28 66 83 103t123 37zM441 283h378q-2 101 -50 158t-133 57q-80 0 -134.5 -57.5t-60.5 -157.5zM206 19q72 0 128.5 34t87.5 97q-16 50 -16 104q-75 0 -125 -4.5t-100.5 -16.5
t-75.5 -38t-25 -66q0 -53 37 -81.5t89 -28.5z" />
    <glyph glyph-name="ccedilla" unicode="&#xe7;" horiz-adv-x="503" 
d="M461 23q-58 -33 -130 -34l-28 -48q18 4 33 4q35 0 56.5 -19t21.5 -57q0 -45 -29.5 -67.5t-76.5 -22.5q-34 0 -59 11v24l2 1q20 -10 53 -10q78 0 78 63q0 53 -56 53q-31 0 -52 -10l-1 2v21l32 55q-113 6 -180.5 79.5t-67.5 190.5q0 120 75 194.5t191 74.5q78 0 134 -23
v-29l-2 -2q-56 23 -129 23q-103 0 -168.5 -65.5t-65.5 -170.5q0 -109 63 -174.5t170 -66.5q73 0 133 35l3 -2v-30z" />
    <glyph glyph-name="egrave" unicode="&#xe8;" horiz-adv-x="569" 
d="M352 566l-160 121l-1 7l25 25l149 -135zM297 527q104 0 162.5 -67t58.5 -183v-18h-425q0 -116 65.5 -178.5t168.5 -62.5q89 0 163 45l2 -1v-30q-73 -45 -170 -45q-115 0 -190 70t-75 202q0 121 68.5 194.5t171.5 73.5zM297 497q-82 0 -138.5 -55.5t-64.5 -152.5h390
q-3 96 -52 152t-135 56z" />
    <glyph glyph-name="eacute" unicode="&#xe9;" horiz-adv-x="569" 
d="M388 687l-159 -121l-13 18l149 135l25 -25zM297 527q104 0 162.5 -67t58.5 -183v-18h-425q0 -116 65.5 -178.5t168.5 -62.5q89 0 163 45l2 -1v-30q-73 -45 -170 -45q-115 0 -190 70t-75 202q0 121 68.5 194.5t171.5 73.5zM297 497q-82 0 -138.5 -55.5t-64.5 -152.5h390
q-3 96 -52 152t-135 56z" />
    <glyph glyph-name="ecircumflex" unicode="&#xea;" horiz-adv-x="569" 
d="M292 678l-104 -110l-16 16l113 130h16l115 -130l-16 -16zM297 527q104 0 162.5 -67t58.5 -183v-18h-425q0 -116 65.5 -178.5t168.5 -62.5q89 0 163 45l2 -1v-30q-73 -45 -170 -45q-115 0 -190 70t-75 202q0 121 68.5 194.5t171.5 73.5zM297 497q-82 0 -138.5 -55.5
t-64.5 -152.5h390q-3 96 -52 152t-135 56z" />
    <glyph glyph-name="edieresis" unicode="&#xeb;" horiz-adv-x="569" 
d="M209 636q-12 0 -20 8.5t-8 20.5q0 11 8 19t20 8q11 0 19.5 -8t8.5 -19q0 -12 -8.5 -20.5t-19.5 -8.5zM379 636q-11 0 -19.5 8.5t-8.5 20.5q0 11 8.5 19t19.5 8q12 0 20.5 -8t8.5 -19q0 -12 -8.5 -20.5t-20.5 -8.5zM297 527q104 0 162.5 -67t58.5 -183v-18h-425
q0 -116 65.5 -178.5t168.5 -62.5q89 0 163 45l2 -1v-30q-73 -45 -170 -45q-115 0 -190 70t-75 202q0 121 68.5 194.5t171.5 73.5zM297 497q-82 0 -138.5 -55.5t-64.5 -152.5h390q-3 96 -52 152t-135 56z" />
    <glyph glyph-name="igrave" unicode="&#xec;" horiz-adv-x="221" 
d="M170 566l-160 121l-1 7l25 25l149 -135zM93 0v516h35v-516h-35z" />
    <glyph glyph-name="iacute" unicode="&#xed;" horiz-adv-x="221" 
d="M47 566l-13 18l149 135l25 -25l-2 -7zM93 0v516h35v-516h-35z" />
    <glyph glyph-name="icircumflex" unicode="&#xee;" horiz-adv-x="221" 
d="M6 568l-16 16l113 130h16l115 -130l-16 -16l-108 110zM93 0v516h35v-516h-35z" />
    <glyph glyph-name="idieresis" unicode="&#xef;" horiz-adv-x="221" 
d="M31 637q-11 0 -19.5 8.5t-8.5 20.5q0 11 8.5 19t19.5 8q12 0 20.5 -8t8.5 -19q0 -13 -8.5 -21t-20.5 -8zM178 637q-11 0 -19 8t-8 21q0 11 8 19t19 8q12 0 20.5 -8t8.5 -19q0 -13 -8.5 -21t-20.5 -8zM93 0v516h35v-516h-35z" />
    <glyph glyph-name="eth" unicode="&#xf0;" horiz-adv-x="637" 
d="M397 693q168 -83 168 -386q0 -153 -69 -236.5t-193 -83.5q-105 0 -175 69t-70 182q0 110 69 179t178 69q149 0 222 -112q-19 234 -154 295l-92 -92l-19 20l82 82q-33 10 -74 10q-82 0 -144 -28l-2 1v30q63 28 147 28q55 0 98 -15l81 81l20 -20zM304 18q106 0 166 73
t60 210v15q-18 50 -75.5 94.5t-145.5 44.5q-97 0 -156 -60t-59 -157t60.5 -158.5t149.5 -61.5z" />
    <glyph glyph-name="ntilde" unicode="&#xf1;" horiz-adv-x="605" 
d="M178 609l-1 -2l-25 5q0 33 19.5 53.5t48.5 20.5q30 0 80.5 -21.5t72.5 -21.5q19 0 32 12t13 35l1 2l25 -5q0 -34 -19.5 -54t-49.5 -20q-27 0 -77 21.5t-75 21.5q-19 0 -32 -12.5t-13 -34.5zM316 527q89 0 146.5 -57.5t57.5 -178.5v-291h-35v285q0 107 -49.5 158
t-126.5 51q-61 0 -109.5 -35t-71.5 -94v-365h-35v516h29l5 -98q26 49 75.5 79t113.5 30z" />
    <glyph glyph-name="ograve" unicode="&#xf2;" horiz-adv-x="628" 
d="M374 566l-160 121l-1 7l25 25l149 -135zM313 -13q-111 0 -183.5 73t-72.5 199q0 123 73 195.5t183 72.5q112 0 185.5 -72t73.5 -197q0 -124 -74 -197.5t-185 -73.5zM313 18q97 0 160 65.5t63 175.5q0 109 -62.5 173t-160.5 64q-97 0 -159 -64t-62 -173q0 -110 62 -175.5
t159 -65.5z" />
    <glyph glyph-name="oacute" unicode="&#xf3;" horiz-adv-x="628" 
d="M251 566l-13 18l149 135l25 -25l-2 -7zM313 -13q-111 0 -183.5 73t-72.5 199q0 123 73 195.5t183 72.5q112 0 185.5 -72t73.5 -197q0 -124 -74 -197.5t-185 -73.5zM313 18q97 0 160 65.5t63 175.5q0 109 -62.5 173t-160.5 64q-97 0 -159 -64t-62 -173q0 -110 62 -175.5
t159 -65.5z" />
    <glyph glyph-name="ocircumflex" unicode="&#xf4;" horiz-adv-x="628" 
d="M210 568l-16 16l113 130h16l115 -130l-16 -16l-108 110zM313 -13q-111 0 -183.5 73t-72.5 199q0 123 73 195.5t183 72.5q112 0 185.5 -72t73.5 -197q0 -124 -74 -197.5t-185 -73.5zM313 18q97 0 160 65.5t63 175.5q0 109 -62.5 173t-160.5 64q-97 0 -159 -64t-62 -173
q0 -110 62 -175.5t159 -65.5z" />
    <glyph glyph-name="otilde" unicode="&#xf5;" horiz-adv-x="628" 
d="M195 607l-25 5q0 33 19.5 53.5t48.5 20.5q30 0 80.5 -21.5t72.5 -21.5q19 0 32 12t13 35l1 2l25 -5q0 -34 -19.5 -54t-49.5 -20q-27 0 -77 21.5t-75 21.5q-19 0 -32 -12.5t-13 -34.5zM313 -13q-111 0 -183.5 73t-72.5 199q0 123 73 195.5t183 72.5q112 0 185.5 -72
t73.5 -197q0 -124 -74 -197.5t-185 -73.5zM313 18q97 0 160 65.5t63 175.5q0 109 -62.5 173t-160.5 64q-97 0 -159 -64t-62 -173q0 -110 62 -175.5t159 -65.5z" />
    <glyph glyph-name="odieresis" unicode="&#xf6;" horiz-adv-x="628" 
d="M231 636q-12 0 -20 8.5t-8 20.5q0 11 8 19t20 8q11 0 19.5 -8t8.5 -19q0 -12 -8.5 -20.5t-19.5 -8.5zM401 636q-11 0 -19.5 8.5t-8.5 20.5q0 11 8.5 19t19.5 8q12 0 20.5 -8t8.5 -19q0 -12 -8.5 -20.5t-20.5 -8.5zM313 -13q-111 0 -183.5 73t-72.5 199q0 123 73 195.5
t183 72.5q112 0 185.5 -72t73.5 -197q0 -124 -74 -197.5t-185 -73.5zM313 18q97 0 160 65.5t63 175.5q0 109 -62.5 173t-160.5 64q-97 0 -159 -64t-62 -173q0 -110 62 -175.5t159 -65.5z" />
    <glyph glyph-name="divide" unicode="&#xf7;" horiz-adv-x="519" 
d="M260 411q-13 0 -21.5 8.5t-8.5 20.5t8.5 20t21.5 8t21 -8t8 -20t-8 -20.5t-21 -8.5zM77 280v29h365v-29h-365zM260 114q-13 0 -21.5 8t-8.5 20t8.5 20.5t21.5 8.5t21 -8.5t8 -20.5t-8 -20t-21 -8z" />
    <glyph glyph-name="oslash" unicode="&#xf8;" horiz-adv-x="630" 
d="M501 453q72 -74 72 -195q0 -124 -74 -197.5t-185 -73.5q-97 0 -165 56l-49 -56h-33v4l61 71q-70 77 -70 197q0 123 73 195.5t183 72.5q98 0 167 -55l48 56h34v-4zM93 259q0 -103 58 -171l308 359q-60 49 -145 49q-97 0 -159 -64t-62 -173zM314 18q97 0 160 65.5t63 175.5
q0 104 -58 168l-309 -358q60 -51 144 -51z" />
    <glyph glyph-name="ugrave" unicode="&#xf9;" horiz-adv-x="589" 
d="M353 566l-160 121l-1 7l25 25l149 -135zM461 516h35v-516h-29l-5 86q-25 -44 -72 -70.5t-111 -26.5q-89 0 -140.5 53t-51.5 162v312h34v-307q0 -96 44.5 -142.5t120.5 -46.5q59 0 105.5 30.5t69.5 84.5v381z" />
    <glyph glyph-name="uacute" unicode="&#xfa;" horiz-adv-x="589" 
d="M389 687l-159 -121l-13 18l149 135l25 -25zM461 516h35v-516h-29l-5 86q-25 -44 -72 -70.5t-111 -26.5q-89 0 -140.5 53t-51.5 162v312h34v-307q0 -96 44.5 -142.5t120.5 -46.5q59 0 105.5 30.5t69.5 84.5v381z" />
    <glyph glyph-name="ucircumflex" unicode="&#xfb;" horiz-adv-x="589" 
d="M293 678l-104 -110l-16 16l113 130h16l115 -130l-16 -16zM461 516h35v-516h-29l-5 86q-25 -44 -72 -70.5t-111 -26.5q-89 0 -140.5 53t-51.5 162v312h34v-307q0 -96 44.5 -142.5t120.5 -46.5q59 0 105.5 30.5t69.5 84.5v381z" />
    <glyph glyph-name="udieresis" unicode="&#xfc;" horiz-adv-x="589" 
d="M210 636q-12 0 -20 8.5t-8 20.5q0 11 8 19t20 8q11 0 19.5 -8t8.5 -19q0 -12 -8.5 -20.5t-19.5 -8.5zM380 636q-11 0 -19.5 8.5t-8.5 20.5q0 11 8.5 19t19.5 8q12 0 20.5 -8t8.5 -19q0 -12 -8.5 -20.5t-20.5 -8.5zM461 516h35v-516h-29l-5 86q-25 -44 -72 -70.5
t-111 -26.5q-89 0 -140.5 53t-51.5 162v312h34v-307q0 -96 44.5 -142.5t120.5 -46.5q59 0 105.5 30.5t69.5 84.5v381z" />
    <glyph glyph-name="yacute" unicode="&#xfd;" horiz-adv-x="510" 
d="M355 687l-159 -121l-13 18l149 135l25 -25zM485 516l1 -2l-221 -519l-68 -156h-36l-1 3l78 166l-212 506l1 2h37l192 -470l195 470h34z" />
    <glyph glyph-name="thorn" unicode="&#xfe;" horiz-adv-x="603" 
d="M321 527q99 0 161.5 -69t62.5 -188q0 -133 -70 -207t-179 -74q-105 0 -168 49v-202h-35v874h35v-282q61 99 193 99zM295 20q95 0 154.5 64.5t59.5 183.5q0 105 -55 166.5t-140 61.5q-63 0 -111 -30t-75 -83v-309q62 -54 167 -54z" />
    <glyph glyph-name="ydieresis" unicode="&#xff;" horiz-adv-x="510" 
d="M176 636q-12 0 -20 8.5t-8 20.5q0 11 8 19t20 8q11 0 19.5 -8t8.5 -19q0 -12 -8.5 -20.5t-19.5 -8.5zM346 636q-11 0 -19.5 8.5t-8.5 20.5q0 11 8.5 19t19.5 8q12 0 20.5 -8t8.5 -19q0 -12 -8.5 -20.5t-20.5 -8.5zM485 516l1 -2l-221 -519l-68 -156h-36l-1 3l78 166
l-212 506l1 2h37l192 -470l195 470h34z" />
    <glyph glyph-name="Amacron" unicode="&#x100;" horiz-adv-x="626" 
d="M438 783v-30h-258v30h258zM574 0l-96 220h-331l-92 -220h-35l286 674h10l294 -674h-36zM159 249h307l-149 342l-7 18l-7 -18z" />
    <glyph glyph-name="amacron" unicode="&#x101;" horiz-adv-x="617" 
d="M441 656v-28h-267v28h267zM593 42l2 -1v-31q-19 -17 -49 -17q-70 0 -70 81v17q-62 -102 -192 -102q-102 0 -164 66.5t-62 190.5q0 126 72 203.5t186 77.5q101 0 160 -57l4 46h28v-425q0 -36 10.5 -51t36.5 -15q21 0 38 17zM290 20q62 0 109 30t75 82v303q-58 61 -158 61
q-96 0 -159 -68.5t-63 -179.5t54.5 -169.5t141.5 -58.5z" />
    <glyph glyph-name="Abreve" unicode="&#x102;" horiz-adv-x="626" 
d="M310 704q-54 0 -87.5 31.5t-33.5 85.5l23 3q4 -42 30.5 -67t67.5 -25q43 0 71 25t29 67l21 -3q0 -54 -34 -85.5t-87 -31.5zM574 0l-96 220h-331l-92 -220h-35l286 674h10l294 -674h-36zM159 249h307l-149 342l-7 18l-7 -18z" />
    <glyph glyph-name="abreve" unicode="&#x103;" horiz-adv-x="617" 
d="M308 578q-54 0 -87.5 34t-33.5 92l24 3l1 -1q2 -45 29 -72t67 -27q42 0 69 26.5t28 71.5l1 2l23 -3q0 -58 -34 -92t-87 -34zM593 42l2 -1v-31q-19 -17 -49 -17q-70 0 -70 81v17q-62 -102 -192 -102q-102 0 -164 66.5t-62 190.5q0 126 72 203.5t186 77.5q101 0 160 -57
l4 46h28v-425q0 -36 10.5 -51t36.5 -15q21 0 38 17zM290 20q62 0 109 30t75 82v303q-58 61 -158 61q-96 0 -159 -68.5t-63 -179.5t54.5 -169.5t141.5 -58.5z" />
    <glyph glyph-name="Aogonek" unicode="&#x104;" horiz-adv-x="626" 
d="M605 0q-101 -67 -101 -136q0 -55 62 -55q18 0 30 4l3 -2v-23q-17 -7 -40 -7q-44 0 -67 20.5t-23 56.5q0 77 104 144l-95 218h-331l-92 -220h-35l286 674h10l294 -674h-5zM159 249h307l-149 342l-7 18l-7 -18z" />
    <glyph glyph-name="aogonek" unicode="&#x105;" horiz-adv-x="617" 
d="M581 1q-101 -67 -101 -136q0 -55 62 -55q18 0 30 4l3 -2v-23q-17 -7 -40 -7q-44 0 -67 20.5t-23 56.5q0 72 90 135q-59 5 -59 80v17q-62 -102 -192 -102q-102 0 -164 66.5t-62 190.5q0 126 72 203.5t186 77.5q101 0 160 -57l4 46h28v-425q0 -36 10.5 -51t36.5 -15
q21 0 38 17l2 -1v-31q-6 -6 -14 -9zM290 20q62 0 109 30t75 82v303q-58 61 -158 61q-96 0 -159 -68.5t-63 -179.5t54.5 -169.5t141.5 -58.5z" />
    <glyph glyph-name="Cacute" unicode="&#x106;" horiz-adv-x="648" 
d="M298 702l-9 20l176 105l16 -27l-3 -7zM405 -12q-158 1 -251 93.5t-93 243.5q0 154 96 249t251 95q110 0 198 -43v-33l-3 -1q-82 46 -192 46q-142 0 -228.5 -85.5t-86.5 -226.5q0 -138 83.5 -221.5t229.5 -84.5q102 0 194 49l3 -1v-31q-92 -49 -201 -49z" />
    <glyph glyph-name="cacute" unicode="&#x107;" horiz-adv-x="503" 
d="M240 568l-13 18l149 135l25 -25l-2 -7zM322 -11q-119 0 -192 74t-73 196q0 120 75 194.5t191 74.5q78 0 134 -23v-29l-2 -2q-56 23 -129 23q-103 0 -168.5 -65.5t-65.5 -170.5q0 -109 63 -174.5t170 -66.5q73 0 133 35l3 -2v-30q-61 -34 -139 -34z" />
    <glyph glyph-name="Cdotaccent" unicode="&#x10a;" horiz-adv-x="648" 
d="M384 742q-11 0 -19.5 8t-8.5 20q0 11 8.5 19.5t19.5 8.5t19.5 -8.5t8.5 -19.5q0 -12 -8.5 -20t-19.5 -8zM405 -12q-158 1 -251 93.5t-93 243.5q0 154 96 249t251 95q110 0 198 -43v-33l-3 -1q-82 46 -192 46q-142 0 -228.5 -85.5t-86.5 -226.5q0 -138 83.5 -221.5
t229.5 -84.5q102 0 194 49l3 -1v-31q-92 -49 -201 -49z" />
    <glyph glyph-name="cdotaccent" unicode="&#x10b;" horiz-adv-x="503" 
d="M304 638q-12 0 -20.5 9t-8.5 21q0 11 9 19.5t20 8.5q12 0 20.5 -8.5t8.5 -19.5q0 -13 -8.5 -21.5t-20.5 -8.5zM322 -11q-119 0 -192 74t-73 196q0 120 75 194.5t191 74.5q78 0 134 -23v-29l-2 -2q-56 23 -129 23q-103 0 -168.5 -65.5t-65.5 -170.5q0 -109 63 -174.5
t170 -66.5q73 0 133 35l3 -2v-30q-61 -34 -139 -34z" />
    <glyph glyph-name="Ccaron" unicode="&#x10c;" horiz-adv-x="648" 
d="M378 701l-122 109l14 17l117 -94l112 94l14 -17l-119 -109h-16zM405 -12q-158 1 -251 93.5t-93 243.5q0 154 96 249t251 95q110 0 198 -43v-33l-3 -1q-82 46 -192 46q-142 0 -228.5 -85.5t-86.5 -226.5q0 -138 83.5 -221.5t229.5 -84.5q102 0 194 49l3 -1v-31
q-92 -49 -201 -49z" />
    <glyph glyph-name="ccaron" unicode="&#x10d;" horiz-adv-x="503" 
d="M298 571l-115 131l16 14l108 -109l104 109l16 -14l-113 -131h-16zM322 -11q-119 0 -192 74t-73 196q0 120 75 194.5t191 74.5q78 0 134 -23v-29l-2 -2q-56 23 -129 23q-103 0 -168.5 -65.5t-65.5 -170.5q0 -109 63 -174.5t170 -66.5q73 0 133 35l3 -2v-30
q-61 -34 -139 -34z" />
    <glyph glyph-name="Dcaron" unicode="&#x10e;" horiz-adv-x="732" 
d="M336 701h-16l-122 109l14 17l117 -94l112 94l14 -17zM297 668q187 0 280.5 -89t93.5 -244q0 -161 -95.5 -248.5t-275.5 -87.5q-138 0 -190 4v657q96 8 187 8zM304 30q163 1 247 79.5t84 224.5q0 140 -85.5 221t-253.5 81q-92 0 -152 -6v-596q43 -4 160 -4z" />
    <glyph glyph-name="dcaron" unicode="&#x10f;" horiz-adv-x="631" 
d="M627 714l6 -7l-19 -189h-22l9 196h26zM556 25q21 0 38 18l2 -1v-31q-20 -18 -49 -18q-39 0 -54.5 20.5t-15.5 60.5v17q-60 -102 -192 -102q-101 0 -164 68t-63 193q0 124 71.5 200.5t184.5 76.5q101 0 161 -53v236h35v-619q0 -36 10.5 -51t35.5 -15zM291 20
q124 0 184 111v306q-61 59 -159 59q-97 0 -159.5 -67.5t-62.5 -177.5q0 -111 55.5 -171t141.5 -60z" />
    <glyph glyph-name="Dcroat" unicode="&#x110;" horiz-adv-x="735" 
d="M300 668q187 0 280.5 -89t93.5 -244q0 -161 -95.5 -248.5t-275.5 -87.5q-138 0 -190 4v313h-91v27h91v317q96 8 187 8zM307 30q163 1 247 79.5t84 224.5q0 140 -85.5 221t-253.5 81q-92 0 -152 -6v-287h117v-27h-117v-282q43 -4 160 -4z" />
    <glyph glyph-name="dcroat" unicode="&#x111;" horiz-adv-x="624" 
d="M510 597v-506q0 -36 10.5 -51t35.5 -15q21 0 38 18l2 -1v-31q-20 -18 -49 -18q-39 0 -54.5 20.5t-15.5 60.5v17q-60 -102 -192 -102q-101 0 -164 68t-63 193q0 124 71.5 200.5t184.5 76.5q101 0 161 -53v123h-111v27h111v86h35v-86h96v-27h-96zM475 131v306
q-61 59 -159 59q-97 0 -159.5 -67.5t-62.5 -177.5q0 -111 55.5 -171t141.5 -60q124 0 184 111z" />
    <glyph glyph-name="Emacron" unicode="&#x112;" horiz-adv-x="543" 
d="M430 783v-30h-258v30h258zM144 32h348v-32h-382v660h367v-32h-333v-269h314v-32h-314v-295z" />
    <glyph glyph-name="emacron" unicode="&#x113;" horiz-adv-x="569" 
d="M426 656v-28h-267v28h267zM297 527q104 0 162.5 -67t58.5 -183v-18h-425q0 -116 65.5 -178.5t168.5 -62.5q89 0 163 45l2 -1v-30q-73 -45 -170 -45q-115 0 -190 70t-75 202q0 121 68.5 194.5t171.5 73.5zM297 497q-82 0 -138.5 -55.5t-64.5 -152.5h390q-3 96 -52 152
t-135 56z" />
    <glyph glyph-name="Edotaccent" unicode="&#x116;" horiz-adv-x="543" 
d="M301 742q-11 0 -19.5 8t-8.5 20q0 11 8.5 19.5t19.5 8.5t19.5 -8.5t8.5 -19.5q0 -12 -8.5 -20t-19.5 -8zM144 32h348v-32h-382v660h367v-32h-333v-269h314v-32h-314v-295z" />
    <glyph glyph-name="edotaccent" unicode="&#x117;" horiz-adv-x="569" 
d="M293 636q-11 0 -20 9t-9 21q0 11 9 19.5t20 8.5q12 0 20.5 -8.5t8.5 -19.5q0 -13 -8.5 -21.5t-20.5 -8.5zM297 527q104 0 162.5 -67t58.5 -183v-18h-425q0 -116 65.5 -178.5t168.5 -62.5q89 0 163 45l2 -1v-30q-73 -45 -170 -45q-115 0 -190 70t-75 202q0 121 68.5 194.5
t171.5 73.5zM297 497q-82 0 -138.5 -55.5t-64.5 -152.5h390q-3 96 -52 152t-135 56z" />
    <glyph glyph-name="Eogonek" unicode="&#x118;" horiz-adv-x="543" 
d="M492 0q-101 -67 -101 -136q0 -55 62 -55q18 0 30 4l3 -2v-23q-17 -7 -40 -7q-44 0 -67 20.5t-23 56.5q0 77 101 142h-347v660h367v-32h-333v-269h314v-32h-314v-295h348v-32z" />
    <glyph glyph-name="eogonek" unicode="&#x119;" horiz-adv-x="569" 
d="M297 527q104 0 162.5 -67t58.5 -183v-18h-425q0 -116 65.5 -178.5t168.5 -62.5q89 0 163 45l2 -1v-30q-34 -21 -68 -31h1q-101 -67 -101 -136q0 -55 62 -55q18 0 30 4l3 -2v-23q-17 -7 -40 -7q-44 0 -67 20.5t-23 56.5q0 71 85 131q-26 -3 -52 -3q-115 0 -190 70t-75 202
q0 121 68.5 194.5t171.5 73.5zM297 497q-82 0 -138.5 -55.5t-64.5 -152.5h390q-3 96 -52 152t-135 56z" />
    <glyph glyph-name="Ecaron" unicode="&#x11a;" horiz-adv-x="543" 
d="M311 701h-16l-122 109l14 17l117 -94l112 94l14 -17zM144 32h348v-32h-382v660h367v-32h-333v-269h314v-32h-314v-295z" />
    <glyph glyph-name="ecaron" unicode="&#x11b;" horiz-adv-x="569" 
d="M303 569h-16l-115 131l16 14l108 -109l104 109l16 -14zM297 527q104 0 162.5 -67t58.5 -183v-18h-425q0 -116 65.5 -178.5t168.5 -62.5q89 0 163 45l2 -1v-30q-73 -45 -170 -45q-115 0 -190 70t-75 202q0 121 68.5 194.5t171.5 73.5zM297 497q-82 0 -138.5 -55.5
t-64.5 -152.5h390q-3 96 -52 152t-135 56z" />
    <glyph glyph-name="Gbreve" unicode="&#x11e;" horiz-adv-x="704" 
d="M390 704q-54 0 -87.5 31.5t-33.5 85.5l23 3q4 -42 30.5 -67t67.5 -25q43 0 71 25t29 67l21 -3q0 -54 -34 -85.5t-87 -31.5zM391 -10q-158 0 -244 92t-86 247q0 149 95 244.5t250 95.5q115 0 203 -41v-33l-2 -1q-50 24 -94.5 33.5t-107.5 9.5q-140 0 -224 -86t-84 -222
q0 -140 76 -223.5t219 -83.5q126 0 215 53v226h32v-247q-104 -64 -248 -64z" />
    <glyph glyph-name="gbreve" unicode="&#x11f;" horiz-adv-x="601" 
d="M303 578q-54 0 -87.5 34t-33.5 92l24 3l1 -1q2 -45 29 -72t67 -27q42 0 69 26.5t28 71.5l1 2l23 -3q0 -58 -34 -92t-87 -34zM482 518h26v-475q0 -102 -59.5 -156.5t-174.5 -54.5q-110 0 -180 49v36l2 1q67 -54 177 -54q200 0 200 179v65q-62 -97 -190 -97
q-100 0 -162.5 66t-62.5 184q0 121 72 193.5t182 72.5q104 0 165 -56zM473 154v284q-58 58 -159 58q-97 0 -159 -63.5t-62 -169.5q0 -104 55 -162.5t141 -58.5q125 0 184 112z" />
    <glyph glyph-name="Gdotaccent" unicode="&#x120;" horiz-adv-x="704" 
d="M389 742q-11 0 -19.5 8t-8.5 20q0 11 8.5 19.5t19.5 8.5t19.5 -8.5t8.5 -19.5q0 -12 -8.5 -20t-19.5 -8zM391 -10q-158 0 -244 92t-86 247q0 149 95 244.5t250 95.5q115 0 203 -41v-33l-2 -1q-50 24 -94.5 33.5t-107.5 9.5q-140 0 -224 -86t-84 -222q0 -140 76 -223.5
t219 -83.5q126 0 215 53v226h32v-247q-104 -64 -248 -64z" />
    <glyph glyph-name="gdotaccent" unicode="&#x121;" horiz-adv-x="601" 
d="M303 636q-11 0 -20 9t-9 21q0 11 9 19.5t20 8.5q12 0 20.5 -8.5t8.5 -19.5q0 -13 -8.5 -21.5t-20.5 -8.5zM482 518h26v-475q0 -102 -59.5 -156.5t-174.5 -54.5q-110 0 -180 49v36l2 1q67 -54 177 -54q200 0 200 179v65q-62 -97 -190 -97q-100 0 -162.5 66t-62.5 184
q0 121 72 193.5t182 72.5q104 0 165 -56zM473 154v284q-58 58 -159 58q-97 0 -159 -63.5t-62 -169.5q0 -104 55 -162.5t141 -58.5q125 0 184 112z" />
    <glyph glyph-name="Gcommaaccent" unicode="&#x122;" horiz-adv-x="704" 
d="M391 -10q-158 0 -244 92t-86 247q0 149 95 244.5t250 95.5q115 0 203 -41v-33l-2 -1q-50 24 -94.5 33.5t-107.5 9.5q-140 0 -224 -86t-84 -222q0 -140 76 -223.5t219 -83.5q126 0 215 53v226h32v-247q-104 -64 -248 -64zM353 -213q20 64 20 132q0 4 -0.5 14t-0.5 15l33 3
l4 -5q0 -81 -33 -159h-23z" />
    <glyph glyph-name="gcommaaccent" unicode="&#x123;" horiz-adv-x="601" 
d="M329 568l-33 -3l-4 5q0 81 33 159h23q-20 -64 -20 -132q0 -4 0.5 -14t0.5 -15zM482 518h26v-475q0 -102 -59.5 -156.5t-174.5 -54.5q-110 0 -180 49v36l2 1q67 -54 177 -54q200 0 200 179v65q-62 -97 -190 -97q-100 0 -162.5 66t-62.5 184q0 121 72 193.5t182 72.5
q104 0 165 -56zM473 154v284q-58 58 -159 58q-97 0 -159 -63.5t-62 -169.5q0 -104 55 -162.5t141 -58.5q125 0 184 112z" />
    <glyph glyph-name="Hbar" unicode="&#x126;" horiz-adv-x="750" 
d="M714 514v-28h-79v-486h-34v322h-452v-322h-35v486h-78v28h78v146h35v-146h452v146h34v-146h79zM601 353v133h-452v-133h452z" />
    <glyph glyph-name="hbar" unicode="&#x127;" horiz-adv-x="604" 
d="M313 527q93 0 149 -55.5t56 -171.5v-300h-34v294q0 103 -48.5 151.5t-128.5 48.5q-61 0 -108 -32.5t-71 -93.5v-368h-35v597h-88v27h88v86h35v-86h119v-27h-119v-177q24 48 72.5 77.5t112.5 29.5z" />
    <glyph glyph-name="Itilde" unicode="&#x128;" horiz-adv-x="254" 
d="M14 721l-25 6q1 32 21 52.5t49 20.5q26 0 71 -21t64 -21t32 12.5t13 35.5l1 1l25 -6q-1 -34 -20.5 -54t-48.5 -20q-23 0 -68 21.5t-67 21.5q-19 0 -32 -12.5t-13 -35.5zM110 0v660h34v-660h-34z" />
    <glyph glyph-name="itilde" unicode="&#x129;" horiz-adv-x="221" 
d="M-9 607l-25 5q0 33 19.5 53.5t48.5 20.5q30 0 80.5 -21.5t72.5 -21.5q19 0 32 12t13 35l1 2l25 -5q0 -34 -19.5 -54t-49.5 -20q-27 0 -77 21.5t-75 21.5q-19 0 -32 -12.5t-13 -34.5zM93 0v516h35v-516h-35z" />
    <glyph glyph-name="Imacron" unicode="&#x12a;" horiz-adv-x="254" 
d="M23 753v31h206v-31h-206zM110 0v660h34v-660h-34z" />
    <glyph glyph-name="imacron" unicode="&#x12b;" horiz-adv-x="221" 
d="M1 628v28h220v-28h-220zM93 0v516h35v-516h-35z" />
    <glyph glyph-name="Iogonek" unicode="&#x12e;" horiz-adv-x="254" 
d="M141 0q-99 -67 -99 -135q0 -55 62 -55q18 0 30 4l3 -2v-23q-17 -7 -40 -7q-44 0 -67 20.5t-23 56.5q0 77 103 144v657h34v-660h-3z" />
    <glyph glyph-name="iogonek" unicode="&#x12f;" horiz-adv-x="221" 
d="M111 694q12 0 20.5 -8.5t8.5 -19.5q0 -13 -8.5 -21.5t-20.5 -8.5q-11 0 -20 9t-9 21q0 11 9 19.5t20 8.5zM93 2v514h35v-516h-2q-101 -67 -101 -136q0 -55 62 -55q18 0 30 4l3 -2v-23q-17 -7 -40 -7q-44 0 -67 20.5t-23 56.5q0 77 103 144z" />
    <glyph glyph-name="Idotaccent" unicode="&#x130;" horiz-adv-x="254" 
d="M126 742q-11 0 -19.5 8t-8.5 20q0 11 8.5 19.5t19.5 8.5t19.5 -8.5t8.5 -19.5q0 -12 -8.5 -20t-19.5 -8zM110 0v660h34v-660h-34z" />
    <glyph glyph-name="dotlessi" unicode="&#x131;" horiz-adv-x="221" 
d="M93 0v516h35v-516h-35z" />
    <glyph glyph-name="IJ" unicode="&#x132;" horiz-adv-x="594" 
d="M110 0v660h34v-660h-34zM315 -3q-21 0 -47 3v30l2 1q16 -3 42 -3q73 0 109.5 44.5t36.5 123.5v464h34v-464q0 -96 -44.5 -147.5t-132.5 -51.5z" />
    <glyph glyph-name="ij" unicode="&#x133;" horiz-adv-x="455" 
d="M111 636q-12 0 -20.5 8.5t-8.5 21.5q0 11 8.5 19.5t20.5 8.5t20.5 -8.5t8.5 -19.5q0 -13 -8.5 -21.5t-20.5 -8.5zM344 636q-11 0 -19.5 8.5t-8.5 21.5q0 11 8.5 19.5t19.5 8.5q12 0 21 -8.5t9 -19.5q0 -13 -9 -21.5t-21 -8.5zM93 10v506h35v-506h-35zM202 -168
q-46 0 -88 14v31l2 1q42 -14 85 -14q69 0 97.5 43t28.5 141v468h34v-474q0 -111 -38.5 -160.5t-120.5 -49.5z" />
    <glyph glyph-name="Kcommaaccent" unicode="&#x136;" horiz-adv-x="587" 
d="M178 337l404 -335l-1 -2h-46l-391 323v-323h-34v660h34v-315l375 315h43l1 -2zM287 -52l33 3l4 -5q0 -81 -33 -159h-23q20 64 20 132q0 4 -0.5 14t-0.5 15z" />
    <glyph glyph-name="kcommaaccent" unicode="&#x137;" horiz-adv-x="493" 
d="M163 268l313 -266l-1 -2h-45l-302 255v-255h-35v710h35v-433l292 239h43l1 -2zM245 -52l33 3l4 -5q0 -81 -33 -159h-23q20 64 20 132q0 4 -0.5 14t-0.5 15z" />
    <glyph glyph-name="kgreenlandic" unicode="&#x138;" horiz-adv-x="493" 
d="M163 268l313 -266l-1 -2h-46l-301 255v-255h-35v516h35v-239l292 239h43l1 -2z" />
    <glyph glyph-name="Lacute" unicode="&#x139;" horiz-adv-x="497" 
d="M232 800l-3 -7l-180 -91l-9 20l176 105zM144 30h339v-30h-373v660h34v-630z" />
    <glyph glyph-name="lacute" unicode="&#x13a;" horiz-adv-x="243" 
d="M21 743l-9 20l176 105l16 -27l-3 -7zM178 -8q-87 0 -87 89v629h34v-615q0 -38 13.5 -54.5t45.5 -16.5q20 0 40 14l2 -1v-31q-20 -14 -48 -14z" />
    <glyph glyph-name="Lcommaaccent" unicode="&#x13b;" horiz-adv-x="497" 
d="M144 30h339v-30h-373v660h34v-630zM286 -52l33 3l4 -5q0 -81 -33 -159h-23q20 64 20 132q0 4 -0.5 14t-0.5 15z" />
    <glyph glyph-name="lcommaaccent" unicode="&#x13c;" horiz-adv-x="243" 
d="M178 -8q-87 0 -87 89v629h34v-615q0 -38 13.5 -54.5t45.5 -16.5q20 0 40 14l2 -1v-31q-20 -14 -48 -14zM122 -213q20 64 20 132q0 4 -0.5 14t-0.5 15l33 3l4 -5q0 -81 -33 -159h-23z" />
    <glyph glyph-name="Lcaron" unicode="&#x13d;" horiz-adv-x="499" 
d="M381 676l-19 -189h-22l8 196h27zM144 30h339v-30h-373v660h34v-630z" />
    <glyph glyph-name="lcaron" unicode="&#x13e;" horiz-adv-x="246" 
d="M197 518l9 196h27l6 -7l-19 -189h-23zM178 -8q-87 0 -87 89v629h34v-615q0 -38 13.5 -54.5t45.5 -16.5q22 0 40 14l2 -1v-31q-20 -14 -48 -14z" />
    <glyph glyph-name="Ldot" unicode="&#x13f;" horiz-adv-x="501" 
d="M144 30h339v-30h-373v660h34v-630zM373 339q-12 0 -19.5 7.5t-7.5 18.5q0 12 7.5 19.5t19.5 7.5t19.5 -7.5t7.5 -19.5q0 -11 -7.5 -18.5t-19.5 -7.5z" />
    <glyph glyph-name="ldot" unicode="&#x140;" horiz-adv-x="264" 
d="M178 -8q-87 0 -87 89v629h34v-615q0 -38 13.5 -54.5t45.5 -16.5q22 0 40 14l2 -1v-31q-20 -14 -48 -14zM240 332q-12 0 -19.5 7.5t-7.5 18.5q0 12 7.5 19.5t19.5 7.5t20 -7.5t8 -19.5q0 -11 -8 -18.5t-20 -7.5z" />
    <glyph glyph-name="Lslash" unicode="&#x141;" horiz-adv-x="500" 
d="M147 30h339v-30h-373v304l-76 -47l-3 2v30l79 48v323h34v-302l78 48h3v-32l-81 -50v-294z" />
    <glyph glyph-name="lslash" unicode="&#x142;" horiz-adv-x="292" 
d="M252 38l2 -1v-31q-20 -14 -48 -14q-87 0 -87 89v252l-77 -47h-3v30l80 49v345h34v-324l77 47h3v-30l-80 -49v-259q0 -38 13.5 -54.5t45.5 -16.5q22 0 40 14z" />
    <glyph glyph-name="Nacute" unicode="&#x143;" horiz-adv-x="738" 
d="M287 702l-9 20l176 105l16 -27l-3 -7zM110 0v666h13l470 -595h2v589h33v-668h-10l-473 597h-2v-589h-33z" />
    <glyph glyph-name="nacute" unicode="&#x144;" horiz-adv-x="605" 
d="M392 687l-159 -121l-13 18l149 135l25 -25zM316 527q89 0 146.5 -57.5t57.5 -178.5v-291h-35v285q0 107 -49.5 158t-126.5 51q-61 0 -109.5 -35t-71.5 -94v-365h-35v516h29l5 -98q26 49 75.5 79t113.5 30z" />
    <glyph glyph-name="Ncommaaccent" unicode="&#x145;" horiz-adv-x="738" 
d="M110 0v666h13l470 -595h2v589h33v-668h-10l-473 597h-2v-589h-33zM334 -213q20 64 20 132q0 4 -0.5 14t-0.5 15l33 3l4 -5q0 -81 -33 -159h-23z" />
    <glyph glyph-name="ncommaaccent" unicode="&#x146;" horiz-adv-x="605" 
d="M316 527q89 0 146.5 -57.5t57.5 -178.5v-291h-35v285q0 107 -49.5 158t-126.5 51q-61 0 -109.5 -35t-71.5 -94v-365h-35v516h29l5 -98q26 49 75.5 79t113.5 30zM272 -52l33 3l4 -5q0 -81 -33 -159h-23q20 64 20 132q0 4 -0.5 14t-0.5 15z" />
    <glyph glyph-name="Ncaron" unicode="&#x147;" horiz-adv-x="738" 
d="M367 701l-122 109l14 17l117 -94l112 94l14 -17l-119 -109h-16zM110 0v666h13l470 -595h2v589h33v-668h-10l-473 597h-2v-589h-33z" />
    <glyph glyph-name="ncaron" unicode="&#x148;" horiz-adv-x="605" 
d="M307 569h-16l-115 131l16 14l108 -109l104 109l16 -14zM316 527q89 0 146.5 -57.5t57.5 -178.5v-291h-35v285q0 107 -49.5 158t-126.5 51q-61 0 -109.5 -35t-71.5 -94v-365h-35v516h29l5 -98q26 49 75.5 79t113.5 30z" />
    <glyph glyph-name="Eng" unicode="&#x14a;" horiz-adv-x="738" 
d="M595 660h33v-650q0 -97 -44.5 -148.5t-131.5 -51.5q-26 0 -47 4v29l1 1q18 -3 43 -3q73 0 109.5 45t36.5 124v10l-450 568h-2v-588h-33v666h13l470 -596h2v590z" />
    <glyph glyph-name="eng" unicode="&#x14b;" horiz-adv-x="603" 
d="M314 527q92 0 148 -57.5t56 -176.5v-303q0 -167 -143 -167q-19 0 -31 2v30l2 1q10 -3 24 -3q59 0 86 35t27 106v293q0 104 -48.5 155.5t-128.5 51.5q-59 0 -107 -34.5t-71 -93.5v-366h-35v516h29l5 -104q25 50 75 82.5t112 32.5z" />
    <glyph glyph-name="Omacron" unicode="&#x14c;" horiz-adv-x="792" 
d="M266 753v30h258v-30h-258zM396 -15q-144 0 -239.5 92.5t-95.5 251.5q0 158 95 251t240 93q144 0 239.5 -92.5t95.5 -251.5q0 -157 -95 -250.5t-240 -93.5zM396 16q131 0 215 84.5t84 228.5t-84 228.5t-215 84.5t-215 -84.5t-84 -228.5t84 -228.5t215 -84.5z" />
    <glyph glyph-name="omacron" unicode="&#x14d;" horiz-adv-x="628" 
d="M181 628v28h267v-28h-267zM313 -13q-111 0 -183.5 73t-72.5 199q0 123 73 195.5t183 72.5q112 0 185.5 -72t73.5 -197q0 -124 -74 -197.5t-185 -73.5zM313 18q97 0 160 65.5t63 175.5q0 109 -62.5 173t-160.5 64q-97 0 -159 -64t-62 -173q0 -110 62 -175.5t159 -65.5z
" />
    <glyph glyph-name="Ohungarumlaut" unicode="&#x150;" horiz-adv-x="792" 
d="M306 716l-19 10l68 133l29 -10v-7zM473 716l-19 11l69 132l28 -10l1 -7zM396 -15q-144 0 -239.5 92.5t-95.5 251.5q0 158 95 251t240 93q144 0 239.5 -92.5t95.5 -251.5q0 -157 -95 -250.5t-240 -93.5zM396 16q131 0 215 84.5t84 228.5t-84 228.5t-215 84.5t-215 -84.5
t-84 -228.5t84 -228.5t215 -84.5z" />
    <glyph glyph-name="ohungarumlaut" unicode="&#x151;" horiz-adv-x="628" 
d="M230 567l-18 11l94 145l26 -12l1 -7zM383 567l-18 11l95 145l25 -12l1 -7zM313 -13q-111 0 -183.5 73t-72.5 199q0 123 73 195.5t183 72.5q112 0 185.5 -72t73.5 -197q0 -124 -74 -197.5t-185 -73.5zM313 18q97 0 160 65.5t63 175.5q0 109 -62.5 173t-160.5 64
q-97 0 -159 -64t-62 -173q0 -110 62 -175.5t159 -65.5z" />
    <glyph glyph-name="OE" unicode="&#x152;" horiz-adv-x="920" 
d="M870 32v-32h-379q-48 -15 -102 -15q-140 0 -234 94t-94 253t93.5 253t234.5 94q50 0 98 -14h368v-32h-296q66 -40 105.5 -110t44.5 -163h125v-32h-124q-1 -101 -40.5 -177.5t-108.5 -118.5h309zM97 332q0 -145 82 -230.5t210 -85.5q40 0 76 9v614q-36 9 -76 9
q-128 0 -210 -85t-82 -231zM673 360q-6 99 -52.5 168.5t-121.5 99.5v-268h174zM499 36q80 32 127 108t48 184h-175v-292z" />
    <glyph glyph-name="oe" unicode="&#x153;" horiz-adv-x="1005" 
d="M742 527q99 0 155 -68t56 -186v-18h-404q1 -114 62.5 -175.5t158.5 -61.5q87 0 156 45l2 -1v-30q-71 -45 -161 -45q-84 0 -147.5 42.5t-88.5 124.5q-25 -79 -86.5 -123t-143.5 -44q-106 0 -175 73t-69 198q0 122 69.5 195.5t174.5 73.5q81 0 142.5 -43.5t86.5 -121.5
q25 78 81.5 121.5t130.5 43.5zM742 498q-79 0 -132 -57t-60 -157h370q-2 100 -49 157t-129 57zM302 18q93 0 152 65t59 176q0 109 -59 173t-152 64q-91 0 -150 -64.5t-59 -173.5q0 -110 59 -175t150 -65z" />
    <glyph glyph-name="Racute" unicode="&#x154;" horiz-adv-x="557" 
d="M365 793l-180 -91l-9 20l176 105l16 -27zM329 289l182 -287l-1 -2h-36l-179 283q-24 -2 -36 -2h-115v-281h-34v660q76 6 150 6q107 0 163 -49t56 -143q0 -74 -41.5 -121t-108.5 -64zM247 309q86 0 142 42t56 121q0 78 -45.5 120.5t-137.5 42.5q-38 0 -118 -4v-322h103z
" />
    <glyph glyph-name="racute" unicode="&#x155;" horiz-adv-x="361" 
d="M308 687l-159 -121l-13 18l149 135l25 -25zM279 527q40 0 66 -13v-31l-2 -1q-26 13 -63 13q-55 0 -94 -30.5t-58 -112.5v-352h-35v516h29l4 -95q40 106 153 106z" />
    <glyph glyph-name="Rcommaaccent" unicode="&#x156;" horiz-adv-x="557" 
d="M329 289l182 -287l-1 -2h-36l-179 283q-24 -2 -36 -2h-115v-281h-34v660q76 6 150 6q107 0 163 -49t56 -143q0 -74 -41.5 -121t-108.5 -64zM247 309q86 0 142 42t56 121q0 78 -45.5 120.5t-137.5 42.5q-38 0 -118 -4v-322h103zM272 -52l33 3l4 -5q0 -81 -33 -159h-23
q20 64 20 132q0 4 -0.5 14t-0.5 15z" />
    <glyph glyph-name="rcommaaccent" unicode="&#x157;" horiz-adv-x="361" 
d="M279 527q40 0 66 -13v-31l-2 -1q-26 13 -63 13q-55 0 -94 -30.5t-58 -112.5v-352h-35v516h29l4 -95q40 106 153 106zM93 -52l33 3l4 -5q0 -81 -33 -159h-23q20 64 20 132q0 4 -0.5 14t-0.5 15z" />
    <glyph glyph-name="Rcaron" unicode="&#x158;" horiz-adv-x="557" 
d="M281 701h-16l-122 109l14 17l117 -94l112 94l14 -17zM329 289l182 -287l-1 -2h-36l-179 283q-24 -2 -36 -2h-115v-281h-34v660q76 6 150 6q107 0 163 -49t56 -143q0 -74 -41.5 -121t-108.5 -64zM247 309q86 0 142 42t56 121q0 78 -45.5 120.5t-137.5 42.5q-38 0 -118 -4
v-322h103z" />
    <glyph glyph-name="rcaron" unicode="&#x159;" horiz-adv-x="361" 
d="M223 569h-16l-115 131l16 14l108 -109l104 109l16 -14zM279 527q40 0 66 -13v-31l-2 -1q-26 13 -63 13q-55 0 -94 -30.5t-58 -112.5v-352h-35v516h29l4 -95q40 106 153 106z" />
    <glyph glyph-name="Sacute" unicode="&#x15a;" horiz-adv-x="509" 
d="M178 705l-9 20l176 105l16 -27l-3 -7zM245 -15q-114 0 -193 53v37l3 1q80 -59 188 -59q79 0 126.5 38t47.5 100q0 68 -42.5 106.5t-125.5 71.5q-39 16 -66 30.5t-55 35.5t-42 49.5t-14 63.5q0 78 56.5 120.5t142.5 42.5q97 0 163 -37v-33l-2 -1q-63 40 -159 40
q-72 0 -119 -33t-47 -95q0 -55 42 -88t123 -66q87 -36 133.5 -80t46.5 -123t-57.5 -126.5t-149.5 -47.5z" />
    <glyph glyph-name="sacute" unicode="&#x15b;" horiz-adv-x="468" 
d="M170 568l-13 18l149 135l25 -25l-2 -7zM215 -12q-104 0 -165 41v35l2 1q65 -46 162 -46q79 0 125 28.5t46 83.5q0 50 -35 74.5t-120 45.5q-82 21 -125 50t-43 88q0 63 53 100.5t137 37.5q80 0 141 -26v-32l-3 -1q-63 28 -138 28q-69 0 -112.5 -28t-43.5 -77
q0 -45 38 -67.5t114 -41.5q91 -23 131.5 -54.5t40.5 -93.5q0 -71 -55.5 -108.5t-149.5 -37.5z" />
    <glyph glyph-name="Scedilla" unicode="&#x15e;" horiz-adv-x="509" 
d="M452 159q0 -75 -51.5 -121.5t-135.5 -51.5l-26 -45q18 4 33 4q35 0 56.5 -19t21.5 -57q0 -45 -29.5 -67.5t-76.5 -22.5q-34 0 -59 11v24l2 1q20 -10 53 -10q78 0 78 63q0 53 -56 53q-31 0 -52 -10l-1 2v21l29 51q-108 1 -186 53v37l3 1q80 -59 188 -59q79 0 126.5 38
t47.5 100q0 68 -42.5 106.5t-125.5 71.5q-39 16 -66 30.5t-55 35.5t-42 49.5t-14 63.5q0 78 56.5 120.5t142.5 42.5q97 0 163 -37v-33l-2 -1q-63 40 -159 40q-72 0 -119 -33t-47 -95q0 -55 42 -88t123 -66q87 -36 133.5 -80t46.5 -123z" />
    <glyph glyph-name="scedilla" unicode="&#x15f;" horiz-adv-x="468" 
d="M420 134q0 -65 -47 -102t-128 -43l-28 -48q18 4 33 4q35 0 56.5 -19t21.5 -57q0 -45 -29.5 -67.5t-76.5 -22.5q-34 0 -59 11v24l2 1q20 -10 53 -10q78 0 78 63q0 53 -56 53q-31 0 -52 -10l-1 2v21l31 54h-3q-104 0 -165 41v35l2 1q65 -46 162 -46q79 0 125 28.5t46 83.5
q0 50 -35 74.5t-120 45.5q-82 21 -125 50t-43 88q0 63 53 100.5t137 37.5q80 0 141 -26v-32l-3 -1q-63 28 -138 28q-69 0 -112.5 -28t-43.5 -77q0 -45 38 -67.5t114 -41.5q91 -23 131.5 -54.5t40.5 -93.5z" />
    <glyph glyph-name="Scaron" unicode="&#x160;" horiz-adv-x="509" 
d="M258 704l-122 109l14 17l117 -94l112 94l14 -17l-119 -109h-16zM245 -15q-114 0 -193 53v37l3 1q80 -59 188 -59q79 0 126.5 38t47.5 100q0 68 -42.5 106.5t-125.5 71.5q-39 16 -66 30.5t-55 35.5t-42 49.5t-14 63.5q0 78 56.5 120.5t142.5 42.5q97 0 163 -37v-33l-2 -1
q-63 40 -159 40q-72 0 -119 -33t-47 -95q0 -55 42 -88t123 -66q87 -36 133.5 -80t46.5 -123t-57.5 -126.5t-149.5 -47.5z" />
    <glyph glyph-name="scaron" unicode="&#x161;" horiz-adv-x="468" 
d="M228 571l-115 131l16 14l108 -109l104 109l16 -14l-113 -131h-16zM215 -12q-104 0 -165 41v35l2 1q65 -46 162 -46q79 0 125 28.5t46 83.5q0 50 -35 74.5t-120 45.5q-82 21 -125 50t-43 88q0 63 53 100.5t137 37.5q80 0 141 -26v-32l-3 -1q-63 28 -138 28
q-69 0 -112.5 -28t-43.5 -77q0 -45 38 -67.5t114 -41.5q91 -23 131.5 -54.5t40.5 -93.5q0 -71 -55.5 -108.5t-149.5 -37.5z" />
    <glyph glyph-name="uni0162" unicode="&#x162;" horiz-adv-x="535" 
d="M285 0h-3l-34 -59q18 4 33 4q35 0 56.5 -19t21.5 -57q0 -45 -29.5 -67.5t-76.5 -22.5q-34 0 -59 11v24l2 1q20 -10 53 -10q78 0 78 63q0 53 -56 53q-31 0 -52 -10l-1 2v21l38 66h-5v629h-235v31h502v-31h-233v-629z" />
    <glyph glyph-name="uni0163" unicode="&#x163;" horiz-adv-x="382" 
d="M276 -4h-3l-32 -55q18 4 33 4q35 0 56.5 -19t21.5 -57q0 -45 -29.5 -67.5t-76.5 -22.5q-34 0 -59 11v24l2 1q20 -10 53 -10q78 0 78 63q0 53 -56 53q-31 0 -52 -10l-1 2v21l37 64q-106 13 -106 135v353h-112v30h112v128l32 7l3 -1v-134h195v-30h-195v-348
q0 -111 105 -111q57 0 92 27l3 -1v-30q-40 -27 -101 -27z" />
    <glyph glyph-name="Tcaron" unicode="&#x164;" horiz-adv-x="535" 
d="M277 701h-16l-122 109l14 17l117 -94l112 94l14 -17zM518 660v-31h-233v-629h-34v629h-235v31h502z" />
    <glyph glyph-name="tcaron" unicode="&#x165;" horiz-adv-x="341" 
d="M303 773l-19 -160h-19l8 167h24zM374 54l3 -1v-30q-40 -27 -101 -27q-134 0 -134 137v353h-112v30h112v128l32 7l3 -1v-134h195v-30h-195v-348q0 -111 105 -111q57 0 92 27z" />
    <glyph glyph-name="Tbar" unicode="&#x166;" horiz-adv-x="542" 
d="M522 629h-233v-291h103v-27h-103v-311h-34v311h-105v27h105v291h-235v31h502v-31z" />
    <glyph glyph-name="tbar" unicode="&#x167;" horiz-adv-x="382" 
d="M374 54l3 -1v-30q-40 -27 -101 -27q-134 0 -134 137v146h-96v27h96v180h-112v30h112v128l32 7l3 -1v-134h195v-30h-195v-180h111v-27h-111v-141q0 -111 105 -111q57 0 92 27z" />
    <glyph glyph-name="Utilde" unicode="&#x168;" horiz-adv-x="710" 
d="M242 721l-25 6q1 32 21 52.5t49 20.5q26 0 71 -21t64 -21t32 12.5t13 35.5l1 1l25 -6q-1 -34 -20.5 -54t-48.5 -20q-23 0 -68 21.5t-67 21.5q-19 0 -32 -12.5t-13 -35.5zM355 -15q-121 0 -188 68.5t-67 194.5v412h34v-408q0 -114 58 -174.5t163 -60.5t163 60.5t58 174.5
v408h34v-412q0 -126 -67 -194.5t-188 -68.5z" />
    <glyph glyph-name="utilde" unicode="&#x169;" horiz-adv-x="589" 
d="M175 609l-1 -2l-25 5q0 33 19.5 53.5t48.5 20.5q30 0 80.5 -21.5t72.5 -21.5q19 0 32 12t13 35l1 2l25 -5q0 -34 -19.5 -54t-49.5 -20q-27 0 -77 21.5t-75 21.5q-19 0 -32 -12.5t-13 -34.5zM461 516h35v-516h-29l-5 86q-25 -44 -72 -70.5t-111 -26.5q-89 0 -140.5 53
t-51.5 162v312h34v-307q0 -96 44.5 -142.5t120.5 -46.5q59 0 105.5 30.5t69.5 84.5v381z" />
    <glyph glyph-name="Umacron" unicode="&#x16a;" horiz-adv-x="710" 
d="M225 753v30h258v-30h-258zM355 -15q-121 0 -188 68.5t-67 194.5v412h34v-408q0 -114 58 -174.5t163 -60.5t163 60.5t58 174.5v408h34v-412q0 -126 -67 -194.5t-188 -68.5z" />
    <glyph glyph-name="umacron" unicode="&#x16b;" horiz-adv-x="589" 
d="M427 656v-28h-267v28h267zM461 516h35v-516h-29l-5 86q-25 -44 -72 -70.5t-111 -26.5q-89 0 -140.5 53t-51.5 162v312h34v-307q0 -96 44.5 -142.5t120.5 -46.5q59 0 105.5 30.5t69.5 84.5v381z" />
    <glyph glyph-name="Uring" unicode="&#x16e;" horiz-adv-x="710" 
d="M355 679q-33 0 -55 21.5t-22 53.5q0 33 21.5 54.5t55.5 21.5t55.5 -21.5t21.5 -54.5q0 -32 -21.5 -53.5t-55.5 -21.5zM355 701q24 0 39 15.5t15 37.5q0 23 -15 38.5t-39 15.5q-23 0 -38 -15.5t-15 -38.5q0 -22 15 -37.5t38 -15.5zM355 -15q-121 0 -188 68.5t-67 194.5
v412h34v-408q0 -114 58 -174.5t163 -60.5t163 60.5t58 174.5v408h34v-412q0 -126 -67 -194.5t-188 -68.5z" />
    <glyph glyph-name="uring" unicode="&#x16f;" horiz-adv-x="589" 
d="M294 567q-34 0 -56 22.5t-22 54.5q0 33 22 55t56 22q35 0 56.5 -22t21.5 -55t-21.5 -55t-56.5 -22zM294 699q-24 0 -39 -16t-15 -39t15 -39t39 -16t39.5 16t15.5 39t-15.5 39t-39.5 16zM461 516h35v-516h-29l-5 86q-25 -44 -72 -70.5t-111 -26.5q-89 0 -140.5 53
t-51.5 162v312h34v-307q0 -96 44.5 -142.5t120.5 -46.5q59 0 105.5 30.5t69.5 84.5v381z" />
    <glyph glyph-name="Uhungarumlaut" unicode="&#x170;" horiz-adv-x="710" 
d="M265 716l-19 10l68 133l29 -10v-7zM432 716l-19 11l69 132l28 -10l1 -7zM355 -15q-121 0 -188 68.5t-67 194.5v412h34v-408q0 -114 58 -174.5t163 -60.5t163 60.5t58 174.5v408h34v-412q0 -126 -67 -194.5t-188 -68.5z" />
    <glyph glyph-name="uhungarumlaut" unicode="&#x171;" horiz-adv-x="589" 
d="M312 704l-103 -137l-18 11l94 145l26 -12zM465 704l-103 -137l-18 11l95 145l25 -12zM461 516h35v-516h-29l-5 86q-25 -44 -72 -70.5t-111 -26.5q-89 0 -140.5 53t-51.5 162v312h34v-307q0 -96 44.5 -142.5t120.5 -46.5q59 0 105.5 30.5t69.5 84.5v381z" />
    <glyph glyph-name="Uogonek" unicode="&#x172;" horiz-adv-x="710" 
d="M576 660h34v-412q0 -99 -42.5 -163.5t-121.5 -87.5q-95 -64 -95 -132q0 -55 62 -55q18 0 30 4l3 -2v-23q-17 -7 -40 -7q-44 0 -67 20.5t-23 56.5q0 68 81 128q-26 -2 -42 -2q-121 0 -188 68.5t-67 194.5v412h34v-408q0 -114 58 -174.5t163 -60.5t163 60.5t58 174.5v408z
" />
    <glyph glyph-name="uogonek" unicode="&#x173;" horiz-adv-x="589" 
d="M496 0q-101 -67 -101 -136q0 -55 62 -55q18 0 30 4l3 -2v-23q-17 -7 -40 -7q-44 0 -67 20.5t-23 56.5q0 78 107 146l-5 82q-25 -44 -72 -70.5t-111 -26.5q-89 0 -140.5 53t-51.5 162v312h34v-307q0 -96 44.5 -142.5t120.5 -46.5q59 0 105.5 30.5t69.5 84.5v381h35v-516z
" />
    <glyph glyph-name="Wcircumflex" unicode="&#x174;" horiz-adv-x="963" 
d="M478 795l-112 -94l-14 18l119 109h16l122 -109l-14 -18zM935 660l1 -2l-222 -675h-23l-204 599l-5 16l-5 -16l-204 -599h-23l-224 675l1 2h35l195 -596l6 -26l7 27l200 594h24l202 -593l7 -26l6 26l193 594h33z" />
    <glyph glyph-name="wcircumflex" unicode="&#x175;" horiz-adv-x="797" 
d="M398 680l-104 -110l-16 16l113 130h16l115 -130l-16 -16zM765 516l1 -2l-170 -514h-28l-162 452l-6 20l-5 -20l-165 -452h-28l-173 514l1 2h34l150 -453l4 -18l5 18l163 453h29l162 -452l5 -18l4 19l148 451h31z" />
    <glyph glyph-name="Ycircumflex" unicode="&#x176;" horiz-adv-x="574" 
d="M172 700l-14 18l119 109h16l122 -109l-14 -18l-117 94zM270 0v284l-247 374l1 2h35l229 -344l227 344h34l1 -2l-246 -374v-284h-34z" />
    <glyph glyph-name="ycircumflex" unicode="&#x177;" horiz-adv-x="510" 
d="M259 678l-104 -110l-16 16l113 130h16l115 -130l-16 -16zM485 516l1 -2l-221 -519l-68 -156h-36l-1 3l78 166l-212 506l1 2h37l192 -470l195 470h34z" />
    <glyph glyph-name="Ydieresis" unicode="&#x178;" horiz-adv-x="574" 
d="M195 742q-11 0 -19 8t-8 19t8 18.5t19 7.5t19 -7.5t8 -18.5t-8 -19t-19 -8zM381 742q-11 0 -18.5 8t-7.5 19t7.5 18.5t18.5 7.5t19 -7.5t8 -18.5t-8 -19t-19 -8zM270 0v284l-247 374l1 2h35l229 -344l227 344h34l1 -2l-246 -374v-284h-34z" />
    <glyph glyph-name="Zacute" unicode="&#x179;" horiz-adv-x="571" 
d="M198 702l-9 20l176 105l16 -27l-3 -7zM35 0v13l446 618h-441v29h492v-12l-449 -619h451v-29h-499z" />
    <glyph glyph-name="zacute" unicode="&#x17a;" horiz-adv-x="498" 
d="M344 687l-159 -121l-13 18l149 135l25 -25zM88 30h375v-30h-426v14l368 472h-364v30h415v-15z" />
    <glyph glyph-name="Zdotaccent" unicode="&#x17b;" horiz-adv-x="571" 
d="M284 742q-11 0 -19.5 8t-8.5 20q0 11 8.5 19.5t19.5 8.5t19.5 -8.5t8.5 -19.5q0 -12 -8.5 -20t-19.5 -8zM35 0v13l446 618h-441v29h492v-12l-449 -619h451v-29h-499z" />
    <glyph glyph-name="zdotaccent" unicode="&#x17c;" horiz-adv-x="498" 
d="M249 636q-11 0 -20 9t-9 21q0 11 9 19.5t20 8.5q12 0 20.5 -8.5t8.5 -19.5q0 -13 -8.5 -21.5t-20.5 -8.5zM88 30h375v-30h-426v14l368 472h-364v30h415v-15z" />
    <glyph glyph-name="Zcaron" unicode="&#x17d;" horiz-adv-x="571" 
d="M278 701l-122 109l14 17l117 -94l112 94l14 -17l-119 -109h-16zM35 0v13l446 618h-441v29h492v-12l-449 -619h451v-29h-499z" />
    <glyph glyph-name="zcaron" unicode="&#x17e;" horiz-adv-x="498" 
d="M259 569h-16l-115 131l16 14l108 -109l104 109l16 -14zM88 30h375v-30h-426v14l368 472h-364v30h415v-15z" />
    <glyph glyph-name="uni01EA" unicode="&#x1ea;" horiz-adv-x="792" 
d="M462 -9q-99 -65 -99 -135q0 -55 62 -55q18 0 30 4l3 -2v-23q-17 -7 -40 -7q-44 0 -67 20.5t-23 56.5q0 72 91 136q-7 -1 -23 -1q-144 0 -239.5 92.5t-95.5 251.5q0 158 95 251t240 93q144 0 239.5 -92.5t95.5 -251.5q0 -138 -74.5 -228t-194.5 -110zM97 329
q0 -144 84 -228.5t215 -84.5t215 84.5t84 228.5t-84 228.5t-215 84.5t-215 -84.5t-84 -228.5z" />
    <glyph glyph-name="uni01EB" unicode="&#x1eb;" horiz-adv-x="628" 
d="M391 -2q-96 -65 -96 -133q0 -55 62 -55q18 0 30 4l3 -2v-23q-17 -7 -40 -7q-44 0 -67 20.5t-23 56.5q0 69 83 129q-10 -1 -30 -1q-111 0 -183.5 73t-72.5 199q0 123 73 195.5t183 72.5q112 0 185.5 -72t73.5 -197q0 -100 -50 -168.5t-131 -91.5zM92 259q0 -110 62 -175.5
t159 -65.5t160 65.5t63 175.5q0 109 -62.5 173t-160.5 64q-97 0 -159 -64t-62 -173z" />
    <glyph glyph-name="AEacute" unicode="&#x1fc;" horiz-adv-x="808" 
d="M592 795l-180 -91l-9 20l176 105l16 -27zM456 30h301v-30h-336v231h-246l-149 -231h-37l426 660h327v-30h-286v-272h267v-30h-267v-298zM192 258h229v360l-33 -55z" />
    <glyph glyph-name="aeacute" unicode="&#x1fd;" horiz-adv-x="908" 
d="M541 687l-159 -121l-13 18l149 135l25 -25zM636 527q102 0 160 -68t58 -186v-19h-414q1 -113 63.5 -174t159.5 -61q92 0 162 46l3 -1v-32q-74 -45 -167 -45q-76 0 -136 34t-91 99q-34 -61 -93.5 -96t-137.5 -35q-67 0 -112.5 35.5t-45.5 103.5q0 33 13 58.5t38.5 42
t56.5 27.5t74.5 16.5t84 8t93.5 2.5v38q0 87 -46.5 131.5t-125.5 44.5q-94 0 -143 -37l-3 2v28q47 37 150 37q76 0 127 -35t66 -105q28 66 83 103t123 37zM441 283h378q-2 101 -50 158t-133 57q-80 0 -134.5 -57.5t-60.5 -157.5zM206 19q72 0 128.5 34t87.5 97
q-16 50 -16 104q-75 0 -125 -4.5t-100.5 -16.5t-75.5 -38t-25 -66q0 -53 37 -81.5t89 -28.5z" />
    <glyph glyph-name="Oslashacute" unicode="&#x1fe;" horiz-adv-x="792" 
d="M492 793l-180 -91l-9 20l176 105l16 -27zM732 677v-4l-91 -99q90 -93 90 -245q0 -157 -95 -250.5t-240 -93.5q-134 0 -224 79l-75 -82h-36v5l89 97q-89 94 -89 245q0 158 95 251t240 93q134 0 225 -79l76 83h35zM97 329q0 -136 76 -220l425 461q-80 72 -202 72
q-131 0 -215 -84.5t-84 -228.5zM695 329q0 134 -76 221l-425 -462q81 -72 202 -72q131 0 215 84.5t84 228.5z" />
    <glyph glyph-name="oslashacute" unicode="&#x1ff;" horiz-adv-x="630" 
d="M411 687l-159 -121l-13 18l149 135l25 -25zM501 453q72 -74 72 -195q0 -124 -74 -197.5t-185 -73.5q-97 0 -165 56l-49 -56h-33v4l61 71q-70 77 -70 197q0 123 73 195.5t183 72.5q98 0 167 -55l48 56h34v-4zM93 259q0 -103 58 -171l308 359q-60 49 -145 49
q-97 0 -159 -64t-62 -173zM314 18q97 0 160 65.5t63 175.5q0 104 -58 168l-309 -358q60 -51 144 -51z" />
    <glyph glyph-name="Scommaaccent" unicode="&#x218;" horiz-adv-x="509" 
d="M245 -15q-114 0 -193 53v37l3 1q80 -59 188 -59q79 0 126.5 38t47.5 100q0 68 -42.5 106.5t-125.5 71.5q-39 16 -66 30.5t-55 35.5t-42 49.5t-14 63.5q0 78 56.5 120.5t142.5 42.5q97 0 163 -37v-33l-2 -1q-63 40 -159 40q-72 0 -119 -33t-47 -95q0 -55 42 -88t123 -66
q87 -36 133.5 -80t46.5 -123t-57.5 -126.5t-149.5 -47.5zM220 -213q20 64 20 132q0 4 -0.5 14t-0.5 15l33 3l4 -5q0 -81 -33 -159h-23z" />
    <glyph glyph-name="scommaaccent" unicode="&#x219;" horiz-adv-x="468" 
d="M215 -12q-104 0 -165 41v35l2 1q65 -46 162 -46q79 0 125 28.5t46 83.5q0 50 -35 74.5t-120 45.5q-82 21 -125 50t-43 88q0 63 53 100.5t137 37.5q80 0 141 -26v-32l-3 -1q-63 28 -138 28q-69 0 -112.5 -28t-43.5 -77q0 -45 38 -67.5t114 -41.5q91 -23 131.5 -54.5
t40.5 -93.5q0 -71 -55.5 -108.5t-149.5 -37.5zM198 -213q20 64 20 132q0 4 -0.5 14t-0.5 15l33 3l4 -5q0 -81 -33 -159h-23z" />
    <glyph glyph-name="uni021A" unicode="&#x21a;" horiz-adv-x="535" 
d="M518 660v-31h-233v-629h-34v629h-235v31h502zM248 -52l33 3l4 -5q0 -81 -33 -159h-23q20 64 20 132q0 4 -0.5 14t-0.5 15z" />
    <glyph glyph-name="uni021B" unicode="&#x21b;" horiz-adv-x="382" 
d="M374 54l3 -1v-30q-40 -27 -101 -27q-134 0 -134 137v353h-112v30h112v128l32 7l3 -1v-134h195v-30h-195v-348q0 -111 105 -111q57 0 92 27zM241 -52l33 3l4 -5q0 -81 -33 -159h-23q20 64 20 132q0 4 -0.5 14t-0.5 15z" />
    <glyph glyph-name="uni0237" unicode="&#x237;" horiz-adv-x="238" 
d="M-1 -168q-18 0 -37 4v30l2 1q14 -3 30 -3q116 0 116 144v508h34v-514q0 -170 -145 -170z" />
    <glyph glyph-name="circumflex" unicode="&#x2c6;" horiz-adv-x="296" 
d="M42 568l-16 16l113 130h16l115 -130l-16 -16l-108 110z" />
    <glyph glyph-name="caron" unicode="&#x2c7;" horiz-adv-x="296" 
d="M142 529l-114 132l12 13l109 -111l107 111l12 -13l-113 -132h-13z" />
    <glyph glyph-name="breve" unicode="&#x2d8;" horiz-adv-x="290" 
d="M145 578q-54 0 -87.5 34t-33.5 92l24 3l1 -1q2 -45 29 -72t67 -27q42 0 69 26.5t28 71.5l1 2l23 -3q0 -58 -34 -92t-87 -34z" />
    <glyph glyph-name="dotaccent" unicode="&#x2d9;" horiz-adv-x="257" 
d="M128 636q-12 0 -20.5 9t-8.5 21q0 11 9 19.5t20 8.5q12 0 20.5 -8.5t8.5 -19.5q0 -13 -8.5 -21.5t-20.5 -8.5z" />
    <glyph glyph-name="ring" unicode="&#x2da;" horiz-adv-x="328" 
d="M137 567q-33 0 -55.5 22.5t-22.5 54.5q0 33 22 55t56 22q35 0 56.5 -22t21.5 -55t-21.5 -55t-56.5 -22zM137 589q24 0 39.5 16t15.5 39t-15.5 39t-39.5 16t-39 -16t-15 -39t15 -39t39 -16z" />
    <glyph glyph-name="ogonek" unicode="&#x2db;" horiz-adv-x="172" 
d="M109 -218q-44 0 -67 20.5t-23 56.5q0 80 110 148l26 -6q-101 -67 -101 -136q0 -55 62 -55q18 0 30 4l3 -2v-23q-17 -7 -40 -7z" />
    <glyph glyph-name="tilde" unicode="&#x2dc;" horiz-adv-x="319" 
d="M39 607l-25 5q0 33 19.5 53.5t48.5 20.5q30 0 80.5 -21.5t72.5 -21.5q19 0 32 12t13 35l1 2l25 -5q0 -34 -19.5 -54t-49.5 -20q-27 0 -77 21.5t-75 21.5q-19 0 -32 -12.5t-13 -34.5z" />
    <glyph glyph-name="hungarumlaut" unicode="&#x2dd;" horiz-adv-x="315" 
d="M39 567l-18 11l94 145l26 -12l1 -7zM192 567l-18 11l95 145l25 -12l1 -7z" />
    <glyph glyph-name="gravecomb" unicode="&#x300;" 
d="M-38 566l-160 121l-1 7l25 25l149 -135z" />
    <glyph glyph-name="acutecomb" unicode="&#x301;" 
d="M-186 566l-13 18l149 135l25 -25l-2 -7z" />
    <glyph glyph-name="uni0302" unicode="&#x302;" 
d="M-254 568l-16 16l113 130h16l115 -130l-16 -16l-108 110z" />
    <glyph glyph-name="tildecomb" unicode="&#x303;" 
d="M-280 607l-25 5q0 33 19.5 53.5t48.5 20.5q30 0 80.5 -21.5t72.5 -21.5q19 0 32 12t13 35l1 2l25 -5q0 -34 -19.5 -54t-49.5 -20q-27 0 -77 21.5t-75 21.5q-19 0 -32 -12.5t-13 -34.5z" />
    <glyph glyph-name="uni0304" unicode="&#x304;" 
d="M-295 628v28h267v-28h-267z" />
    <glyph glyph-name="uni0306" unicode="&#x306;" 
d="M-145 578q-54 0 -87.5 34t-33.5 92l24 3l1 -1q2 -45 29 -72t67 -27q42 0 69 26.5t28 71.5l1 2l23 -3q0 -58 -34 -92t-87 -34z" />
    <glyph glyph-name="uni0307" unicode="&#x307;" 
d="M-129 636q-11 0 -20 9t-9 21q0 11 9 19.5t20 8.5q12 0 20.5 -8.5t8.5 -19.5q0 -13 -8.5 -21.5t-20.5 -8.5z" />
    <glyph glyph-name="uni0308" unicode="&#x308;" 
d="M-212 636q-12 0 -20 8.5t-8 20.5q0 11 8 19t20 8q11 0 19.5 -8t8.5 -19q0 -12 -8.5 -20.5t-19.5 -8.5zM-42 636q-11 0 -19.5 8.5t-8.5 20.5q0 11 8.5 19t19.5 8q12 0 20.5 -8t8.5 -19q0 -12 -8.5 -20.5t-20.5 -8.5z" />
    <glyph glyph-name="uni030A" unicode="&#x30a;" 
d="M-136 567q-34 0 -56 22.5t-22 54.5q0 33 22 55t56 22q35 0 56.5 -22t21.5 -55t-21.5 -55t-56.5 -22zM-136 589q24 0 39.5 16t15.5 39t-15.5 39t-39.5 16t-39 -16t-15 -39t15 -39t39 -16z" />
    <glyph glyph-name="uni030B" unicode="&#x30b;" 
d="M-276 567l-18 11l94 145l26 -12l1 -7zM-123 567l-18 11l95 145l25 -12l1 -7z" />
    <glyph glyph-name="uni030C" unicode="&#x30c;" 
d="M-155 569l-115 131l16 14l108 -109l104 109l16 -14l-113 -131h-16z" />
    <glyph glyph-name="uni0326" unicode="&#x326;" 
d="M-111 -213q20 64 20 132q0 4 -0.5 14t-0.5 15l33 3l4 -5q0 -81 -33 -159h-23z" />
    <glyph glyph-name="uni0327" unicode="&#x327;" 
d="M-124 -221q-34 0 -59 11v24l2 1q20 -10 53 -10q78 0 78 63q0 53 -56 53q-31 0 -52 -10l-1 2v21l38 66h26l-34 -59q18 4 33 4q35 0 56.5 -19t21.5 -57q0 -45 -29.5 -67.5t-76.5 -22.5z" />
    <glyph glyph-name="uni0328" unicode="&#x328;" 
d="M-66 -218q-44 0 -67 20.5t-23 56.5q0 80 110 148l26 -6q-101 -67 -101 -136q0 -55 62 -55q18 0 30 4l3 -2v-23q-17 -7 -40 -7z" />
    <glyph glyph-name="uni0335" unicode="&#x335;" 
d="M-268 223v27h242v-27h-242z" />
    <glyph glyph-name="uni0336" unicode="&#x336;" 
d="M-547 329v28h522v-28h-522z" />
    <glyph glyph-name="uni0337" unicode="&#x337;" 
d="M-218 285v30l191 117h3v-30l-190 -117h-4z" />
    <glyph glyph-name="uni0338" unicode="&#x338;" 
d="M-548 -13v5l462 536h33v-4l-463 -537h-32z" />
    <glyph glyph-name="Wgrave" unicode="&#x1e80;" horiz-adv-x="963" 
d="M559 703l-181 91l-3 7l16 27l176 -105zM935 660l1 -2l-222 -675h-23l-204 599l-5 16l-5 -16l-204 -599h-23l-224 675l1 2h35l195 -596l6 -26l7 27l200 594h24l202 -593l7 -26l6 26l193 594h33z" />
    <glyph glyph-name="wgrave" unicode="&#x1e81;" horiz-adv-x="797" 
d="M458 568l-160 121l-1 7l25 25l149 -135zM765 516l1 -2l-170 -514h-28l-162 452l-6 20l-5 -20l-165 -452h-28l-173 514l1 2h34l150 -453l4 -18l5 18l163 453h29l162 -452l5 -18l4 19l148 451h31z" />
    <glyph glyph-name="Wacute" unicode="&#x1e82;" horiz-adv-x="963" 
d="M574 794l-180 -91l-9 20l176 105l16 -27zM935 660l1 -2l-222 -675h-23l-204 599l-5 16l-5 -16l-204 -599h-23l-224 675l1 2h35l195 -596l6 -26l7 27l200 594h24l202 -593l7 -26l6 26l193 594h33z" />
    <glyph glyph-name="wacute" unicode="&#x1e83;" horiz-adv-x="797" 
d="M494 689l-159 -121l-13 18l149 135l25 -25zM765 516l1 -2l-170 -514h-28l-162 452l-6 20l-5 -20l-165 -452h-28l-173 514l1 2h34l150 -453l4 -18l5 18l163 453h29l162 -452l5 -18l4 19l148 451h31z" />
    <glyph glyph-name="Wdieresis" unicode="&#x1e84;" horiz-adv-x="963" 
d="M389 743q-11 0 -19 8t-8 19t8 18.5t19 7.5t19 -7.5t8 -18.5t-8 -19t-19 -8zM575 743q-11 0 -18.5 8t-7.5 19q0 10 7.5 18t18.5 8t19 -7.5t8 -18.5t-8 -19t-19 -8zM935 660l1 -2l-222 -675h-23l-204 599l-5 16l-5 -16l-204 -599h-23l-224 675l1 2h35l195 -596l6 -26l7 27
l200 594h24l202 -593l7 -26l6 26l193 594h33z" />
    <glyph glyph-name="wdieresis" unicode="&#x1e85;" horiz-adv-x="797" 
d="M315 638q-12 0 -20 8.5t-8 20.5q0 11 8 19t20 8q11 0 19.5 -8t8.5 -19q0 -12 -8.5 -20.5t-19.5 -8.5zM485 638q-11 0 -19.5 8.5t-8.5 20.5q0 11 8.5 19t19.5 8q12 0 20.5 -8t8.5 -19q0 -12 -8.5 -20.5t-20.5 -8.5zM765 516l1 -2l-170 -514h-28l-162 452l-6 20l-5 -20
l-165 -452h-28l-173 514l1 2h34l150 -453l4 -18l5 18l163 453h29l162 -452l5 -18l4 19l148 451h31z" />
    <glyph glyph-name="Ygrave" unicode="&#x1ef2;" horiz-adv-x="574" 
d="M365 702l-181 91l-3 7l16 27l176 -105zM270 0v284l-247 374l1 2h35l229 -344l227 344h34l1 -2l-246 -374v-284h-34z" />
    <glyph glyph-name="ygrave" unicode="&#x1ef3;" horiz-adv-x="510" 
d="M319 566l-160 121l-1 7l25 25l149 -135zM485 516l1 -2l-221 -519l-68 -156h-36l-1 3l78 166l-212 506l1 2h37l192 -470l195 470h34z" />
    <glyph glyph-name="uni1EF8" unicode="&#x1ef8;" horiz-adv-x="574" 
d="M174 721l-25 6q1 32 21 52.5t49 20.5q26 0 71 -21t64 -21t32 12.5t13 35.5l1 1l25 -6q-1 -34 -20.5 -54t-48.5 -20q-23 0 -68 21.5t-67 21.5q-19 0 -32 -12.5t-13 -35.5zM270 0v284l-247 374l1 2h35l229 -344l227 344h34l1 -2l-246 -374v-284h-34z" />
    <glyph glyph-name="uni1EF9" unicode="&#x1ef9;" horiz-adv-x="510" 
d="M141 609l-1 -2l-25 5q0 33 19.5 53.5t48.5 20.5q30 0 80.5 -21.5t72.5 -21.5q19 0 32 12t13 35l1 2l25 -5q0 -34 -19.5 -54t-49.5 -20q-27 0 -77 21.5t-75 21.5q-19 0 -32 -12.5t-13 -34.5zM485 516l1 -2l-221 -519l-68 -156h-36l-1 3l78 166l-212 506l1 2h37l192 -470
l195 470h34z" />
    <glyph glyph-name="endash" unicode="&#x2013;" horiz-adv-x="500" 
d="M79 264v30h342v-30h-342z" />
    <glyph glyph-name="emdash" unicode="&#x2014;" horiz-adv-x="848" 
d="M79 264v30h690v-30h-690z" />
    <glyph glyph-name="quoteleft" unicode="&#x2018;" horiz-adv-x="184" 
d="M132 689q-12 -73 -14 -150q0 -24 1 -33l-31 -6l-5 6q0 86 26 183h23z" />
    <glyph glyph-name="quoteright" unicode="&#x2019;" horiz-adv-x="169" 
d="M56 500q12 73 14 150q0 24 -1 33l31 6l5 -6q0 -85 -26 -183h-23z" />
    <glyph glyph-name="quotesinglbase" unicode="&#x201a;" horiz-adv-x="174" 
d="M45 -130q12 73 14 150q0 24 -1 33l31 6l5 -6q0 -85 -26 -183h-23z" />
    <glyph glyph-name="quotedblleft" unicode="&#x201c;" horiz-adv-x="306" 
d="M132 689q-12 -73 -14 -150q0 -24 1 -33l-31 -6l-5 6q0 86 26 183h23zM254 689q-12 -73 -14 -150q0 -24 1 -33l-31 -6l-5 6q0 86 26 183h23z" />
    <glyph glyph-name="quotedblright" unicode="&#x201d;" horiz-adv-x="303" 
d="M56 500q12 73 14 150q0 24 -1 33l31 6l5 -6q0 -85 -26 -183h-23zM177 500q12 73 14 150q0 24 -1 33l31 6l5 -6q0 -85 -26 -183h-23z" />
    <glyph glyph-name="quotedblbase" unicode="&#x201e;" horiz-adv-x="295" 
d="M45 -130q12 73 14 150q0 24 -1 33l31 6l5 -6q0 -85 -26 -183h-23zM167 -130q12 73 14 150q0 24 -1 33l31 6l5 -6q0 -85 -26 -183h-23z" />
    <glyph glyph-name="dagger" unicode="&#x2020;" horiz-adv-x="475" 
d="M249 505l162 5v-33l-157 4l-5 -524h-24l-5 524l-157 -4v33l162 -5l-5 171h34z" />
    <glyph glyph-name="daggerdbl" unicode="&#x2021;" horiz-adv-x="475" 
d="M220 -42l5 170l-162 -5v34l158 -5l5 165l-5 165l-158 -4v33l162 -5l-5 170h34l-5 -169l162 4v-33l-158 4l-4 -165l4 -165l159 5v-34l-162 5l4 -170h-34z" />
    <glyph glyph-name="bullet" unicode="&#x2022;" horiz-adv-x="359" 
d="M179 202q-33 0 -56 23.5t-23 56.5t23 56.5t56 23.5q34 0 57 -23.5t23 -56.5t-23 -56.5t-57 -23.5z" />
    <glyph glyph-name="ellipsis" unicode="&#x2026;" horiz-adv-x="501" 
d="M92 -2q-13 0 -21 8.5t-8 20.5q0 11 8.5 19.5t20.5 8.5q13 0 21 -8t8 -20t-8 -20.5t-21 -8.5zM253 -2q-13 0 -21 8.5t-8 20.5q0 11 8 19.5t21 8.5t21 -8t8 -20t-8 -20.5t-21 -8.5zM413 -2q-13 0 -21 8.5t-8 20.5q0 11 8 19.5t21 8.5t21 -8t8 -20t-8 -20.5t-21 -8.5z" />
    <glyph glyph-name="perthousand" unicode="&#x2030;" horiz-adv-x="1022" 
d="M195 359q-67 0 -108 40.5t-41 111.5q0 72 41 113.5t108 41.5t108 -41.5t41 -113.5q0 -71 -41 -111.5t-108 -40.5zM112 10l439 643h33l-440 -643h-32zM195 385q53 0 85.5 34t32.5 93q0 58 -32.5 92.5t-85.5 34.5q-54 0 -86 -34t-32 -93t32 -93t86 -34zM510 -5
q-67 0 -108 40.5t-41 111.5q0 72 41 113.5t108 41.5t107.5 -41t40.5 -114q0 -71 -40.5 -111.5t-107.5 -40.5zM837 -5q-67 0 -108 40.5t-41 111.5q0 72 41 113.5t109 41.5q67 0 107.5 -41t40.5 -114q0 -71 -41 -111.5t-108 -40.5zM510 21q53 0 85 33.5t32 92.5q0 60 -32 94.5
t-85 34.5q-54 0 -86 -34.5t-32 -94.5q0 -59 32 -92.5t86 -33.5zM838 21q53 0 85 33.5t32 92.5q0 60 -32 94.5t-85 34.5q-54 0 -86.5 -34.5t-32.5 -94.5q0 -59 32.5 -92.5t86.5 -33.5z" />
    <glyph glyph-name="guilsinglleft" unicode="&#x2039;" horiz-adv-x="330" 
d="M224 87l-181 185l182 183h38v-6l-175 -177l174 -180v-5h-38z" />
    <glyph glyph-name="guilsinglright" unicode="&#x203a;" horiz-adv-x="330" 
d="M106 454l181 -185l-182 -183h-38v6l175 177l-174 180v5h38z" />
    <glyph glyph-name="fraction" unicode="&#x2044;" horiz-adv-x="124" 
d="M-175 -12l448 672h32l-447 -672h-33z" />
    <glyph glyph-name="Euro" unicode="&#x20ac;" horiz-adv-x="704" 
d="M637 66l2 -2l-7 -31q-79 -35 -170 -35q-125 0 -209.5 67.5t-107.5 182.5h-108l5 28h98q-4 25 -4 58q0 30 5 65h-75l4 27h76q26 112 111.5 178t205.5 66q103 0 174 -30l-6 -28l-2 -1q-67 28 -165 28q-108 0 -182.5 -57t-98.5 -156h306l-5 -27h-307q-5 -33 -5 -64
q0 -34 4 -59h284l-5 -28h-274q23 -102 96.5 -160.5t186.5 -58.5q90 0 173 37z" />
    <glyph glyph-name="trademark" unicode="&#x2122;" horiz-adv-x="784" 
d="M40 623v29h262v-29h-115v-275h-30v275h-117zM673 652l33 -304h-28l-28 242h-1l-115 -239h-15l-118 245h-1l-26 -248h-29l33 304h25l125 -255l121 255h24z" />
    <glyph glyph-name="minus" unicode="&#x2212;" horiz-adv-x="525" 
d="M82 278v30h361v-30h-361z" />
    <glyph glyph-name="approxequal" unicode="&#x2248;" horiz-adv-x="504" 
d="M108 336l-25 4q0 35 21 55t57 20q39 0 96 -22t86 -22q53 0 54 48l1 2l24 -4q0 -35 -21 -55t-57 -20q-34 0 -91.5 22t-89.5 22q-54 0 -54 -49zM108 157l-25 3q0 35 21 55t57 20q39 0 96 -21.5t86 -21.5q53 0 54 48l1 1l24 -3q0 -35 -21 -55t-57 -20q-34 0 -91.5 21.5
t-89.5 21.5q-54 0 -54 -48z" />
    <glyph glyph-name="notequal" unicode="&#x2260;" horiz-adv-x="529" 
d="M447 375h-114l-82 -175h196v-29h-210l-71 -151h-34l71 151h-120v29h134l82 175h-216v29h230l69 146h34l-69 -146h100v-29z" />
    <glyph glyph-name="uniF8FF" unicode="&#xf8ff;" horiz-adv-x="1451" 
d="M752 522q-26 0 -43.5 18t-17.5 43q0 26 17.5 44t43.5 18t44 -18t18 -44t-18 -43.5t-44 -17.5zM100 270q0 134 9 314h100q10 -200 10 -314h-119zM604 264q-82 0 -82 66q0 12 2 49t2 38h-22v79l119 30l1 -17h178q10 -64 10 -239h-118q0 92 3 147h-61l3 -65q4 -4 15 -4
q13 0 18 5v-74q-14 -15 -68 -15zM328 265q-92 0 -92 114q0 135 134 135q124 0 124 -117v-127h-83l-8 61q-6 -33 -23.5 -49.5t-51.5 -16.5zM834 270q0 175 10 239h80q6 -44 6 -76q2 15 6.5 30t24 33t49.5 18q42 0 58.5 -25t18.5 -81l3 -138h-114q0 26 1 56t1 37q0 29 -15 29
q-18 0 -18 -29q0 -7 1.5 -37t1.5 -56h-114zM1228 265q-122 0 -122 124q0 125 124 125q121 0 121 -123q0 -126 -123 -126zM366 345q24 0 24 30q0 26 -24 26q-22 0 -22 -26q0 -30 22 -30zM1228 345q23 0 23 30q0 26 -23 26q-21 0 -21 -26q0 -30 21 -30zM390 -50q-61 0 -88 17
v83q24 -16 70 -16q21 0 34 6t16.5 11.5t3.5 10.5q-16 -11 -49 -11q-90 0 -90 83v13h-55l3 -65q6 -4 15 -4q13 0 18 5v-73q-19 -15 -68 -15q-45 0 -63 17t-18 54q0 39 3 81h-18v80l117 29l-1 -18h177v-119q0 -16 3 -21.5t12 -5.5q16 0 16 27v119h104q10 -52 10 -138
q0 -81 -33.5 -115.5t-118.5 -34.5zM558 -44q0 142 10 282h78q7 -42 7 -76q17 81 80 81q37 0 58.5 -29t21.5 -84q0 -135 -137 -135q1 -15 1 -39h-119zM970 -5q-141 0 -141 122q0 59 32.5 92.5t92.5 33.5q55 0 85.5 -30t30.5 -86q0 -21 -3 -35h-124q11 -18 50 -18q34 0 55 12
v-75q-23 -16 -78 -16zM938 109h40q3 27 -17 27q-23 0 -23 -27zM670 72q5 0 12.5 2.5t16 11.5t8.5 23q0 23 -20 23q-22 0 -22 -31q0 -14 5 -29zM1098 -10q-24 0 -24 23t24 23t24 -23t-24 -23zM1098 -5q18 0 18 18t-18 18t-18 -18t18 -18zM1088 2v23h11q10 0 10 -7t-7 -7l6 -9
h-6l-4 9h-5v-9h-5zM1093 15h7q4 0 4 3t-4 3h-7v-6z" />
    <glyph glyph-name="i.loclTRK" horiz-adv-x="221" 
d="M111 636q-11 0 -20 9t-9 21q0 11 9 19.5t20 8.5q12 0 20.5 -8.5t8.5 -19.5q0 -13 -8.5 -21.5t-20.5 -8.5zM93 0v516h35v-516h-35z" />
    <glyph glyph-name="caroncomb.alt" 
d="M-73 518l8 196h27l6 -7l-19 -189h-22z" />
    <glyph glyph-name="uni0308.case" 
d="M-239 742q-11 0 -19 8t-8 19t8 18.5t19 7.5t19 -7.5t8 -18.5t-8 -19t-19 -8zM-53 742q-11 0 -18.5 8t-7.5 19t7.5 18.5t18.5 7.5t19 -7.5t8 -18.5t-8 -19t-19 -8z" />
    <glyph glyph-name="uni0307.case" 
d="M-125 742q-11 0 -19.5 8t-8.5 20q0 11 8.5 19.5t19.5 8.5t19.5 -8.5t8.5 -19.5q0 -12 -8.5 -20t-19.5 -8z" />
    <glyph glyph-name="gravecomb.case" 
d="M-34 702l-181 91l-3 7l16 27l176 -105z" />
    <glyph glyph-name="acutecomb.case" 
d="M-208 702l-9 20l176 105l16 -27l-3 -7z" />
    <glyph glyph-name="uni030B.case" 
d="M-275 716l-19 10l68 133l29 -10v-7zM-108 716l-19 11l69 132l28 -10l1 -7z" />
    <glyph glyph-name="uni0302.case" 
d="M-269 700l-14 18l119 109h16l122 -109l-14 -18l-117 94z" />
    <glyph glyph-name="uni030C.case" 
d="M-161 701l-122 109l14 17l117 -94l112 94l14 -17l-119 -109h-16z" />
    <glyph glyph-name="uni0306.case" 
d="M-145 704q-54 0 -87.5 31.5t-33.5 85.5l23 3q4 -42 30.5 -67t67.5 -25q43 0 71 25t29 67l21 -3q0 -54 -34 -85.5t-87 -31.5z" />
    <glyph glyph-name="uni030A.case" 
d="M-102 679q-33 0 -55 21.5t-22 53.5q0 33 21.5 54.5t55.5 21.5t55.5 -21.5t21.5 -54.5q0 -32 -21.5 -53.5t-55.5 -21.5zM-102 701q24 0 39 15.5t15 37.5q0 23 -15 38.5t-39 15.5q-23 0 -38 -15.5t-15 -38.5q0 -22 15 -37.5t38 -15.5z" />
    <glyph glyph-name="tildecomb.case" 
d="M-273 721l-25 6q1 32 21 52.5t49 20.5q26 0 71 -21t64 -21t32 12.5t13 35.5l1 1l25 -6q-1 -34 -20.5 -54t-48.5 -20q-23 0 -68 21.5t-67 21.5q-19 0 -32 -12.5t-13 -35.5z" />
    <glyph glyph-name="uni0304.case" 
d="M-278 753v30h258v-30h-258z" />
    <glyph glyph-name="uni0337.case" 
d="M-219 249v30l191 116h4v-31l-192 -116z" />
    <glyph glyph-name="uni0338.case" 
d="M-696 -15v5l636 690h35v-4l-635 -691h-36z" />
    <glyph glyph-name="caron.alt" horiz-adv-x="104" 
d="M31 453l8 214h24l6 -7l-19 -207h-19z" />
    <glyph glyph-name="acute.case" horiz-adv-x="242" 
d="M34 702l-9 20l176 105l16 -27l-3 -7z" />
    <glyph glyph-name="breve.case" horiz-adv-x="290" 
d="M145 704q-54 0 -87.5 31.5t-33.5 85.5l23 3q4 -42 30.5 -67t67.5 -25q43 0 71 25t29 67l21 -3q0 -54 -34 -85.5t-87 -31.5z" />
    <glyph glyph-name="caron.case" horiz-adv-x="309" 
d="M148 701l-122 109l14 17l117 -94l112 94l14 -17l-119 -109h-16z" />
    <glyph glyph-name="circumflex.case" horiz-adv-x="309" 
d="M40 700l-14 18l119 109h16l122 -109l-14 -18l-117 94z" />
    <glyph glyph-name="dieresis.case" horiz-adv-x="292" 
d="M53 742q-11 0 -19 8t-8 19t8 18.5t19 7.5t19 -7.5t8 -18.5t-8 -19t-19 -8zM239 742q-11 0 -18.5 8t-7.5 19t7.5 18.5t18.5 7.5t19 -7.5t8 -18.5t-8 -19t-19 -8z" />
    <glyph glyph-name="dotaccent.case" horiz-adv-x="250" 
d="M125 742q-11 0 -19.5 8t-8.5 20q0 11 8.5 19.5t19.5 8.5t19.5 -8.5t8.5 -19.5q0 -12 -8.5 -20t-19.5 -8z" />
    <glyph glyph-name="grave.case" horiz-adv-x="242" 
d="M208 702l-181 91l-3 7l16 27l176 -105z" />
    <glyph glyph-name="hungarumlaut.case" horiz-adv-x="338" 
d="M63 716l-19 10l68 133l29 -10v-7zM230 716l-19 11l69 132l28 -10l1 -7z" />
    <glyph glyph-name="macron.case" horiz-adv-x="362" 
d="M20 753v30h258v-30h-258z" />
    <glyph glyph-name="ring.case" horiz-adv-x="204" 
d="M102 679q-33 0 -55 21.5t-22 53.5q0 33 21.5 54.5t55.5 21.5t55.5 -21.5t21.5 -54.5q0 -32 -21.5 -53.5t-55.5 -21.5zM102 701q24 0 39 15.5t15 37.5q0 23 -15 38.5t-39 15.5q-23 0 -38 -15.5t-15 -38.5q0 -22 15 -37.5t38 -15.5z" />
    <glyph glyph-name="tilde.case" horiz-adv-x="320" 
d="M47 721l-25 6q1 32 21 52.5t49 20.5q26 0 71 -21t64 -21t32 12.5t13 35.5l1 1l25 -6q-1 -34 -20.5 -54t-48.5 -20q-23 0 -68 21.5t-67 21.5q-19 0 -32 -12.5t-13 -35.5z" />
    <glyph glyph-name="IJacute" horiz-adv-x="598" 
d="M67 695l-9 20l176 105l16 -27l-3 -7zM414 695l-9 20l176 105l16 -27l-3 -7zM110 0v660h34v-660h-34zM319 -3q-21 0 -47 3v30l2 1q16 -3 42 -3q73 0 109.5 44.5t36.5 123.5v464h34v-464q0 -96 -44.5 -147.5t-132.5 -51.5z" />
    <glyph glyph-name="ijacute" horiz-adv-x="455" 
d="M47 566l-13 18l149 135l25 -25l-2 -7zM273 566l-13 18l149 135l25 -25l-2 -7zM93 10v506h35v-506h-35zM202 -168q-46 0 -88 14v31l2 1q42 -14 85 -14q69 0 97.5 43t28.5 141v468h34v-474q0 -111 -38.5 -160.5t-120.5 -49.5z" />
    </font>
</defs>
</svg>
