<?xml version="1.0" standalone="no"?>
<!DOCTYPE svg PUBLIC "-//W3C//DTD SVG 1.1//EN" "http://www.w3.org/Graphics/SVG/1.1/DTD/svg11.dtd" >
<svg xmlns="http://www.w3.org/2000/svg" xmlns:xlink="http://www.w3.org/1999/xlink" version="1.1">
<metadata>
Created by FontForge 20170731 at Tue Mar  7 13:07:32 2017
 By Aleksey,,,
Copyright (c) 2017 by Alfonso Garci'a - Latinotype Team. All rights reserved.
</metadata>
<defs>
<font id="RawsonAlt-ExtraLightIt" horiz-adv-x="0" >
  <font-face 
    font-family="Rawson Alt ExtraLight It"
    font-weight="300"
    font-style="italic"
    font-stretch="normal"
    units-per-em="1100"
    panose-1="0 0 4 0 0 0 0 0 0 0"
    ascent="880"
    descent="-220"
    x-height="517"
    cap-height="660"
    bbox="-649 -224 1319 868"
    underline-thickness="50"
    underline-position="-200"
    slope="-7.5"
    unicode-range="U+0020-FB02"
  />
<missing-glyph horiz-adv-x="483" 
 />
    <glyph glyph-name="fi" unicode="fi" horiz-adv-x="485" 
d="M186 557l-6 -40h133l-5 -30h-132l-92 -652h-34l91 652h-68l4 30h68l6 40q11 78 56 117.5t105 39.5q36 0 56 -13l-4 -30l-2 -1q-22 13 -51 13q-48 0 -82 -32t-43 -94zM434 695q11 0 18.5 -7t7.5 -19q0 -14 -8.5 -22.5t-20.5 -8.5t-19.5 7.5t-7.5 19.5q0 14 9 22t21 8z
M321 0l73 517h35l-74 -517h-34z" />
    <glyph glyph-name="fl" unicode="fl" horiz-adv-x="414" 
d="M186 557l-6 -40h133l-5 -30h-132l-91 -652h-35l91 652h-68l4 30h68l6 40q11 77 56 117t105 40q36 0 56 -13l-4 -30l-2 -1q-22 13 -51 13q-48 0 -82 -32t-43 -94zM419 711h34l-99 -711h-35z" />
    <glyph glyph-name=".notdef" horiz-adv-x="483" 
 />
    <glyph glyph-name=".null" 
 />
    <glyph glyph-name="nonmarkingreturn" horiz-adv-x="366" 
 />
    <glyph glyph-name="space" unicode=" " horiz-adv-x="269" 
 />
    <glyph glyph-name="exclam" unicode="!" horiz-adv-x="233" 
d="M91 173l66 502h36l-73 -502h-29zM80 -10q-24 0 -24 24q0 12 8.5 20.5t21.5 8.5q11 0 17.5 -7t6.5 -17q0 -12 -8.5 -20.5t-21.5 -8.5z" />
    <glyph glyph-name="quotedbl" unicode="&#x22;" horiz-adv-x="287" 
d="M108 455l28 208h30l5 -6l-40 -202h-23zM210 455l29 208h29l4 -6l-40 -202h-22z" />
    <glyph glyph-name="numbersign" unicode="#" horiz-adv-x="523" 
d="M478 378h-74l-54 -175h87l-4 -26h-91l-32 -105h-27l32 105h-167l-32 -105h-26l32 105h-71l4 26h75l54 175h-89l4 26h93l32 105h26l-32 -105h167l32 105h27l-32 -105h69zM323 203l54 175h-167l-54 -175h167z" />
    <glyph glyph-name="dollar" unicode="$" horiz-adv-x="458" 
d="M314 613q68 -3 118 -26l-6 -32l-1 -1q-59 28 -133 28q-70 0 -114.5 -28.5t-44.5 -89.5q0 -46 30 -66.5t95 -37.5q66 -18 102.5 -48t36.5 -84q0 -74 -48.5 -117.5t-127.5 -50.5l-13 -92h-33l13 91q-96 1 -152 41l4 33l3 1q59 -45 153 -45q76 0 121 33.5t45 100.5
q0 45 -33 68t-98 41q-68 20 -101.5 45.5t-33.5 80.5q0 72 52 112t132 43l13 94h33z" />
    <glyph glyph-name="percent" unicode="%" horiz-adv-x="680" 
d="M204 359q-57 0 -90 33.5t-33 93.5q0 82 47 131.5t119 49.5q56 0 89 -34.5t33 -95.5q0 -82 -46.5 -130t-118.5 -48zM77 10l509 645h31l-508 -645h-32zM208 385q56 0 93 41t37 108q0 50 -25.5 78t-69.5 28q-58 0 -94.5 -41t-36.5 -109q0 -49 26 -77t70 -28zM456 -5
q-57 0 -89.5 33.5t-32.5 93.5q0 83 46.5 132t119.5 49q55 0 88 -34.5t33 -95.5q0 -82 -46.5 -130t-118.5 -48zM460 21q57 0 93.5 40.5t36.5 107.5q0 50 -25.5 78.5t-68.5 28.5q-58 0 -94.5 -41.5t-36.5 -109.5q0 -49 25 -76.5t70 -27.5z" />
    <glyph glyph-name="ampersand" unicode="&#x26;" horiz-adv-x="613" 
d="M564 352q-39 -145 -98 -232l97 -120h-41l-76 93q-88 -108 -221 -108q-80 0 -131.5 42.5t-51.5 118.5q0 81 46 136t129 96q-45 68 -45 128q0 78 55 127t125 49t119 -34l-4 -31h-1q-49 35 -115 35q-55 0 -100.5 -39.5t-45.5 -102.5q0 -43 21.5 -83.5t63.5 -90.5l157 -193
q53 81 85 209h32zM230 16q117 0 197 100l-165 201l-30 39q-75 -40 -115.5 -87t-40.5 -119q0 -65 42.5 -99.5t111.5 -34.5z" />
    <glyph glyph-name="quotesingle" unicode="'" horiz-adv-x="187" 
d="M108 455l28 208h30l5 -6l-40 -202h-23z" />
    <glyph glyph-name="parenleft" unicode="(" horiz-adv-x="266" 
d="M165 -169q-45 22 -77.5 109.5t-32.5 223.5q0 120 23.5 225.5t60.5 175.5t76.5 115t76.5 63l9 -27q-34 -19 -69 -62.5t-68.5 -109.5t-54.5 -164.5t-21 -209.5q0 -124 28 -207t66 -105z" />
    <glyph glyph-name="parenright" unicode=")" horiz-adv-x="266" 
d="M110 744q45 -22 77.5 -109.5t32.5 -223.5q0 -120 -23.5 -225t-60.5 -175t-76.5 -115t-77.5 -63l-9 27q34 19 69 62t68.5 109t54.5 164t21 210q0 124 -27.5 207t-65.5 105z" />
    <glyph glyph-name="asterisk" unicode="*" horiz-adv-x="439" 
d="M266 582l-3 2l-25 141l1 4l25 7l3 -3l8 -146l-2 -3zM284 578l-4 2l-2 4l83 83l29 32l7 -7l10 -13l-87 -78zM254 569l-134 30l-1 3l8 25l7 1l127 -47l-1 -3l-2 -7zM410 515l-129 47v4l2 6l3 2l136 -30l1 -3l-9 -24zM151 445l-16 17l1 5l119 98h4l4 -4v-4l-108 -112h-4z
M277 408l-3 2l-7 147l3 3l5 1l3 -2l27 -141l-3 -4z" />
    <glyph glyph-name="plus" unicode="+" horiz-adv-x="453" 
d="M406 308l-3 -29h-160l-26 -185h-29l26 185h-158l4 29h159l26 184h28l-26 -184h159z" />
    <glyph glyph-name="comma" unicode="," horiz-adv-x="168" 
d="M-9 -145q42 90 45 162q0 16 1 22l33 4l4 -6q-4 -44 -22.5 -97.5t-38.5 -84.5h-22z" />
    <glyph glyph-name="hyphen" unicode="-" horiz-adv-x="405" 
d="M81 274l5 31h247l-5 -31h-247z" />
    <glyph glyph-name="period" unicode="." horiz-adv-x="184" 
d="M58 -2q-12 0 -19 7.5t-7 18.5q0 14 9 22.5t22 8.5q12 0 19 -7.5t7 -18.5q0 -13 -8.5 -22t-22.5 -9z" />
    <glyph glyph-name="slash" unicode="/" horiz-adv-x="411" 
d="M-12 -117l419 864h32l-418 -864h-33z" />
    <glyph glyph-name="zero" unicode="0" horiz-adv-x="593" 
d="M269 -13q-95 0 -147.5 68t-52.5 189q0 195 79.5 311.5t204.5 116.5q89 0 139.5 -69.5t50.5 -191.5q0 -194 -77 -309t-197 -115zM273 18q103 0 169 107t66 286q0 104 -42.5 167t-116.5 63q-108 0 -176 -109t-68 -288q0 -104 44 -165t124 -61z" />
    <glyph glyph-name="one" unicode="1" horiz-adv-x="344" 
d="M165 0l86 620l-186 -104l-2 1l5 33l216 122h8l-93 -672h-34z" />
    <glyph glyph-name="two" unicode="2" horiz-adv-x="500" 
d="M15 0q14 120 216 274q109 83 151.5 134t42.5 110q0 56 -36.5 90t-105.5 34q-104 0 -175 -79h-1l3 34q31 35 78 56t99 21q81 0 127 -41.5t46 -109.5t-45.5 -124.5t-159.5 -144.5q-84 -63 -136 -124.5t-58 -98.5h360l-5 -31h-401z" />
    <glyph glyph-name="three" unicode="3" horiz-adv-x="505" 
d="M320 353q114 -32 114 -154q0 -97 -61.5 -155.5t-169.5 -58.5q-113 0 -178 60l6 36l2 1q60 -67 171 -67q91 0 143.5 49t52.5 130q0 139 -168 142l-56 1l4 29l57 1q80 1 131 42t51 117q0 52 -36 84.5t-99 32.5q-90 0 -159 -57l-2 1l4 32q71 55 163 55q74 0 118.5 -38.5
t44.5 -103.5q0 -68 -35.5 -114t-97.5 -65z" />
    <glyph glyph-name="four" unicode="4" horiz-adv-x="556" 
d="M512 193l-4 -31h-122l-23 -162h-32l22 162h-336l-3 11l418 500h26l-68 -480h122zM68 193h290l57 417z" />
    <glyph glyph-name="five" unicode="5" horiz-adv-x="508" 
d="M205 -15q-54 0 -91.5 11.5t-81.5 38.5l5 35l2 1q80 -54 169 -54q88 0 145.5 55t57.5 147q0 64 -40 106.5t-119 42.5q-84 0 -159 -23l-1 1l67 316h326l-5 -31h-295l-53 -248q50 16 128 16q90 0 138 -49t48 -125q0 -112 -70 -176t-171 -64z" />
    <glyph glyph-name="six" unicode="6" horiz-adv-x="543" 
d="M388 672q74 0 117 -21l-4 -29l-2 -1q-43 21 -115 21q-124 0 -201.5 -106t-83.5 -284q25 65 79 106t127 41q79 0 127.5 -47t48.5 -128q0 -102 -60.5 -170.5t-158.5 -68.5q-93 0 -145.5 61t-52.5 172q0 213 89.5 333.5t234.5 120.5zM299 368q-76 0 -129.5 -53t-70.5 -124
q7 -82 50 -128.5t117 -46.5q79 0 129.5 58.5t50.5 145.5q0 68 -39 108t-108 40z" />
    <glyph glyph-name="seven" unicode="7" horiz-adv-x="452" 
d="M105 0l332 629h-359l4 32h395l5 -15l-341 -646h-36z" />
    <glyph glyph-name="eight" unicode="8" horiz-adv-x="558" 
d="M369 339q62 -31 88 -67t26 -92q0 -85 -63.5 -140t-171.5 -55q-94 0 -146 42t-52 118q0 69 41.5 128.5t119.5 100.5q-87 52 -87 127q0 76 56 124t145 48q84 0 133 -36t49 -100q0 -59 -33 -106.5t-105 -91.5zM161 505q0 -43 33 -75.5t107 -60.5q31 -13 41 -17q69 41 100 83
t31 95q0 52 -39.5 81.5t-110.5 29.5q-75 0 -118.5 -37t-43.5 -99zM252 16q92 0 144 44.5t52 115.5q0 60 -35 94t-129 70q-20 7 -46 20q-74 -36 -113.5 -90.5t-39.5 -119.5q0 -63 44 -98.5t123 -35.5z" />
    <glyph glyph-name="nine" unicode="9" horiz-adv-x="539" 
d="M296 675q91 0 145 -60.5t54 -174.5q0 -201 -82.5 -324.5t-231.5 -123.5q-66 0 -121 21l4 31l3 1q57 -23 116 -23q69 0 121.5 31t84 84.5t48.5 115t21 133.5q-65 -127 -198 -127q-82 0 -131.5 52.5t-49.5 132.5q0 104 63.5 167.5t153.5 63.5zM266 290q75 0 124.5 44.5
t69.5 110.5q-1 96 -45.5 147t-120.5 51q-74 0 -127 -53t-53 -140q0 -70 42 -115t110 -45z" />
    <glyph glyph-name="colon" unicode=":" horiz-adv-x="209" 
d="M128 416q-12 0 -18.5 7t-6.5 17q0 12 8.5 21t22.5 9q11 0 17.5 -7t6.5 -17q0 -12 -8.5 -21t-21.5 -9zM69 -2q-24 0 -24 24q0 12 8.5 21t21.5 9q24 0 24 -24q0 -13 -8 -21.5t-22 -8.5z" />
    <glyph glyph-name="semicolon" unicode=";" horiz-adv-x="238" 
d="M148 417q-12 0 -19 7.5t-7 18.5q0 13 9 22t22 9q12 0 19 -7.5t7 -18.5q0 -13 -8.5 -22t-22.5 -9zM26 -145q43 102 45 166v18l34 4l4 -6q-12 -90 -61 -182h-22z" />
    <glyph glyph-name="less" unicode="&#x3c;" horiz-adv-x="432" 
d="M86 291l9 -4l241 -160l-17 -27l-269 178l4 26l318 177l11 -26l-288 -160z" />
    <glyph glyph-name="equal" unicode="=" horiz-adv-x="511" 
d="M99 377l4 29h347l-4 -29h-347zM70 173l4 29h348l-4 -29h-348z" />
    <glyph glyph-name="greater" unicode="&#x3e;" horiz-adv-x="432" 
d="M123 481l268 -177l-4 -26l-317 -178l-12 27l288 160l9 4l-9 4l-241 160z" />
    <glyph glyph-name="question" unicode="?" horiz-adv-x="407" 
d="M140 176q9 62 31.5 103.5t75.5 80.5q26 20 42 35t33.5 37t26 48t8.5 58q0 52 -33 84t-89 32q-83 0 -139 -60l-1 1l5 34q54 56 142 56q64 0 106.5 -39t42.5 -101q0 -69 -31.5 -114t-93.5 -92q-48 -36 -67 -73.5t-27 -89.5h-32zM135 -4q-12 0 -18.5 7t-6.5 17q0 12 8 20.5
t21 8.5q25 0 25 -24q0 -12 -8 -20.5t-21 -8.5z" />
    <glyph glyph-name="at" unicode="@" horiz-adv-x="759" 
d="M559 74q-34 0 -49.5 21t-10.5 55l3 20q-57 -101 -157 -101q-55 0 -90.5 39.5t-35.5 107.5q0 99 57 161t139 62q77 0 117 -56l9 46h24l-35 -257l-2 -15q-8 -56 38 -56q55 0 86.5 65t31.5 159q0 105 -62 179.5t-181 74.5q-147 0 -250.5 -107.5t-103.5 -270.5
q0 -126 74 -201.5t201 -75.5q129 0 224 87h3l12 -19q-103 -95 -243 -95q-139 0 -220.5 82.5t-81.5 218.5q0 176 113.5 291.5t275.5 115.5q130 0 200 -82t70 -195q0 -106 -40.5 -180t-115.5 -74zM353 96q93 0 152 108l9 62l12 88q-36 59 -113 59q-69 0 -116.5 -53.5
t-47.5 -136.5q0 -61 29 -94t75 -33z" />
    <glyph glyph-name="A" unicode="A" horiz-adv-x="604" 
d="M513 0l-59 221h-312l-120 -221h-35l366 674h11l185 -674h-36zM157 249h289l-91 342l-4 19l-9 -19z" />
    <glyph glyph-name="B" unicode="B" horiz-adv-x="549" 
d="M361 350q58 -12 90 -51t32 -95q0 -204 -271 -204h-140l92 660q72 7 140 7q92 0 137 -38.5t45 -102.5q0 -136 -125 -176zM194 633l-38 -276h121q78 0 126.5 44.5t48.5 119.5q0 116 -147 116q-57 0 -111 -4zM214 28q70 0 118.5 14.5t72.5 40.5t34 55t10 65q0 58 -38 92.5
t-111 34.5h-148l-42 -302h104z" />
    <glyph glyph-name="C" unicode="C" horiz-adv-x="623" 
d="M366 -11q-138 0 -218.5 77.5t-80.5 208.5q0 182 101 289.5t261 107.5q111 0 192 -47l-5 -32l-2 -1q-78 49 -188 49q-142 0 -232.5 -99t-90.5 -263q0 -119 72 -189t196 -70q101 0 179 48l2 -1l-5 -31q-79 -47 -181 -47z" />
    <glyph glyph-name="D" unicode="D" horiz-adv-x="703" 
d="M337 668q153 0 236.5 -76.5t83.5 -208.5q0 -179 -106 -282t-298 -103q-106 0 -181 5l93 657q74 8 172 8zM260 30q172 0 266 94t94 253q0 121 -74.5 190t-213.5 69q-80 0 -138 -6l-83 -595q52 -5 149 -5z" />
    <glyph glyph-name="E" unicode="E" horiz-adv-x="525" 
d="M510 628h-315l-38 -269h297l-5 -32h-297l-41 -295h330l-4 -32h-365l92 660h351z" />
    <glyph glyph-name="F" unicode="F" horiz-adv-x="486" 
d="M508 628h-313l-40 -283h267l-4 -32h-268l-44 -313h-34l92 660h348z" />
    <glyph glyph-name="G" unicode="G" horiz-adv-x="677" 
d="M356 -10q-132 0 -210.5 77.5t-78.5 204.5q0 182 102.5 291t263.5 109q119 0 196 -47l-5 -33l-2 -1q-75 50 -193 50q-144 0 -235 -99.5t-91 -264.5q0 -115 70.5 -185.5t191.5 -70.5q106 0 188 53l31 226h33l-34 -245q-100 -65 -227 -65z" />
    <glyph glyph-name="H" unicode="H" horiz-adv-x="712" 
d="M626 660h34l-92 -660h-34l45 323h-427l-46 -323h-34l92 660h35l-43 -306h427z" />
    <glyph glyph-name="I" unicode="I" horiz-adv-x="251" 
d="M72 0l92 660h35l-93 -660h-34z" />
    <glyph glyph-name="J" unicode="J" horiz-adv-x="333" 
d="M26 -3q-21 0 -45 3l5 30l2 1q15 -3 39 -3q69 0 109.5 44.5t51.5 123.5l66 464h34l-65 -464q-13 -96 -62.5 -147.5t-134.5 -51.5z" />
    <glyph glyph-name="K" unicode="K" horiz-adv-x="567" 
d="M596 658l-409 -324l335 -332l-1 -2h-44l-325 323l-46 -323h-34l92 660h35l-44 -315l398 315h42z" />
    <glyph glyph-name="L" unicode="L" horiz-adv-x="481" 
d="M110 30h321l-4 -30h-355l93 660h34z" />
    <glyph glyph-name="M" unicode="M" horiz-adv-x="824" 
d="M714 661h23l-26 -661h-33l23 581h-2l-314 -575h-11l-158 575h-2l-140 -581h-33l160 661h23l166 -587z" />
    <glyph glyph-name="N" unicode="N" horiz-adv-x="710" 
d="M72 0l93 667h14l361 -597h2l83 590h33l-93 -669h-11l-364 599h-2l-83 -590h-33z" />
    <glyph glyph-name="O" unicode="O" horiz-adv-x="752" 
d="M371 -11q-138 0 -220 80.5t-82 219.5q0 175 95.5 279t242.5 104q134 0 215 -81.5t81 -221.5q0 -173 -94.5 -276.5t-237.5 -103.5zM375 20q127 0 210 94.5t83 252.5q0 129 -72 201.5t-193 72.5q-132 0 -215 -95t-83 -254q0 -129 72.5 -200.5t197.5 -71.5z" />
    <glyph glyph-name="P" unicode="P" horiz-adv-x="513" 
d="M304 666q102 0 150.5 -45t48.5 -120q0 -105 -69 -165.5t-195 -60.5q-39 0 -93 6l-40 -281h-34l93 660q62 6 139 6zM240 306q110 0 169 50t59 141q0 62 -40 100t-126 38q-73 0 -107 -4l-45 -319q52 -6 90 -6z" />
    <glyph glyph-name="Q" unicode="Q" horiz-adv-x="757" 
d="M777 -176l1 -2l-6 -25q-85 2 -158.5 22.5t-119.5 45t-117 54t-143 44.5l5 30q205 12 314 107t109 269q0 125 -71 198.5t-191 73.5q-122 0 -201.5 -81.5t-79.5 -212.5q0 -98 58 -159t166 -61q38 0 69 8l2 -1l-1 -30q-30 -8 -75 -8q-121 0 -188 69t-67 179
q0 147 90.5 237.5t230.5 90.5q132 0 213 -81t81 -220q0 -172 -103.5 -276t-289.5 -124q76 -21 158 -59.5t152 -61.5t162 -26z" />
    <glyph glyph-name="R" unicode="R" horiz-adv-x="539" 
d="M496 509q0 -88 -48 -143.5t-124 -73.5l131 -290l-1 -2h-35l-129 286q-22 -2 -35 -2h-109l-40 -284h-34l93 664q62 5 144 5q91 0 139 -41t48 -119zM240 312q96 0 158.5 49t62.5 143q0 135 -154 135q-36 0 -112 -4l-45 -323h90z" />
    <glyph glyph-name="S" unicode="S" horiz-adv-x="499" 
d="M223 -15q-116 0 -188 53l1 37l3 1q74 -59 182 -59q80 0 128.5 40.5t48.5 106.5q0 64 -38 102.5t-108 69.5q-75 34 -116 71.5t-41 98.5q0 78 58.5 122.5t147.5 44.5q96 0 157 -36l-2 -32l-2 -1q-59 39 -152 39q-72 0 -121.5 -34.5t-49.5 -96.5q0 -53 36.5 -84.5
t108.5 -63.5q72 -33 114 -76.5t42 -117.5q0 -85 -56.5 -135t-152.5 -50z" />
    <glyph glyph-name="T" unicode="T" horiz-adv-x="517" 
d="M554 660l-4 -31h-221l-88 -629h-35l89 629h-223l4 31h478z" />
    <glyph glyph-name="U" unicode="U" horiz-adv-x="683" 
d="M312 -15q-104 0 -161.5 54t-57.5 151q0 33 4 58l57 412h35l-57 -408q-4 -25 -4 -53q0 -88 49.5 -135t138.5 -47q97 0 157.5 60.5t76.5 174.5l56 408h34l-57 -412q-18 -128 -87 -195.5t-184 -67.5z" />
    <glyph glyph-name="V" unicode="V" horiz-adv-x="594" 
d="M624 660l1 -2l-357 -677h-16l-172 677l1 2h34l150 -592l4 -24l10 23l311 593h34z" />
    <glyph glyph-name="W" unicode="W" horiz-adv-x="924" 
d="M950 660l1 -2l-305 -675h-23l-110 595l-2 16l-7 -17l-277 -594h-23l-118 675l1 2h35l100 -596l2 -25l10 25l274 595h23l109 -593l2 -24l10 24l265 594h33z" />
    <glyph glyph-name="X" unicode="X" horiz-adv-x="569" 
d="M581 658l-263 -317l191 -339l-1 -2h-37l-178 317l-265 -317h-39l-1 2l287 343l-177 313l1 2h38l164 -293l241 293h38z" />
    <glyph glyph-name="Y" unicode="Y" horiz-adv-x="554" 
d="M224 0l40 285l-181 373l1 2h35l167 -342l261 342h34l1 -2l-284 -373l-40 -285h-34z" />
    <glyph glyph-name="Z" unicode="Z" horiz-adv-x="551" 
d="M7 0l-3 13l509 618h-418l4 29h463l3 -12l-512 -619h435l-4 -29h-477z" />
    <glyph glyph-name="bracketleft" unicode="[" horiz-adv-x="274" 
d="M300 714h-105l-118 -847h106l-5 -27h-135l126 900h136z" />
    <glyph glyph-name="backslash" unicode="\" horiz-adv-x="411" 
d="M320 -117h-33l-177 864h32z" />
    <glyph glyph-name="bracketright" unicode="]" horiz-adv-x="274" 
d="M104 740h136l-127 -900h-136l5 27h104l119 847h-106z" />
    <glyph glyph-name="asciicircum" unicode="^" horiz-adv-x="455" 
d="M296 666l115 -306l-26 -12l-102 278l-3 10l-6 -10l-178 -278l-23 12l200 306h23z" />
    <glyph glyph-name="underscore" unicode="_" horiz-adv-x="433" 
d="M-6 -30l5 29h363l-4 -29h-364z" />
    <glyph glyph-name="grave" unicode="`" horiz-adv-x="221" 
d="M230 574l-150 105l-1 7l24 27l140 -118z" />
    <glyph glyph-name="a" unicode="a" horiz-adv-x="535" 
d="M480 42l2 -1l-5 -31q-19 -15 -50 -15q-58 0 -58 57q0 12 3 25l3 18q-77 -106 -194 -106q-66 0 -109.5 35t-43.5 96q0 44 18 77.5t49.5 52.5t68 28t77.5 9q99 0 155 -28l9 63q3 18 3 37q0 68 -41 103t-112 35q-99 0 -157 -51l-2 1l4 32q20 19 65 34t97 15q84 0 132 -42
t48 -121q0 -19 -3 -42l-32 -229q-2 -16 -2 -21q-4 -46 36 -46q21 0 39 15zM188 19q116 0 191 115l13 96q-53 28 -150 28q-76 0 -127 -32.5t-51 -100.5q0 -49 35.5 -77.5t88.5 -28.5z" />
    <glyph glyph-name="b" unicode="b" horiz-adv-x="581" 
d="M336 528q86 0 137.5 -53.5t51.5 -152.5q0 -153 -77 -243t-200 -90q-111 0 -188 46l93 676h35l-40 -291q29 54 79 81t109 27zM252 20q103 0 170 80.5t67 214.5q0 88 -44 134.5t-115 46.5q-65 0 -119 -38.5t-74 -115.5l-40 -285q65 -37 155 -37z" />
    <glyph glyph-name="c" unicode="c" horiz-adv-x="486" 
d="M273 -11q-100 0 -159 61t-59 166q0 144 82 228.5t203 84.5q79 0 125 -28l-4 -31l-2 -1q-49 28 -122 28q-106 0 -176 -74t-70 -201q0 -93 50 -147.5t139 -54.5q67 0 131 35l2 -1l-4 -31q-61 -34 -136 -34z" />
    <glyph glyph-name="d" unicode="d" horiz-adv-x="580" 
d="M516 711h35l-99 -711h-29l7 92q-58 -103 -190 -103q-85 0 -136 56t-51 152q0 150 79 240.5t199 90.5q93 0 152 -54zM248 20q66 0 119 37.5t73 108.5l38 271q-51 59 -149 59q-103 0 -171 -80t-68 -212q0 -86 43 -135t115 -49z" />
    <glyph glyph-name="e" unicode="e" horiz-adv-x="549" 
d="M312 528q96 0 143.5 -55.5t47.5 -135.5q0 -30 -9 -75h-401q-2 -26 -2 -41q0 -97 53 -149.5t137 -52.5q98 0 161 47l2 -1l-5 -33q-63 -45 -162 -45q-98 0 -160 60t-62 172q0 138 75.5 223.5t181.5 85.5zM97 291h368q4 20 4 45q0 67 -38.5 113.5t-121.5 46.5
q-77 0 -135.5 -55.5t-76.5 -149.5z" />
    <glyph glyph-name="f" unicode="f" horiz-adv-x="302" 
d="M311 714q44 0 66 -13l-4 -29l-2 -1q-28 12 -60 12q-108 0 -127 -136l-4 -30h134l-4 -30h-134l-91 -651h-35l91 651h-68l4 30h68l4 27q25 170 162 170z" />
    <glyph glyph-name="g" unicode="g" horiz-adv-x="529" 
d="M526 517l-4 -29l-128 1q65 -39 65 -117q0 -77 -55.5 -126t-143.5 -49q-56 0 -98 21q-39 -20 -39 -52q0 -25 29.5 -38.5t114.5 -23.5q99 -13 141.5 -38.5t42.5 -81.5q0 -76 -69 -115t-179 -39q-85 0 -140 26t-55 86q0 93 138 152q-57 19 -57 62q0 45 51 75q-52 39 -52 109
q0 78 57 127.5t145 49.5h236zM425 370q0 54 -37.5 86t-100.5 32q-72 0 -118 -41t-46 -104q0 -53 37.5 -84t103.5 -32q72 -1 116.5 39t44.5 104zM417 -22q0 45 -37 65t-126 31q-58 8 -75 12q-68 -30 -103 -60.5t-35 -75.5q0 -91 168 -91q93 0 150.5 29.5t57.5 89.5z" />
    <glyph glyph-name="h" unicode="h" horiz-adv-x="582" 
d="M336 528q77 0 124 -43t47 -130q0 -29 -4 -54l-42 -301h-34l43 310q2 12 2 35q0 77 -39 114t-106 37q-65 0 -117.5 -40t-70.5 -113l-48 -343h-34l99 711h35l-41 -288q27 49 76 77t110 28z" />
    <glyph glyph-name="i" unicode="i" horiz-adv-x="220" 
d="M166 638q-12 0 -19.5 7.5t-7.5 19.5q0 14 9 22t21 8q11 0 18.5 -7t7.5 -19q0 -14 -8.5 -22.5t-20.5 -8.5zM57 0l72 517h35l-73 -517h-34z" />
    <glyph glyph-name="j" unicode="j" horiz-adv-x="235" 
d="M183 638q-12 0 -19.5 7.5t-7.5 19.5q0 14 9 22t21 8q11 0 18.5 -7t7.5 -19q0 -14 -8.5 -22.5t-20.5 -8.5zM-55 -168q-19 0 -36 4l4 30l3 1q12 -3 28 -3q110 0 129 144l72 509h34l-72 -515q-23 -170 -162 -170z" />
    <glyph glyph-name="k" unicode="k" horiz-adv-x="481" 
d="M476 514l-312 -247l270 -265l-1 -2h-45l-260 257l-36 -257h-35l99 711h35l-60 -434l300 240h44z" />
    <glyph glyph-name="l" unicode="l" horiz-adv-x="240" 
d="M138 -8q-84 0 -72 89l88 630h34l-86 -616q-5 -38 5 -54.5t41 -16.5q19 0 39 14l2 -1l-4 -31q-22 -14 -47 -14z" />
    <glyph glyph-name="m" unicode="m" horiz-adv-x="896" 
d="M663 528q67 0 112 -40.5t45 -125.5q0 -38 -5 -70l-41 -292h-34l40 285q4 27 4 75q0 70 -37 102.5t-93 32.5q-67 0 -116 -45t-61 -126l-3 -32l-41 -292h-34l39 285q5 33 5 75q0 70 -36.5 102.5t-92.5 32.5q-68 0 -117.5 -45.5t-60.5 -126.5l-45 -323h-34l72 517h29l-9 -94
q24 50 69.5 77.5t103.5 27.5q61 0 103.5 -33t50.5 -103q22 64 71.5 100t115.5 36z" />
    <glyph glyph-name="n" unicode="n" horiz-adv-x="584" 
d="M338 528q73 0 121.5 -42.5t48.5 -129.5q0 -26 -4 -64l-41 -292h-35l40 285q5 33 5 64q0 75 -41 111t-102 36q-72 0 -127.5 -48t-66.5 -125l-45 -323h-34l72 517h29l-10 -102q26 52 76.5 82.5t113.5 30.5z" />
    <glyph glyph-name="o" unicode="o" horiz-adv-x="605" 
d="M280 -12q-99 0 -161.5 63t-62.5 174q0 130 75 216t192 86q101 0 164 -63t63 -173q0 -130 -75.5 -216.5t-194.5 -86.5zM285 19q104 0 166.5 78t62.5 193q0 96 -53.5 151t-141.5 55q-103 0 -165 -78t-62 -191q0 -97 53 -152.5t140 -55.5z" />
    <glyph glyph-name="p" unicode="p" horiz-adv-x="582" 
d="M337 528q85 0 138 -54t53 -154q0 -152 -78 -241.5t-201 -89.5q-88 0 -153 37l-27 -190h-35l96 681h28l-8 -92q60 103 187 103zM251 20q105 0 172.5 79.5t67.5 212.5q0 91 -45.5 137.5t-117.5 46.5q-59 0 -113.5 -38t-74.5 -113l-40 -284q65 -41 151 -41z" />
    <glyph glyph-name="q" unicode="q" horiz-adv-x="582" 
d="M497 517h28l-96 -681h-35l38 263q-29 -55 -80.5 -82.5t-110.5 -27.5q-85 0 -136 54t-51 151q0 151 79 242.5t198 91.5q101 0 157 -59zM440 157l36 252l5 25q-53 63 -151 63q-103 0 -171 -81.5t-68 -214.5q0 -87 42.5 -134t117.5 -47q59 0 111 33.5t78 103.5z" />
    <glyph glyph-name="r" unicode="r" horiz-adv-x="351" 
d="M308 528q32 0 54 -11l-4 -31l-3 -1q-16 10 -50 10q-26 0 -46.5 -5t-44.5 -20t-43.5 -49t-32.5 -85v1l-47 -337h-34l72 517h29l-9 -91q48 102 159 102z" />
    <glyph glyph-name="s" unicode="s" horiz-adv-x="453" 
d="M179 -12q-106 0 -159 41l5 35l2 1q53 -46 157 -46q76 0 122.5 31.5t46.5 90.5q0 44 -30 66.5t-101 44.5q-69 21 -105.5 49t-36.5 78q0 69 56.5 108.5t145.5 39.5q76 0 130 -26l-4 -31l-2 -1q-55 27 -128 27q-72 0 -117.5 -30t-45.5 -83q0 -39 31 -60t97 -42
q75 -22 110 -51t35 -81q0 -78 -58 -119.5t-151 -41.5z" />
    <glyph glyph-name="t" unicode="t" horiz-adv-x="342" 
d="M191 487l-46 -331q-3 -20 -3 -42q0 -40 26 -63.5t73 -23.5q35 0 69 18l1 -1l-5 -30q-28 -18 -74 -18q-57 0 -91 29.5t-34 80.5q0 19 4 48l46 333h-117l5 30h116l17 122l34 6l1 -1l-18 -127h167l-4 -30h-167z" />
    <glyph glyph-name="u" unicode="u" horiz-adv-x="569" 
d="M478 517h35l-73 -517h-28l7 84q-69 -95 -185 -95q-74 0 -116.5 40.5t-42.5 118.5q0 18 4 58l43 311h36l-44 -308q-4 -34 -4 -55q0 -65 35.5 -99.5t96.5 -34.5q57 0 105 30t77 84z" />
    <glyph glyph-name="v" unicode="v" horiz-adv-x="519" 
d="M526 517l1 -3l-292 -523h-23l-149 523l1 3h37l129 -478l261 478h35z" />
    <glyph glyph-name="w" unicode="w" horiz-adv-x="766" 
d="M768 517l1 -3l-233 -514h-33l-85 454l-2 19l-8 -19l-216 -454h-32l-93 514l1 3h34l79 -455l1 -17l7 17l215 455h35l86 -454l2 -17l6 17l204 454h31z" />
    <glyph glyph-name="x" unicode="x" horiz-adv-x="492" 
d="M490 514l-221 -248l158 -264l-1 -2h-36l-145 243l-215 -243h-38l-1 2l237 265l-153 247l1 3h37l138 -228l201 228h37z" />
    <glyph glyph-name="y" unicode="y" horiz-adv-x="510" 
d="M519 514l-277 -514l-3 -6q-50 -89 -88.5 -125.5t-101.5 -36.5q-26 0 -51 7l5 29l2 1q22 -6 48 -6q49 0 82.5 31.5t72.5 103.5l6 10l-149 506l1 3h37l133 -469l247 469h35z" />
    <glyph glyph-name="z" unicode="z" horiz-adv-x="482" 
d="M469 502l-412 -472h356l-4 -30h-400l-2 16l411 471h-342l4 30h387z" />
    <glyph glyph-name="braceleft" unicode="{" horiz-adv-x="283" 
d="M298 742h16l-4 -29h-10q-43 0 -64 -16t-28 -67l-34 -239q-7 -48 -40.5 -74t-61.5 -26v-2q28 0 54.5 -26t19.5 -74l-34 -239q-7 -52 9.5 -68.5t60.5 -16.5h9l-3 -27h-17q-56 0 -77.5 22.5t-12.5 88.5l33 234q5 41 -18.5 65.5t-51.5 24.5l5 35q28 0 59 24t36 64l33 235
q9 65 36.5 88t84.5 23z" />
    <glyph glyph-name="bar" unicode="|" horiz-adv-x="236" 
d="M51 -103l117 830h32l-117 -830h-32z" />
    <glyph glyph-name="braceright" unicode="}" horiz-adv-x="283" 
d="M247 307l-4 -35q-28 0 -59 -24t-36 -66l-33 -234q-10 -65 -37 -87.5t-83 -22.5h-18l5 27h10q44 0 65 16.5t28 68.5l33 239q7 48 41 74t62 26v2q-28 0 -55 26t-20 74l34 239q7 51 -9 67t-60 16h-11l4 29h18q55 0 76 -23t12 -88l-32 -235q-5 -41 18 -65t51 -24z" />
    <glyph glyph-name="asciitilde" unicode="~" horiz-adv-x="496" 
d="M105 249l-25 4q5 35 32 56t62 21t85.5 -23.5t76.5 -23.5q24 0 43 12.5t23 37.5l1 1l23 -4q-5 -34 -31.5 -55t-61.5 -21q-31 0 -81.5 23t-79.5 23q-25 0 -44 -12.5t-22 -36.5z" />
    <glyph glyph-name="exclamdown" unicode="&#xa1;" horiz-adv-x="216" 
d="M140 480q-10 0 -16.5 7t-6.5 17q0 12 8.5 20.5t21.5 8.5q10 0 16.5 -7t6.5 -17q0 -12 -8.5 -20.5t-21.5 -8.5zM33 -151l73 501h29l-67 -501h-35z" />
    <glyph glyph-name="cent" unicode="&#xa2;" horiz-adv-x="568" 
d="M386 608q87 0 153 -34l-4 -30l-3 -2q-67 35 -150 35q-123 0 -201.5 -79t-78.5 -203q0 -95 55 -151.5t154 -56.5q94 0 173 46l3 -1l-5 -30q-78 -46 -176 -47l-12 -92h-33l12 93q-98 9 -153.5 71.5t-55.5 161.5q0 133 81 220t208 98l14 95h33z" />
    <glyph glyph-name="sterling" unicode="&#xa3;" horiz-adv-x="554" 
d="M375 671q98 0 153 -43l-5 -33h-1q-58 44 -150 44q-84 0 -139 -57.5t-57 -163.5q-1 -32 0 -65h233l-4 -29h-228q2 -61 1 -86q-2 -62 -21.5 -118t-53.5 -90h367l-5 -30h-421l1 5q57 52 78.5 110.5t21.5 138.5q0 20 -2 70h-93l5 29h86q0 9 -0.5 25t-0.5 23q0 130 67 200
t168 70z" />
    <glyph glyph-name="currency" unicode="&#xa4;" horiz-adv-x="681" 
d="M571 508q39 -59 39 -142q0 -137 -85 -224l52 -62l-27 -24l-51 63q-72 -57 -168 -57q-112 0 -175 65l-78 -71l-20 24l78 70q-46 61 -46 150q0 136 83 222l-51 63l26 23l51 -62q72 58 170 58q117 0 182 -71l76 69l20 -24zM121 303q0 -94 56 -153t158 -59q106 0 175.5 76
t69.5 195q0 94 -56.5 153t-158.5 59q-106 0 -175 -76t-69 -195z" />
    <glyph glyph-name="yen" unicode="&#xa5;" horiz-adv-x="583" 
d="M601 667l-270 -353h167l-3 -29h-184l-17 -121h184l-4 -29h-184l-19 -135h-32l19 135h-182l4 29h182l17 121h-182l3 29h168l-172 353h38l167 -347l264 347h36z" />
    <glyph glyph-name="brokenbar" unicode="&#xa6;" horiz-adv-x="243" 
d="M127 422l44 305h32l-43 -305h-33zM54 -103l43 312h33l-44 -312h-32z" />
    <glyph glyph-name="section" unicode="&#xa7;" horiz-adv-x="494" 
d="M320 683q95 0 146 -39l-5 -31h-1q-53 40 -142 40q-72 0 -120.5 -34.5t-48.5 -98.5q0 -11 2 -20.5t7.5 -18.5t10 -16t15 -15.5t16.5 -13.5t21 -13.5t22 -12.5t25.5 -14t25.5 -14q71 -39 105.5 -73.5t34.5 -82.5q0 -79 -77 -130q29 -34 29 -74q0 -79 -60.5 -124t-148.5 -45
q-96 0 -150 40l5 31l1 1q55 -42 147 -42q73 0 121.5 34.5t48.5 100.5q0 12 -3.5 23t-7.5 19t-14.5 18t-17 15.5t-23 15.5t-23.5 14t-28 15.5t-29 15.5q-70 40 -104 73.5t-34 81.5q0 78 78 131q-30 33 -30 77q0 79 59 122.5t147 43.5zM270 356q-84 46 -110 69
q-61 -42 -61 -109q0 -39 31.5 -69.5t97.5 -66.5q86 -46 114 -70q59 44 59 109q0 40 -31 69.5t-100 67.5z" />
    <glyph glyph-name="dieresis" unicode="&#xa8;" horiz-adv-x="254" 
d="M98 638q-11 0 -18.5 7t-7.5 19q0 14 9 22t20 8t18.5 -7t7.5 -19q0 -14 -8.5 -22t-20.5 -8zM261 638q-11 0 -18.5 7t-7.5 19q0 14 9 22t20 8t18.5 -7t7.5 -19q0 -14 -8.5 -22t-20.5 -8z" />
    <glyph glyph-name="copyright" unicode="&#xa9;" horiz-adv-x="671" 
d="M298 -9q-106 0 -171.5 70t-65.5 183q0 142 93.5 237.5t225.5 95.5q106 0 172 -69.5t66 -182.5q0 -143 -93.5 -238.5t-226.5 -95.5zM301 15q122 0 206 87.5t84 220.5q0 103 -59.5 166.5t-154.5 63.5q-119 0 -203.5 -87.5t-84.5 -219.5q0 -103 59 -167t153 -64zM327 132
q-60 0 -95 34.5t-35 92.5q0 77 49.5 125.5t123.5 48.5q45 0 82 -16l-3 -27l-3 -1q-34 17 -76 17q-63 0 -103 -39.5t-40 -102.5q0 -47 28.5 -76t78.5 -29q49 0 88 22l2 -1l-4 -26q-44 -22 -93 -22z" />
    <glyph glyph-name="ordfeminine" unicode="&#xaa;" horiz-adv-x="453" 
d="M416 383h2l-3 -25q-17 -12 -33 -12q-50 0 -43 57q0 2 0.5 6t0.5 6q-62 -74 -147 -74q-48 0 -79.5 26t-31.5 70q0 63 46 92.5t111 29.5q75 0 117 -21l6 44q9 62 -21.5 93t-88.5 31q-62 0 -103 -26l-2 1l4 24q37 26 106 26q72 0 107.5 -37t24.5 -112l-22 -161
q-7 -48 21 -48q15 0 28 10zM200 366q37 0 77 21.5t66 59.5l10 67q-40 20 -113 20q-128 0 -128 -93q0 -35 24.5 -55t63.5 -20z" />
    <glyph glyph-name="guillemotleft" unicode="&#xab;" horiz-adv-x="508" 
d="M264 86l-144 188l196 181h34v-6l-191 -176l138 -181l-1 -6h-32zM450 86l-144 188l196 181h34v-6l-191 -176l138 -181l-1 -6h-32z" />
    <glyph glyph-name="registered" unicode="&#xae;" horiz-adv-x="607" 
d="M369 718q91 0 147 -60t56 -156q0 -123 -80 -205t-194 -82q-92 0 -149 60t-57 157q0 123 81 204.5t196 81.5zM301 237q103 0 174 75t71 188q0 87 -50 141.5t-131 54.5q-102 0 -174 -75t-72 -187q0 -88 50 -142.5t132 -54.5zM429 531q0 -69 -58 -88l53 -94h-31l-50 89
q-4 -1 -13 -1h-61l-12 -88h-26l34 246q28 2 85 2q79 0 79 -66zM344 462q27 0 42 17t15 48q0 45 -55 45q-50 0 -58 -1l-15 -109h71z" />
    <glyph glyph-name="macron" unicode="&#xaf;" horiz-adv-x="332" 
d="M76 628l4 29h268l-4 -29h-268z" />
    <glyph glyph-name="degree" unicode="&#xb0;" horiz-adv-x="335" 
d="M212 449q-49 0 -80.5 31.5t-31.5 78.5q0 48 31.5 79.5t80.5 31.5q48 0 79 -31.5t31 -79.5q0 -47 -31 -78.5t-79 -31.5zM212 472q37 0 61 25t24 62t-24 62.5t-61 25.5q-38 0 -62.5 -25.5t-24.5 -62.5t24.5 -62t62.5 -25z" />
    <glyph glyph-name="plusminus" unicode="&#xb1;" horiz-adv-x="504" 
d="M429 282h-159l-23 -165h157l-4 -29h-344l4 29h158l23 165h-159l4 28h159l26 182h29l-26 -182h158z" />
    <glyph glyph-name="acute" unicode="&#xb4;" horiz-adv-x="220" 
d="M97 570l-14 21l134 124l25 -25v-7z" />
    <glyph glyph-name="paragraph" unicode="&#xb6;" horiz-adv-x="535" 
d="M533 601l-5 -31h-62l-96 -680h-16l95 680h-70l-95 -680h-33l47 342q-137 -1 -193.5 43t-42.5 145q25 181 265 181h206z" />
    <glyph glyph-name="periodcentered" unicode="&#xb7;" horiz-adv-x="210" 
d="M100 217q-24 0 -24 23q0 13 8 22t22 9q24 0 24 -24q0 -13 -8 -21.5t-22 -8.5z" />
    <glyph glyph-name="cedilla" unicode="&#xb8;" horiz-adv-x="193" 
d="M15 -221q-35 0 -59 11l4 24l1 1q21 -11 54 -11q35 0 57.5 17.5t22.5 50.5q0 25 -14 37.5t-37 12.5q-31 0 -55 -11l-1 1l3 22l46 66h26l-40 -59q17 5 34 5q31 0 50.5 -17.5t19.5 -51.5q0 -48 -32 -73t-80 -25z" />
    <glyph glyph-name="ordmasculine" unicode="&#xba;" horiz-adv-x="484" 
d="M255 332q-72 0 -117 46.5t-45 128.5q0 106 62.5 171t152.5 65q72 0 117 -46t45 -128q0 -105 -63 -171t-152 -66zM259 360q76 0 127.5 57t51.5 150q0 70 -36.5 109.5t-96.5 39.5q-77 0 -129 -57t-52 -151q0 -69 37 -108.5t98 -39.5z" />
    <glyph glyph-name="guillemotright" unicode="&#xbb;" horiz-adv-x="508" 
d="M135 455l144 -188l-196 -181h-34v6l191 176l-138 181l1 6h32zM320 455l144 -188l-196 -181h-34v6l191 176l-138 181l1 6h32z" />
    <glyph glyph-name="onequarter" unicode="&#xbc;" horiz-adv-x="674" 
d="M104 301l47 329l-92 -42l5 33l117 52h5l-52 -372h-30zM570 661h31l-520 -673h-31zM633 107l-4 -22h-69l-12 -85h-28l12 85h-202l2 11l249 283h20l-38 -272h70zM373 107h162l32 222z" />
    <glyph glyph-name="onehalf" unicode="&#xbd;" horiz-adv-x="696" 
d="M134 301l47 329l-91 -42l5 33l117 52h5l-52 -372h-31zM34 -12l521 673h30l-519 -673h-32zM375 0q2 35 33 75.5t89 77.5q64 40 88.5 67.5t24.5 60.5q0 29 -20.5 47.5t-57.5 18.5q-65 0 -109 -44l-1 1l4 29q46 42 113 42q46 0 74 -24.5t28 -63.5q0 -43 -26.5 -75.5
t-92.5 -73.5q-98 -62 -108 -112h209l-4 -26h-244z" />
    <glyph glyph-name="threequarters" unicode="&#xbe;" horiz-adv-x="741" 
d="M299 416q0 -55 -39.5 -89t-100.5 -34q-67 0 -107 31l4 29h1q37 -35 105 -35q46 0 77.5 26.5t31.5 70.5q0 35 -23 52t-59 17h-38l3 23h34q37 0 64 22t27 59q0 29 -20.5 45t-57.5 16q-53 0 -94 -29h-1l3 27q41 28 96 28q48 0 76 -21t28 -61q0 -68 -69 -96q59 -19 59 -81z
M644 661h31l-520 -673h-31zM683 107l-3 -22h-70l-12 -85h-28l12 85h-201l1 11l249 283h20l-38 -272h70zM423 107h162l32 222z" />
    <glyph glyph-name="questiondown" unicode="&#xbf;" horiz-adv-x="399" 
d="M339 529q12 0 18.5 -7t6.5 -17q0 -12 -8 -20.5t-21 -8.5q-25 0 -25 24q0 12 8 20.5t21 8.5zM334 349q-9 -62 -31.5 -103.5t-75.5 -80.5q-26 -20 -42 -35t-33.5 -37t-26 -48t-8.5 -58q0 -52 33 -84t89 -32q83 0 139 60l1 -1l-5 -34q-54 -56 -142 -56q-64 0 -106.5 39
t-42.5 101q0 69 31.5 114t93.5 92q48 36 67 73.5t27 89.5h32z" />
    <glyph glyph-name="Agrave" unicode="&#xc0;" horiz-adv-x="604" 
d="M436 702l-159 91l-2 7l20 27l152 -105zM513 0l-59 221h-312l-120 -221h-35l366 674h11l185 -674h-36zM157 249h289l-91 342l-4 19l-9 -19z" />
    <glyph glyph-name="Aacute" unicode="&#xc1;" horiz-adv-x="604" 
d="M462 791l-180 -90l-9 21l176 104l16 -28zM513 0l-59 221h-312l-120 -221h-35l366 674h11l185 -674h-36zM157 249h289l-91 342l-4 19l-9 -19z" />
    <glyph glyph-name="Acircumflex" unicode="&#xc2;" horiz-adv-x="604" 
d="M373 794l-120 -94l-12 18l128 109h16l101 -109l-16 -18zM513 0l-59 221h-312l-120 -221h-35l366 674h11l185 -674h-36zM157 249h289l-91 342l-4 19l-9 -19z" />
    <glyph glyph-name="Atilde" unicode="&#xc3;" horiz-adv-x="604" 
d="M258 722l-1 -1l-23 6q4 33 25.5 53t49.5 20q25 0 65.5 -21t58.5 -21q17 0 31.5 12.5t18.5 35.5l1 1l24 -6q-6 -34 -27 -54t-49 -20q-22 0 -62.5 21.5t-61.5 21.5q-18 0 -32 -12.5t-18 -35.5zM513 0l-59 221h-312l-120 -221h-35l366 674h11l185 -674h-36zM157 249h289
l-91 342l-4 19l-9 -19z" />
    <glyph glyph-name="Adieresis" unicode="&#xc4;" horiz-adv-x="604" 
d="M283 741q-25 0 -25 25q0 13 8.5 20.5t19.5 7.5q10 0 17 -6.5t7 -17.5q0 -13 -8 -21t-19 -8zM457 741q-10 0 -17.5 7t-7.5 18q0 13 8.5 20.5t19.5 7.5q25 0 25 -24q0 -13 -8 -21t-20 -8zM513 0l-59 221h-312l-120 -221h-35l366 674h11l185 -674h-36zM157 249h289l-91 342
l-4 19l-9 -19z" />
    <glyph glyph-name="Aring" unicode="&#xc5;" horiz-adv-x="604" 
d="M364 678q-31 0 -51 19t-20 49q0 36 23 60t58 24q31 0 50.5 -18.5t19.5 -48.5q0 -37 -21.5 -61t-58.5 -24zM372 808q-24 0 -39 -17t-15 -42q0 -22 13.5 -35.5t35.5 -13.5q25 0 39.5 17t14.5 42q0 21 -13.5 35t-35.5 14zM513 0l-59 221h-312l-120 -221h-35l366 674h11
l185 -674h-36zM157 249h289l-91 342l-4 19l-9 -19z" />
    <glyph glyph-name="AE" unicode="&#xc6;" horiz-adv-x="777" 
d="M763 630h-271l-38 -272h252l-4 -30h-253l-41 -298h285l-4 -30h-321l33 232h-234l-173 -232h-36l496 660h313zM187 258h217l51 361l-40 -56z" />
    <glyph glyph-name="Ccedilla" unicode="&#xc7;" horiz-adv-x="623" 
d="M429 672q111 0 192 -47l-5 -32l-2 -1q-78 49 -188 49q-142 0 -232.5 -99t-90.5 -263q0 -119 72 -189t196 -70q101 0 179 48l2 -1l-5 -31q-79 -47 -181 -47h-1l-33 -48q17 5 34 5q31 0 50.5 -17.5t19.5 -51.5q0 -48 -32 -73t-80 -25q-35 0 -59 11l4 24l1 1q21 -11 54 -11
q35 0 57.5 17.5t22.5 50.5q0 25 -14 37.5t-37 12.5q-31 0 -55 -11l-1 1l3 22l39 56q-126 7 -199 84t-73 201q0 182 101 289.5t261 107.5z" />
    <glyph glyph-name="Egrave" unicode="&#xc8;" horiz-adv-x="525" 
d="M424 702l-159 91l-2 7l20 27l152 -105zM510 628h-315l-38 -269h297l-5 -32h-297l-41 -295h330l-4 -32h-365l92 660h351z" />
    <glyph glyph-name="Eacute" unicode="&#xc9;" horiz-adv-x="525" 
d="M450 791l-180 -90l-9 21l176 104l16 -28zM510 628h-315l-38 -269h297l-5 -32h-297l-41 -295h330l-4 -32h-365l92 660h351z" />
    <glyph glyph-name="Ecircumflex" unicode="&#xca;" horiz-adv-x="525" 
d="M361 794l-120 -94l-12 18l128 109h16l101 -109l-16 -18zM510 628h-315l-38 -269h297l-5 -32h-297l-41 -295h330l-4 -32h-365l92 660h351z" />
    <glyph glyph-name="Edieresis" unicode="&#xcb;" horiz-adv-x="525" 
d="M271 741q-25 0 -25 25q0 13 8.5 20.5t19.5 7.5q10 0 17 -6.5t7 -17.5q0 -13 -8 -21t-19 -8zM445 741q-10 0 -17.5 7t-7.5 18q0 13 8.5 20.5t19.5 7.5q25 0 25 -24q0 -13 -8 -21t-20 -8zM510 628h-315l-38 -269h297l-5 -32h-297l-41 -295h330l-4 -32h-365l92 660h351z" />
    <glyph glyph-name="Igrave" unicode="&#xcc;" horiz-adv-x="251" 
d="M262 702l-159 91l-2 7l20 27l152 -105zM72 0l92 660h35l-93 -660h-34z" />
    <glyph glyph-name="Iacute" unicode="&#xcd;" horiz-adv-x="251" 
d="M108 701l-9 21l176 104l16 -28l-3 -7zM72 0l92 660h35l-93 -660h-34z" />
    <glyph glyph-name="Icircumflex" unicode="&#xce;" horiz-adv-x="251" 
d="M79 700l-12 18l128 109h16l101 -109l-16 -18l-97 94zM72 0l92 660h35l-93 -660h-34z" />
    <glyph glyph-name="Idieresis" unicode="&#xcf;" horiz-adv-x="251" 
d="M109 741q-25 0 -25 25q0 13 8.5 20.5t19.5 7.5q10 0 17 -6.5t7 -17.5q0 -13 -8 -21t-19 -8zM283 741q-10 0 -17.5 7t-7.5 18q0 13 8.5 20.5t19.5 7.5q25 0 25 -24q0 -13 -8 -21t-20 -8zM72 0l92 660h35l-93 -660h-34z" />
    <glyph glyph-name="Eth" unicode="&#xd0;" horiz-adv-x="703" 
d="M337 668q153 0 236.5 -76.5t83.5 -208.5q0 -179 -106 -282t-298 -103q-106 0 -181 5l44 314h-87l4 27h87l45 316q74 8 172 8zM260 30q172 0 266 94t94 253q0 121 -74.5 190t-213.5 69q-80 0 -138 -6l-40 -286h110l-4 -27h-110l-39 -282q52 -5 149 -5z" />
    <glyph glyph-name="Ntilde" unicode="&#xd1;" horiz-adv-x="710" 
d="M317 721l-23 6q4 33 25.5 53t49.5 20q25 0 65.5 -21t58.5 -21q17 0 31.5 12.5t18.5 35.5l1 1l24 -6q-6 -34 -27 -54t-49 -20q-22 0 -62.5 21.5t-61.5 21.5q-18 0 -32 -12.5t-18 -35.5zM72 0l93 667h14l361 -597h2l83 590h33l-93 -669h-11l-364 599h-2l-83 -590h-33z" />
    <glyph glyph-name="Ograve" unicode="&#xd2;" horiz-adv-x="752" 
d="M504 701l-159 91l-2 7l20 27l152 -105zM371 -11q-138 0 -220 80.5t-82 219.5q0 175 95.5 279t242.5 104q134 0 215 -81.5t81 -221.5q0 -173 -94.5 -276.5t-237.5 -103.5zM375 20q127 0 210 94.5t83 252.5q0 129 -72 201.5t-193 72.5q-132 0 -215 -95t-83 -254
q0 -129 72.5 -200.5t197.5 -71.5z" />
    <glyph glyph-name="Oacute" unicode="&#xd3;" horiz-adv-x="752" 
d="M350 700l-9 21l176 104l16 -28l-3 -7zM371 -11q-138 0 -220 80.5t-82 219.5q0 175 95.5 279t242.5 104q134 0 215 -81.5t81 -221.5q0 -173 -94.5 -276.5t-237.5 -103.5zM375 20q127 0 210 94.5t83 252.5q0 129 -72 201.5t-193 72.5q-132 0 -215 -95t-83 -254
q0 -129 72.5 -200.5t197.5 -71.5z" />
    <glyph glyph-name="Ocircumflex" unicode="&#xd4;" horiz-adv-x="752" 
d="M321 699l-12 18l128 109h16l101 -109l-16 -18l-97 94zM371 -11q-138 0 -220 80.5t-82 219.5q0 175 95.5 279t242.5 104q134 0 215 -81.5t81 -221.5q0 -173 -94.5 -276.5t-237.5 -103.5zM375 20q127 0 210 94.5t83 252.5q0 129 -72 201.5t-193 72.5q-132 0 -215 -95
t-83 -254q0 -129 72.5 -200.5t197.5 -71.5z" />
    <glyph glyph-name="Otilde" unicode="&#xd5;" horiz-adv-x="752" 
d="M325 720l-23 6q4 33 25.5 53t49.5 20q25 0 65.5 -21t58.5 -21q17 0 31.5 12.5t18.5 35.5l1 1l24 -6q-6 -34 -27 -54t-49 -20q-22 0 -62.5 21.5t-61.5 21.5q-18 0 -32 -12.5t-18 -35.5zM371 -11q-138 0 -220 80.5t-82 219.5q0 175 95.5 279t242.5 104q134 0 215 -81.5
t81 -221.5q0 -173 -94.5 -276.5t-237.5 -103.5zM375 20q127 0 210 94.5t83 252.5q0 129 -72 201.5t-193 72.5q-132 0 -215 -95t-83 -254q0 -129 72.5 -200.5t197.5 -71.5z" />
    <glyph glyph-name="Odieresis" unicode="&#xd6;" horiz-adv-x="752" 
d="M351 740q-25 0 -25 25q0 13 8.5 20.5t19.5 7.5q10 0 17 -6.5t7 -17.5q0 -13 -8 -21t-19 -8zM525 740q-10 0 -17.5 7t-7.5 18q0 13 8.5 20.5t19.5 7.5q25 0 25 -24q0 -13 -8 -21t-20 -8zM371 -11q-138 0 -220 80.5t-82 219.5q0 175 95.5 279t242.5 104q134 0 215 -81.5
t81 -221.5q0 -173 -94.5 -276.5t-237.5 -103.5zM375 20q127 0 210 94.5t83 252.5q0 129 -72 201.5t-193 72.5q-132 0 -215 -95t-83 -254q0 -129 72.5 -200.5t197.5 -71.5z" />
    <glyph glyph-name="multiply" unicode="&#xd7;" horiz-adv-x="485" 
d="M449 449l-179 -159l131 -159l-23 -19l-131 158l-179 -159l-20 24l179 159l-132 158l24 20l131 -158l178 158z" />
    <glyph glyph-name="Oslash" unicode="&#xd8;" horiz-adv-x="752" 
d="M612 600q91 -83 91 -231q0 -173 -94.5 -276.5t-237.5 -103.5q-114 0 -190 55l-80 -103h-31v4l90 116q-91 82 -91 228q0 175 95.5 279t242.5 104q109 0 184 -55l79 101h31v-3zM105 292q0 -133 76 -204l390 502q-68 51 -168 51q-132 0 -215 -95t-83 -254zM375 20
q127 0 210 94.5t83 252.5q0 132 -77 206l-389 -502q66 -51 173 -51z" />
    <glyph glyph-name="Ugrave" unicode="&#xd9;" horiz-adv-x="683" 
d="M477 702l-159 91l-2 7l20 27l152 -105zM312 -15q-104 0 -161.5 54t-57.5 151q0 33 4 58l57 412h35l-57 -408q-4 -25 -4 -53q0 -88 49.5 -135t138.5 -47q97 0 157.5 60.5t76.5 174.5l56 408h34l-57 -412q-18 -128 -87 -195.5t-184 -67.5z" />
    <glyph glyph-name="Uacute" unicode="&#xda;" horiz-adv-x="683" 
d="M323 701l-9 21l176 104l16 -28l-3 -7zM312 -15q-104 0 -161.5 54t-57.5 151q0 33 4 58l57 412h35l-57 -408q-4 -25 -4 -53q0 -88 49.5 -135t138.5 -47q97 0 157.5 60.5t76.5 174.5l56 408h34l-57 -412q-18 -128 -87 -195.5t-184 -67.5z" />
    <glyph glyph-name="Ucircumflex" unicode="&#xdb;" horiz-adv-x="683" 
d="M294 700l-12 18l128 109h16l101 -109l-16 -18l-97 94zM312 -15q-104 0 -161.5 54t-57.5 151q0 33 4 58l57 412h35l-57 -408q-4 -25 -4 -53q0 -88 49.5 -135t138.5 -47q97 0 157.5 60.5t76.5 174.5l56 408h34l-57 -412q-18 -128 -87 -195.5t-184 -67.5z" />
    <glyph glyph-name="Udieresis" unicode="&#xdc;" horiz-adv-x="683" 
d="M324 741q-25 0 -25 25q0 13 8.5 20.5t19.5 7.5q10 0 17 -6.5t7 -17.5q0 -13 -8 -21t-19 -8zM498 741q-10 0 -17.5 7t-7.5 18q0 13 8.5 20.5t19.5 7.5q25 0 25 -24q0 -13 -8 -21t-20 -8zM312 -15q-104 0 -161.5 54t-57.5 151q0 33 4 58l57 412h35l-57 -408q-4 -25 -4 -53
q0 -88 49.5 -135t138.5 -47q97 0 157.5 60.5t76.5 174.5l56 408h34l-57 -412q-18 -128 -87 -195.5t-184 -67.5z" />
    <glyph glyph-name="Yacute" unicode="&#xdd;" horiz-adv-x="554" 
d="M262 701l-9 21l176 104l16 -28l-3 -7zM224 0l40 285l-181 373l1 2h35l167 -342l261 342h34l1 -2l-284 -373l-40 -285h-34z" />
    <glyph glyph-name="Thorn" unicode="&#xde;" horiz-adv-x="522" 
d="M273 529q103 0 155 -46t52 -126q0 -101 -68 -159.5t-195 -58.5q-37 0 -91 4l-20 -143h-34l92 660h34l-19 -137q42 6 94 6zM219 169q110 0 168 48.5t58 134.5q0 67 -44 106.5t-136 39.5q-60 0 -90 -6l-45 -318q43 -5 89 -5z" />
    <glyph glyph-name="germandbls" unicode="&#xdf;" horiz-adv-x="580" 
d="M361 -12q-82 0 -122 40l5 34l2 1q38 -44 114 -44q57 0 92 30t35 85q0 37 -18 59.5t-59 48.5q-29 17 -44 28t-28.5 31.5t-13.5 45.5q0 28 10.5 50t23 34.5t39.5 35.5q64 54 64 116q0 47 -36 73t-86 26q-70 0 -117 -42t-59 -127l-72 -513h-34l72 516q14 99 72 148.5
t142 49.5q62 0 107.5 -33.5t45.5 -92.5q0 -77 -75 -140q-40 -33 -50 -51.5t-10 -41.5q0 -28 18.5 -46.5t57.5 -42.5q44 -27 64.5 -54.5t20.5 -73.5q0 -70 -45.5 -110t-115.5 -40z" />
    <glyph glyph-name="agrave" unicode="&#xe0;" horiz-adv-x="535" 
d="M352 574l-150 105l-1 7l24 27l140 -118zM480 42l2 -1l-5 -31q-19 -15 -50 -15q-58 0 -58 57q0 12 3 25l3 18q-77 -106 -194 -106q-66 0 -109.5 35t-43.5 96q0 44 18 77.5t49.5 52.5t68 28t77.5 9q99 0 155 -28l9 63q3 18 3 37q0 68 -41 103t-112 35q-99 0 -157 -51l-2 1
l4 32q20 19 65 34t97 15q84 0 132 -42t48 -121q0 -19 -3 -42l-32 -229q-2 -16 -2 -21q-4 -46 36 -46q21 0 39 15zM188 19q116 0 191 115l13 96q-53 28 -150 28q-76 0 -127 -32.5t-51 -100.5q0 -49 35.5 -77.5t88.5 -28.5z" />
    <glyph glyph-name="aacute" unicode="&#xe1;" horiz-adv-x="535" 
d="M387 683l-145 -113l-14 21l134 124l25 -25v-7zM480 42l2 -1l-5 -31q-19 -15 -50 -15q-58 0 -58 57q0 12 3 25l3 18q-77 -106 -194 -106q-66 0 -109.5 35t-43.5 96q0 44 18 77.5t49.5 52.5t68 28t77.5 9q99 0 155 -28l9 63q3 18 3 37q0 68 -41 103t-112 35q-99 0 -157 -51
l-2 1l4 32q20 19 65 34t97 15q84 0 132 -42t48 -121q0 -19 -3 -42l-32 -229q-2 -16 -2 -21q-4 -46 36 -46q21 0 39 15zM188 19q116 0 191 115l13 96q-53 28 -150 28q-76 0 -127 -32.5t-51 -100.5q0 -49 35.5 -77.5t88.5 -28.5z" />
    <glyph glyph-name="acircumflex" unicode="&#xe2;" horiz-adv-x="535" 
d="M304 679l-117 -109l-13 15l126 130h16l90 -130l-17 -15zM480 42l2 -1l-5 -31q-19 -15 -50 -15q-58 0 -58 57q0 12 3 25l3 18q-77 -106 -194 -106q-66 0 -109.5 35t-43.5 96q0 44 18 77.5t49.5 52.5t68 28t77.5 9q99 0 155 -28l9 63q3 18 3 37q0 68 -41 103t-112 35
q-99 0 -157 -51l-2 1l4 32q20 19 65 34t97 15q84 0 132 -42t48 -121q0 -19 -3 -42l-32 -229q-2 -16 -2 -21q-4 -46 36 -46q21 0 39 15zM188 19q116 0 191 115l13 96q-53 28 -150 28q-76 0 -127 -32.5t-51 -100.5q0 -49 35.5 -77.5t88.5 -28.5z" />
    <glyph glyph-name="atilde" unicode="&#xe3;" horiz-adv-x="535" 
d="M182 609l-2 -1l-24 5q5 33 25.5 53.5t48.5 20.5t72.5 -21.5t65.5 -21.5q40 0 49 48l1 1l25 -4q-6 -36 -27 -55.5t-48 -19.5t-71 21.5t-67 21.5q-18 0 -31.5 -12.5t-16.5 -35.5zM480 42l2 -1l-5 -31q-19 -15 -50 -15q-58 0 -58 57q0 12 3 25l3 18q-77 -106 -194 -106
q-66 0 -109.5 35t-43.5 96q0 44 18 77.5t49.5 52.5t68 28t77.5 9q99 0 155 -28l9 63q3 18 3 37q0 68 -41 103t-112 35q-99 0 -157 -51l-2 1l4 32q20 19 65 34t97 15q84 0 132 -42t48 -121q0 -19 -3 -42l-32 -229q-2 -16 -2 -21q-4 -46 36 -46q21 0 39 15zM188 19
q116 0 191 115l13 96q-53 28 -150 28q-76 0 -127 -32.5t-51 -100.5q0 -49 35.5 -77.5t88.5 -28.5z" />
    <glyph glyph-name="adieresis" unicode="&#xe4;" horiz-adv-x="535" 
d="M216 638q-11 0 -18.5 7t-7.5 19q0 14 9 22t20 8t18.5 -7t7.5 -19q0 -14 -8.5 -22t-20.5 -8zM379 638q-11 0 -18.5 7t-7.5 19q0 14 9 22t20 8t18.5 -7t7.5 -19q0 -14 -8.5 -22t-20.5 -8zM480 42l2 -1l-5 -31q-19 -15 -50 -15q-58 0 -58 57q0 12 3 25l3 18
q-77 -106 -194 -106q-66 0 -109.5 35t-43.5 96q0 44 18 77.5t49.5 52.5t68 28t77.5 9q99 0 155 -28l9 63q3 18 3 37q0 68 -41 103t-112 35q-99 0 -157 -51l-2 1l4 32q20 19 65 34t97 15q84 0 132 -42t48 -121q0 -19 -3 -42l-32 -229q-2 -16 -2 -21q-4 -46 36 -46q21 0 39 15
zM188 19q116 0 191 115l13 96q-53 28 -150 28q-76 0 -127 -32.5t-51 -100.5q0 -49 35.5 -77.5t88.5 -28.5z" />
    <glyph glyph-name="aring" unicode="&#xe5;" horiz-adv-x="535" 
d="M292 567q-30 0 -49.5 20t-19.5 50q0 36 23 60.5t58 24.5q31 0 50.5 -19.5t19.5 -48.5q0 -37 -22 -62t-60 -25zM302 700q-24 0 -39.5 -18t-15.5 -43q0 -22 13 -35.5t35 -13.5q26 0 41 17t15 43q0 21 -14 35.5t-35 14.5zM480 42l2 -1l-5 -31q-19 -15 -50 -15q-58 0 -58 57
q0 12 3 25l3 18q-77 -106 -194 -106q-66 0 -109.5 35t-43.5 96q0 44 18 77.5t49.5 52.5t68 28t77.5 9q99 0 155 -28l9 63q3 18 3 37q0 68 -41 103t-112 35q-99 0 -157 -51l-2 1l4 32q20 19 65 34t97 15q84 0 132 -42t48 -121q0 -19 -3 -42l-32 -229q-2 -16 -2 -21
q-4 -46 36 -46q21 0 39 15zM188 19q116 0 191 115l13 96q-53 28 -150 28q-76 0 -127 -32.5t-51 -100.5q0 -49 35.5 -77.5t88.5 -28.5z" />
    <glyph glyph-name="ae" unicode="&#xe6;" horiz-adv-x="913" 
d="M677 528q96 0 143 -55.5t47 -135.5q0 -37 -9 -75h-401q-2 -26 -2 -41q0 -97 53.5 -149.5t137.5 -52.5q97 0 160 47l3 -1l-5 -33q-64 -45 -162 -45q-86 0 -146 47t-73 136q-27 -79 -77 -130t-127 -51q-85 0 -132 54t-47 146q0 157 79 248t194 91q72 0 113 -20.5t74 -59.5
q72 80 177 80zM225 20q78 0 128 69t68 169q9 97 59 166q-60 72 -167 72q-99 0 -167.5 -80t-68.5 -221q0 -80 38 -127.5t110 -47.5zM461 291h368q4 20 4 45q0 68 -38 114t-121 46q-77 0 -136 -55.5t-77 -149.5z" />
    <glyph glyph-name="ccedilla" unicode="&#xe7;" horiz-adv-x="486" 
d="M340 529q79 0 125 -28l-4 -31l-2 -1q-49 28 -122 28q-106 0 -176 -74t-70 -201q0 -93 50 -147.5t139 -54.5q67 0 131 35l2 -1l-4 -31q-58 -33 -128 -34l-33 -48q17 5 34 5q31 0 50.5 -17.5t19.5 -51.5q0 -48 -32 -73t-80 -25q-35 0 -59 11l4 24l1 1q21 -11 54 -11
q35 0 57.5 17.5t22.5 50.5q0 25 -14 37.5t-37 12.5q-31 0 -55 -11l-1 1l3 22l39 56q-92 5 -146 65.5t-54 160.5q0 144 82 228.5t203 84.5z" />
    <glyph glyph-name="egrave" unicode="&#xe8;" horiz-adv-x="549" 
d="M383 574l-150 105l-1 7l24 27l140 -118zM312 528q96 0 143.5 -55.5t47.5 -135.5q0 -30 -9 -75h-401q-2 -26 -2 -41q0 -97 53 -149.5t137 -52.5q98 0 161 47l2 -1l-5 -33q-63 -45 -162 -45q-98 0 -160 60t-62 172q0 138 75.5 223.5t181.5 85.5zM97 291h368q4 20 4 45
q0 67 -38.5 113.5t-121.5 46.5q-77 0 -135.5 -55.5t-76.5 -149.5z" />
    <glyph glyph-name="eacute" unicode="&#xe9;" horiz-adv-x="549" 
d="M418 683l-145 -113l-14 21l134 124l25 -25v-7zM312 528q96 0 143.5 -55.5t47.5 -135.5q0 -30 -9 -75h-401q-2 -26 -2 -41q0 -97 53 -149.5t137 -52.5q98 0 161 47l2 -1l-5 -33q-63 -45 -162 -45q-98 0 -160 60t-62 172q0 138 75.5 223.5t181.5 85.5zM97 291h368
q4 20 4 45q0 67 -38.5 113.5t-121.5 46.5q-77 0 -135.5 -55.5t-76.5 -149.5z" />
    <glyph glyph-name="ecircumflex" unicode="&#xea;" horiz-adv-x="549" 
d="M335 679l-117 -109l-13 15l126 130h16l90 -130l-17 -15zM312 528q96 0 143.5 -55.5t47.5 -135.5q0 -30 -9 -75h-401q-2 -26 -2 -41q0 -97 53 -149.5t137 -52.5q98 0 161 47l2 -1l-5 -33q-63 -45 -162 -45q-98 0 -160 60t-62 172q0 138 75.5 223.5t181.5 85.5zM97 291h368
q4 20 4 45q0 67 -38.5 113.5t-121.5 46.5q-77 0 -135.5 -55.5t-76.5 -149.5z" />
    <glyph glyph-name="edieresis" unicode="&#xeb;" horiz-adv-x="549" 
d="M247 638q-11 0 -18.5 7t-7.5 19q0 14 9 22t20 8t18.5 -7t7.5 -19q0 -14 -8.5 -22t-20.5 -8zM410 638q-11 0 -18.5 7t-7.5 19q0 14 9 22t20 8t18.5 -7t7.5 -19q0 -14 -8.5 -22t-20.5 -8zM312 528q96 0 143.5 -55.5t47.5 -135.5q0 -30 -9 -75h-401q-2 -26 -2 -41
q0 -97 53 -149.5t137 -52.5q98 0 161 47l2 -1l-5 -33q-63 -45 -162 -45q-98 0 -160 60t-62 172q0 138 75.5 223.5t181.5 85.5zM97 291h368q4 20 4 45q0 67 -38.5 113.5t-121.5 46.5q-77 0 -135.5 -55.5t-76.5 -149.5z" />
    <glyph glyph-name="igrave" unicode="&#xec;" horiz-adv-x="220" 
d="M210 566l-135 121v7l27 24l124 -135zM57 0l72 517h34l-72 -517h-34z" />
    <glyph glyph-name="iacute" unicode="&#xed;" horiz-adv-x="220" 
d="M97 570l-14 21l134 124l25 -25v-7zM56 0l72 517h35l-73 -517h-34z" />
    <glyph glyph-name="icircumflex" unicode="&#xee;" horiz-adv-x="220" 
d="M55 569l-13 14l125 131h17l90 -131l-18 -14l-87 108zM57 0l72 517h35l-73 -517h-34z" />
    <glyph glyph-name="idieresis" unicode="&#xef;" horiz-adv-x="227" 
d="M93 638q-27 0 -27 26q0 14 9 22t21 8q11 0 18 -7t7 -19q0 -14 -8.5 -22t-19.5 -8zM230 638q-11 0 -18.5 7t-7.5 19q0 14 8.5 22t20.5 8q11 0 18.5 -7t7.5 -19q0 -14 -8.5 -22t-20.5 -8zM59 0l72 517h35l-73 -517h-34z" />
    <glyph glyph-name="eth" unicode="&#xf0;" horiz-adv-x="614" 
d="M469 671q89 -80 89 -272q0 -197 -80.5 -304.5t-215.5 -107.5q-94 0 -151.5 58t-57.5 156q0 125 77 205.5t196 80.5q78 0 126.5 -33.5t71.5 -83.5v25q0 182 -81 253l-104 -96l-16 18l101 92q-44 28 -103 28q-75 0 -141 -28l-1 1l4 30q63 28 143 28q72 0 124 -35l98 90
l15 -18zM267 18q102 0 169 73.5t83 215.5q-8 51 -57.5 100t-135.5 49q-106 0 -171.5 -70t-65.5 -179q0 -85 49 -137t129 -52z" />
    <glyph glyph-name="ntilde" unicode="&#xf1;" horiz-adv-x="584" 
d="M224 609l-2 -1l-24 5q5 33 25.5 53.5t48.5 20.5t72.5 -21.5t65.5 -21.5q40 0 49 48l1 1l25 -4q-6 -36 -27 -55.5t-48 -19.5t-71 21.5t-67 21.5q-18 0 -31.5 -12.5t-16.5 -35.5zM338 528q73 0 121.5 -42.5t48.5 -129.5q0 -26 -4 -64l-41 -292h-35l40 285q5 33 5 64
q0 75 -41 111t-102 36q-72 0 -127.5 -48t-66.5 -125l-45 -323h-34l72 517h29l-10 -102q26 52 76.5 82.5t113.5 30.5z" />
    <glyph glyph-name="ograve" unicode="&#xf2;" horiz-adv-x="605" 
d="M393 572l-150 105l-1 7l24 27l140 -118zM280 -12q-99 0 -161.5 63t-62.5 174q0 130 75 216t192 86q101 0 164 -63t63 -173q0 -130 -75.5 -216.5t-194.5 -86.5zM285 19q104 0 166.5 78t62.5 193q0 96 -53.5 151t-141.5 55q-103 0 -165 -78t-62 -191q0 -97 53 -152.5
t140 -55.5z" />
    <glyph glyph-name="oacute" unicode="&#xf3;" horiz-adv-x="605" 
d="M283 568l-14 21l134 124l25 -25v-7zM280 -12q-99 0 -161.5 63t-62.5 174q0 130 75 216t192 86q101 0 164 -63t63 -173q0 -130 -75.5 -216.5t-194.5 -86.5zM285 19q104 0 166.5 78t62.5 193q0 96 -53.5 151t-141.5 55q-103 0 -165 -78t-62 -191q0 -97 53 -152.5t140 -55.5
z" />
    <glyph glyph-name="ocircumflex" unicode="&#xf4;" horiz-adv-x="605" 
d="M228 568l-13 15l126 130h16l90 -130l-17 -15l-85 109zM280 -12q-99 0 -161.5 63t-62.5 174q0 130 75 216t192 86q101 0 164 -63t63 -173q0 -130 -75.5 -216.5t-194.5 -86.5zM285 19q104 0 166.5 78t62.5 193q0 96 -53.5 151t-141.5 55q-103 0 -165 -78t-62 -191
q0 -97 53 -152.5t140 -55.5z" />
    <glyph glyph-name="otilde" unicode="&#xf5;" horiz-adv-x="605" 
d="M221 606l-24 5q5 33 25.5 53.5t48.5 20.5t72.5 -21.5t65.5 -21.5q40 0 49 48l1 1l25 -4q-6 -36 -27 -55.5t-48 -19.5t-71 21.5t-67 21.5q-18 0 -31.5 -12.5t-16.5 -35.5zM280 -12q-99 0 -161.5 63t-62.5 174q0 130 75 216t192 86q101 0 164 -63t63 -173
q0 -130 -75.5 -216.5t-194.5 -86.5zM285 19q104 0 166.5 78t62.5 193q0 96 -53.5 151t-141.5 55q-103 0 -165 -78t-62 -191q0 -97 53 -152.5t140 -55.5z" />
    <glyph glyph-name="odieresis" unicode="&#xf6;" horiz-adv-x="605" 
d="M257 636q-11 0 -18.5 7t-7.5 19q0 14 9 22t20 8t18.5 -7t7.5 -19q0 -14 -8.5 -22t-20.5 -8zM420 636q-11 0 -18.5 7t-7.5 19q0 14 9 22t20 8t18.5 -7t7.5 -19q0 -14 -8.5 -22t-20.5 -8zM280 -12q-99 0 -161.5 63t-62.5 174q0 130 75 216t192 86q101 0 164 -63t63 -173
q0 -130 -75.5 -216.5t-194.5 -86.5zM285 19q104 0 166.5 78t62.5 193q0 96 -53.5 151t-141.5 55q-103 0 -165 -78t-62 -191q0 -97 53 -152.5t140 -55.5z" />
    <glyph glyph-name="divide" unicode="&#xf7;" horiz-adv-x="502" 
d="M273 412q-25 0 -25 25q0 13 9 22.5t24 9.5q25 0 25 -25q0 -13 -9.5 -22.5t-23.5 -9.5zM81 280l3 29h348l-3 -29h-348zM232 114q-12 0 -19 7t-7 17q0 14 9.5 23.5t23.5 9.5q25 0 25 -25q0 -14 -9 -23t-23 -9z" />
    <glyph glyph-name="oslash" unicode="&#xf8;" horiz-adv-x="605" 
d="M469 480q81 -64 81 -189q0 -130 -75.5 -216.5t-194.5 -86.5q-68 0 -119 30l-48 -71h-28v4l54 82q-83 63 -83 192q0 130 75 216t192 86q71 0 124 -32l48 72h30v-4zM92 227q0 -109 67 -165l269 405q-46 29 -109 29q-103 0 -165 -78t-62 -191zM285 19q104 0 166.5 78
t62.5 193q0 105 -64 161l-270 -404q45 -28 105 -28z" />
    <glyph glyph-name="ugrave" unicode="&#xf9;" horiz-adv-x="569" 
d="M391 574l-150 105l-1 7l24 27l140 -118zM478 517h35l-73 -517h-28l7 84q-69 -95 -185 -95q-74 0 -116.5 40.5t-42.5 118.5q0 18 4 58l43 311h36l-44 -308q-4 -34 -4 -55q0 -65 35.5 -99.5t96.5 -34.5q57 0 105 30t77 84z" />
    <glyph glyph-name="uacute" unicode="&#xfa;" horiz-adv-x="569" 
d="M426 683l-145 -113l-14 21l134 124l25 -25v-7zM478 517h35l-73 -517h-28l7 84q-69 -95 -185 -95q-74 0 -116.5 40.5t-42.5 118.5q0 18 4 58l43 311h36l-44 -308q-4 -34 -4 -55q0 -65 35.5 -99.5t96.5 -34.5q57 0 105 30t77 84z" />
    <glyph glyph-name="ucircumflex" unicode="&#xfb;" horiz-adv-x="569" 
d="M343 679l-117 -109l-13 15l126 130h16l90 -130l-17 -15zM478 517h35l-73 -517h-28l7 84q-69 -95 -185 -95q-74 0 -116.5 40.5t-42.5 118.5q0 18 4 58l43 311h36l-44 -308q-4 -34 -4 -55q0 -65 35.5 -99.5t96.5 -34.5q57 0 105 30t77 84z" />
    <glyph glyph-name="udieresis" unicode="&#xfc;" horiz-adv-x="569" 
d="M255 638q-11 0 -18.5 7t-7.5 19q0 14 9 22t20 8t18.5 -7t7.5 -19q0 -14 -8.5 -22t-20.5 -8zM418 638q-11 0 -18.5 7t-7.5 19q0 14 9 22t20 8t18.5 -7t7.5 -19q0 -14 -8.5 -22t-20.5 -8zM478 517h35l-73 -517h-28l7 84q-69 -95 -185 -95q-74 0 -116.5 40.5t-42.5 118.5
q0 18 4 58l43 311h36l-44 -308q-4 -34 -4 -55q0 -65 35.5 -99.5t96.5 -34.5q57 0 105 30t77 84z" />
    <glyph glyph-name="yacute" unicode="&#xfd;" horiz-adv-x="510" 
d="M407 683l-145 -113l-14 21l134 124l25 -25v-7zM519 514l-277 -514l-3 -6q-50 -89 -88.5 -125.5t-101.5 -36.5q-26 0 -51 7l5 29l2 1q22 -6 48 -6q49 0 82.5 31.5t72.5 103.5l6 10l-149 506l1 3h37l133 -469l247 469h35z" />
    <glyph glyph-name="thorn" unicode="&#xfe;" horiz-adv-x="582" 
d="M335 528q86 0 139 -54t53 -153q0 -158 -80 -245t-199 -87q-96 0 -153 38l-27 -191h-35l123 875h34l-40 -289q26 51 75.5 78.5t109.5 27.5zM249 20q103 0 172 76.5t69 217.5q0 90 -44.5 136t-115.5 46q-62 0 -115.5 -36.5t-75.5 -111.5l-39 -286q57 -42 149 -42z" />
    <glyph glyph-name="ydieresis" unicode="&#xff;" horiz-adv-x="510" 
d="M236 638q-11 0 -18.5 7t-7.5 19q0 14 9 22t20 8t18.5 -7t7.5 -19q0 -14 -8.5 -22t-20.5 -8zM399 638q-11 0 -18.5 7t-7.5 19q0 14 9 22t20 8t18.5 -7t7.5 -19q0 -14 -8.5 -22t-20.5 -8zM519 514l-277 -514l-3 -6q-50 -89 -88.5 -125.5t-101.5 -36.5q-26 0 -51 7l5 29l2 1
q22 -6 48 -6q49 0 82.5 31.5t72.5 103.5l6 10l-149 506l1 3h37l133 -469l247 469h35z" />
    <glyph glyph-name="Amacron" unicode="&#x100;" horiz-adv-x="604" 
d="M496 783l-4 -30h-246l4 30h246zM513 0l-59 221h-312l-120 -221h-35l366 674h11l185 -674h-36zM157 249h289l-91 342l-4 19l-9 -19z" />
    <glyph glyph-name="amacron" unicode="&#x101;" horiz-adv-x="535" 
d="M435 657l-4 -29h-268l4 29h268zM480 42l2 -1l-5 -31q-19 -15 -50 -15q-58 0 -58 57q0 12 3 25l3 18q-77 -106 -194 -106q-66 0 -109.5 35t-43.5 96q0 44 18 77.5t49.5 52.5t68 28t77.5 9q99 0 155 -28l9 63q3 18 3 37q0 68 -41 103t-112 35q-99 0 -157 -51l-2 1l4 32
q20 19 65 34t97 15q84 0 132 -42t48 -121q0 -19 -3 -42l-32 -229q-2 -16 -2 -21q-4 -46 36 -46q21 0 39 15zM188 19q116 0 191 115l13 96q-53 28 -150 28q-76 0 -127 -32.5t-51 -100.5q0 -49 35.5 -77.5t88.5 -28.5z" />
    <glyph glyph-name="Abreve" unicode="&#x102;" horiz-adv-x="604" 
d="M364 704q-51 0 -80 31.5t-21 85.5l23 3q-3 -42 19 -67t61 -25q41 0 70.5 25t36.5 67l21 -3q-7 -54 -43 -85.5t-87 -31.5zM513 0l-59 221h-312l-120 -221h-35l366 674h11l185 -674h-36zM157 249h289l-91 342l-4 19l-9 -19z" />
    <glyph glyph-name="abreve" unicode="&#x103;" horiz-adv-x="535" 
d="M292 579q-49 0 -78.5 34t-20.5 92l24 3l1 -1q-4 -46 17 -72.5t60 -26.5q40 0 69 26.5t36 71.5l2 2l22 -3q-8 -59 -43.5 -92.5t-88.5 -33.5zM480 42l2 -1l-5 -31q-19 -15 -50 -15q-58 0 -58 57q0 12 3 25l3 18q-77 -106 -194 -106q-66 0 -109.5 35t-43.5 96q0 44 18 77.5
t49.5 52.5t68 28t77.5 9q99 0 155 -28l9 63q3 18 3 37q0 68 -41 103t-112 35q-99 0 -157 -51l-2 1l4 32q20 19 65 34t97 15q84 0 132 -42t48 -121q0 -19 -3 -42l-32 -229q-2 -16 -2 -21q-4 -46 36 -46q21 0 39 15zM188 19q116 0 191 115l13 96q-53 28 -150 28
q-76 0 -127 -32.5t-51 -100.5q0 -49 35.5 -77.5t88.5 -28.5z" />
    <glyph glyph-name="Aogonek" unicode="&#x104;" horiz-adv-x="604" 
d="M543 0q-116 -71 -116 -144q0 -21 13 -34.5t40 -13.5q17 0 28 4l2 -1l-3 -24q-18 -6 -39 -6q-37 0 -56.5 17.5t-19.5 48.5q0 84 120 155l-58 219h-312l-120 -221h-35l366 674h11l185 -674h-6zM157 249h289l-91 342l-4 19l-9 -19z" />
    <glyph glyph-name="aogonek" unicode="&#x105;" horiz-adv-x="535" 
d="M482 41l-5 -31q-8 -6 -16 -9q-116 -71 -116 -144q0 -21 13 -34.5t40 -13.5q17 0 28 4l2 -1l-3 -24q-18 -6 -39 -6q-37 0 -56.5 17.5t-19.5 48.5q0 78 108 147q-49 4 -49 57q0 12 3 25l3 18q-77 -106 -194 -106q-66 0 -109.5 35t-43.5 96q0 44 18 77.5t49.5 52.5t68 28
t77.5 9q99 0 155 -28l9 63q3 18 3 37q0 68 -41 103t-112 35q-99 0 -157 -51l-2 1l4 32q20 19 65 34t97 15q84 0 132 -42t48 -121q0 -19 -3 -42l-32 -229q-2 -16 -2 -21q-4 -46 36 -46q21 0 39 15zM188 19q116 0 191 115l13 96q-53 28 -150 28q-76 0 -127 -32.5t-51 -100.5
q0 -49 35.5 -77.5t88.5 -28.5z" />
    <glyph glyph-name="Cacute" unicode="&#x106;" horiz-adv-x="623" 
d="M348 701l-9 21l176 104l16 -28l-3 -7zM366 -11q-138 0 -218.5 77.5t-80.5 208.5q0 182 101 289.5t261 107.5q111 0 192 -47l-5 -32l-2 -1q-78 49 -188 49q-142 0 -232.5 -99t-90.5 -263q0 -119 72 -189t196 -70q101 0 179 48l2 -1l-5 -31q-79 -47 -181 -47z" />
    <glyph glyph-name="cacute" unicode="&#x107;" horiz-adv-x="486" 
d="M280 571l-14 21l134 124l25 -25v-7zM273 -11q-100 0 -159 61t-59 166q0 144 82 228.5t203 84.5q79 0 125 -28l-4 -31l-2 -1q-49 28 -122 28q-106 0 -176 -74t-70 -201q0 -93 50 -147.5t139 -54.5q67 0 131 35l2 -1l-4 -31q-61 -34 -136 -34z" />
    <glyph glyph-name="Cdotaccent" unicode="&#x10a;" horiz-adv-x="623" 
d="M436 742q-12 0 -19.5 7.5t-7.5 19.5q0 14 9 22t21 8q11 0 18.5 -7t7.5 -19q0 -14 -8.5 -22.5t-20.5 -8.5zM366 -11q-138 0 -218.5 77.5t-80.5 208.5q0 182 101 289.5t261 107.5q111 0 192 -47l-5 -32l-2 -1q-78 49 -188 49q-142 0 -232.5 -99t-90.5 -263q0 -119 72 -189
t196 -70q101 0 179 48l2 -1l-5 -31q-79 -47 -181 -47z" />
    <glyph glyph-name="cdotaccent" unicode="&#x10b;" horiz-adv-x="486" 
d="M340 639q-12 0 -19.5 7.5t-7.5 19.5q0 14 9 22t21 8q11 0 18.5 -7t7.5 -19q0 -14 -8.5 -22.5t-20.5 -8.5zM273 -11q-100 0 -159 61t-59 166q0 144 82 228.5t203 84.5q79 0 125 -28l-4 -31l-2 -1q-49 28 -122 28q-106 0 -176 -74t-70 -201q0 -93 50 -147.5t139 -54.5
q67 0 131 35l2 -1l-4 -31q-61 -34 -136 -34z" />
    <glyph glyph-name="Ccaron" unicode="&#x10c;" horiz-adv-x="623" 
d="M422 701l-102 109l16 17l98 -94l118 94l13 -17l-127 -109h-16zM366 -11q-138 0 -218.5 77.5t-80.5 208.5q0 182 101 289.5t261 107.5q111 0 192 -47l-5 -32l-2 -1q-78 49 -188 49q-142 0 -232.5 -99t-90.5 -263q0 -119 72 -189t196 -70q101 0 179 48l2 -1l-5 -31
q-79 -47 -181 -47z" />
    <glyph glyph-name="ccaron" unicode="&#x10d;" horiz-adv-x="486" 
d="M321 571l-90 131l17 14l86 -109l116 109l13 -14l-126 -131h-16zM273 -11q-100 0 -159 61t-59 166q0 144 82 228.5t203 84.5q79 0 125 -28l-4 -31l-2 -1q-49 28 -122 28q-106 0 -176 -74t-70 -201q0 -93 50 -147.5t139 -54.5q67 0 131 35l2 -1l-4 -31q-61 -34 -136 -34z
" />
    <glyph glyph-name="Dcaron" unicode="&#x10e;" horiz-adv-x="703" 
d="M388 702h-16l-102 109l16 17l98 -94l118 94l13 -17zM337 668q153 0 236.5 -76.5t83.5 -208.5q0 -179 -106 -282t-298 -103q-106 0 -181 5l93 657q74 8 172 8zM260 30q172 0 266 94t94 253q0 121 -74.5 190t-213.5 69q-80 0 -138 -6l-83 -595q52 -5 149 -5z" />
    <glyph glyph-name="dcaron" unicode="&#x10f;" horiz-adv-x="588" 
d="M645 713l5 -7l-45 -189h-22l36 196h26zM483 474l33 237h35l-99 -711h-29l7 92q-58 -103 -190 -103q-85 0 -136 56t-51 152q0 150 79 240.5t199 90.5q93 0 152 -54zM248 20q66 0 119 37.5t73 108.5l38 271q-51 59 -149 59q-103 0 -171 -80t-68 -212q0 -86 43 -135t115 -49
z" />
    <glyph glyph-name="Dcroat" unicode="&#x110;" horiz-adv-x="703" 
d="M337 668q153 0 236.5 -76.5t83.5 -208.5q0 -179 -106 -282t-298 -103q-106 0 -181 5l44 314h-87l4 27h87l45 316q74 8 172 8zM260 30q172 0 266 94t94 253q0 121 -74.5 190t-213.5 69q-80 0 -138 -6l-40 -286h110l-4 -27h-110l-39 -282q52 -5 149 -5z" />
    <glyph glyph-name="dcroat" unicode="&#x111;" horiz-adv-x="580" 
d="M630 616l-4 -27h-92l-82 -589h-29l7 92q-58 -103 -190 -103q-85 0 -136 56t-51 152q0 150 79 240.5t199 90.5q93 0 152 -54l16 115h-104l4 27h104l13 95h35l-13 -95h92zM248 20q66 0 119 37.5t73 108.5l38 271q-51 59 -149 59q-103 0 -171 -80t-68 -212q0 -86 43 -135
t115 -49z" />
    <glyph glyph-name="Emacron" unicode="&#x112;" horiz-adv-x="525" 
d="M484 783l-4 -30h-246l4 30h246zM510 628h-315l-38 -269h297l-5 -32h-297l-41 -295h330l-4 -32h-365l92 660h351z" />
    <glyph glyph-name="emacron" unicode="&#x113;" horiz-adv-x="549" 
d="M466 657l-4 -29h-268l4 29h268zM312 528q96 0 143.5 -55.5t47.5 -135.5q0 -30 -9 -75h-401q-2 -26 -2 -41q0 -97 53 -149.5t137 -52.5q98 0 161 47l2 -1l-5 -33q-63 -45 -162 -45q-98 0 -160 60t-62 172q0 138 75.5 223.5t181.5 85.5zM97 291h368q4 20 4 45
q0 67 -38.5 113.5t-121.5 46.5q-77 0 -135.5 -55.5t-76.5 -149.5z" />
    <glyph glyph-name="Edotaccent" unicode="&#x116;" horiz-adv-x="525" 
d="M358 742q-12 0 -19.5 7.5t-7.5 19.5q0 14 9 22t21 8q11 0 18.5 -7t7.5 -19q0 -14 -8.5 -22.5t-20.5 -8.5zM510 628h-315l-38 -269h297l-5 -32h-297l-41 -295h330l-4 -32h-365l92 660h351z" />
    <glyph glyph-name="edotaccent" unicode="&#x117;" horiz-adv-x="549" 
d="M333 638q-12 0 -19.5 7.5t-7.5 19.5q0 14 9 22t21 8q11 0 18.5 -7t7.5 -19q0 -14 -8.5 -22.5t-20.5 -8.5zM312 528q96 0 143.5 -55.5t47.5 -135.5q0 -30 -9 -75h-401q-2 -26 -2 -41q0 -97 53 -149.5t137 -52.5q98 0 161 47l2 -1l-5 -33q-63 -45 -162 -45q-98 0 -160 60
t-62 172q0 138 75.5 223.5t181.5 85.5zM97 291h368q4 20 4 45q0 67 -38.5 113.5t-121.5 46.5q-77 0 -135.5 -55.5t-76.5 -149.5z" />
    <glyph glyph-name="Eogonek" unicode="&#x118;" horiz-adv-x="525" 
d="M510 628h-315l-38 -269h297l-5 -32h-297l-41 -295h330l-4 -32h-1q-116 -71 -116 -144q0 -21 13 -34.5t40 -13.5q17 0 28 4l2 -1l-3 -24q-18 -6 -39 -6q-37 0 -56.5 17.5t-19.5 48.5q0 82 117 153h-330l92 660h351z" />
    <glyph glyph-name="eogonek" unicode="&#x119;" horiz-adv-x="549" 
d="M312 528q96 0 143.5 -55.5t47.5 -135.5q0 -30 -9 -75h-401q-2 -26 -2 -41q0 -97 53 -149.5t137 -52.5q98 0 161 47l2 -1l-5 -33q-29 -21 -68 -33q-112 -70 -112 -142q0 -21 13 -34.5t40 -13.5q17 0 28 4l2 -1l-3 -24q-18 -6 -39 -6q-37 0 -56.5 17.5t-19.5 48.5
q0 74 98 141q-30 -2 -45 -2q-98 0 -160 60t-62 172q0 138 75.5 223.5t181.5 85.5zM97 291h368q4 20 4 45q0 67 -38.5 113.5t-121.5 46.5q-77 0 -135.5 -55.5t-76.5 -149.5z" />
    <glyph glyph-name="Ecaron" unicode="&#x11a;" horiz-adv-x="525" 
d="M360 701h-16l-102 109l16 17l98 -94l118 94l13 -17zM510 628h-315l-38 -269h297l-5 -32h-297l-41 -295h330l-4 -32h-365l92 660h351z" />
    <glyph glyph-name="ecaron" unicode="&#x11b;" horiz-adv-x="549" 
d="M330 570h-16l-90 131l17 14l86 -109l116 109l13 -14zM312 528q96 0 143.5 -55.5t47.5 -135.5q0 -30 -9 -75h-401q-2 -26 -2 -41q0 -97 53 -149.5t137 -52.5q98 0 161 47l2 -1l-5 -33q-63 -45 -162 -45q-98 0 -160 60t-62 172q0 138 75.5 223.5t181.5 85.5zM97 291h368
q4 20 4 45q0 67 -38.5 113.5t-121.5 46.5q-77 0 -135.5 -55.5t-76.5 -149.5z" />
    <glyph glyph-name="Gbreve" unicode="&#x11e;" horiz-adv-x="677" 
d="M433 705q-51 0 -80 31.5t-21 85.5l23 3q-3 -42 19 -67t61 -25q41 0 70.5 25t36.5 67l21 -3q-7 -54 -43 -85.5t-87 -31.5zM356 -10q-132 0 -210.5 77.5t-78.5 204.5q0 182 102.5 291t263.5 109q119 0 196 -47l-5 -33l-2 -1q-75 50 -193 50q-144 0 -235 -99.5t-91 -264.5
q0 -115 70.5 -185.5t191.5 -70.5q106 0 188 53l31 226h33l-34 -245q-100 -65 -227 -65z" />
    <glyph glyph-name="gbreve" unicode="&#x11f;" horiz-adv-x="529" 
d="M296 580q-49 0 -78.5 34t-20.5 92l24 3l1 -1q-4 -46 17 -72.5t60 -26.5q40 0 69 26.5t36 71.5l2 2l22 -3q-8 -59 -43.5 -92.5t-88.5 -33.5zM526 517l-4 -29l-128 1q65 -39 65 -117q0 -77 -55.5 -126t-143.5 -49q-56 0 -98 21q-39 -20 -39 -52q0 -25 29.5 -38.5
t114.5 -23.5q99 -13 141.5 -38.5t42.5 -81.5q0 -76 -69 -115t-179 -39q-85 0 -140 26t-55 86q0 93 138 152q-57 19 -57 62q0 45 51 75q-52 39 -52 109q0 78 57 127.5t145 49.5h236zM425 370q0 54 -37.5 86t-100.5 32q-72 0 -118 -41t-46 -104q0 -53 37.5 -84t103.5 -32
q72 -1 116.5 39t44.5 104zM417 -22q0 45 -37 65t-126 31q-58 8 -75 12q-68 -30 -103 -60.5t-35 -75.5q0 -91 168 -91q93 0 150.5 29.5t57.5 89.5z" />
    <glyph glyph-name="Gdotaccent" unicode="&#x120;" horiz-adv-x="677" 
d="M439 743q-12 0 -19.5 7.5t-7.5 19.5q0 14 9 22t21 8q11 0 18.5 -7t7.5 -19q0 -14 -8.5 -22.5t-20.5 -8.5zM356 -10q-132 0 -210.5 77.5t-78.5 204.5q0 182 102.5 291t263.5 109q119 0 196 -47l-5 -33l-2 -1q-75 50 -193 50q-144 0 -235 -99.5t-91 -264.5
q0 -115 70.5 -185.5t191.5 -70.5q106 0 188 53l31 226h33l-34 -245q-100 -65 -227 -65z" />
    <glyph glyph-name="gdotaccent" unicode="&#x121;" horiz-adv-x="529" 
d="M306 639q-12 0 -19.5 7.5t-7.5 19.5q0 14 9 22t21 8q11 0 18.5 -7t7.5 -19q0 -14 -8.5 -22.5t-20.5 -8.5zM526 517l-4 -29l-128 1q65 -39 65 -117q0 -77 -55.5 -126t-143.5 -49q-56 0 -98 21q-39 -20 -39 -52q0 -25 29.5 -38.5t114.5 -23.5q99 -13 141.5 -38.5
t42.5 -81.5q0 -76 -69 -115t-179 -39q-85 0 -140 26t-55 86q0 93 138 152q-57 19 -57 62q0 45 51 75q-52 39 -52 109q0 78 57 127.5t145 49.5h236zM425 370q0 54 -37.5 86t-100.5 32q-72 0 -118 -41t-46 -104q0 -53 37.5 -84t103.5 -32q72 -1 116.5 39t44.5 104zM417 -22
q0 45 -37 65t-126 31q-58 8 -75 12q-68 -30 -103 -60.5t-35 -75.5q0 -91 168 -91q93 0 150.5 29.5t57.5 89.5z" />
    <glyph glyph-name="Gcommaaccent" unicode="&#x122;" horiz-adv-x="677" 
d="M356 -10q-132 0 -210.5 77.5t-78.5 204.5q0 182 102.5 291t263.5 109q119 0 196 -47l-5 -33l-2 -1q-75 50 -193 50q-144 0 -235 -99.5t-91 -264.5q0 -115 70.5 -185.5t191.5 -70.5q106 0 188 53l31 226h33l-34 -245q-100 -65 -227 -65zM286 -213q28 62 38 133q0 1 1 11.5
t2 16.5l32 3l4 -5q-12 -82 -54 -159h-23z" />
    <glyph glyph-name="gcommaaccent" unicode="&#x123;" horiz-adv-x="529" 
d="M320 570l-32 -3l-4 5q12 82 54 159h23q-28 -62 -38 -133q0 -1 -1 -11.5t-2 -16.5zM526 517l-4 -29l-128 1q65 -39 65 -117q0 -77 -55.5 -126t-143.5 -49q-56 0 -98 21q-39 -20 -39 -52q0 -25 29.5 -38.5t114.5 -23.5q99 -13 141.5 -38.5t42.5 -81.5q0 -76 -69 -115
t-179 -39q-85 0 -140 26t-55 86q0 93 138 152q-57 19 -57 62q0 45 51 75q-52 39 -52 109q0 78 57 127.5t145 49.5h236zM425 370q0 54 -37.5 86t-100.5 32q-72 0 -118 -41t-46 -104q0 -53 37.5 -84t103.5 -32q72 -1 116.5 39t44.5 104zM417 -22q0 45 -37 65t-126 31
q-58 8 -75 12q-68 -30 -103 -60.5t-35 -75.5q0 -91 168 -91q93 0 150.5 29.5t57.5 89.5z" />
    <glyph glyph-name="Hbar" unicode="&#x126;" horiz-adv-x="712" 
d="M685 516l-4 -28h-45l-68 -488h-34l45 323h-427l-46 -323h-34l68 488h-47l5 28h46l20 144h35l-20 -144h427l20 144h34l-20 -144h45zM583 354l19 134h-427l-19 -134h427z" />
    <glyph glyph-name="hbar" unicode="&#x127;" horiz-adv-x="582" 
d="M336 528q77 0 124 -43t47 -130q0 -29 -4 -54l-42 -301h-34l41 295q4 24 4 50q0 77 -39 114t-106 37q-65 0 -117.5 -40t-70.5 -113l-48 -343h-34l83 597h-82l3 28h83l12 86h35l-12 -86h113l-3 -28h-114l-25 -174q27 49 76 77t110 28z" />
    <glyph glyph-name="Itilde" unicode="&#x128;" horiz-adv-x="251" 
d="M83 721l-23 6q4 33 25.5 53t49.5 20q25 0 65.5 -21t58.5 -21q17 0 31.5 12.5t18.5 35.5l1 1l24 -6q-6 -34 -27 -54t-49 -20q-22 0 -62.5 21.5t-61.5 21.5q-18 0 -32 -12.5t-18 -35.5zM72 0l92 660h35l-93 -660h-34z" />
    <glyph glyph-name="itilde" unicode="&#x129;" horiz-adv-x="220" 
d="M46 607l-24 4q5 33 26.5 54t49.5 21t73.5 -22t66.5 -22q17 0 31 12.5t18 35.5l1 1l24 -4q-5 -35 -27 -55t-50 -20q-25 0 -70 22t-68 22q-41 0 -49 -48zM56 0l73 517h35l-73 -517h-35z" />
    <glyph glyph-name="Imacron" unicode="&#x12a;" horiz-adv-x="251" 
d="M72 753l4 30h246l-4 -30h-246zM72 0l92 660h35l-93 -660h-34z" />
    <glyph glyph-name="imacron" unicode="&#x12b;" horiz-adv-x="220" 
d="M52 627l4 28h222l-5 -28h-221zM57 0l72 517h35l-73 -517h-34z" />
    <glyph glyph-name="Iogonek" unicode="&#x12e;" horiz-adv-x="251" 
d="M103 0q-114 -71 -114 -143q0 -21 13 -34.5t40 -13.5q17 0 28 4l2 -1l-3 -24q-18 -6 -39 -6q-37 0 -56.5 17.5t-19.5 48.5q0 83 118 154l92 658h35l-93 -660h-3z" />
    <glyph glyph-name="iogonek" unicode="&#x12f;" horiz-adv-x="219" 
d="M170 695q11 0 18.5 -7t7.5 -19q0 -14 -8.5 -22.5t-20.5 -8.5t-19.5 7.5t-7.5 19.5q0 14 9 22t21 8zM56 0l73 517h34l-72 -517h-1q-115 -74 -115 -144q0 -48 52 -48q17 0 28 4l2 -1l-3 -24q-17 -6 -38 -6q-76 0 -76 65q0 85 117 154h-1z" />
    <glyph glyph-name="Idotaccent" unicode="&#x130;" horiz-adv-x="251" 
d="M196 742q-12 0 -19.5 7.5t-7.5 19.5q0 14 9 22t21 8q11 0 18.5 -7t7.5 -19q0 -14 -8.5 -22.5t-20.5 -8.5zM72 0l92 660h35l-93 -660h-34z" />
    <glyph glyph-name="dotlessi" unicode="&#x131;" horiz-adv-x="220" 
d="M57 0l72 517h35l-73 -517h-34z" />
    <glyph glyph-name="IJ" unicode="&#x132;" horiz-adv-x="584" 
d="M72 0l92 660h35l-93 -660h-34zM277 -3q-21 0 -45 3l5 30l2 1q15 -3 39 -3q69 0 109.5 44.5t51.5 123.5l66 464h34l-65 -464q-13 -96 -62.5 -147.5t-134.5 -51.5z" />
    <glyph glyph-name="ij" unicode="&#x133;" horiz-adv-x="455" 
d="M166 638q-12 0 -19.5 7.5t-7.5 19.5q0 14 9 22t21 8q11 0 18.5 -7t7.5 -19q0 -14 -8.5 -22.5t-20.5 -8.5zM403 638q-12 0 -19.5 7.5t-7.5 19.5q0 14 9 22t21 8q11 0 18.5 -7t7.5 -19q0 -14 -8.5 -22.5t-20.5 -8.5zM57 0l72 517h35l-73 -517h-34zM165 -168q-19 0 -36 4
l4 30l3 1q12 -3 28 -3q110 0 129 144l72 509h34l-72 -515q-23 -170 -162 -170z" />
    <glyph glyph-name="Kcommaaccent" unicode="&#x136;" horiz-adv-x="567" 
d="M596 658l-409 -324l335 -332l-1 -2h-44l-325 323l-46 -323h-34l92 660h35l-44 -315l398 315h42zM245 -52l32 3l4 -5q-12 -82 -54 -159h-23q28 62 38 133q0 1 1 11.5t2 16.5z" />
    <glyph glyph-name="kcommaaccent" unicode="&#x137;" horiz-adv-x="481" 
d="M476 514l-312 -247l270 -265l-1 -2h-45l-260 257l-36 -257h-35l99 711h35l-60 -434l300 240h44zM188 -52l32 3l4 -5q-12 -82 -54 -159h-23q28 62 38 133q0 1 1 11.5t2 16.5z" />
    <glyph glyph-name="kgreenlandic" unicode="&#x138;" horiz-adv-x="481" 
d="M487 517l-322 -250l262 -267h-49l-251 257l-35 -257h-35l71 517h35l-33 -241l312 241h45z" />
    <glyph glyph-name="Lacute" unicode="&#x139;" horiz-adv-x="481" 
d="M295 791l-180 -90l-9 21l176 104l16 -28zM110 30h321l-4 -30h-355l93 660h34z" />
    <glyph glyph-name="lacute" unicode="&#x13a;" horiz-adv-x="240" 
d="M96 743l-9 21l176 104l16 -28l-3 -7zM138 -8q-84 0 -72 89l88 630h34l-86 -616q-5 -38 5 -54.5t41 -16.5q19 0 39 14l2 -1l-4 -31q-22 -14 -47 -14z" />
    <glyph glyph-name="Lcommaaccent" unicode="&#x13b;" horiz-adv-x="481" 
d="M110 30h321l-4 -30h-355l93 660h34zM230 -52l32 3l4 -5q-12 -82 -54 -159h-23q28 62 38 133q0 1 1 11.5t2 16.5z" />
    <glyph glyph-name="lcommaaccent" unicode="&#x13c;" horiz-adv-x="240" 
d="M138 -8q-84 0 -72 89l88 630h34l-86 -616q-5 -38 5 -54.5t41 -16.5q19 0 39 14l2 -1l-4 -31q-22 -14 -47 -14zM52 -213q28 62 38 133q0 1 1 11.5t2 16.5l32 3l4 -5q-12 -82 -54 -159h-23z" />
    <glyph glyph-name="Lcaron" unicode="&#x13d;" horiz-adv-x="481" 
d="M426 675l-45 -189h-22l36 196h26zM110 30h321l-4 -30h-355l92 660h35z" />
    <glyph glyph-name="lcaron" unicode="&#x13e;" horiz-adv-x="240" 
d="M245 519l36 196h26l5 -7l-45 -189h-22zM138 -8q-84 0 -72 89l88 630h34l-86 -616q-5 -38 5 -54.5t41 -16.5q19 0 39 14l2 -1l-4 -31q-22 -14 -47 -14z" />
    <glyph glyph-name="Ldot" unicode="&#x13f;" horiz-adv-x="484" 
d="M110 30h321l-4 -30h-355l93 660h34zM372 339q-12 0 -18.5 7t-6.5 17q0 12 8.5 21t21.5 9q25 0 25 -24q0 -12 -8.5 -21t-21.5 -9z" />
    <glyph glyph-name="ldot" unicode="&#x140;" horiz-adv-x="295" 
d="M138 -8q-84 0 -72 89l88 630h34l-86 -616q-5 -38 5 -54.5t41 -16.5q19 0 39 14l2 -1l-4 -31q-22 -14 -47 -14zM265 333q-24 0 -24 23q0 13 8 22t22 9q24 0 24 -24q0 -13 -8 -21.5t-22 -8.5z" />
    <glyph glyph-name="Lslash" unicode="&#x141;" horiz-adv-x="481" 
d="M110 30h321l-4 -30h-355l43 304l-80 -46l-2 1l4 29l82 48l46 324h34l-42 -302l79 47h3l-4 -31l-83 -48z" />
    <glyph glyph-name="lslash" unicode="&#x142;" horiz-adv-x="240" 
d="M138 355l-36 -260q-5 -38 5 -54.5t41 -16.5q19 0 39 14l2 -1l-4 -31q-22 -14 -47 -14q-84 0 -72 89l35 252l-79 -47h-3l4 30l83 48l48 347h34l-45 -325l80 47h3l-5 -29z" />
    <glyph glyph-name="Nacute" unicode="&#x143;" horiz-adv-x="710" 
d="M342 701l-9 21l176 104l16 -28l-3 -7zM72 0l93 667h14l361 -597h2l83 590h33l-93 -669h-11l-364 599h-2l-83 -590h-33z" />
    <glyph glyph-name="nacute" unicode="&#x144;" horiz-adv-x="584" 
d="M429 683l-145 -113l-14 21l134 124l25 -25v-7zM338 528q73 0 121.5 -42.5t48.5 -129.5q0 -26 -4 -64l-41 -292h-35l40 285q5 33 5 64q0 75 -41 111t-102 36q-72 0 -127.5 -48t-66.5 -125l-45 -323h-34l72 517h29l-10 -102q26 52 76.5 82.5t113.5 30.5z" />
    <glyph glyph-name="Ncommaaccent" unicode="&#x145;" horiz-adv-x="710" 
d="M72 0l93 667h14l361 -597h2l83 590h33l-93 -669h-11l-364 599h-2l-83 -590h-33zM253 -213q28 62 38 133q0 1 1 11.5t2 16.5l32 3l4 -5q-12 -82 -54 -159h-23z" />
    <glyph glyph-name="ncommaaccent" unicode="&#x146;" horiz-adv-x="584" 
d="M338 528q73 0 121.5 -42.5t48.5 -129.5q0 -26 -4 -64l-41 -292h-35l40 285q5 33 5 64q0 75 -41 111t-102 36q-72 0 -127.5 -48t-66.5 -125l-45 -323h-34l72 517h29l-10 -102q26 52 76.5 82.5t113.5 30.5zM240 -52l32 3l4 -5q-12 -82 -54 -159h-23q28 62 38 133
q0 1 1 11.5t2 16.5z" />
    <glyph glyph-name="Ncaron" unicode="&#x147;" horiz-adv-x="710" 
d="M416 701l-102 109l16 17l98 -94l118 94l13 -17l-127 -109h-16zM72 0l93 667h14l361 -597h2l83 590h33l-93 -669h-11l-364 599h-2l-83 -590h-33z" />
    <glyph glyph-name="ncaron" unicode="&#x148;" horiz-adv-x="584" 
d="M341 570h-16l-90 131l17 14l86 -109l116 109l13 -14zM338 528q73 0 121.5 -42.5t48.5 -129.5q0 -26 -4 -64l-41 -292h-35l40 285q5 33 5 64q0 75 -41 111t-102 36q-72 0 -127.5 -48t-66.5 -125l-45 -323h-34l72 517h29l-10 -102q26 52 76.5 82.5t113.5 30.5z" />
    <glyph glyph-name="Eng" unicode="&#x14a;" horiz-adv-x="709" 
d="M658 660l-71 -512l-19 -135q-14 -99 -64.5 -151t-133.5 -52q-22 0 -44 3l4 30l1 1q17 -3 40 -3q69 0 110 45t53 124l2 11l-346 568h-2l-83 -589h-33l93 667h14l361 -597h2l83 590h33z" />
    <glyph glyph-name="eng" unicode="&#x14b;" horiz-adv-x="585" 
d="M338 528q73 0 122 -43t49 -129q0 -16 -5 -64l-42 -303q-23 -167 -160 -167q-13 0 -31 3l4 29l2 2q12 -3 24 -3q56 0 86.5 35t40.5 106l40 291q5 33 5 64q0 75 -41 111t-102 36q-69 0 -123.5 -44.5t-68.5 -115.5l-47 -336h-34l72 517h29l-12 -105q25 53 76.5 84.5
t115.5 31.5z" />
    <glyph glyph-name="Omacron" unicode="&#x14c;" horiz-adv-x="752" 
d="M314 752l4 30h246l-4 -30h-246zM371 -11q-138 0 -220 80.5t-82 219.5q0 175 95.5 279t242.5 104q134 0 215 -81.5t81 -221.5q0 -173 -94.5 -276.5t-237.5 -103.5zM375 20q127 0 210 94.5t83 252.5q0 129 -72 201.5t-193 72.5q-132 0 -215 -95t-83 -254
q0 -129 72.5 -200.5t197.5 -71.5z" />
    <glyph glyph-name="omacron" unicode="&#x14d;" horiz-adv-x="605" 
d="M204 626l4 29h268l-4 -29h-268zM280 -12q-99 0 -161.5 63t-62.5 174q0 130 75 216t192 86q101 0 164 -63t63 -173q0 -130 -75.5 -216.5t-194.5 -86.5zM285 19q104 0 166.5 78t62.5 193q0 96 -53.5 151t-141.5 55q-103 0 -165 -78t-62 -191q0 -97 53 -152.5t140 -55.5z
" />
    <glyph glyph-name="Ohungarumlaut" unicode="&#x150;" horiz-adv-x="752" 
d="M331 715l-18 10l81 134l27 -11v-7zM491 715l-18 10l81 134l27 -11l-1 -7zM371 -11q-138 0 -220 80.5t-82 219.5q0 175 95.5 279t242.5 104q134 0 215 -81.5t81 -221.5q0 -173 -94.5 -276.5t-237.5 -103.5zM375 20q127 0 210 94.5t83 252.5q0 129 -72 201.5t-193 72.5
q-132 0 -215 -95t-83 -254q0 -129 72.5 -200.5t197.5 -71.5z" />
    <glyph glyph-name="ohungarumlaut" unicode="&#x151;" horiz-adv-x="605" 
d="M243 566l-16 10l107 146l24 -12l-1 -7zM389 566l-16 10l108 146l23 -12l-1 -7zM280 -12q-99 0 -161.5 63t-62.5 174q0 130 75 216t192 86q101 0 164 -63t63 -173q0 -130 -75.5 -216.5t-194.5 -86.5zM285 19q104 0 166.5 78t62.5 193q0 96 -53.5 151t-141.5 55
q-103 0 -165 -78t-62 -191q0 -97 53 -152.5t140 -55.5z" />
    <glyph glyph-name="OE" unicode="&#x152;" horiz-adv-x="860" 
d="M852 666l-5 -32l-273 2q130 -79 130 -260v-16h85l-5 -32h-82q-10 -105 -58 -182t-124 -115l257 1l-5 -32h-347q-23 -4 -53 -4q-138 0 -220 80.5t-82 219.5q0 175 95.5 279t242.5 104q54 0 97 -13h347zM106 299q0 -129 72.5 -200.5t197.5 -71.5h14l86 613q-35 8 -72 8
q-132 0 -215 -95t-83 -254zM669 374q0 97 -42 163.5t-118 93.5l-38 -271h198v14zM425 31q99 17 165 95.5t77 201.5h-200z" />
    <glyph glyph-name="oe" unicode="&#x153;" horiz-adv-x="969" 
d="M745 528q83 0 130.5 -49.5t47.5 -139.5q0 -36 -11 -83h-384q-2 -26 -2 -41q0 -94 48 -145t128 -51q85 0 158 47l2 -1l-5 -33q-73 -45 -160 -45q-75 0 -127.5 40t-69.5 118q-29 -78 -89.5 -118t-142.5 -40q-93 0 -153 63t-60 167q0 143 76.5 227t190.5 84q75 0 129 -44.5
t70 -122.5q31 79 91 123t133 44zM273 18q102 0 161.5 72t59.5 208q0 88 -48.5 143.5t-126.5 55.5q-97 0 -162.5 -74t-65.5 -202q0 -91 51 -147t131 -56zM532 285h353q4 32 4 51q0 79 -38 120t-109 40q-77 0 -135 -56.5t-75 -154.5z" />
    <glyph glyph-name="Racute" unicode="&#x154;" horiz-adv-x="539" 
d="M425 791l-180 -90l-9 21l176 104l16 -28zM496 509q0 -88 -48 -143.5t-124 -73.5l131 -290l-1 -2h-35l-129 286q-22 -2 -35 -2h-109l-40 -284h-34l93 664q62 5 144 5q91 0 139 -41t48 -119zM240 312q96 0 158.5 49t62.5 143q0 135 -154 135q-36 0 -112 -4l-45 -323h90z
" />
    <glyph glyph-name="racute" unicode="&#x155;" horiz-adv-x="351" 
d="M349 683l-145 -113l-14 21l134 124l25 -25v-7zM308 528q32 0 54 -11l-4 -31l-3 -1q-16 10 -50 10q-26 0 -46.5 -5t-44.5 -20t-43.5 -49t-32.5 -85v1l-47 -337h-34l72 517h29l-9 -91q48 102 159 102z" />
    <glyph glyph-name="Rcommaaccent" unicode="&#x156;" horiz-adv-x="539" 
d="M496 509q0 -88 -48 -143.5t-124 -73.5l131 -290l-1 -2h-35l-129 286q-22 -2 -35 -2h-109l-40 -284h-34l93 664q62 5 144 5q91 0 139 -41t48 -119zM240 312q96 0 158.5 49t62.5 143q0 135 -154 135q-36 0 -112 -4l-45 -323h90zM217 -52l32 3l4 -5q-12 -82 -54 -159h-23
q28 62 38 133q0 1 1 11.5t2 16.5z" />
    <glyph glyph-name="rcommaaccent" unicode="&#x157;" horiz-adv-x="351" 
d="M308 528q32 0 54 -11l-4 -31l-3 -1q-16 10 -50 10q-26 0 -46.5 -5t-44.5 -20t-43.5 -49t-32.5 -85v1l-47 -337h-34l72 517h29l-9 -91q48 102 159 102zM53 -52l32 3l4 -5q-12 -82 -54 -159h-23q28 62 38 133q0 1 1 11.5t2 16.5z" />
    <glyph glyph-name="Rcaron" unicode="&#x158;" horiz-adv-x="539" 
d="M335 701h-16l-102 109l16 17l98 -94l118 94l13 -17zM496 509q0 -88 -48 -143.5t-124 -73.5l131 -290l-1 -2h-35l-129 286q-22 -2 -35 -2h-109l-40 -284h-34l93 664q62 5 144 5q91 0 139 -41t48 -119zM240 312q96 0 158.5 49t62.5 143q0 135 -154 135q-36 0 -112 -4
l-45 -323h90z" />
    <glyph glyph-name="rcaron" unicode="&#x159;" horiz-adv-x="351" 
d="M261 570h-16l-90 131l17 14l86 -109l116 109l13 -14zM149 426q48 102 159 102q32 0 54 -11l-4 -31l-3 -1q-16 10 -50 10q-26 0 -46.5 -5t-44.5 -20t-43.5 -49t-32.5 -85v1l-47 -337h-34l72 517h29z" />
    <glyph glyph-name="Sacute" unicode="&#x15a;" horiz-adv-x="499" 
d="M222 704l-9 21l176 104l16 -28l-3 -7zM223 -15q-116 0 -188 53l1 37l3 1q74 -59 182 -59q80 0 128.5 40.5t48.5 106.5q0 64 -38 102.5t-108 69.5q-75 34 -116 71.5t-41 98.5q0 78 58.5 122.5t147.5 44.5q96 0 157 -36l-2 -32l-2 -1q-59 39 -152 39q-72 0 -121.5 -34.5
t-49.5 -96.5q0 -53 36.5 -84.5t108.5 -63.5q72 -33 114 -76.5t42 -117.5q0 -85 -56.5 -135t-152.5 -50z" />
    <glyph glyph-name="sacute" unicode="&#x15b;" horiz-adv-x="453" 
d="M224 571l-14 21l134 124l25 -25v-7zM179 -12q-106 0 -159 41l5 35l2 1q53 -46 157 -46q76 0 122.5 31.5t46.5 90.5q0 44 -30 66.5t-101 44.5q-69 21 -105.5 49t-36.5 78q0 69 56.5 108.5t145.5 39.5q76 0 130 -26l-4 -31l-2 -1q-55 27 -128 27q-72 0 -117.5 -30
t-45.5 -83q0 -39 31 -60t97 -42q75 -22 110 -51t35 -81q0 -78 -58 -119.5t-151 -41.5z" />
    <glyph glyph-name="Scedilla" unicode="&#x15e;" horiz-adv-x="499" 
d="M301 673q96 0 157 -36l-2 -32l-2 -1q-59 39 -152 39q-72 0 -121.5 -34.5t-49.5 -96.5q0 -53 36.5 -84.5t108.5 -63.5q72 -33 114 -76.5t42 -117.5q0 -81 -52.5 -130.5t-141.5 -54.5l-30 -44q17 5 34 5q31 0 50.5 -17.5t19.5 -51.5q0 -48 -32 -73t-80 -25q-35 0 -59 11
l4 24l1 1q21 -11 54 -11q35 0 57.5 17.5t22.5 50.5q0 25 -14 37.5t-37 12.5q-31 0 -55 -11l-1 1l3 22l36 51q-110 3 -177 53l1 37l3 1q74 -59 182 -59q80 0 128.5 40.5t48.5 106.5q0 64 -38 102.5t-108 69.5q-75 34 -116 71.5t-41 98.5q0 78 58.5 122.5t147.5 44.5z" />
    <glyph glyph-name="scedilla" unicode="&#x15f;" horiz-adv-x="453" 
d="M282 527q76 0 130 -26l-4 -31l-2 -1q-55 27 -128 27q-72 0 -117.5 -30t-45.5 -83q0 -39 31 -60t97 -42q75 -22 110 -51t35 -81q0 -73 -51.5 -114t-135.5 -46l-32 -48q17 5 34 5q31 0 50.5 -17.5t19.5 -51.5q0 -48 -32 -73t-80 -25q-35 0 -59 11l4 24l1 1q21 -11 54 -11
q35 0 57.5 17.5t22.5 50.5q0 25 -14 37.5t-37 12.5q-31 0 -55 -11l-1 1l3 22l38 54q-104 1 -155 41l5 35l2 1q53 -46 157 -46q76 0 122.5 31.5t46.5 90.5q0 44 -30 66.5t-101 44.5q-69 21 -105.5 49t-36.5 78q0 69 56.5 108.5t145.5 39.5z" />
    <glyph glyph-name="Scaron" unicode="&#x160;" horiz-adv-x="499" 
d="M296 704l-102 109l16 17l98 -94l118 94l13 -17l-127 -109h-16zM223 -15q-116 0 -188 53l1 37l3 1q74 -59 182 -59q80 0 128.5 40.5t48.5 106.5q0 64 -38 102.5t-108 69.5q-75 34 -116 71.5t-41 98.5q0 78 58.5 122.5t147.5 44.5q96 0 157 -36l-2 -32l-2 -1
q-59 39 -152 39q-72 0 -121.5 -34.5t-49.5 -96.5q0 -53 36.5 -84.5t108.5 -63.5q72 -33 114 -76.5t42 -117.5q0 -85 -56.5 -135t-152.5 -50z" />
    <glyph glyph-name="scaron" unicode="&#x161;" horiz-adv-x="453" 
d="M265 571l-90 131l17 14l86 -109l116 109l13 -14l-126 -131h-16zM179 -12q-106 0 -159 41l5 35l2 1q53 -46 157 -46q76 0 122.5 31.5t46.5 90.5q0 44 -30 66.5t-101 44.5q-69 21 -105.5 49t-36.5 78q0 69 56.5 108.5t145.5 39.5q76 0 130 -26l-4 -31l-2 -1q-55 27 -128 27
q-72 0 -117.5 -30t-45.5 -83q0 -39 31 -60t97 -42q75 -22 110 -51t35 -81q0 -78 -58 -119.5t-151 -41.5z" />
    <glyph glyph-name="uni0162" unicode="&#x162;" horiz-adv-x="517" 
d="M241 0h-5l-40 -59q18 5 34 5q31 0 50.5 -17.5t19.5 -51.5q0 -48 -32 -73t-80 -25q-35 0 -59 11l4 24l1 1q21 -11 54 -11q35 0 57.5 17.5t22.5 50.5q0 25 -14 37.5t-37 12.5q-31 0 -55 -11l-1 1l3 22l46 66h-4l89 629h-223l4 31h478l-4 -31h-221z" />
    <glyph glyph-name="uni0163" unicode="&#x163;" horiz-adv-x="342" 
d="M191 487l-46 -331q-3 -20 -3 -42q0 -40 26 -63.5t73 -23.5q35 0 69 18l1 -1l-5 -30q-28 -18 -74 -18q-12 0 -18 1l-38 -56q17 5 34 5q31 0 50.5 -17.5t19.5 -51.5q0 -48 -32 -73t-80 -25q-35 0 -59 11l4 24l1 1q21 -11 54 -11q35 0 57.5 17.5t22.5 50.5q0 25 -14 37.5
t-37 12.5q-31 0 -55 -11l-1 1l3 22l46 66h4q-41 9 -64 36.5t-23 69.5q0 19 4 48l46 333h-117l5 30h116l17 122l34 6l1 -1l-18 -127h167l-4 -30h-167z" />
    <glyph glyph-name="Tcaron" unicode="&#x164;" horiz-adv-x="517" 
d="M332 701h-16l-102 109l16 17l98 -94l118 94l13 -17zM554 660l-4 -31h-221l-88 -629h-35l89 629h-223l4 31h478z" />
    <glyph glyph-name="tcaron" unicode="&#x165;" horiz-adv-x="342" 
d="M360 774l-45 -189h-22l36 196h26zM191 487l-46 -331q-3 -20 -3 -42q0 -40 26 -63.5t73 -23.5q35 0 69 18l1 -1l-5 -30q-28 -18 -74 -18q-57 0 -91 29.5t-34 80.5q0 19 4 48l46 333h-117l5 30h116l17 122l34 6l1 -1l-18 -127h167l-4 -30h-167z" />
    <glyph glyph-name="Tbar" unicode="&#x166;" horiz-adv-x="518" 
d="M550 629h-221l-41 -291h99l-3 -27h-100l-43 -311h-35l44 311h-98l3 27h99l41 291h-223l4 31h478z" />
    <glyph glyph-name="tbar" unicode="&#x167;" horiz-adv-x="342" 
d="M358 487h-167l-25 -180h106l-4 -27h-106l-17 -124q-3 -20 -3 -42q0 -40 26 -63.5t73 -23.5q35 0 69 18l1 -1l-5 -30q-28 -18 -74 -18q-57 0 -91 29.5t-34 80.5q0 19 4 48l17 126h-91l4 27h91l25 180h-117l5 30h116l17 122l34 6l1 -1l-18 -127h167z" />
    <glyph glyph-name="Utilde" unicode="&#x168;" horiz-adv-x="683" 
d="M298 721l-23 6q4 33 25.5 53t49.5 20q25 0 65.5 -21t58.5 -21q17 0 31.5 12.5t18.5 35.5l1 1l24 -6q-6 -34 -27 -54t-49 -20q-22 0 -62.5 21.5t-61.5 21.5q-18 0 -32 -12.5t-18 -35.5zM312 -15q-104 0 -161.5 54t-57.5 151q0 33 4 58l57 412h35l-57 -408q-4 -25 -4 -53
q0 -88 49.5 -135t138.5 -47q97 0 157.5 60.5t76.5 174.5l56 408h34l-57 -412q-18 -128 -87 -195.5t-184 -67.5z" />
    <glyph glyph-name="utilde" unicode="&#x169;" horiz-adv-x="569" 
d="M221 609l-2 -1l-24 5q5 33 25.5 53.5t48.5 20.5t72.5 -21.5t65.5 -21.5q40 0 49 48l1 1l25 -4q-6 -36 -27 -55.5t-48 -19.5t-71 21.5t-67 21.5q-18 0 -31.5 -12.5t-16.5 -35.5zM478 517h35l-73 -517h-28l7 84q-69 -95 -185 -95q-74 0 -116.5 40.5t-42.5 118.5q0 18 4 58
l43 311h36l-44 -308q-4 -34 -4 -55q0 -65 35.5 -99.5t96.5 -34.5q57 0 105 30t77 84z" />
    <glyph glyph-name="Umacron" unicode="&#x16a;" horiz-adv-x="683" 
d="M287 753l4 30h246l-4 -30h-246zM312 -15q-104 0 -161.5 54t-57.5 151q0 33 4 58l57 412h35l-57 -408q-4 -25 -4 -53q0 -88 49.5 -135t138.5 -47q97 0 157.5 60.5t76.5 174.5l56 408h34l-57 -412q-18 -128 -87 -195.5t-184 -67.5z" />
    <glyph glyph-name="umacron" unicode="&#x16b;" horiz-adv-x="569" 
d="M474 657l-4 -29h-268l4 29h268zM478 517h35l-73 -517h-28l7 84q-69 -95 -185 -95q-74 0 -116.5 40.5t-42.5 118.5q0 18 4 58l43 311h36l-44 -308q-4 -34 -4 -55q0 -65 35.5 -99.5t96.5 -34.5q57 0 105 30t77 84z" />
    <glyph glyph-name="Uring" unicode="&#x16e;" horiz-adv-x="683" 
d="M405 678q-31 0 -51 19t-20 49q0 36 23 60t58 24q31 0 50.5 -18.5t19.5 -48.5q0 -37 -21.5 -61t-58.5 -24zM408 700q25 0 39.5 17t14.5 42q0 21 -13.5 35t-35.5 14q-24 0 -39 -17t-15 -42q0 -22 13.5 -35.5t35.5 -13.5zM312 -15q-104 0 -161.5 54t-57.5 151q0 33 4 58
l57 412h35l-57 -408q-4 -25 -4 -53q0 -88 49.5 -135t138.5 -47q97 0 157.5 60.5t76.5 174.5l56 408h34l-57 -412q-18 -128 -87 -195.5t-184 -67.5z" />
    <glyph glyph-name="uring" unicode="&#x16f;" horiz-adv-x="569" 
d="M331 567q-30 0 -49.5 20t-19.5 50q0 36 23 60.5t58 24.5q31 0 50.5 -19.5t19.5 -48.5q0 -37 -22 -62t-60 -25zM341 700q-24 0 -39.5 -18t-15.5 -43q0 -22 13 -35.5t35 -13.5q26 0 41 17t15 43q0 21 -14 35.5t-35 14.5zM478 517h35l-73 -517h-28l7 84q-69 -95 -185 -95
q-74 0 -116.5 40.5t-42.5 118.5q0 18 4 58l43 311h36l-44 -308q-4 -34 -4 -55q0 -65 35.5 -99.5t96.5 -34.5q57 0 105 30t77 84z" />
    <glyph glyph-name="Uhungarumlaut" unicode="&#x170;" horiz-adv-x="683" 
d="M304 716l-18 10l81 134l27 -11v-7zM464 716l-18 10l81 134l27 -11l-1 -7zM312 -15q-104 0 -161.5 54t-57.5 151q0 33 4 58l57 412h35l-57 -408q-4 -25 -4 -53q0 -88 49.5 -135t138.5 -47q97 0 157.5 60.5t76.5 174.5l56 408h34l-57 -412q-18 -128 -87 -195.5t-184 -67.5z
" />
    <glyph glyph-name="uhungarumlaut" unicode="&#x171;" horiz-adv-x="569" 
d="M355 705l-114 -137l-16 10l107 146l24 -12zM501 705l-114 -137l-16 10l108 146l23 -12zM478 517h35l-73 -517h-28l7 84q-69 -95 -185 -95q-74 0 -116.5 40.5t-42.5 118.5q0 18 4 58l43 311h36l-44 -308q-4 -34 -4 -55q0 -65 35.5 -99.5t96.5 -34.5q57 0 105 30t77 84z
" />
    <glyph glyph-name="Uogonek" unicode="&#x172;" horiz-adv-x="683" 
d="M606 660h34l-57 -412q-31 -216 -198 -255q-103 -68 -103 -136q0 -21 13 -34.5t40 -13.5q17 0 28 4l2 -1l-3 -24q-18 -6 -39 -6q-37 0 -56.5 17.5t-19.5 48.5q0 74 94 138q-9 -1 -29 -1q-104 0 -161.5 54t-57.5 151q0 33 4 58l57 412h35l-57 -408q-4 -25 -4 -53
q0 -88 49.5 -135t138.5 -47q97 0 157.5 60.5t76.5 174.5z" />
    <glyph glyph-name="uogonek" unicode="&#x173;" horiz-adv-x="569" 
d="M440 0q-116 -71 -116 -144q0 -21 13 -34.5t40 -13.5q17 0 28 4l2 -1l-3 -24q-18 -6 -39 -6q-37 0 -56.5 17.5t-19.5 48.5q0 85 123 157l7 80q-69 -95 -185 -95q-74 0 -116.5 40.5t-42.5 118.5q0 18 4 58l43 311h36l-44 -308q-4 -34 -4 -55q0 -65 35.5 -99.5t96.5 -34.5
q57 0 105 30t77 84l54 383h35z" />
    <glyph glyph-name="Wcircumflex" unicode="&#x174;" horiz-adv-x="924" 
d="M536 794l-120 -94l-12 18l128 109h16l101 -109l-16 -18zM950 660l1 -2l-305 -675h-23l-110 595l-2 16l-7 -17l-277 -594h-23l-118 675l1 2h35l100 -596l2 -25l10 25l274 595h23l109 -593l2 -24l10 24l265 594h33z" />
    <glyph glyph-name="wcircumflex" unicode="&#x175;" horiz-adv-x="766" 
d="M442 680l-117 -109l-13 15l126 130h16l90 -130l-17 -15zM768 517l1 -3l-233 -514h-33l-85 454l-2 19l-8 -19l-216 -454h-32l-93 514l1 3h34l79 -455l1 -17l7 17l215 455h35l86 -454l2 -17l6 17l204 454h31z" />
    <glyph glyph-name="Ycircumflex" unicode="&#x176;" horiz-adv-x="554" 
d="M233 700l-12 18l128 109h16l101 -109l-16 -18l-97 94zM224 0l40 285l-181 373l1 2h35l167 -342l261 342h34l1 -2l-284 -373l-40 -285h-34z" />
    <glyph glyph-name="ycircumflex" unicode="&#x177;" horiz-adv-x="510" 
d="M324 679l-117 -109l-13 15l126 130h16l90 -130l-17 -15zM519 514l-277 -514l-3 -6q-50 -89 -88.5 -125.5t-101.5 -36.5q-26 0 -51 7l5 29l2 1q22 -6 48 -6q49 0 82.5 31.5t72.5 103.5l6 10l-149 506l1 3h37l133 -469l247 469h35z" />
    <glyph glyph-name="Ydieresis" unicode="&#x178;" horiz-adv-x="554" 
d="M263 741q-25 0 -25 25q0 13 8.5 20.5t19.5 7.5q10 0 17 -6.5t7 -17.5q0 -13 -8 -21t-19 -8zM437 741q-10 0 -17.5 7t-7.5 18q0 13 8.5 20.5t19.5 7.5q25 0 25 -24q0 -13 -8 -21t-20 -8zM224 0l40 285l-181 373l1 2h35l167 -342l261 342h34l1 -2l-284 -373l-40 -285h-34z
" />
    <glyph glyph-name="Zacute" unicode="&#x179;" horiz-adv-x="551" 
d="M258 703l-9 21l176 104l16 -28l-3 -7zM7 0l-3 13l509 618h-418l4 29h463l3 -12l-512 -619h435l-4 -29h-477z" />
    <glyph glyph-name="zacute" unicode="&#x17a;" horiz-adv-x="482" 
d="M382 683l-145 -113l-14 21l134 124l25 -25v-7zM469 502l-412 -472h356l-4 -30h-400l-2 16l411 471h-342l4 30h387z" />
    <glyph glyph-name="Zdotaccent" unicode="&#x17b;" horiz-adv-x="551" 
d="M346 744q-12 0 -19.5 7.5t-7.5 19.5q0 14 9 22t21 8q11 0 18.5 -7t7.5 -19q0 -14 -8.5 -22.5t-20.5 -8.5zM7 0l-3 13l509 618h-418l4 29h463l3 -12l-512 -619h435l-4 -29h-477z" />
    <glyph glyph-name="zdotaccent" unicode="&#x17c;" horiz-adv-x="482" 
d="M297 638q-12 0 -19.5 7.5t-7.5 19.5q0 14 9 22t21 8q11 0 18.5 -7t7.5 -19q0 -14 -8.5 -22.5t-20.5 -8.5zM469 502l-412 -472h356l-4 -30h-400l-2 16l411 471h-342l4 30h387z" />
    <glyph glyph-name="Zcaron" unicode="&#x17d;" horiz-adv-x="551" 
d="M332 703l-102 109l16 17l98 -94l118 94l13 -17l-127 -109h-16zM7 0l-3 13l509 618h-418l4 29h463l3 -12l-512 -619h435l-4 -29h-477z" />
    <glyph glyph-name="zcaron" unicode="&#x17e;" horiz-adv-x="482" 
d="M294 570h-16l-90 131l17 14l86 -109l116 109l13 -14zM469 502l-412 -472h356l-4 -30h-400l-2 16l411 471h-342l4 30h387z" />
    <glyph glyph-name="uni01EA" unicode="&#x1ea;" horiz-adv-x="752" 
d="M405 -9q-109 -69 -109 -140q0 -21 13 -34.5t40 -13.5q17 0 28 4l2 -1l-3 -24q-18 -6 -39 -6q-37 0 -56.5 17.5t-19.5 48.5q0 78 107 147q-136 1 -217.5 81.5t-81.5 218.5q0 175 95.5 279t242.5 104q134 0 215 -81.5t81 -221.5q0 -162 -84 -264t-214 -114zM105 292
q0 -129 72.5 -200.5t197.5 -71.5q127 0 210 94.5t83 252.5q0 129 -72 201.5t-193 72.5q-132 0 -215 -95t-83 -254z" />
    <glyph glyph-name="uni01EB" unicode="&#x1eb;" horiz-adv-x="605" 
d="M358 -1q-113 -70 -113 -142q0 -21 13 -34.5t40 -13.5q17 0 28 4l2 -1l-3 -24q-18 -6 -39 -6q-37 0 -56.5 17.5t-19.5 48.5q0 76 99 141q-10 -1 -29 -1q-99 0 -161.5 63t-62.5 174q0 130 75 216t192 86q101 0 164 -63t63 -173q0 -106 -52 -185.5t-140 -106.5zM92 227
q0 -97 53 -152.5t140 -55.5q104 0 166.5 78t62.5 193q0 96 -53.5 151t-141.5 55q-103 0 -165 -78t-62 -191z" />
    <glyph glyph-name="AEacute" unicode="&#x1fc;" horiz-adv-x="777" 
d="M642 791l-180 -90l-9 21l176 104l16 -28zM763 630h-271l-38 -272h252l-4 -30h-253l-41 -298h285l-4 -30h-321l33 232h-234l-173 -232h-36l496 660h313zM187 258h217l51 361l-40 -56z" />
    <glyph glyph-name="aeacute" unicode="&#x1fd;" horiz-adv-x="913" 
d="M611 683l-145 -113l-14 21l134 124l25 -25v-7zM677 528q96 0 143 -55.5t47 -135.5q0 -37 -9 -75h-401q-2 -26 -2 -41q0 -97 53.5 -149.5t137.5 -52.5q97 0 160 47l3 -1l-5 -33q-64 -45 -162 -45q-86 0 -146 47t-73 136q-27 -79 -77 -130t-127 -51q-85 0 -132 54t-47 146
q0 157 79 248t194 91q72 0 113 -20.5t74 -59.5q72 80 177 80zM225 20q78 0 128 69t68 169q9 97 59 166q-60 72 -167 72q-99 0 -167.5 -80t-68.5 -221q0 -80 38 -127.5t110 -47.5zM461 291h368q4 20 4 45q0 68 -38 114t-121 46q-77 0 -136 -55.5t-77 -149.5z" />
    <glyph glyph-name="Oslashacute" unicode="&#x1fe;" horiz-adv-x="752" 
d="M535 791l-180 -90l-9 21l176 104l16 -28zM612 600q91 -83 91 -231q0 -173 -94.5 -276.5t-237.5 -103.5q-114 0 -190 55l-80 -103h-31v4l90 116q-91 82 -91 228q0 175 95.5 279t242.5 104q109 0 184 -55l79 101h31v-3zM105 292q0 -133 76 -204l390 502q-68 51 -168 51
q-132 0 -215 -95t-83 -254zM375 20q127 0 210 94.5t83 252.5q0 132 -77 206l-389 -502q66 -51 173 -51z" />
    <glyph glyph-name="oslashacute" unicode="&#x1ff;" horiz-adv-x="605" 
d="M411 683l-145 -113l-14 21l134 124l25 -25v-7zM469 480q81 -64 81 -189q0 -130 -75.5 -216.5t-194.5 -86.5q-68 0 -119 30l-48 -71h-28v4l54 82q-83 63 -83 192q0 130 75 216t192 86q71 0 124 -32l48 72h30v-4zM92 227q0 -109 67 -165l269 405q-46 29 -109 29
q-103 0 -165 -78t-62 -191zM285 19q104 0 166.5 78t62.5 193q0 105 -64 161l-270 -404q45 -28 105 -28z" />
    <glyph glyph-name="Scommaaccent" unicode="&#x218;" horiz-adv-x="499" 
d="M223 -15q-116 0 -188 53l1 37l3 1q74 -59 182 -59q80 0 128.5 40.5t48.5 106.5q0 64 -38 102.5t-108 69.5q-75 34 -116 71.5t-41 98.5q0 78 58.5 122.5t147.5 44.5q96 0 157 -36l-2 -32l-2 -1q-59 39 -152 39q-72 0 -121.5 -34.5t-49.5 -96.5q0 -53 36.5 -84.5
t108.5 -63.5q72 -33 114 -76.5t42 -117.5q0 -85 -56.5 -135t-152.5 -50zM165 -213q28 62 38 133q0 1 1 11.5t2 16.5l32 3l4 -5q-12 -82 -54 -159h-23z" />
    <glyph glyph-name="scommaaccent" unicode="&#x219;" horiz-adv-x="453" 
d="M179 -12q-106 0 -159 41l5 35l2 1q53 -46 157 -46q76 0 122.5 31.5t46.5 90.5q0 44 -30 66.5t-101 44.5q-69 21 -105.5 49t-36.5 78q0 69 56.5 108.5t145.5 39.5q76 0 130 -26l-4 -31l-2 -1q-55 27 -128 27q-72 0 -117.5 -30t-45.5 -83q0 -39 31 -60t97 -42
q75 -22 110 -51t35 -81q0 -78 -58 -119.5t-151 -41.5zM126 -213q28 62 38 133q0 1 1 11.5t2 16.5l32 3l4 -5q-12 -82 -54 -159h-23z" />
    <glyph glyph-name="uni021A" unicode="&#x21a;" horiz-adv-x="517" 
d="M554 660l-4 -31h-221l-88 -629h-35l89 629h-223l4 31h478zM194 -52l32 3l4 -5q-12 -82 -54 -159h-23q28 62 38 133q0 1 1 11.5t2 16.5z" />
    <glyph glyph-name="uni021B" unicode="&#x21b;" horiz-adv-x="342" 
d="M191 487l-46 -331q-3 -20 -3 -42q0 -40 26 -63.5t73 -23.5q35 0 69 18l1 -1l-5 -30q-28 -18 -74 -18q-57 0 -91 29.5t-34 80.5q0 19 4 48l46 333h-117l5 30h116l17 122l34 6l1 -1l-18 -127h167l-4 -30h-167zM174 -52l32 3l4 -5q-12 -82 -54 -159h-23q28 62 38 133
q0 1 1 11.5t2 16.5z" />
    <glyph glyph-name="uni0237" unicode="&#x237;" horiz-adv-x="235" 
d="M-55 -168q-19 0 -36 4l4 30l3 1q12 -3 28 -3q110 0 129 144l72 509h34l-72 -515q-23 -170 -162 -170z" />
    <glyph glyph-name="circumflex" unicode="&#x2c6;" horiz-adv-x="291" 
d="M88 570l-13 15l126 130h16l90 -130l-17 -15l-85 109z" />
    <glyph glyph-name="caron" unicode="&#x2c7;" horiz-adv-x="291" 
d="M182 570l-90 131l17 14l86 -109l116 109l13 -14l-126 -131h-16z" />
    <glyph glyph-name="breve" unicode="&#x2d8;" horiz-adv-x="286" 
d="M189 579q-49 0 -78.5 34t-20.5 92l24 3l1 -1q-4 -46 17 -72.5t60 -26.5q40 0 69 26.5t36 71.5l2 2l22 -3q-8 -59 -43.5 -92.5t-88.5 -33.5z" />
    <glyph glyph-name="dotaccent" unicode="&#x2d9;" horiz-adv-x="253" 
d="M183 638q-12 0 -19.5 7.5t-7.5 19.5q0 14 9 22t21 8q11 0 18.5 -7t7.5 -19q0 -14 -8.5 -22.5t-20.5 -8.5z" />
    <glyph glyph-name="ring" unicode="&#x2da;" horiz-adv-x="320" 
d="M181 567q-30 0 -49.5 20t-19.5 50q0 36 23 60.5t58 24.5q31 0 50.5 -19.5t19.5 -48.5q0 -37 -22 -62t-60 -25zM184 590q26 0 41 17t15 43q0 21 -14 35.5t-35 14.5q-24 0 -39.5 -18t-15.5 -43q0 -22 13 -35.5t35 -13.5z" />
    <glyph glyph-name="ogonek" unicode="&#x2db;" horiz-adv-x="174" 
d="M42 -218q-37 0 -56.5 17.5t-19.5 48.5q0 86 127 159l24 -6q-116 -71 -116 -144q0 -21 13 -34.5t40 -13.5q17 0 28 4l2 -1l-3 -24q-18 -6 -39 -6z" />
    <glyph glyph-name="tilde" unicode="&#x2dc;" horiz-adv-x="312" 
d="M91 608l-24 5q5 33 25.5 53.5t48.5 20.5t72.5 -21.5t65.5 -21.5q40 0 49 48l1 1l25 -4q-6 -36 -27 -55.5t-48 -19.5t-71 21.5t-67 21.5q-18 0 -31.5 -12.5t-16.5 -35.5z" />
    <glyph glyph-name="hungarumlaut" unicode="&#x2dd;" horiz-adv-x="310" 
d="M86 568l-16 10l107 146l24 -12l-1 -7zM232 568l-16 10l108 146l23 -12l-1 -7z" />
    <glyph glyph-name="gravecomb" unicode="&#x300;" 
d="M9 574l-150 105l-1 7l24 27l140 -118z" />
    <glyph glyph-name="acutecomb" unicode="&#x301;" 
d="M-123 570l-14 21l134 124l25 -25v-7z" />
    <glyph glyph-name="uni0302" unicode="&#x302;" 
d="M-202 570l-13 15l126 130h16l90 -130l-17 -15l-85 109z" />
    <glyph glyph-name="tildecomb" unicode="&#x303;" 
d="M-222 608l-24 5q5 33 25.5 53.5t48.5 20.5t72.5 -21.5t65.5 -21.5q40 0 49 48l1 1l25 -4q-6 -36 -27 -55.5t-48 -19.5t-71 21.5t-67 21.5q-18 0 -31.5 -12.5t-16.5 -35.5z" />
    <glyph glyph-name="uni0304" unicode="&#x304;" 
d="M-240 628l4 29h268l-4 -29h-268z" />
    <glyph glyph-name="uni0306" unicode="&#x306;" 
d="M-96 579q-49 0 -78.5 34t-20.5 92l24 3l1 -1q-4 -46 17 -72.5t60 -26.5q40 0 69 26.5t36 71.5l2 2l22 -3q-8 -59 -43.5 -92.5t-88.5 -33.5z" />
    <glyph glyph-name="uni0307" unicode="&#x307;" 
d="M-70 638q-12 0 -19.5 7.5t-7.5 19.5q0 14 9 22t21 8q11 0 18.5 -7t7.5 -19q0 -14 -8.5 -22.5t-20.5 -8.5z" />
    <glyph glyph-name="uni0308" unicode="&#x308;" 
d="M-170 638q-11 0 -18.5 7t-7.5 19q0 14 9 22t20 8t18.5 -7t7.5 -19q0 -14 -8.5 -22t-20.5 -8zM-7 638q-11 0 -18.5 7t-7.5 19q0 14 9 22t20 8t18.5 -7t7.5 -19q0 -14 -8.5 -22t-20.5 -8z" />
    <glyph glyph-name="uni030A" unicode="&#x30a;" 
d="M-88 567q-30 0 -49.5 20t-19.5 50q0 36 23 60.5t58 24.5q31 0 50.5 -19.5t19.5 -48.5q0 -37 -22 -62t-60 -25zM-85 590q26 0 41 17t15 43q0 21 -14 35.5t-35 14.5q-24 0 -39.5 -18t-15.5 -43q0 -22 13 -35.5t35 -13.5z" />
    <glyph glyph-name="uni030B" unicode="&#x30b;" 
d="M-224 568l-16 10l107 146l24 -12l-1 -7zM-78 568l-16 10l108 146l23 -12l-1 -7z" />
    <glyph glyph-name="uni030C" unicode="&#x30c;" 
d="M-108 570l-90 131l17 14l86 -109l116 109l13 -14l-126 -131h-16z" />
    <glyph glyph-name="uni0326" unicode="&#x326;" 
d="M-177 -213q28 62 38 133q0 1 1 11.5t2 16.5l32 3l4 -5q-12 -82 -54 -159h-23z" />
    <glyph glyph-name="uni0327" unicode="&#x327;" 
d="M-178 -221q-35 0 -59 11l4 24l1 1q21 -11 54 -11q35 0 57.5 17.5t22.5 50.5q0 25 -14 37.5t-37 12.5q-31 0 -55 -11l-1 1l3 22l46 66h26l-40 -59q18 5 34 5q31 0 50.5 -17.5t19.5 -51.5q0 -48 -32 -73t-80 -25z" />
    <glyph glyph-name="uni0328" unicode="&#x328;" 
d="M-135 -218q-37 0 -56.5 17.5t-19.5 48.5q0 86 127 159l24 -6q-116 -71 -116 -144q0 -21 13 -34.5t40 -13.5q17 0 28 4l2 -1l-3 -24q-18 -6 -39 -6z" />
    <glyph glyph-name="uni0335" unicode="&#x335;" 
d="M-265 224l4 27h231l-4 -27h-231z" />
    <glyph glyph-name="uni0336" unicode="&#x336;" 
d="M-561 329l5 28h587l-4 -28h-588z" />
    <glyph glyph-name="uni0337" unicode="&#x337;" 
d="M-208 285l4 30l200 117h3l-5 -29l-199 -118h-3z" />
    <glyph glyph-name="uni0338" unicode="&#x338;" 
d="M-510 -52v4l410 616h30v-4l-412 -616h-28z" />
    <glyph glyph-name="Wgrave" unicode="&#x1e80;" horiz-adv-x="924" 
d="M599 702l-159 91l-2 7l20 27l152 -105zM950 660l1 -2l-305 -675h-23l-110 595l-2 16l-7 -17l-277 -594h-23l-118 675l1 2h35l100 -596l2 -25l10 25l274 595h23l109 -593l2 -24l10 24l265 594h33z" />
    <glyph glyph-name="wgrave" unicode="&#x1e81;" horiz-adv-x="766" 
d="M490 575l-150 105l-1 7l24 27l140 -118zM768 517l1 -3l-233 -514h-33l-85 454l-2 19l-8 -19l-216 -454h-32l-93 514l1 3h34l79 -455l1 -17l7 17l215 455h35l86 -454l2 -17l6 17l204 454h31z" />
    <glyph glyph-name="Wacute" unicode="&#x1e82;" horiz-adv-x="924" 
d="M625 791l-180 -90l-9 21l176 104l16 -28zM950 660l1 -2l-305 -675h-23l-110 595l-2 16l-7 -17l-277 -594h-23l-118 675l1 2h35l100 -596l2 -25l10 25l274 595h23l109 -593l2 -24l10 24l265 594h33z" />
    <glyph glyph-name="wacute" unicode="&#x1e83;" horiz-adv-x="766" 
d="M525 684l-145 -113l-14 21l134 124l25 -25v-7zM768 517l1 -3l-233 -514h-33l-85 454l-2 19l-8 -19l-216 -454h-32l-93 514l1 3h34l79 -455l1 -17l7 17l215 455h35l86 -454l2 -17l6 17l204 454h31z" />
    <glyph glyph-name="Wdieresis" unicode="&#x1e84;" horiz-adv-x="924" 
d="M446 741q-25 0 -25 25q0 13 8.5 20.5t19.5 7.5q10 0 17 -6.5t7 -17.5q0 -13 -8 -21t-19 -8zM620 741q-10 0 -17.5 7t-7.5 18q0 13 8.5 20.5t19.5 7.5q25 0 25 -24q0 -13 -8 -21t-20 -8zM950 660l1 -2l-305 -675h-23l-110 595l-2 16l-7 -17l-277 -594h-23l-118 675l1 2h35
l100 -596l2 -25l10 25l274 595h23l109 -593l2 -24l10 24l265 594h33z" />
    <glyph glyph-name="wdieresis" unicode="&#x1e85;" horiz-adv-x="766" 
d="M354 639q-11 0 -18.5 7t-7.5 19q0 14 9 22t20 8t18.5 -7t7.5 -19q0 -14 -8.5 -22t-20.5 -8zM517 639q-11 0 -18.5 7t-7.5 19q0 14 9 22t20 8t18.5 -7t7.5 -19q0 -14 -8.5 -22t-20.5 -8zM768 517l1 -3l-233 -514h-33l-85 454l-2 19l-8 -19l-216 -454h-32l-93 514l1 3h34
l79 -455l1 -17l7 17l215 455h35l86 -454l2 -17l6 17l204 454h31z" />
    <glyph glyph-name="Ygrave" unicode="&#x1ef2;" horiz-adv-x="554" 
d="M416 702l-159 91l-2 7l20 27l152 -105zM224 0l40 285l-181 373l1 2h35l167 -342l261 342h34l1 -2l-284 -373l-40 -285h-34z" />
    <glyph glyph-name="ygrave" unicode="&#x1ef3;" horiz-adv-x="510" 
d="M372 574l-150 105l-1 7l24 27l140 -118zM519 514l-277 -514l-3 -6q-50 -89 -88.5 -125.5t-101.5 -36.5q-26 0 -51 7l5 29l2 1q22 -6 48 -6q49 0 82.5 31.5t72.5 103.5l6 10l-149 506l1 3h37l133 -469l247 469h35z" />
    <glyph glyph-name="uni1EF8" unicode="&#x1ef8;" horiz-adv-x="554" 
d="M237 721l-23 6q4 33 25.5 53t49.5 20q25 0 65.5 -21t58.5 -21q17 0 31.5 12.5t18.5 35.5l1 1l24 -6q-6 -34 -27 -54t-49 -20q-22 0 -62.5 21.5t-61.5 21.5q-18 0 -32 -12.5t-18 -35.5zM224 0l40 285l-181 373l1 2h35l167 -342l261 342h34l1 -2l-284 -373l-40 -285h-34z
" />
    <glyph glyph-name="uni1EF9" unicode="&#x1ef9;" horiz-adv-x="510" 
d="M202 609l-2 -1l-24 5q5 33 25.5 53.5t48.5 20.5t72.5 -21.5t65.5 -21.5q40 0 49 48l1 1l25 -4q-6 -36 -27 -55.5t-48 -19.5t-71 21.5t-67 21.5q-18 0 -31.5 -12.5t-16.5 -35.5zM519 514l-277 -514l-3 -6q-50 -89 -88.5 -125.5t-101.5 -36.5q-26 0 -51 7l5 29l2 1
q22 -6 48 -6q49 0 82.5 31.5t72.5 103.5l6 10l-149 506l1 3h37l133 -469l247 469h35z" />
    <glyph glyph-name="endash" unicode="&#x2013;" horiz-adv-x="485" 
d="M80 264l4 31h327l-5 -31h-326z" />
    <glyph glyph-name="emdash" unicode="&#x2014;" horiz-adv-x="815" 
d="M80 264l4 31h657l-4 -31h-657z" />
    <glyph glyph-name="quoteleft" unicode="&#x2018;" horiz-adv-x="185" 
d="M191 690q-29 -95 -35 -162q-2 -12 -2 -22l-32 -5l-4 6q10 77 51 183h22z" />
    <glyph glyph-name="quoteright" unicode="&#x2019;" horiz-adv-x="171" 
d="M92 501q23 79 35 154l3 30l31 5l5 -6q-13 -85 -52 -183h-22z" />
    <glyph glyph-name="quotesinglbase" unicode="&#x201a;" horiz-adv-x="176" 
d="M-7 -130q19 66 35 154l3 30l32 5l4 -6q-13 -89 -51 -183h-23z" />
    <glyph glyph-name="quotedblleft" unicode="&#x201c;" horiz-adv-x="301" 
d="M191 690q-29 -95 -35 -162q-2 -12 -2 -22l-32 -5l-4 6q10 77 51 183h22zM307 690q-30 -106 -35 -162q-1 -3 -1.5 -11t-0.5 -11l-31 -5l-5 6q12 82 51 183h22z" />
    <glyph glyph-name="quotedblright" unicode="&#x201d;" horiz-adv-x="298" 
d="M92 501q23 79 35 154l3 30l31 5l5 -6q-13 -85 -52 -183h-22zM208 501q28 88 35 162q2 12 2 22l32 5l5 -6q-12 -78 -52 -183h-22z" />
    <glyph glyph-name="quotedblbase" unicode="&#x201e;" horiz-adv-x="290" 
d="M-7 -130q19 66 35 154l3 30l32 5l4 -6q-13 -89 -51 -183h-23zM110 -130q30 100 35 162q2 7 2 22l33 5l3 -6q-11 -83 -51 -183h-22z" />
    <glyph glyph-name="dagger" unicode="&#x2020;" horiz-adv-x="461" 
d="M277 505l154 6l-6 -33l-148 3l-77 -522h-23l68 522l-148 -4l4 34l152 -5l21 171l32 -1z" />
    <glyph glyph-name="daggerdbl" unicode="&#x2021;" horiz-adv-x="462" 
d="M171 -42l29 170l-154 -5l4 34l150 -5l28 165l18 166l-151 -5l5 34l153 -5l20 170h34l-29 -170l155 5l-5 -34l-150 5l-27 -166l-19 -165l152 5l-5 -34l-154 5l-19 -170h-35z" />
    <glyph glyph-name="bullet" unicode="&#x2022;" horiz-adv-x="350" 
d="M170 203q-32 0 -50.5 19.5t-18.5 50.5q0 37 24.5 63t61.5 26q30 0 49.5 -20.5t19.5 -50.5q0 -37 -23.5 -62.5t-62.5 -25.5z" />
    <glyph glyph-name="ellipsis" unicode="&#x2026;" horiz-adv-x="488" 
d="M58 -2q-12 0 -19 7.5t-7 18.5q0 14 9 22.5t22 8.5q12 0 19 -7.5t7 -18.5q0 -13 -8.5 -22t-22.5 -9zM212 -2q-12 0 -19 7.5t-7 18.5q0 14 9 22.5t22 8.5q12 0 19 -7.5t7 -18.5q0 -13 -8.5 -22t-22.5 -9zM365 -2q-12 0 -19 7.5t-7 18.5q0 14 8.5 22.5t22.5 8.5
q12 0 19 -7.5t7 -18.5q0 -13 -8.5 -22t-22.5 -9z" />
    <glyph glyph-name="perthousand" unicode="&#x2030;" horiz-adv-x="982" 
d="M204 359q-56 0 -89.5 33.5t-33.5 94.5q0 82 47 131t119 49q56 0 89.5 -34.5t33.5 -94.5q0 -83 -47 -131t-119 -48zM76 10l509 645h31l-508 -645h-32zM208 385q57 0 94 41t37 108q0 50 -25.5 78t-69.5 28q-58 0 -95 -41t-37 -108q0 -50 25.5 -78t70.5 -28zM453 -5
q-56 0 -89 33.5t-33 93.5q0 82 46.5 131.5t118.5 49.5q57 0 90 -34.5t33 -95.5q0 -81 -47 -129.5t-119 -48.5zM765 -5q-56 0 -89.5 33.5t-33.5 93.5q0 82 47 131.5t120 49.5q55 0 88 -34.5t33 -95.5q0 -82 -46.5 -130t-118.5 -48zM458 21q57 0 93.5 40.5t36.5 107.5
q0 50 -25.5 78.5t-68.5 28.5q-59 0 -96 -41.5t-37 -109.5q0 -49 26 -76.5t71 -27.5zM769 21q58 0 94.5 40.5t36.5 107.5q0 51 -25.5 79t-69.5 28q-58 0 -95 -41.5t-37 -108.5q0 -50 25.5 -77.5t70.5 -27.5z" />
    <glyph glyph-name="guilsinglleft" unicode="&#x2039;" horiz-adv-x="323" 
d="M264 86l-144 188l196 181h34v-6l-191 -176l138 -181l-1 -6h-32z" />
    <glyph glyph-name="guilsinglright" unicode="&#x203a;" horiz-adv-x="322" 
d="M135 455l144 -188l-196 -181h-34v6l191 176l-138 181l1 6h32z" />
    <glyph glyph-name="fraction" unicode="&#x2044;" horiz-adv-x="139" 
d="M-193 -12l520 673h31l-520 -673h-31z" />
    <glyph glyph-name="Euro" unicode="&#x20ac;" horiz-adv-x="677" 
d="M500 670q97 0 163 -29l-4 -33l-3 -1q-61 33 -158 33q-105 0 -184.5 -57.5t-114.5 -156.5h283l-8 -27h-283q-15 -53 -15 -114v-9h257l-7 -27h-248q9 -102 71 -161.5t167 -59.5q82 0 166 36l1 -1l-3 -30q-82 -37 -167 -37q-119 0 -191 69t-81 184h-113l8 27h104v5
q0 63 15 118h-79l9 27h78q38 113 128.5 178.5t208.5 65.5z" />
    <glyph glyph-name="trademark" unicode="&#x2122;" horiz-adv-x="755" 
d="M348 652l-4 -29h-109l-39 -274h-29l38 274h-111l4 29h250zM677 652h24l-11 -303h-29l8 241h-1l-143 -239h-14l-77 246h-1l-59 -248h-29l75 303h25l81 -255z" />
    <glyph glyph-name="minus" unicode="&#x2212;" horiz-adv-x="508" 
d="M85 279l4 29h344l-4 -29h-344z" />
    <glyph glyph-name="approxequal" unicode="&#x2248;" horiz-adv-x="487" 
d="M118 336l-24 4q5 35 28.5 55t57.5 20q36 0 87.5 -21.5t79.5 -21.5q50 0 56 48l2 1l23 -3q-4 -35 -27 -55.5t-57 -20.5q-33 0 -84.5 22t-82.5 22q-51 0 -58 -48zM93 157l-24 3q4 35 27 55.5t58 20.5q37 0 88.5 -22t79.5 -22q49 0 56 48l2 1l23 -3q-4 -34 -27 -54.5
t-57 -20.5q-33 0 -84.5 21.5t-81.5 21.5q-52 0 -58 -48z" />
    <glyph glyph-name="notequal" unicode="&#x2260;" horiz-adv-x="511" 
d="M447 376h-108l-104 -176h188l-4 -29h-201l-88 -151h-33l88 151h-114l4 29h127l104 176h-206l4 28h218l86 147h33l-86 -147h96z" />
    <glyph glyph-name="uniF8FF" unicode="&#xf8ff;" horiz-adv-x="1459" 
d="M720 521q-26 0 -43.5 17.5t-17.5 43.5t17.5 44t43.5 18t44 -18t18 -44t-18 -43.5t-44 -17.5zM68 270q0 133 9 313h100q10 -200 10 -313h-119zM572 264q-82 0 -82 65q0 12 2 49t2 38h-22v79l119 30l1 -17h178q10 -64 10 -238h-118q0 90 3 146h-61l3 -65q4 -4 15 -4
q13 0 18 5v-73q-14 -15 -68 -15zM296 265q-92 0 -92 113q0 135 134 135q124 0 124 -117v-126h-83l-8 60q-13 -65 -75 -65zM802 270q0 174 10 238h80q6 -44 6 -76q2 15 6.5 30t24 33t49.5 18q42 0 58.5 -25t18.5 -81l3 -137h-114q0 26 1 55.5t1 36.5q0 29 -15 29
q-18 0 -18 -29q0 -7 1.5 -36.5t1.5 -55.5h-114zM1196 265q-122 0 -122 123q0 125 124 125q121 0 121 -123q0 -125 -123 -125zM334 344q24 0 24 30q0 26 -24 26q-22 0 -22 -26q0 -30 22 -30zM1196 344q23 0 23 30q0 26 -23 26q-21 0 -21 -26q0 -30 21 -30zM358 -50
q-61 0 -88 17v83q24 -16 70 -16q21 0 34 6t16.5 11.5t3.5 10.5q-17 -11 -49 -11q-90 0 -90 83v13h-55l3 -65q6 -4 15 -4q13 0 18 5v-73q-19 -15 -68 -15q-45 0 -63 17t-18 54q0 39 3 81h-18v80l117 29l-1 -18h177v-119q0 -16 3 -21.5t12 -5.5q16 0 16 27v119h104
q10 -52 10 -138q0 -81 -33.5 -115.5t-118.5 -34.5zM526 -44q0 142 10 282h78q7 -42 7 -76q17 81 80 81q37 0 58.5 -29t21.5 -84q0 -135 -137 -135q1 -15 1 -39h-119zM938 -5q-141 0 -141 122q0 59 32.5 92.5t92.5 33.5q55 0 85.5 -30t30.5 -86q0 -21 -3 -35h-124
q11 -18 50 -18q34 0 55 12v-75q-23 -16 -78 -16zM906 109h40q3 27 -17 27q-23 0 -23 -27zM638 72q5 0 12.5 2.5t16 11.5t8.5 23q0 23 -20 23q-22 0 -22 -31q0 -14 5 -29zM1066 -10q-24 0 -24 23t24 23t24 -23t-24 -23zM1066 -5q18 0 18 18t-18 18t-18 -18t18 -18zM1056 2v23
h11q10 0 10 -7t-7 -7l6 -9h-6l-4 9h-5v-9h-5zM1061 15h7q4 0 4 3t-4 3h-7v-6z" />
    <glyph glyph-name="i.loclTRK" horiz-adv-x="220" 
d="M166 638q-12 0 -19.5 7.5t-7.5 19.5q0 14 9 22t21 8q11 0 18.5 -7t7.5 -19q0 -14 -8.5 -22.5t-20.5 -8.5zM57 0l72 517h35l-73 -517h-34z" />
    <glyph glyph-name="caroncomb.alt" 
d="M-39 519l36 196h26l5 -7l-45 -189h-22z" />
    <glyph glyph-name="uni0308.case" 
d="M-161 742q-25 0 -25 25q0 13 8.5 20.5t19.5 7.5q10 0 17 -6.5t7 -17.5q0 -13 -8 -21t-19 -8zM13 742q-10 0 -17.5 7t-7.5 18q0 13 8.5 20.5t19.5 7.5q25 0 25 -24q0 -13 -8 -21t-20 -8z" />
    <glyph glyph-name="uni0307.case" 
d="M-52 743q-12 0 -19.5 7.5t-7.5 19.5q0 14 9 22t21 8q11 0 18.5 -7t7.5 -19q0 -14 -8.5 -22.5t-20.5 -8.5z" />
    <glyph glyph-name="gravecomb.case" 
d="M24 703l-159 91l-2 7l20 27l152 -105z" />
    <glyph glyph-name="acutecomb.case" 
d="M-135 702l-9 21l176 104l16 -28l-3 -7z" />
    <glyph glyph-name="uni030B.case" 
d="M-203 717l-18 10l81 134l27 -11v-7zM-43 717l-18 10l81 134l27 -11l-1 -7z" />
    <glyph glyph-name="uni0302.case" 
d="M-197 701l-12 18l128 109h16l101 -109l-16 -18l-97 94z" />
    <glyph glyph-name="uni030C.case" 
d="M-95 702l-102 109l16 17l98 -94l118 94l13 -17l-127 -109h-16z" />
    <glyph glyph-name="uni0306.case" 
d="M-78 705q-51 0 -80 31.5t-21 85.5l23 3q-3 -42 19 -67t61 -25q41 0 70.5 25t36.5 67l21 -3q-7 -54 -43 -85.5t-87 -31.5z" />
    <glyph glyph-name="uni030A.case" 
d="M-38 679q-31 0 -51 19t-20 49q0 36 23 60t58 24q31 0 50.5 -18.5t19.5 -48.5q0 -37 -21.5 -61t-58.5 -24zM-35 701q25 0 39.5 17t14.5 42q0 21 -13.5 35t-35.5 14q-24 0 -39 -17t-15 -42q0 -22 13.5 -35.5t35.5 -13.5z" />
    <glyph glyph-name="tildecomb.case" 
d="M-199 722l-23 6q4 33 25.5 53t49.5 20q25 0 65.5 -21t58.5 -21q17 0 31.5 12.5t18.5 35.5l1 1l24 -6q-6 -34 -27 -54t-49 -20q-22 0 -62.5 21.5t-61.5 21.5q-18 0 -32 -12.5t-18 -35.5z" />
    <glyph glyph-name="uni0304.case" 
d="M-199 754l4 30h246l-4 -30h-246z" />
    <glyph glyph-name="uni0337.case" 
d="M-214 250l4 29l199 117h3l-4 -31l-200 -116z" />
    <glyph glyph-name="uni0338.case" 
d="M-649 -55v4l600 773h31v-3l-600 -774h-31z" />
    <glyph glyph-name="caron.alt" horiz-adv-x="108" 
d="M70 519l36 196h26l5 -7l-45 -189h-22z" />
    <glyph glyph-name="acute.case" horiz-adv-x="240" 
d="M104 702l-9 21l176 104l16 -28l-3 -7z" />
    <glyph glyph-name="breve.case" horiz-adv-x="285" 
d="M207 705q-51 0 -80 31.5t-21 85.5l23 3q-3 -42 19 -67t61 -25q41 0 70.5 25t36.5 67l21 -3q-7 -54 -43 -85.5t-87 -31.5z" />
    <glyph glyph-name="caron.case" horiz-adv-x="303" 
d="M208 702l-102 109l16 17l98 -94l118 94l13 -17l-127 -109h-16z" />
    <glyph glyph-name="circumflex.case" horiz-adv-x="302" 
d="M105 701l-12 18l128 109h16l101 -109l-16 -18l-97 94z" />
    <glyph glyph-name="dieresis.case" horiz-adv-x="288" 
d="M127 742q-25 0 -25 25q0 13 8.5 20.5t19.5 7.5q10 0 17 -6.5t7 -17.5q0 -13 -8 -21t-19 -8zM301 742q-10 0 -17.5 7t-7.5 18q0 13 8.5 20.5t19.5 7.5q25 0 25 -24q0 -13 -8 -21t-20 -8z" />
    <glyph glyph-name="dotaccent.case" horiz-adv-x="246" 
d="M194 743q-12 0 -19.5 7.5t-7.5 19.5q0 14 9 22t21 8q11 0 18.5 -7t7.5 -19q0 -14 -8.5 -22.5t-20.5 -8.5z" />
    <glyph glyph-name="grave.case" horiz-adv-x="240" 
d="M264 703l-159 91l-2 7l20 27l152 -105z" />
    <glyph glyph-name="hungarumlaut.case" horiz-adv-x="333" 
d="M130 717l-18 10l81 134l27 -11v-7zM290 717l-18 10l81 134l27 -11l-1 -7z" />
    <glyph glyph-name="macron.case" horiz-adv-x="353" 
d="M93 754l4 30h246l-4 -30h-246z" />
    <glyph glyph-name="ring.case" horiz-adv-x="205" 
d="M167 679q-31 0 -51 19t-20 49q0 36 23 60t58 24q31 0 50.5 -18.5t19.5 -48.5q0 -37 -21.5 -61t-58.5 -24zM170 701q25 0 39.5 17t14.5 42q0 21 -13.5 35t-35.5 14q-24 0 -39 -17t-15 -42q0 -22 13.5 -35.5t35.5 -13.5z" />
    <glyph glyph-name="tilde.case" horiz-adv-x="314" 
d="M115 722l-23 6q4 33 25.5 53t49.5 20q25 0 65.5 -21t58.5 -21q17 0 31.5 12.5t18.5 35.5l1 1l24 -6q-6 -34 -27 -54t-49 -20q-22 0 -62.5 21.5t-61.5 21.5q-18 0 -32 -12.5t-18 -35.5z" />
    <glyph glyph-name="IJacute" horiz-adv-x="575" 
d="M121 708l-9 21l176 104l16 -28l-3 -7zM441 708l-9 21l176 104l16 -28l-3 -7zM72 0l92 660h35l-93 -660h-34zM277 -3q-21 0 -45 3l5 30l2 1q15 -3 39 -3q69 0 109.5 44.5t51.5 123.5l66 464h34l-65 -464q-13 -96 -62.5 -147.5t-134.5 -51.5z" />
    <glyph glyph-name="ijacute" horiz-adv-x="447" 
d="M111 570l-15 19l131 128l26 -26v-6zM334 570l-15 19l131 128l27 -26l-1 -6zM57 0l72 517h35l-73 -517h-34zM156 -168q-19 0 -36 4l5 30l2 1q12 -3 29 -3q58 0 88.5 36.5t40.5 107.5l71 509h34l-72 -515q-23 -170 -162 -170z" />
    </font>
</defs>
</svg>
