<?xml version="1.0" standalone="no"?>
<!DOCTYPE svg PUBLIC "-//W3C//DTD SVG 1.1//EN" "http://www.w3.org/Graphics/SVG/1.1/DTD/svg11.dtd" >
<svg xmlns="http://www.w3.org/2000/svg" xmlns:xlink="http://www.w3.org/1999/xlink" version="1.1">
<metadata>
Created by FontForge 20170731 at Thu Mar  2 15:41:41 2017
 By Aleksey,,,
Copyright (c) 2017 by Alfonso Garci'a - Latinotype Team. All rights reserved.
</metadata>
<defs>
<font id="RawsonAlt-Light" horiz-adv-x="0" >
  <font-face 
    font-family="Rawson Alt Light"
    font-weight="350"
    font-stretch="normal"
    units-per-em="1100"
    panose-1="0 0 4 0 0 0 0 0 0 0"
    ascent="880"
    descent="-220"
    x-height="516"
    cap-height="661"
    bbox="-701 -228 1351 884"
    underline-thickness="50"
    underline-position="-200"
    unicode-range="U+0020-FB02"
  />
<missing-glyph horiz-adv-x="500" 
 />
    <glyph glyph-name="fi" unicode="fi" horiz-adv-x="523" 
d="M108 546q0 81 44.5 124.5t111.5 43.5q38 0 63 -12v-48l-3 -1q-21 12 -53 12q-48 0 -78 -30t-30 -89v-29h133v-45h-133v-472h-55v472h-71v45h71v29zM407 707q16 0 27.5 -11.5t11.5 -26.5q0 -17 -11 -28.5t-28 -11.5q-16 0 -27.5 11.5t-11.5 28.5q0 15 11.5 26.5t27.5 11.5
zM380 0v516h54v-516h-54z" />
    <glyph glyph-name="fl" unicode="fl" horiz-adv-x="522" 
d="M108 546q0 81 44.5 124.5t111.5 43.5q40 0 63 -12v-48l-3 -1q-21 12 -53 12q-48 0 -78 -30t-30 -89v-30h133v-45h-133v-471h-55v471h-71v45h71v30zM378 710h55v-710h-55v710z" />
    <glyph glyph-name=".notdef" horiz-adv-x="500" 
 />
    <glyph glyph-name=".null" 
 />
    <glyph glyph-name="nonmarkingreturn" horiz-adv-x="366" 
 />
    <glyph glyph-name="space" unicode=" " horiz-adv-x="270" 
 />
    <glyph glyph-name="exclam" unicode="!" horiz-adv-x="246" 
d="M100 182l-5 495h56l-5 -495h-46zM123 -11q-17 0 -27.5 10.5t-10.5 25.5t10.5 25t27.5 10t26.5 -10t9.5 -25t-9.5 -25.5t-26.5 -10.5z" />
    <glyph glyph-name="quotedbl" unicode="&#x22;" horiz-adv-x="309" 
d="M78 446l-1 215h46l6 -6l-15 -209h-36zM194 446l-1 215h46l6 -6l-15 -209h-36z" />
    <glyph glyph-name="numbersign" unicode="#" horiz-adv-x="554" 
d="M494 372h-79l-28 -162h92v-39h-99l-18 -105h-39l18 105h-167l-18 -105h-40l18 105h-75v39h82l28 162h-95v40h102l18 104h39l-18 -104h168l18 104h39l-18 -104h72v-40zM348 210l28 162h-168l-27 -162h167z" />
    <glyph glyph-name="dollar" unicode="$" horiz-adv-x="478" 
d="M425 213q0 -66 -42 -105t-115 -47v-93h-52v91q-100 4 -161 41v50l2 1q71 -47 170 -47q69 0 108 26t39 80q0 47 -36 70.5t-114 42.5q-82 22 -121.5 53.5t-39.5 96.5q0 61 47 97.5t122 41.5v95h52v-95q74 -3 124 -25v-49l-2 -1q-65 28 -146 28q-63 0 -101.5 -22t-38.5 -69
q0 -20 7.5 -36t17.5 -26t31.5 -19t37.5 -14t48 -13q78 -20 120.5 -55t42.5 -98z" />
    <glyph glyph-name="percent" unicode="%" horiz-adv-x="729" 
d="M197 350q-69 0 -111.5 41t-42.5 116q0 74 42.5 116t111.5 42t112 -42t43 -116q0 -75 -43 -116t-112 -41zM116 10l443 643h49l-443 -643h-49zM197 390q49 0 78.5 31t29.5 86t-29.5 87t-78.5 32t-78 -31.5t-29 -87.5t29 -86.5t78 -30.5zM532 -5q-69 0 -111.5 41t-42.5 115
q0 75 42.5 117t111.5 42q70 0 112.5 -42t42.5 -117q0 -74 -42.5 -115t-112.5 -41zM532 35q50 0 79 30.5t29 85.5q0 56 -29.5 87.5t-78.5 31.5t-78 -31.5t-29 -87.5q0 -55 28.5 -85.5t78.5 -30.5z" />
    <glyph glyph-name="ampersand" unicode="&#x26;" horiz-adv-x="651" 
d="M650 352h-87q-9 -133 -56 -220l129 -132h-62l-92 92q-80 -108 -220 -108q-92 0 -150.5 48t-58.5 134q0 75 37.5 125t108.5 87q-64 75 -64 151q0 67 50 110t120 43q77 0 132 -33v-47h-1q-56 33 -125 33q-50 0 -87 -30t-37 -80q0 -43 27 -83t87 -100l171 -174q36 75 43 184
h-97v42h232v-42zM269 32q113 0 179 94l-186 186q-23 23 -33 34q-61 -32 -92 -71t-31 -101q0 -67 44 -104.5t119 -37.5z" />
    <glyph glyph-name="quotesingle" unicode="'" horiz-adv-x="194" 
d="M78 446l-1 215h46l6 -6l-15 -209h-36z" />
    <glyph glyph-name="parenleft" unicode="(" horiz-adv-x="283" 
d="M236 -171q-69 30 -124.5 150t-55.5 309q0 185 55.5 306t124.5 154l21 -42q-58 -34 -103.5 -143t-45.5 -274q0 -166 46 -277.5t103 -140.5z" />
    <glyph glyph-name="parenright" unicode=")" horiz-adv-x="283" 
d="M47 751q69 -30 124.5 -150t55.5 -309q0 -185 -55.5 -306t-124.5 -154l-21 42q58 34 103.5 143t45.5 274q0 166 -46 277.5t-103 140.5z" />
    <glyph glyph-name="asterisk" unicode="*" horiz-adv-x="461" 
d="M229 578l-4 3l-53 140l2 6l36 10l6 -4l25 -148l-3 -4zM256 572l-5 2l-5 6l50 58l47 63l9 -4l21 -24l-54 -55zM216 561l-148 25l-3 4l9 37l7 3l140 -53l2 -4l-2 -9zM394 500l-140 51l-2 5l2 9l4 3l149 -26l3 -4l-9 -36zM129 428l-27 26l1 7l115 95h5l7 -6v-5l-96 -116z
M265 393l-6 3l-24 148l3 4l8 2l5 -3l53 -140l-3 -5z" />
    <glyph glyph-name="plus" unicode="+" horiz-adv-x="481" 
d="M432 315v-44h-169v-185h-45v185h-170v44h170v184h45v-184h169z" />
    <glyph glyph-name="comma" unicode="," horiz-adv-x="181" 
d="M44 -146q23 86 23 156q0 20 -3 42l51 5l8 -8q0 -95 -45 -195h-34z" />
    <glyph glyph-name="hyphen" unicode="-" horiz-adv-x="419" 
d="M76 266v46h266v-46h-266z" />
    <glyph glyph-name="period" unicode="." horiz-adv-x="201" 
d="M100 -4q-18 0 -29 11.5t-11 28.5q0 16 11 27.5t29 11.5t29 -11.5t11 -27.5q0 -17 -11 -28.5t-29 -11.5z" />
    <glyph glyph-name="slash" unicode="/" horiz-adv-x="436" 
d="M36 -118l314 865h50l-313 -865h-51z" />
    <glyph glyph-name="zero" unicode="0" horiz-adv-x="622" 
d="M311 -13q-112 0 -181 90t-69 249q0 162 69 254t182 92q112 0 180.5 -91.5t68.5 -254.5q0 -159 -69 -249t-181 -90zM312 34q87 0 139.5 78t52.5 214q0 138 -52.5 218t-139.5 80q-89 0 -141.5 -79.5t-52.5 -218.5q0 -137 52.5 -214.5t141.5 -77.5z" />
    <glyph glyph-name="one" unicode="1" horiz-adv-x="362" 
d="M202 0v590l-174 -94h-4v55l220 120h12v-671h-54z" />
    <glyph glyph-name="two" unicode="2" horiz-adv-x="526" 
d="M48 0q-4 126 189 283q89 72 125.5 117.5t36.5 93.5q0 59 -40.5 95t-112.5 36q-114 0 -184 -77h-1l-1 51q70 75 192 75q89 0 145 -48.5t56 -128.5q0 -61 -39.5 -113t-134.5 -131q-74 -61 -117.5 -116t-46.5 -88h364v-49h-431z" />
    <glyph glyph-name="three" unicode="3" horiz-adv-x="527" 
d="M467 184q1 -89 -60.5 -144t-158.5 -55q-119 0 -196 54v56l2 1q72 -64 188 -64q75 0 124 41.5t49 111.5q0 138 -197 140l-55 1v47h55q77 1 123 34t46 96q0 55 -41 89t-111 34q-96 0 -161 -53l-1 1v48q72 52 169 52q88 0 143 -44t55 -120q0 -108 -102 -154
q128 -38 129 -172z" />
    <glyph glyph-name="four" unicode="4" horiz-adv-x="583" 
d="M550 203v-49h-123v-154h-50v154h-356v21l364 496h42v-468h123zM96 203h281v383z" />
    <glyph glyph-name="five" unicode="5" horiz-adv-x="532" 
d="M254 -15q-102 0 -193 47v55h1q94 -53 187 -53q80 0 127 43.5t47 123.5q0 66 -45.5 110.5t-132.5 44.5q-90 0 -167 -23l-2 2l24 327h352v-48h-305l-16 -222q47 13 120 13q108 0 168 -55.5t60 -144.5q0 -107 -64.5 -163.5t-160.5 -56.5z" />
    <glyph glyph-name="six" unicode="6" horiz-adv-x="570" 
d="M313 406q94 0 149 -56.5t55 -144.5q0 -96 -63 -158.5t-160 -62.5q-110 0 -171.5 76.5t-61.5 226.5q0 175 78.5 280t208.5 105q74 0 126 -20v-46l-2 -2q-50 21 -123 21q-114 0 -174 -95t-60 -247v-2q25 57 76.5 91t121.5 34zM295 33q73 0 120.5 47t47.5 121
q0 66 -42.5 110.5t-118.5 44.5q-73 0 -123.5 -48.5t-55.5 -114.5q16 -80 61 -120t111 -40z" />
    <glyph glyph-name="seven" unicode="7" horiz-adv-x="475" 
d="M136 0l254 610h-367v51h432v-24l-262 -637h-57z" />
    <glyph glyph-name="eight" unicode="8" horiz-adv-x="582" 
d="M522 171q2 -82 -60 -134t-165 -52q-112 0 -174.5 47t-63.5 133q-1 121 131 202q-100 54 -100 145q0 73 56.5 117t153.5 44q90 0 146 -41t56 -116q0 -100 -117 -172q70 -32 103 -71t34 -102zM146 513q0 -48 39.5 -78.5t121.5 -58.5q6 -3 18 -7t18 -7q105 62 105 150
q0 53 -40 82.5t-108 29.5q-75 0 -114.5 -30t-39.5 -81zM298 34q78 0 124 38t44 99q-1 59 -42.5 90t-141.5 66q-48 18 -51 20q-116 -73 -115 -177q0 -66 48.5 -101t133.5 -35z" />
    <glyph glyph-name="nine" unicode="9" horiz-adv-x="567" 
d="M271 675q108 0 171 -79.5t63 -234.5q0 -178 -71 -274t-204 -96q-75 0 -137 23v48l2 2q63 -26 131 -26q115 -1 169 82.5t56 236.5q-61 -107 -192 -107q-95 0 -153 58t-58 149q0 96 64 157t159 61zM267 299q66 0 114.5 39t65.5 97q-13 95 -60 143t-116 48q-72 0 -120 -45.5
t-48 -121.5q0 -68 45 -114t119 -46z" />
    <glyph glyph-name="colon" unicode=":" horiz-adv-x="223" 
d="M112 406q-17 0 -27 10t-10 25q0 16 10 26t27 10t27 -10.5t10 -25.5t-10 -25t-27 -10zM112 -4q-17 0 -27 10t-10 26q0 15 10 25t27 10t27 -10t10 -25t-10 -25.5t-27 -10.5z" />
    <glyph glyph-name="semicolon" unicode=";" horiz-adv-x="249" 
d="M132 407q-18 0 -29 11.5t-11 28.5q0 16 11 27.5t29 11.5t29 -11.5t11 -27.5q0 -17 -11 -28.5t-29 -11.5zM78 -146q23 86 23 156q0 20 -3 42l51 5l8 -8q0 -95 -45 -195h-34z" />
    <glyph glyph-name="less" unicode="&#x3c;" horiz-adv-x="454" 
d="M96 291l12 -5l276 -158l-23 -40l-318 183v40l318 184l23 -40l-277 -159z" />
    <glyph glyph-name="equal" unicode="=" horiz-adv-x="544" 
d="M78 371v44h387v-44h-387zM78 163v44h387v-44h-387z" />
    <glyph glyph-name="greater" unicode="&#x3e;" horiz-adv-x="454" 
d="M93 495l318 -183v-40l-318 -184l-23 40l277 159l11 5l-12 5l-276 158z" />
    <glyph glyph-name="question" unicode="?" horiz-adv-x="424" 
d="M148 182q0 65 17.5 105.5t68.5 79.5q28 22 43.5 37.5t28.5 45t13 67.5q0 53 -35 87t-96 34q-86 0 -141 -55l-2 1v50q52 52 149 52q79 0 129 -45t50 -119q0 -66 -27 -105.5t-83 -84.5q-66 -51 -66 -150h-49zM174 -4q-17 0 -27 10.5t-10 25.5t10 25t27 10t27 -10t10 -25
t-10 -25.5t-27 -10.5z" />
    <glyph glyph-name="at" unicode="@" horiz-adv-x="797" 
d="M611 73q-39 0 -59.5 21.5t-20.5 57.5v10q-44 -94 -144 -94q-68 0 -112 47.5t-44 133.5t49.5 138.5t125.5 52.5q78 0 126 -50l4 39h36v-265q0 -51 44 -51q86 0 86 177q0 114 -75 196.5t-208 82.5q-137 0 -226 -89.5t-89 -230.5q0 -142 88.5 -228t234.5 -86q132 0 216 81h3
l22 -30q-94 -92 -241 -92q-168 0 -268.5 97.5t-100.5 257.5q0 159 101.5 259.5t259.5 100.5q77 0 141 -27t104.5 -72t62.5 -101.5t22 -116.5q0 -102 -34.5 -160.5t-103.5 -58.5zM396 108q91 0 132 99v141q-44 54 -118 54q-59 0 -97.5 -41.5t-38.5 -109.5t35 -105.5t87 -37.5
z" />
    <glyph glyph-name="A" unicode="A" horiz-adv-x="629" 
d="M560 0l-85 197h-322l-82 -197h-55l286 673h21l294 -673h-57zM171 241h285l-136 314l-9 24l-9 -25z" />
    <glyph glyph-name="B" unicode="B" horiz-adv-x="575" 
d="M382 352q64 -15 102 -59.5t38 -104.5q0 -188 -256 -188h-161v661q88 6 155 6q112 0 164.5 -44.5t52.5 -120.5q0 -111 -95 -150zM265 622q-55 0 -107 -4v-254h120q68 0 108 35t40 97q0 126 -161 126zM262 43q112 0 159 37.5t47 105.5q0 59 -44 97t-121 38h-145v-278h104z
" />
    <glyph glyph-name="C" unicode="C" horiz-adv-x="642" 
d="M404 -12q-158 1 -252.5 93t-94.5 244q0 156 96.5 251t251.5 95q107 0 194 -41v-51l-2 -1q-81 43 -185 43q-136 0 -217 -80t-81 -214q0 -131 78.5 -209.5t218.5 -79.5q96 0 186 45l2 -1v-49q-88 -45 -195 -45z" />
    <glyph glyph-name="D" unicode="D" horiz-adv-x="732" 
d="M302 669q185 0 278.5 -89t93.5 -245q0 -160 -96.5 -248t-275.5 -88q-143 0 -197 3v659q111 8 197 8zM308 48q152 0 230.5 74.5t78.5 212.5q0 133 -80 208t-236 75q-94 0 -142 -5v-561q43 -4 149 -4z" />
    <glyph glyph-name="E" unicode="E" horiz-adv-x="547" 
d="M159 51h338v-51h-392v661h378v-51h-324v-243h305v-51h-305v-265z" />
    <glyph glyph-name="F" unicode="F" horiz-adv-x="507" 
d="M479 611h-320v-262h273v-49h-273v-300h-54v661h374v-50z" />
    <glyph glyph-name="G" unicode="G" horiz-adv-x="701" 
d="M392 -10q-160 0 -247.5 91t-87.5 248q0 151 96.5 246t255.5 95q114 0 199 -39v-52l-3 -1q-87 43 -197 43q-134 0 -214 -81t-80 -211q0 -132 72.5 -210.5t208.5 -78.5q113 0 193 44v219h49v-252q-104 -61 -245 -61z" />
    <glyph glyph-name="H" unicode="H" horiz-adv-x="742" 
d="M583 661h54v-661h-54v312h-424v-312h-54v661h54v-300h424v300z" />
    <glyph glyph-name="I" unicode="I" horiz-adv-x="264" 
d="M105 0v661h54v-661h-54z" />
    <glyph glyph-name="J" unicode="J" horiz-adv-x="348" 
d="M63 -3q-22 0 -49 3v47l3 1q17 -3 40 -3q70 0 104.5 43t34.5 119v454h55v-451q0 -103 -47 -158t-141 -55z" />
    <glyph glyph-name="K" unicode="K" horiz-adv-x="602" 
d="M210 337l390 -334l-1 -3h-72l-368 314v-314h-54v661h54v-311l354 311h66l1 -3z" />
    <glyph glyph-name="L" unicode="L" horiz-adv-x="499" 
d="M159 47h326v-47h-380v661h54v-614z" />
    <glyph glyph-name="M" unicode="M" horiz-adv-x="856" 
d="M715 661l69 -661h-52l-55 536h-2l-236 -530h-18l-239 530h-2l-56 -536h-51l69 661h35l255 -558l249 558h34z" />
    <glyph glyph-name="N" unicode="N" horiz-adv-x="739" 
d="M105 0v664h22l452 -553h2v550h53v-666h-21l-453 555h-3v-550h-52z" />
    <glyph glyph-name="O" unicode="O" horiz-adv-x="790" 
d="M395 -14q-144 0 -241 92t-97 251q0 158 96 251.5t242 93.5q144 0 241 -93t97 -252q0 -157 -96 -250t-242 -93zM395 35q123 0 202 79t79 215t-79 215.5t-202 79.5t-202 -79.5t-79 -215.5t79 -215t202 -79z" />
    <glyph glyph-name="P" unicode="P" horiz-adv-x="541" 
d="M502 468q1 -98 -63.5 -151t-184.5 -53q-47 0 -95 5v-269h-54v661q92 5 156 5q121 0 180.5 -52.5t60.5 -145.5zM248 311q98 0 149 39.5t51 115.5q0 69 -44.5 110.5t-138.5 41.5q-81 0 -106 -3v-298q58 -6 89 -6z" />
    <glyph glyph-name="Q" unicode="Q" horiz-adv-x="790" 
d="M733 329q0 -144 -81 -234.5t-210 -105.5q21 -64 61 -94t110 -40l1 -2l-18 -40q-84 12 -132 53t-74 120q-143 2 -238 94t-95 249q0 158 96 251.5t242 93.5q144 0 241 -93t97 -252zM395 35q123 0 202 79t79 215t-79 215.5t-202 79.5t-202 -79.5t-79 -215.5t79 -215t202 -79
z" />
    <glyph glyph-name="R" unicode="R" horiz-adv-x="569" 
d="M350 280l176 -277l-1 -3h-58l-170 271q-9 -1 -26 -1h-112v-270h-54v661q72 5 160 5q109 0 169 -49.5t60 -146.5q0 -76 -39.5 -124t-104.5 -66zM255 315q81 0 132.5 39t51.5 112t-42.5 112.5t-127.5 39.5q-53 0 -110 -3v-300h96z" />
    <glyph glyph-name="S" unicode="S" horiz-adv-x="506" 
d="M243 -14q-112 0 -190 49v56l3 2q78 -59 182 -59q72 0 115 34.5t43 90.5q0 62 -38.5 97t-117.5 70q-81 35 -126.5 76t-45.5 107q0 81 57.5 124.5t144.5 43.5q98 0 164 -33v-52l-2 -2q-64 40 -158 40q-66 0 -108.5 -29t-42.5 -84q0 -27 11 -49t36 -40t46.5 -29.5
t60.5 -28.5q82 -35 127.5 -80t45.5 -123q0 -82 -57.5 -131.5t-149.5 -49.5z" />
    <glyph glyph-name="T" unicode="T" horiz-adv-x="544" 
d="M528 661v-49h-227v-612h-55v612h-230v49h512z" />
    <glyph glyph-name="U" unicode="U" horiz-adv-x="712" 
d="M356 -14q-125 0 -193 69t-68 196v410h54v-404q0 -108 54.5 -165.5t153.5 -57.5q98 0 152 57t54 166v404h53v-410q0 -126 -68.5 -195.5t-191.5 -69.5z" />
    <glyph glyph-name="V" unicode="V" horiz-adv-x="621" 
d="M601 661l1 -3l-277 -675h-29l-280 675l1 3h57l232 -568l7 -23l7 23l228 568h53z" />
    <glyph glyph-name="W" unicode="W" horiz-adv-x="964" 
d="M939 661l1 -3l-220 -672h-39l-193 562l-5 20l-6 -19l-192 -563h-39l-224 672l1 3h56l182 -563l6 -31l8 31l189 561h38l190 -558l8 -32l8 32l179 560h52z" />
    <glyph glyph-name="X" unicode="X" horiz-adv-x="601" 
d="M337 344l248 -341l-1 -3h-62l-225 307l-219 -307h-59l-1 3l246 340l-230 315l1 3h64l204 -283l200 283h59l1 -3z" />
    <glyph glyph-name="Y" unicode="Y" horiz-adv-x="581" 
d="M264 0v280l-245 378l1 3h57l215 -331l214 331h54l1 -3l-243 -379v-279h-54z" />
    <glyph glyph-name="Z" unicode="Z" horiz-adv-x="577" 
d="M36 0v19l424 596h-420l-1 46h498v-19l-427 -596h431v-46h-505z" />
    <glyph glyph-name="bracketleft" unicode="[" horiz-adv-x="290" 
d="M256 702h-111v-820h111v-41h-158v902h158v-41z" />
    <glyph glyph-name="backslash" unicode="\" horiz-adv-x="436" 
d="M401 -118h-51l-313 865h50z" />
    <glyph glyph-name="bracketright" unicode="]" horiz-adv-x="290" 
d="M34 743h157v-902h-157v41h110v820h-110v41z" />
    <glyph glyph-name="asciicircum" unicode="^" horiz-adv-x="480" 
d="M258 669l169 -315l-37 -17l-145 274l-5 12l-5 -12l-144 -274l-38 17l170 315h35z" />
    <glyph glyph-name="underscore" unicode="_" horiz-adv-x="459" 
d="M34 -46v45h391v-45h-391z" />
    <glyph glyph-name="grave" unicode="`" horiz-adv-x="230" 
d="M189 565l-167 119l-2 8l38 40l151 -139z" />
    <glyph glyph-name="a" unicode="a" horiz-adv-x="624" 
d="M598 58l3 -1v-47q-23 -17 -56 -17q-78 0 -78 87v1q-62 -93 -187 -93q-101 0 -163.5 67.5t-62.5 190.5q0 127 73 204.5t189 77.5q92 0 152 -52l5 40h45v-413q0 -33 10 -46.5t33 -13.5q21 0 37 15zM294 37q56 0 100 27.5t69 75.5v286q-56 53 -147 53q-90 0 -147.5 -63.5
t-57.5 -166.5q0 -104 51 -158t132 -54z" />
    <glyph glyph-name="b" unicode="b" horiz-adv-x="607" 
d="M323 528q100 0 164 -67.5t64 -190.5q0 -131 -73 -206.5t-186 -75.5q-126 0 -205 47v675h55v-270q62 88 181 88zM293 37q88 0 145 59.5t57 168.5q0 102 -51.5 157.5t-129.5 55.5q-55 0 -102 -28t-70 -76v-304q58 -33 151 -33z" />
    <glyph glyph-name="c" unicode="c" horiz-adv-x="501" 
d="M322 -12q-120 0 -194.5 74t-74.5 197q0 121 75.5 195.5t193.5 74.5q75 0 135 -23v-47l-3 -1q-58 23 -126 23q-96 0 -157 -60.5t-61 -159.5q0 -101 58.5 -162.5t158.5 -62.5q69 0 130 34l3 -1v-48q-60 -33 -138 -33z" />
    <glyph glyph-name="d" unicode="d" horiz-adv-x="630" 
d="M599 60l3 -1l-1 -48q-21 -18 -56 -18q-78 0 -78 86q-62 -91 -185 -91q-100 0 -163.5 68.5t-63.5 193.5q0 123 72 200.5t186 77.5q92 0 151 -45v227h55v-607q0 -33 10 -46.5t34 -13.5q20 0 36 17zM294 37q56 0 100.5 27.5t69.5 75.5v288q-57 51 -147 51t-148 -62.5
t-58 -164.5q0 -104 52 -159.5t131 -55.5z" />
    <glyph glyph-name="e" unicode="e" horiz-adv-x="570" 
d="M297 528q105 0 164.5 -67t60.5 -183q0 -18 -1 -27h-411q3 -104 64 -159.5t156 -55.5q87 0 162 42l2 -1v-46q-74 -44 -173 -44q-114 0 -190.5 69.5t-76.5 202.5q0 121 69.5 195t173.5 74zM112 297h355q-5 85 -49.5 134t-120.5 49q-74 0 -124.5 -48.5t-60.5 -134.5z" />
    <glyph glyph-name="f" unicode="f" horiz-adv-x="320" 
d="M264 714q43 0 66 -13v-47l-3 -1q-24 12 -56 12q-49 0 -78.5 -29.5t-29.5 -89.5v-30h135v-45h-135v-471h-55v471h-71v45h71v25q0 85 44.5 129t111.5 44z" />
    <glyph glyph-name="g" unicode="g" horiz-adv-x="606" 
d="M478 520h40v-471q0 -105 -64 -161.5t-182 -56.5q-109 0 -182 47v55l2 1q72 -53 178 -53q193 0 193 168v51q-62 -87 -183 -87q-100 0 -163 65.5t-63 184.5q0 121 74 193t181 72q101 0 161 -53zM463 164v263q-58 52 -149 52q-89 0 -146 -58t-57 -156q0 -96 51 -149.5
t130 -53.5q115 0 171 102z" />
    <glyph glyph-name="h" unicode="h" horiz-adv-x="608" 
d="M323 528q92 0 148 -57t56 -169v-302h-55v291q0 95 -44 139.5t-117 44.5q-57 0 -101.5 -30.5t-65.5 -85.5v-359h-55v710h55v-278q25 43 71.5 69.5t107.5 26.5z" />
    <glyph glyph-name="i" unicode="i" horiz-adv-x="233" 
d="M116 625q-17 0 -28.5 12t-11.5 29q0 16 12 28t28 12q17 0 29 -12t12 -28q0 -17 -12 -29t-29 -12zM89 0v516h55v-516h-55z" />
    <glyph glyph-name="j" unicode="j" horiz-adv-x="249" 
d="M133 625q-17 0 -28.5 12t-11.5 29q0 16 11.5 28t28.5 12t29 -12t12 -28q0 -17 -12 -29t-29 -12zM5 -168q-21 0 -44 4v48l3 1q14 -3 31 -3q111 0 111 136v498h54v-509q0 -175 -155 -175z" />
    <glyph glyph-name="k" unicode="k" horiz-adv-x="510" 
d="M197 269l299 -266l-1 -3h-70l-281 248v-248h-55v710h55v-429l272 235h66l1 -3z" />
    <glyph glyph-name="l" unicode="l" horiz-adv-x="257" 
d="M188 -8q-102 0 -102 102v616h55v-598q0 -38 13 -54t44 -16q22 0 39 12l3 -1v-48q-22 -13 -52 -13z" />
    <glyph glyph-name="m" unicode="m" horiz-adv-x="936" 
d="M665 528q82 0 135.5 -54.5t53.5 -162.5v-311h-54v298q0 90 -40.5 133.5t-106.5 43.5q-51 0 -93.5 -29.5t-64.5 -82.5q4 -21 4 -52v-311h-55v298q0 90 -40 133.5t-106 43.5q-52 0 -93.5 -30.5t-60.5 -84.5v-360h-55v516h45l7 -84q22 41 66 68.5t104 27.5q57 0 102 -27
t67 -82q24 47 71.5 78t113.5 31z" />
    <glyph glyph-name="n" unicode="n" horiz-adv-x="610" 
d="M324 528q89 0 146.5 -57.5t57.5 -174.5v-296h-54v283q0 99 -45.5 145.5t-117.5 46.5q-57 0 -102 -32t-65 -87v-356h-55v516h45l7 -88q27 45 74.5 72.5t108.5 27.5z" />
    <glyph glyph-name="o" unicode="o" horiz-adv-x="630" 
d="M314 -13q-113 0 -187 72.5t-74 199.5q0 122 75 195.5t186 73.5q113 0 187.5 -72t74.5 -198q0 -123 -75 -197t-187 -74zM314 35q91 0 148.5 60.5t57.5 163.5q0 101 -57.5 160.5t-148.5 59.5q-90 0 -147 -59.5t-57 -160.5q0 -103 57 -163.5t147 -60.5z" />
    <glyph glyph-name="p" unicode="p" horiz-adv-x="608" 
d="M327 528q101 0 163.5 -69.5t62.5 -189.5q0 -131 -71 -206t-183 -75q-92 0 -155 42v-194h-55v680h45l7 -79q62 91 186 91zM296 37q91 0 146 59.5t55 169.5q0 100 -50 156t-132 56q-56 0 -102 -28.5t-69 -75.5v-290q59 -47 152 -47z" />
    <glyph glyph-name="q" unicode="q" horiz-adv-x="608" 
d="M474 516h45v-680h-55v239q-60 -87 -182 -87q-101 0 -164 68.5t-63 193.5t72.5 201.5t182.5 76.5q102 0 159 -52zM294 37q57 0 101 28t69 76v285q-56 53 -148 53q-90 0 -147 -62t-57 -164q0 -105 50.5 -160.5t131.5 -55.5z" />
    <glyph glyph-name="r" unicode="r" horiz-adv-x="370" 
d="M290 527q36 0 63 -11v-50l-3 -1q-22 12 -59 12q-54 0 -92.5 -30.5t-54.5 -110.5v-336h-55v516h45l6 -84q42 95 150 95z" />
    <glyph glyph-name="s" unicode="s" horiz-adv-x="472" 
d="M218 -13q-103 0 -170 40v54l3 1q66 -46 165 -46q74 0 115 24.5t41 72.5q0 44 -32.5 66t-114.5 43q-83 21 -125 51.5t-42 91.5q0 65 55 103.5t144 38.5q86 0 142 -25v-50l-2 -1q-63 28 -141 28q-64 0 -103.5 -24t-39.5 -67q0 -39 33.5 -59t107.5 -39q91 -22 131.5 -55
t40.5 -97q0 -73 -56.5 -112t-151.5 -39z" />
    <glyph glyph-name="t" unicode="t" horiz-adv-x="386" 
d="M377 69l2 -1v-47q-40 -26 -106 -26q-141 0 -141 146v329h-106v46h106v127l53 11l2 -1v-137h189v-46h-189v-319q0 -106 100 -106q52 0 90 24z" />
    <glyph glyph-name="u" unicode="u" horiz-adv-x="595" 
d="M451 516h55v-516h-45l-7 79q-55 -91 -179 -91q-90 0 -141.5 53t-51.5 160v315h55v-307q0 -88 40.5 -130.5t110.5 -42.5q55 0 98.5 28.5t64.5 81.5v370z" />
    <glyph glyph-name="v" unicode="v" horiz-adv-x="542" 
d="M519 516l1 -3l-229 -520h-39l-232 520l1 3h60l192 -451l189 451h57z" />
    <glyph glyph-name="w" unicode="w" horiz-adv-x="800" 
d="M772 516l1 -3l-172 -513h-41l-153 427l-6 21l-5 -20l-155 -428h-42l-174 513l1 3h55l138 -425l4 -20l5 20l151 425h46l151 -424l5 -19l3 19l138 424h50z" />
    <glyph glyph-name="x" unicode="x" horiz-adv-x="517" 
d="M294 265l201 -262l-1 -3h-61l-174 229l-177 -229h-58l-1 3l203 261l-194 249l1 3h63l165 -216l167 216h56l1 -3z" />
    <glyph glyph-name="y" unicode="y" horiz-adv-x="516" 
d="M495 516l1 -3l-221 -518l-67 -156h-57l-2 2l83 175l-209 497l1 3h58l179 -446l179 446h55z" />
    <glyph glyph-name="z" unicode="z" horiz-adv-x="505" 
d="M115 48h355v-48h-432v24l347 444h-345v48h422v-25z" />
    <glyph glyph-name="braceleft" unicode="{" horiz-adv-x="302" 
d="M173 397q0 -48 -32 -76t-62 -28v-2q30 0 62 -28t32 -76v-230q0 -48 19 -63.5t63 -15.5h13v-42h-23q-62 0 -91.5 26t-29.5 92v222q0 42 -28 66.5t-57 24.5v51q29 0 57 23.5t28 65.5v222q0 66 29.5 92t91.5 26h23v-43h-13q-44 0 -63 -15t-19 -62v-230z" />
    <glyph glyph-name="bar" unicode="|" horiz-adv-x="247" 
d="M98 -102v828h51v-828h-51z" />
    <glyph glyph-name="braceright" unicode="}" horiz-adv-x="302" 
d="M177 407q0 -42 29 -66.5t57 -24.5v-51q-29 0 -57.5 -24t-28.5 -65v-222q0 -66 -28.5 -92t-90.5 -26h-24v42h15q43 0 61.5 15.5t18.5 63.5v230q0 48 32.5 76t63.5 28v2q-31 0 -63.5 27.5t-32.5 76.5v230q0 47 -18.5 62t-61.5 15h-15v43h24q62 0 90.5 -26t28.5 -92v-222z
" />
    <glyph glyph-name="asciitilde" unicode="~" horiz-adv-x="520" 
d="M114 243l-38 5q0 40 27 64.5t68 24.5q38 0 94 -22.5t83 -22.5q25 0 41.5 12t17.5 36l2 1l35 -6q0 -39 -26.5 -63t-67.5 -24q-33 0 -89.5 22t-85.5 22q-25 0 -42 -12.5t-18 -34.5z" />
    <glyph glyph-name="exclamdown" unicode="&#xa1;" horiz-adv-x="228" 
d="M115 462q-17 0 -27 10t-10 25t10 25.5t27 10.5t26.5 -10.5t9.5 -25.5t-9.5 -25t-26.5 -10zM86 -155l4 495h47l4 -495h-55z" />
    <glyph glyph-name="cent" unicode="&#xa2;" horiz-adv-x="581" 
d="M520 146v-49q-74 -40 -166 -43v-92h-52v94q-115 12 -182 85t-67 186q0 116 68.5 191t182.5 87v96h52v-94q84 -1 155 -32v-48l-3 -3q-74 34 -159 34q-107 0 -172.5 -62.5t-65.5 -164.5t63.5 -164.5t172.5 -62.5q95 0 170 44z" />
    <glyph glyph-name="sterling" unicode="&#xa3;" horiz-adv-x="576" 
d="M156 47h370v-47h-449l-1 5q71 82 71 214q0 38 -12 95h-96v45h88q-11 57 -11 98q0 102 63 158t157 56q98 0 165 -40v-51l-2 -1q-67 43 -160 43q-76 0 -122.5 -42.5t-46.5 -120.5q0 -41 11 -100h235v-45h-227q12 -55 12 -94q0 -114 -45 -173z" />
    <glyph glyph-name="currency" unicode="&#xa4;" horiz-adv-x="710" 
d="M622 333q0 -96 -61 -171l75 -75l-37 -37l-75 75q-74 -61 -170 -61q-94 0 -168 58l-72 -72l-37 37l72 71q-65 76 -65 175q0 98 62 171l-69 68l37 37l68 -68q75 61 172 61q99 0 174 -64l71 71l37 -37l-72 -72q58 -74 58 -167zM133 333q0 -92 64.5 -157.5t156.5 -65.5
q91 0 156 65.5t65 157.5t-64.5 157t-156.5 65t-156.5 -65t-64.5 -157z" />
    <glyph glyph-name="yen" unicode="&#xa5;" horiz-adv-x="616" 
d="M581 666l-222 -345h161v-44h-185v-106h185v-44h-185v-127h-53v127h-183v44h183v106h-183v44h159l-224 345h61l215 -334l214 334h57z" />
    <glyph glyph-name="brokenbar" unicode="&#xa6;" horiz-adv-x="255" 
d="M102 421v305h51v-305h-51zM102 -102v311h51v-311h-51z" />
    <glyph glyph-name="section" unicode="&#xa7;" horiz-adv-x="517" 
d="M403 102q42 -37 42 -91q0 -75 -57.5 -117t-144.5 -42q-100 0 -166 39v48l2 2q65 -43 162 -43q65 0 106.5 28t41.5 83q0 11 -2 20.5t-8 18.5t-11 16t-16.5 15t-19 13t-24 13t-25.5 12.5t-30 14t-31 14.5q-87 41 -127.5 77t-40.5 94q0 70 65 116q-45 40 -45 98
q0 73 56.5 113.5t143.5 40.5q99 0 159 -37v-48h-1q-61 38 -154 38q-64 0 -106.5 -27.5t-42.5 -81.5q0 -30 22.5 -54.5t43.5 -35.5t80 -38q14 -7 21 -10q86 -39 128 -76.5t42 -94.5q0 -72 -63 -118zM102 325q0 -42 35.5 -72t116.5 -68q90 -41 123 -63q40 36 40 89
q0 42 -35 71.5t-118 69.5q-89 42 -120 62q-42 -35 -42 -89z" />
    <glyph glyph-name="dieresis" unicode="&#xa8;" horiz-adv-x="283" 
d="M53 626q-16 0 -27.5 11.5t-11.5 28.5q0 15 11.5 26.5t27.5 11.5t28 -11.5t12 -26.5q0 -17 -12 -28.5t-28 -11.5zM235 626q-17 0 -28 11.5t-11 28.5q0 15 11.5 26.5t27.5 11.5t27.5 -11.5t11.5 -26.5q0 -17 -11.5 -28.5t-27.5 -11.5z" />
    <glyph glyph-name="copyright" unicode="&#xa9;" horiz-adv-x="696" 
d="M348 -10q-127 0 -209.5 82.5t-82.5 211.5q0 128 82.5 211t209.5 83t209.5 -83t82.5 -211q0 -129 -82.5 -211.5t-209.5 -82.5zM348 24q112 0 183 72.5t71 187.5t-72 187.5t-182 72.5t-181.5 -72.5t-71.5 -187.5t71.5 -187.5t181.5 -72.5zM360 131q-71 0 -115 40.5
t-44 108.5q0 70 44.5 111.5t114.5 41.5q51 0 87 -16v-38l-3 -1q-34 17 -79 17q-55 0 -87.5 -31t-32.5 -82q0 -50 32.5 -81t88.5 -31q45 0 83 20l1 -1v-37q-37 -21 -90 -21z" />
    <glyph glyph-name="ordfeminine" unicode="&#xaa;" horiz-adv-x="470" 
d="M420 394l2 -1v-37q-15 -11 -45 -11q-52 0 -52 64q-57 -69 -151 -69q-51 0 -84.5 29t-33.5 79q0 59 42.5 87t103.5 28q74 0 120 -19v33q0 58 -34.5 86.5t-92.5 28.5q-67 0 -107 -26l-2 2v37q37 26 115 26t121 -39t43 -114v-149q0 -44 29 -44q16 0 26 9zM185 378
q39 0 77.5 19.5t59.5 52.5v58q-45 18 -112 18q-49 0 -79 -18.5t-30 -56.5q0 -35 23 -54t61 -19z" />
    <glyph glyph-name="guillemotleft" unicode="&#xab;" horiz-adv-x="535" 
d="M213 90l-173 184l174 182h57v-6l-167 -175l167 -179v-6h-58zM416 90l-173 184l174 182h57v-6l-167 -175l167 -179v-6h-58z" />
    <glyph glyph-name="registered" unicode="&#xae;" horiz-adv-x="633" 
d="M318 722q110 0 181.5 -72t71.5 -184t-71.5 -184t-181.5 -72q-112 0 -184 72t-72 184t72 184t184 72zM317 242q96 0 156.5 62.5t60.5 161.5t-61 161.5t-156 62.5q-96 0 -157 -62.5t-61 -161.5q0 -98 61.5 -161t156.5 -63zM414 514q0 -57 -49 -76l66 -91h-43l-61 84h-8h-61
v-84h-37v248q36 2 93 2q100 0 100 -83zM258 562v-98h65q52 0 52 49q0 50 -61 50q-47 0 -56 -1z" />
    <glyph glyph-name="macron" unicode="&#xaf;" horiz-adv-x="344" 
d="M26 624v43h277v-43h-277z" />
    <glyph glyph-name="degree" unicode="&#xb0;" horiz-adv-x="349" 
d="M175 437q-51 0 -84.5 33.5t-33.5 83.5t33.5 83t84.5 33t84 -33t33 -83t-33 -83.5t-84 -33.5zM175 470q35 0 57.5 24.5t22.5 59.5t-22.5 59.5t-57.5 24.5q-36 0 -59 -24.5t-23 -59.5t23 -59.5t59 -24.5z" />
    <glyph glyph-name="plusminus" unicode="&#xb1;" horiz-adv-x="530" 
d="M457 276h-170v-158h167v-45h-378v45h167v158h-170v44h170v179h44v-179h170v-44z" />
    <glyph glyph-name="acute" unicode="&#xb4;" horiz-adv-x="230" 
d="M40 565l-20 28l151 139l38 -40l-2 -8z" />
    <glyph glyph-name="paragraph" unicode="&#xb6;" horiz-adv-x="565" 
d="M516 600v-49h-65v-662h-21v662h-72v-662h-52v336q-139 0 -205.5 44.5t-65.5 145.5q1 86 62 135.5t191 49.5h228z" />
    <glyph glyph-name="periodcentered" unicode="&#xb7;" horiz-adv-x="221" 
d="M111 208q-17 0 -27 9.5t-10 24.5q0 16 10 26t27 10t26.5 -10t9.5 -26q0 -15 -9.5 -24.5t-26.5 -9.5z" />
    <glyph glyph-name="cedilla" unicode="&#xb8;" horiz-adv-x="199" 
d="M72 -226q-34 0 -61 11v35l3 1q23 -10 51 -10q33 0 52.5 14.5t19.5 42.5q0 47 -52 47q-27 0 -50 -10l-1 3v29l38 63h38l-32 -55q9 3 27 3q35 0 58 -19t23 -60q0 -48 -32 -71.5t-82 -23.5z" />
    <glyph glyph-name="ordmasculine" unicode="&#xba;" horiz-adv-x="501" 
d="M251 331q-85 0 -142 55t-57 151q0 93 56.5 149.5t142.5 56.5q85 0 142 -55t57 -151q0 -93 -56 -149.5t-143 -56.5zM251 373q66 0 108 44.5t42 119.5t-42 119.5t-108 44.5t-108.5 -44.5t-42.5 -119.5t42 -119.5t109 -44.5z" />
    <glyph glyph-name="guillemotright" unicode="&#xbb;" horiz-adv-x="535" 
d="M119 456l173 -184l-174 -182h-57v6l167 175l-167 179v6h58zM322 456l173 -184l-174 -182h-57v6l167 175l-167 179v6h58z" />
    <glyph glyph-name="onequarter" unicode="&#xbc;" horiz-adv-x="736" 
d="M112 300v308l-87 -37v48l127 53h7v-372h-47zM530 661h48l-439 -673h-47zM703 111v-32h-67v-79h-44v79h-207v19l215 279h36v-266h67zM437 111h155v200z" />
    <glyph glyph-name="onehalf" unicode="&#xbd;" horiz-adv-x="732" 
d="M127 300v308l-87 -37v48l127 53h7v-372h-47zM61 -12l438 673h47l-438 -673h-47zM427 0q-2 35 26.5 77t80.5 81q54 39 75 63t21 48q0 28 -22 46.5t-60 18.5q-68 0 -113 -43l-1 1v41q48 41 119 41q54 0 89 -26.5t35 -72.5q0 -37 -23.5 -67.5t-76.5 -69.5q-82 -59 -88 -100
h206v-38h-268z" />
    <glyph glyph-name="threequarters" unicode="&#xbe;" horiz-adv-x="774" 
d="M294 405q0 -51 -37.5 -82t-98.5 -31q-73 0 -118 30v39l1 1q41 -33 112 -33q43 0 70.5 20.5t27.5 56.5t-24.5 53.5t-62.5 17.5h-48v33h44q32 0 53.5 17t21.5 46q0 30 -23 46.5t-64 16.5q-60 0 -95 -27h-1v39q39 26 102 26q56 0 90.5 -23.5t34.5 -69.5q0 -57 -56 -84
q71 -23 71 -92zM591 661h47l-438 -673h-47zM741 111v-32h-68v-79h-43v79h-208v19l216 279h35v-266h68zM474 111h156v202z" />
    <glyph glyph-name="questiondown" unicode="&#xbf;" horiz-adv-x="417" 
d="M244 527q17 0 27 -10.5t10 -25.5t-10 -25t-27 -10t-27 10t-10 25t10 25.5t27 10.5zM270 341q0 -65 -17.5 -105.5t-68.5 -79.5q-28 -22 -43.5 -37.5t-28.5 -45t-13 -67.5q0 -53 35 -87t96 -34q86 0 141 55l2 -1v-50q-52 -52 -149 -52q-79 0 -129 45t-50 119q0 66 27 105.5
t83 84.5q66 51 66 150h49z" />
    <glyph glyph-name="Agrave" unicode="&#xc0;" horiz-adv-x="629" 
d="M393 701l-191 89l-4 8l29 44l177 -109zM560 0l-85 197h-322l-82 -197h-55l286 673h21l294 -673h-57zM171 241h285l-136 314l-9 24l-9 -25z" />
    <glyph glyph-name="Aacute" unicode="&#xc1;" horiz-adv-x="629" 
d="M412 790l-190 -89l-12 31l178 110l28 -44zM560 0l-85 197h-322l-82 -197h-55l286 673h21l294 -673h-57zM171 241h285l-136 314l-9 24l-9 -25z" />
    <glyph glyph-name="Acircumflex" unicode="&#xc2;" horiz-adv-x="629" 
d="M309 789l-110 -88l-21 27l120 110h25l123 -110l-21 -27zM560 0l-85 197h-322l-82 -197h-55l286 673h21l294 -673h-57zM171 241h285l-136 314l-9 24l-9 -25z" />
    <glyph glyph-name="Atilde" unicode="&#xc3;" horiz-adv-x="629" 
d="M203 719l-1 -1l-38 10q1 37 23.5 60.5t56.5 23.5q27 0 71.5 -20t63.5 -20q17 0 30 12t13 33l2 2l37 -11q-1 -38 -23.5 -60.5t-56.5 -22.5q-23 0 -67.5 20t-66.5 20q-19 0 -31.5 -12.5t-12.5 -33.5zM560 0l-85 197h-322l-82 -197h-55l286 673h21l294 -673h-57zM171 241
h285l-136 314l-9 24l-9 -25z" />
    <glyph glyph-name="Adieresis" unicode="&#xc4;" horiz-adv-x="629" 
d="M215 736q-14 0 -24.5 10.5t-10.5 26.5q0 14 10.5 24.5t24.5 10.5q15 0 25.5 -10.5t10.5 -24.5q0 -16 -10.5 -26.5t-25.5 -10.5zM410 736q-15 0 -25.5 10.5t-10.5 26.5q0 14 10.5 24.5t25.5 10.5t25.5 -10.5t10.5 -24.5q0 -16 -10.5 -26.5t-25.5 -10.5zM560 0l-85 197
h-322l-82 -197h-55l286 673h21l294 -673h-57zM171 241h285l-136 314l-9 24l-9 -25z" />
    <glyph glyph-name="Aring" unicode="&#xc5;" horiz-adv-x="629" 
d="M312 680q-37 0 -61 23.5t-24 58.5t24 58t61 23t60.5 -23t23.5 -58t-23.5 -58.5t-60.5 -23.5zM312 812q-21 0 -35.5 -14.5t-14.5 -35.5t14.5 -35.5t35.5 -14.5t35 14.5t14 35.5t-14 35.5t-35 14.5zM560 0l-85 197h-322l-82 -197h-55l286 673h21l294 -673h-57zM171 241h285
l-136 314l-9 24l-9 -25z" />
    <glyph glyph-name="AE" unicode="&#xc6;" horiz-adv-x="813" 
d="M470 46h293v-46h-348v216h-238l-137 -216h-57l419 661h347v-46h-279v-249h260v-46h-260v-274zM204 257h211v340l-39 -69z" />
    <glyph glyph-name="Ccedilla" unicode="&#xc7;" horiz-adv-x="642" 
d="M412 621q-136 0 -217 -80t-81 -214q0 -131 78.5 -209.5t218.5 -79.5q96 0 186 45l2 -1v-49q-80 -41 -177 -45l-25 -43q9 3 27 3q35 0 58 -19t23 -60q0 -48 -32 -71.5t-82 -23.5q-34 0 -61 11v35l3 1q23 -10 51 -10q33 0 52.5 14.5t19.5 42.5q0 47 -52 47q-27 0 -50 -10
l-1 3v29l31 51q-150 7 -238.5 98.5t-88.5 238.5q0 156 96.5 251t251.5 95q107 0 194 -41v-51l-2 -1q-81 43 -185 43z" />
    <glyph glyph-name="Egrave" unicode="&#xc8;" horiz-adv-x="547" 
d="M385 701l-191 89l-4 8l29 44l177 -109zM159 51h338v-51h-392v661h378v-51h-324v-243h305v-51h-305v-265z" />
    <glyph glyph-name="Eacute" unicode="&#xc9;" horiz-adv-x="547" 
d="M404 790l-190 -89l-12 31l178 110l28 -44zM159 51h338v-51h-392v661h378v-51h-324v-243h305v-51h-305v-265z" />
    <glyph glyph-name="Ecircumflex" unicode="&#xca;" horiz-adv-x="547" 
d="M301 789l-110 -88l-21 27l120 110h25l123 -110l-21 -27zM159 51h338v-51h-392v661h378v-51h-324v-243h305v-51h-305v-265z" />
    <glyph glyph-name="Edieresis" unicode="&#xcb;" horiz-adv-x="547" 
d="M207 736q-14 0 -24.5 10.5t-10.5 26.5q0 14 10.5 24.5t24.5 10.5q15 0 25.5 -10.5t10.5 -24.5q0 -16 -10.5 -26.5t-25.5 -10.5zM402 736q-15 0 -25.5 10.5t-10.5 26.5q0 14 10.5 24.5t25.5 10.5t25.5 -10.5t10.5 -24.5q0 -16 -10.5 -26.5t-25.5 -10.5zM159 51h338v-51
h-392v661h378v-51h-324v-243h305v-51h-305v-265z" />
    <glyph glyph-name="Igrave" unicode="&#xcc;" horiz-adv-x="264" 
d="M214 701l-191 89l-4 8l29 44l177 -109zM105 0v661h54v-661h-54z" />
    <glyph glyph-name="Iacute" unicode="&#xcd;" horiz-adv-x="264" 
d="M43 701l-12 31l178 110l28 -44l-4 -8zM105 0v661h54v-661h-54z" />
    <glyph glyph-name="Icircumflex" unicode="&#xce;" horiz-adv-x="264" 
d="M20 701l-21 27l120 110h25l123 -110l-21 -27l-116 88zM105 0v661h54v-661h-54z" />
    <glyph glyph-name="Idieresis" unicode="&#xcf;" horiz-adv-x="264" 
d="M36 736q-14 0 -24.5 10.5t-10.5 26.5q0 14 10.5 24.5t24.5 10.5q15 0 25.5 -10.5t10.5 -24.5q0 -16 -10.5 -26.5t-25.5 -10.5zM231 736q-15 0 -25.5 10.5t-10.5 26.5q0 14 10.5 24.5t25.5 10.5t25.5 -10.5t10.5 -24.5q0 -16 -10.5 -26.5t-25.5 -10.5zM105 0v661h54v-661
h-54z" />
    <glyph glyph-name="Eth" unicode="&#xd0;" horiz-adv-x="738" 
d="M308 669q185 0 278.5 -89t93.5 -245q0 -160 -96.5 -248t-275.5 -88q-143 0 -197 3v306h-91v41h91v312q111 8 197 8zM314 48q152 0 230.5 74.5t78.5 212.5q0 133 -80 208t-236 75q-94 0 -142 -5v-264h112v-41h-112v-256q43 -4 149 -4z" />
    <glyph glyph-name="Ntilde" unicode="&#xd1;" horiz-adv-x="739" 
d="M264 718l-38 10q1 37 23.5 60.5t56.5 23.5q27 0 71.5 -20t63.5 -20q17 0 30 12t13 33l2 2l37 -11q-1 -38 -23.5 -60.5t-56.5 -22.5q-23 0 -67.5 20t-66.5 20q-19 0 -31.5 -12.5t-12.5 -33.5zM105 0v664h22l452 -553h2v550h53v-666h-21l-453 555h-3v-550h-52z" />
    <glyph glyph-name="Ograve" unicode="&#xd2;" horiz-adv-x="790" 
d="M476 701l-191 89l-4 8l29 44l177 -109zM395 -14q-144 0 -241 92t-97 251q0 158 96 251.5t242 93.5q144 0 241 -93t97 -252q0 -157 -96 -250t-242 -93zM395 35q123 0 202 79t79 215t-79 215.5t-202 79.5t-202 -79.5t-79 -215.5t79 -215t202 -79z" />
    <glyph glyph-name="Oacute" unicode="&#xd3;" horiz-adv-x="790" 
d="M305 701l-12 31l178 110l28 -44l-4 -8zM395 -14q-144 0 -241 92t-97 251q0 158 96 251.5t242 93.5q144 0 241 -93t97 -252q0 -157 -96 -250t-242 -93zM395 35q123 0 202 79t79 215t-79 215.5t-202 79.5t-202 -79.5t-79 -215.5t79 -215t202 -79z" />
    <glyph glyph-name="Ocircumflex" unicode="&#xd4;" horiz-adv-x="790" 
d="M282 701l-21 27l120 110h25l123 -110l-21 -27l-116 88zM395 -14q-144 0 -241 92t-97 251q0 158 96 251.5t242 93.5q144 0 241 -93t97 -252q0 -157 -96 -250t-242 -93zM395 35q123 0 202 79t79 215t-79 215.5t-202 79.5t-202 -79.5t-79 -215.5t79 -215t202 -79z" />
    <glyph glyph-name="Otilde" unicode="&#xd5;" horiz-adv-x="790" 
d="M285 718l-38 10q1 37 23.5 60.5t56.5 23.5q27 0 71.5 -20t63.5 -20q17 0 30 12t13 33l2 2l37 -11q-1 -38 -23.5 -60.5t-56.5 -22.5q-23 0 -67.5 20t-66.5 20q-19 0 -31.5 -12.5t-12.5 -33.5zM395 -14q-144 0 -241 92t-97 251q0 158 96 251.5t242 93.5q144 0 241 -93
t97 -252q0 -157 -96 -250t-242 -93zM395 35q123 0 202 79t79 215t-79 215.5t-202 79.5t-202 -79.5t-79 -215.5t79 -215t202 -79z" />
    <glyph glyph-name="Odieresis" unicode="&#xd6;" horiz-adv-x="790" 
d="M298 736q-14 0 -24.5 10.5t-10.5 26.5q0 14 10.5 24.5t24.5 10.5q15 0 25.5 -10.5t10.5 -24.5q0 -16 -10.5 -26.5t-25.5 -10.5zM493 736q-15 0 -25.5 10.5t-10.5 26.5q0 14 10.5 24.5t25.5 10.5t25.5 -10.5t10.5 -24.5q0 -16 -10.5 -26.5t-25.5 -10.5zM395 -14
q-144 0 -241 92t-97 251q0 158 96 251.5t242 93.5q144 0 241 -93t97 -252q0 -157 -96 -250t-242 -93zM395 35q123 0 202 79t79 215t-79 215.5t-202 79.5t-202 -79.5t-79 -215.5t79 -215t202 -79z" />
    <glyph glyph-name="multiply" unicode="&#xd7;" horiz-adv-x="506" 
d="M436 442l-151 -151l151 -151l-31 -32l-152 151l-151 -151l-32 32l151 151l-151 151l32 32l151 -151l152 151z" />
    <glyph glyph-name="Oslash" unicode="&#xd8;" horiz-adv-x="790" 
d="M733 678v-5l-89 -100q89 -94 89 -244q0 -157 -96 -250t-242 -93q-126 0 -216 70l-66 -73h-56v6l88 98q-88 93 -88 242q0 158 96 251.5t242 93.5q125 0 215 -70l66 74h57zM114 329q0 -122 67 -202l394 438q-76 59 -180 59q-123 0 -202 -79.5t-79 -215.5zM676 329
q0 126 -69 204l-393 -438q74 -60 181 -60q123 0 202 79t79 215z" />
    <glyph glyph-name="Ugrave" unicode="&#xd9;" horiz-adv-x="712" 
d="M437 701l-191 89l-4 8l29 44l177 -109zM356 -14q-125 0 -193 69t-68 196v410h54v-404q0 -108 54.5 -165.5t153.5 -57.5q98 0 152 57t54 166v404h53v-410q0 -126 -68.5 -195.5t-191.5 -69.5z" />
    <glyph glyph-name="Uacute" unicode="&#xda;" horiz-adv-x="712" 
d="M266 701l-12 31l178 110l28 -44l-4 -8zM356 -14q-125 0 -193 69t-68 196v410h54v-404q0 -108 54.5 -165.5t153.5 -57.5q98 0 152 57t54 166v404h53v-410q0 -126 -68.5 -195.5t-191.5 -69.5z" />
    <glyph glyph-name="Ucircumflex" unicode="&#xdb;" horiz-adv-x="712" 
d="M243 701l-21 27l120 110h25l123 -110l-21 -27l-116 88zM356 -14q-125 0 -193 69t-68 196v410h54v-404q0 -108 54.5 -165.5t153.5 -57.5q98 0 152 57t54 166v404h53v-410q0 -126 -68.5 -195.5t-191.5 -69.5z" />
    <glyph glyph-name="Udieresis" unicode="&#xdc;" horiz-adv-x="712" 
d="M259 736q-14 0 -24.5 10.5t-10.5 26.5q0 14 10.5 24.5t24.5 10.5q15 0 25.5 -10.5t10.5 -24.5q0 -16 -10.5 -26.5t-25.5 -10.5zM454 736q-15 0 -25.5 10.5t-10.5 26.5q0 14 10.5 24.5t25.5 10.5t25.5 -10.5t10.5 -24.5q0 -16 -10.5 -26.5t-25.5 -10.5zM356 -14
q-125 0 -193 69t-68 196v410h54v-404q0 -108 54.5 -165.5t153.5 -57.5q98 0 152 57t54 166v404h53v-410q0 -126 -68.5 -195.5t-191.5 -69.5z" />
    <glyph glyph-name="Yacute" unicode="&#xdd;" horiz-adv-x="581" 
d="M201 701l-12 31l178 110l28 -44l-4 -8zM264 0v280l-245 378l1 3h57l215 -331l214 331h54l1 -3l-243 -379v-279h-54z" />
    <glyph glyph-name="Thorn" unicode="&#xde;" horiz-adv-x="550" 
d="M498 341q1 -100 -63 -154t-185 -54q-35 0 -91 4v-137h-54v661h54v-132q60 5 99 5q116 0 177.5 -51t62.5 -142zM245 179q98 0 148 40.5t50 116.5q0 70 -46.5 110t-143.5 40q-50 0 -94 -4v-299q56 -4 86 -4z" />
    <glyph glyph-name="germandbls" unicode="&#xdf;" horiz-adv-x="608" 
d="M469 272q56 -33 80 -63t24 -84q0 -64 -45.5 -101t-112.5 -37q-81 0 -130 37v53l2 1q51 -42 123 -42q48 0 78.5 21.5t30.5 62.5q0 40 -20 63t-74 52q-37 22 -54 33.5t-33 35.5t-16 54q0 33 16.5 60.5t36.5 43.5t36.5 42t16.5 58q0 48 -38.5 75t-94.5 27q-71 0 -111 -39.5
t-40 -121.5v-503h-55v509q0 101 56 153t149 52q79 0 133.5 -38t54.5 -113q0 -38 -16 -68t-35.5 -46t-35.5 -37.5t-16 -44.5q0 -29 21.5 -48.5t68.5 -46.5z" />
    <glyph glyph-name="agrave" unicode="&#xe0;" horiz-adv-x="624" 
d="M370 565l-167 119l-2 8l38 40l151 -139zM598 58l3 -1v-47q-23 -17 -56 -17q-78 0 -78 87v1q-62 -93 -187 -93q-101 0 -163.5 67.5t-62.5 190.5q0 127 73 204.5t189 77.5q92 0 152 -52l5 40h45v-413q0 -33 10 -46.5t33 -13.5q21 0 37 15zM294 37q56 0 100 27.5t69 75.5
v286q-56 53 -147 53q-90 0 -147.5 -63.5t-57.5 -166.5q0 -104 51 -158t132 -54z" />
    <glyph glyph-name="aacute" unicode="&#xe1;" horiz-adv-x="624" 
d="M411 684l-167 -119l-20 28l151 139l38 -40zM598 58l3 -1v-47q-23 -17 -56 -17q-78 0 -78 87v1q-62 -93 -187 -93q-101 0 -163.5 67.5t-62.5 190.5q0 127 73 204.5t189 77.5q92 0 152 -52l5 40h45v-413q0 -33 10 -46.5t33 -13.5q21 0 37 15zM294 37q56 0 100 27.5t69 75.5
v286q-56 53 -147 53q-90 0 -147.5 -63.5t-57.5 -166.5q0 -104 51 -158t132 -54z" />
    <glyph glyph-name="acircumflex" unicode="&#xe2;" horiz-adv-x="624" 
d="M308 671l-102 -103l-24 24l114 132h26l117 -132l-24 -24zM598 58l3 -1v-47q-23 -17 -56 -17q-78 0 -78 87v1q-62 -93 -187 -93q-101 0 -163.5 67.5t-62.5 190.5q0 127 73 204.5t189 77.5q92 0 152 -52l5 40h45v-413q0 -33 10 -46.5t33 -13.5q21 0 37 15zM294 37
q56 0 100 27.5t69 75.5v286q-56 53 -147 53q-90 0 -147.5 -63.5t-57.5 -166.5q0 -104 51 -158t132 -54z" />
    <glyph glyph-name="atilde" unicode="&#xe3;" horiz-adv-x="624" 
d="M196 606l-2 -1l-37 8q0 36 21.5 60t54.5 24q30 0 79 -20.5t71 -20.5q18 0 31 12t13 33l2 1l36 -7q0 -39 -22.5 -62t-55.5 -23q-27 -1 -76.5 20t-72.5 21q-18 0 -30 -11.5t-12 -33.5zM598 58l3 -1v-47q-23 -17 -56 -17q-78 0 -78 87v1q-62 -93 -187 -93
q-101 0 -163.5 67.5t-62.5 190.5q0 127 73 204.5t189 77.5q92 0 152 -52l5 40h45v-413q0 -33 10 -46.5t33 -13.5q21 0 37 15zM294 37q56 0 100 27.5t69 75.5v286q-56 53 -147 53q-90 0 -147.5 -63.5t-57.5 -166.5q0 -104 51 -158t132 -54z" />
    <glyph glyph-name="adieresis" unicode="&#xe4;" horiz-adv-x="624" 
d="M221 626q-16 0 -27.5 11.5t-11.5 28.5q0 15 11.5 26.5t27.5 11.5t28 -11.5t12 -26.5q0 -17 -12 -28.5t-28 -11.5zM403 626q-17 0 -28 11.5t-11 28.5q0 15 11.5 26.5t27.5 11.5t27.5 -11.5t11.5 -26.5q0 -17 -11.5 -28.5t-27.5 -11.5zM598 58l3 -1v-47q-23 -17 -56 -17
q-78 0 -78 87v1q-62 -93 -187 -93q-101 0 -163.5 67.5t-62.5 190.5q0 127 73 204.5t189 77.5q92 0 152 -52l5 40h45v-413q0 -33 10 -46.5t33 -13.5q21 0 37 15zM294 37q56 0 100 27.5t69 75.5v286q-56 53 -147 53q-90 0 -147.5 -63.5t-57.5 -166.5q0 -104 51 -158t132 -54z
" />
    <glyph glyph-name="aring" unicode="&#xe5;" horiz-adv-x="624" 
d="M310 564q-37 0 -61 24.5t-24 60.5t24 60t61 24q38 0 62 -23.5t24 -60.5q0 -36 -24 -60.5t-62 -24.5zM311 702q-22 0 -37 -15.5t-15 -37.5t15 -37t37 -15q23 0 37.5 15t14.5 37t-14.5 37.5t-37.5 15.5zM598 58l3 -1v-47q-23 -17 -56 -17q-78 0 -78 87v1q-62 -93 -187 -93
q-101 0 -163.5 67.5t-62.5 190.5q0 127 73 204.5t189 77.5q92 0 152 -52l5 40h45v-413q0 -33 10 -46.5t33 -13.5q21 0 37 15zM294 37q56 0 100 27.5t69 75.5v286q-56 53 -147 53q-90 0 -147.5 -63.5t-57.5 -166.5q0 -104 51 -158t132 -54z" />
    <glyph glyph-name="ae" unicode="&#xe6;" horiz-adv-x="903" 
d="M627 528q103 0 162 -67.5t60 -186.5v-26h-400q4 -102 61.5 -157t144.5 -55q92 0 164 46l2 -2v-48q-73 -45 -170 -45q-72 0 -131 31t-92 92q-79 -122 -225 -122q-70 0 -115.5 37t-45.5 105q0 49 26.5 82t78.5 49t109 22.5t138 7.5v24q0 82 -43.5 123.5t-119.5 41.5
q-91 0 -144 -35l-2 1v45q47 37 154 37q150 0 192 -120q30 57 81.5 88.5t114.5 31.5zM450 291h345q-4 90 -47.5 140.5t-120.5 50.5q-71 0 -120 -51t-57 -140zM209 36q67 0 119.5 30.5t81.5 85.5q-14 42 -15 96q-68 0 -115 -4.5t-92.5 -15.5t-68.5 -35t-23 -61q0 -46 33 -71
t80 -25z" />
    <glyph glyph-name="ccedilla" unicode="&#xe7;" horiz-adv-x="501" 
d="M460 21q-56 -32 -126 -33l-25 -43q9 3 27 3q35 0 58 -19t23 -60q0 -48 -32 -71.5t-82 -23.5q-34 0 -61 11v35l3 1q23 -10 51 -10q33 0 52.5 14.5t19.5 42.5q0 47 -52 47q-27 0 -50 -10l-1 3v29l31 52q-110 8 -176.5 81t-66.5 189q0 121 75.5 195.5t193.5 74.5
q75 0 135 -23v-47l-3 -1q-58 23 -126 23q-96 0 -157 -60.5t-61 -159.5q0 -101 58.5 -162.5t158.5 -62.5q69 0 130 34l3 -1v-48z" />
    <glyph glyph-name="egrave" unicode="&#xe8;" horiz-adv-x="570" 
d="M354 565l-167 119l-2 8l38 40l151 -139zM297 528q105 0 164.5 -67t60.5 -183q0 -18 -1 -27h-411q3 -104 64 -159.5t156 -55.5q87 0 162 42l2 -1v-46q-74 -44 -173 -44q-114 0 -190.5 69.5t-76.5 202.5q0 121 69.5 195t173.5 74zM112 297h355q-5 85 -49.5 134t-120.5 49
q-74 0 -124.5 -48.5t-60.5 -134.5z" />
    <glyph glyph-name="eacute" unicode="&#xe9;" horiz-adv-x="570" 
d="M395 684l-167 -119l-20 28l151 139l38 -40zM297 528q105 0 164.5 -67t60.5 -183q0 -18 -1 -27h-411q3 -104 64 -159.5t156 -55.5q87 0 162 42l2 -1v-46q-74 -44 -173 -44q-114 0 -190.5 69.5t-76.5 202.5q0 121 69.5 195t173.5 74zM112 297h355q-5 85 -49.5 134
t-120.5 49q-74 0 -124.5 -48.5t-60.5 -134.5z" />
    <glyph glyph-name="ecircumflex" unicode="&#xea;" horiz-adv-x="570" 
d="M292 671l-102 -103l-24 24l114 132h26l117 -132l-24 -24zM297 528q105 0 164.5 -67t60.5 -183q0 -18 -1 -27h-411q3 -104 64 -159.5t156 -55.5q87 0 162 42l2 -1v-46q-74 -44 -173 -44q-114 0 -190.5 69.5t-76.5 202.5q0 121 69.5 195t173.5 74zM112 297h355
q-5 85 -49.5 134t-120.5 49q-74 0 -124.5 -48.5t-60.5 -134.5z" />
    <glyph glyph-name="edieresis" unicode="&#xeb;" horiz-adv-x="570" 
d="M205 626q-16 0 -27.5 11.5t-11.5 28.5q0 15 11.5 26.5t27.5 11.5t28 -11.5t12 -26.5q0 -17 -12 -28.5t-28 -11.5zM387 626q-17 0 -28 11.5t-11 28.5q0 15 11.5 26.5t27.5 11.5t27.5 -11.5t11.5 -26.5q0 -17 -11.5 -28.5t-27.5 -11.5zM297 528q105 0 164.5 -67t60.5 -183
q0 -18 -1 -27h-411q3 -104 64 -159.5t156 -55.5q87 0 162 42l2 -1v-46q-74 -44 -173 -44q-114 0 -190.5 69.5t-76.5 202.5q0 121 69.5 195t173.5 74zM112 297h355q-5 85 -49.5 134t-120.5 49q-74 0 -124.5 -48.5t-60.5 -134.5z" />
    <glyph glyph-name="igrave" unicode="&#xec;" horiz-adv-x="233" 
d="M176 565l-167 119l-2 8l38 40l151 -139zM89 0v516h55v-516h-55z" />
    <glyph glyph-name="iacute" unicode="&#xed;" horiz-adv-x="233" 
d="M50 565l-20 28l151 139l38 -40l-2 -8zM89 0v516h55v-516h-55z" />
    <glyph glyph-name="icircumflex" unicode="&#xee;" horiz-adv-x="233" 
d="M12 568l-24 24l114 132h26l117 -132l-24 -24l-107 103zM89 0v516h55v-516h-55z" />
    <glyph glyph-name="idieresis" unicode="&#xef;" horiz-adv-x="233" 
d="M36 626q-16 0 -27.5 11.5t-11.5 28.5q0 15 11.5 26.5t27.5 11.5t27.5 -11.5t11.5 -26.5q0 -16 -11.5 -28t-27.5 -12zM191 626q-16 0 -27.5 11.5t-11.5 28.5q0 15 11.5 26.5t27.5 11.5t27.5 -11.5t11.5 -26.5q0 -16 -11.5 -28t-27.5 -12zM89 0v516h55v-516h-55z" />
    <glyph glyph-name="eth" unicode="&#xf0;" horiz-adv-x="639" 
d="M407 689q82 -43 123.5 -141t41.5 -238q0 -154 -71 -238.5t-196 -84.5q-109 0 -179.5 67.5t-70.5 182.5q0 110 70.5 179t177.5 69q137 0 207 -93q-21 203 -141 259l-88 -88l-30 30l73 73q-27 6 -57 6q-79 0 -142 -27l-2 2v47q59 26 145 26q51 0 96 -14l83 83l30 -30z
M306 35q98 0 153.5 68t55.5 198v9q-18 47 -71 87t-134 40q-90 0 -144.5 -55t-54.5 -143q0 -90 55.5 -147t139.5 -57z" />
    <glyph glyph-name="ntilde" unicode="&#xf1;" horiz-adv-x="610" 
d="M186 606l-2 -1l-37 8q0 36 21.5 60t54.5 24q30 0 79 -20.5t71 -20.5q18 0 31 12t13 33l2 1l36 -7q0 -39 -22.5 -62t-55.5 -23q-27 -1 -76.5 20t-72.5 21q-18 0 -30 -11.5t-12 -33.5zM324 528q89 0 146.5 -57.5t57.5 -174.5v-296h-54v283q0 99 -45.5 145.5t-117.5 46.5
q-57 0 -102 -32t-65 -87v-356h-55v516h45l7 -88q27 45 74.5 72.5t108.5 27.5z" />
    <glyph glyph-name="ograve" unicode="&#xf2;" horiz-adv-x="630" 
d="M375 565l-167 119l-2 8l38 40l151 -139zM314 -13q-113 0 -187 72.5t-74 199.5q0 122 75 195.5t186 73.5q113 0 187.5 -72t74.5 -198q0 -123 -75 -197t-187 -74zM314 35q91 0 148.5 60.5t57.5 163.5q0 101 -57.5 160.5t-148.5 59.5q-90 0 -147 -59.5t-57 -160.5
q0 -103 57 -163.5t147 -60.5z" />
    <glyph glyph-name="oacute" unicode="&#xf3;" horiz-adv-x="630" 
d="M249 565l-20 28l151 139l38 -40l-2 -8zM314 -13q-113 0 -187 72.5t-74 199.5q0 122 75 195.5t186 73.5q113 0 187.5 -72t74.5 -198q0 -123 -75 -197t-187 -74zM314 35q91 0 148.5 60.5t57.5 163.5q0 101 -57.5 160.5t-148.5 59.5q-90 0 -147 -59.5t-57 -160.5
q0 -103 57 -163.5t147 -60.5z" />
    <glyph glyph-name="ocircumflex" unicode="&#xf4;" horiz-adv-x="630" 
d="M211 568l-24 24l114 132h26l117 -132l-24 -24l-107 103zM314 -13q-113 0 -187 72.5t-74 199.5q0 122 75 195.5t186 73.5q113 0 187.5 -72t74.5 -198q0 -123 -75 -197t-187 -74zM314 35q91 0 148.5 60.5t57.5 163.5q0 101 -57.5 160.5t-148.5 59.5q-90 0 -147 -59.5
t-57 -160.5q0 -103 57 -163.5t147 -60.5z" />
    <glyph glyph-name="otilde" unicode="&#xf5;" horiz-adv-x="630" 
d="M199 605l-37 8q0 36 21.5 60t54.5 24q30 0 79 -20.5t71 -20.5q18 0 31 12t13 33l2 1l36 -7q0 -39 -22.5 -62t-55.5 -23q-27 -1 -76.5 20t-72.5 21q-18 0 -30 -11.5t-12 -33.5zM314 -13q-113 0 -187 72.5t-74 199.5q0 122 75 195.5t186 73.5q113 0 187.5 -72t74.5 -198
q0 -123 -75 -197t-187 -74zM314 35q91 0 148.5 60.5t57.5 163.5q0 101 -57.5 160.5t-148.5 59.5q-90 0 -147 -59.5t-57 -160.5q0 -103 57 -163.5t147 -60.5z" />
    <glyph glyph-name="odieresis" unicode="&#xf6;" horiz-adv-x="630" 
d="M226 626q-16 0 -27.5 11.5t-11.5 28.5q0 15 11.5 26.5t27.5 11.5t28 -11.5t12 -26.5q0 -17 -12 -28.5t-28 -11.5zM408 626q-17 0 -28 11.5t-11 28.5q0 15 11.5 26.5t27.5 11.5t27.5 -11.5t11.5 -26.5q0 -17 -11.5 -28.5t-27.5 -11.5zM314 -13q-113 0 -187 72.5t-74 199.5
q0 122 75 195.5t186 73.5q113 0 187.5 -72t74.5 -198q0 -123 -75 -197t-187 -74zM314 35q91 0 148.5 60.5t57.5 163.5q0 101 -57.5 160.5t-148.5 59.5q-90 0 -147 -59.5t-57 -160.5q0 -103 57 -163.5t147 -60.5z" />
    <glyph glyph-name="divide" unicode="&#xf7;" horiz-adv-x="526" 
d="M263 408q-19 0 -29.5 11t-10.5 27q0 17 10.5 28t29.5 11t30 -11t11 -28q0 -16 -11 -27t-30 -11zM70 273v45h387v-45h-387zM263 100q-19 0 -29.5 11t-10.5 27q0 17 10.5 28t29.5 11t30 -11.5t11 -27.5t-11 -27t-30 -11z" />
    <glyph glyph-name="oslash" unicode="&#xf8;" horiz-adv-x="632" 
d="M508 451q69 -74 69 -193q0 -123 -75 -197t-187 -74q-94 0 -161 50l-44 -52h-49v7l62 73q-69 74 -69 194q0 122 75 195.5t186 73.5q92 0 161 -49l42 50h52v-5zM111 259q0 -91 48 -152l282 332q-52 40 -126 40q-90 0 -147 -59.5t-57 -160.5zM315 35q91 0 148.5 60.5
t57.5 163.5q0 91 -49 151l-284 -333q53 -42 127 -42z" />
    <glyph glyph-name="ugrave" unicode="&#xf9;" horiz-adv-x="595" 
d="M358 565l-167 119l-2 8l38 40l151 -139zM451 516h55v-516h-45l-7 79q-55 -91 -179 -91q-90 0 -141.5 53t-51.5 160v315h55v-307q0 -88 40.5 -130.5t110.5 -42.5q55 0 98.5 28.5t64.5 81.5v370z" />
    <glyph glyph-name="uacute" unicode="&#xfa;" horiz-adv-x="595" 
d="M399 684l-167 -119l-20 28l151 139l38 -40zM451 516h55v-516h-45l-7 79q-55 -91 -179 -91q-90 0 -141.5 53t-51.5 160v315h55v-307q0 -88 40.5 -130.5t110.5 -42.5q55 0 98.5 28.5t64.5 81.5v370z" />
    <glyph glyph-name="ucircumflex" unicode="&#xfb;" horiz-adv-x="595" 
d="M296 671l-102 -103l-24 24l114 132h26l117 -132l-24 -24zM451 516h55v-516h-45l-7 79q-55 -91 -179 -91q-90 0 -141.5 53t-51.5 160v315h55v-307q0 -88 40.5 -130.5t110.5 -42.5q55 0 98.5 28.5t64.5 81.5v370z" />
    <glyph glyph-name="udieresis" unicode="&#xfc;" horiz-adv-x="595" 
d="M209 626q-16 0 -27.5 11.5t-11.5 28.5q0 15 11.5 26.5t27.5 11.5t28 -11.5t12 -26.5q0 -17 -12 -28.5t-28 -11.5zM391 626q-17 0 -28 11.5t-11 28.5q0 15 11.5 26.5t27.5 11.5t27.5 -11.5t11.5 -26.5q0 -17 -11.5 -28.5t-27.5 -11.5zM451 516h55v-516h-45l-7 79
q-55 -91 -179 -91q-90 0 -141.5 53t-51.5 160v315h55v-307q0 -88 40.5 -130.5t110.5 -42.5q55 0 98.5 28.5t64.5 81.5v370z" />
    <glyph glyph-name="yacute" unicode="&#xfd;" horiz-adv-x="516" 
d="M365 684l-167 -119l-20 28l151 139l38 -40zM495 516l1 -3l-221 -518l-67 -156h-57l-2 2l83 175l-209 497l1 3h58l179 -446l179 446h55z" />
    <glyph glyph-name="thorn" unicode="&#xfe;" horiz-adv-x="608" 
d="M329 528q100 0 162 -69.5t62 -189.5q0 -132 -71 -206.5t-180 -74.5q-96 0 -158 42v-194h-55v874h55v-268q61 86 185 86zM300 37q87 0 142 59.5t55 169.5q0 100 -50.5 156t-129.5 56q-58 0 -103.5 -28t-69.5 -76v-291q59 -46 156 -46z" />
    <glyph glyph-name="ydieresis" unicode="&#xff;" horiz-adv-x="516" 
d="M175 626q-16 0 -27.5 11.5t-11.5 28.5q0 15 11.5 26.5t27.5 11.5t28 -11.5t12 -26.5q0 -17 -12 -28.5t-28 -11.5zM357 626q-17 0 -28 11.5t-11 28.5q0 15 11.5 26.5t27.5 11.5t27.5 -11.5t11.5 -26.5q0 -17 -11.5 -28.5t-27.5 -11.5zM495 516l1 -3l-221 -518l-67 -156
h-57l-2 2l83 175l-209 497l1 3h58l179 -446l179 446h55z" />
    <glyph glyph-name="Amacron" unicode="&#x100;" horiz-adv-x="629" 
d="M446 797v-46h-269v46h269zM560 0l-85 197h-322l-82 -197h-55l286 673h21l294 -673h-57zM171 241h285l-136 314l-9 24l-9 -25z" />
    <glyph glyph-name="amacron" unicode="&#x101;" horiz-adv-x="624" 
d="M448 667v-43h-277v43h277zM598 58l3 -1v-47q-23 -17 -56 -17q-78 0 -78 87v1q-62 -93 -187 -93q-101 0 -163.5 67.5t-62.5 190.5q0 127 73 204.5t189 77.5q92 0 152 -52l5 40h45v-413q0 -33 10 -46.5t33 -13.5q21 0 37 15zM294 37q56 0 100 27.5t69 75.5v286
q-56 53 -147 53q-90 0 -147.5 -63.5t-57.5 -166.5q0 -104 51 -158t132 -54z" />
    <glyph glyph-name="Abreve" unicode="&#x102;" horiz-adv-x="629" 
d="M311 706q-56 0 -92 33.5t-36 90.5l36 3q4 -39 29 -62.5t64 -23.5q41 0 67 23.5t27 62.5l35 -3q0 -57 -37 -90.5t-93 -33.5zM560 0l-85 197h-322l-82 -197h-55l286 673h21l294 -673h-57zM171 241h285l-136 314l-9 24l-9 -25z" />
    <glyph glyph-name="abreve" unicode="&#x103;" horiz-adv-x="624" 
d="M309 577q-56 0 -92 36t-36 97l38 4l2 -2q2 -42 26.5 -66.5t62.5 -24.5q40 0 65 24.5t26 65.5l2 3l35 -4q0 -61 -36.5 -97t-92.5 -36zM598 58l3 -1v-47q-23 -17 -56 -17q-78 0 -78 87v1q-62 -93 -187 -93q-101 0 -163.5 67.5t-62.5 190.5q0 127 73 204.5t189 77.5
q92 0 152 -52l5 40h45v-413q0 -33 10 -46.5t33 -13.5q21 0 37 15zM294 37q56 0 100 27.5t69 75.5v286q-56 53 -147 53q-90 0 -147.5 -63.5t-57.5 -166.5q0 -104 51 -158t132 -54z" />
    <glyph glyph-name="Aogonek" unicode="&#x104;" horiz-adv-x="629" 
d="M607 0q-96 -65 -96 -132q0 -22 14 -36.5t43 -14.5q19 0 30 4l3 -1v-37q-23 -7 -47 -7q-45 0 -71 21.5t-26 58.5q0 79 104 144h-1l-85 197h-322l-82 -197h-55l286 673h21l294 -673h-10zM171 241h285l-136 314l-9 24l-9 -25z" />
    <glyph glyph-name="aogonek" unicode="&#x105;" horiz-adv-x="624" 
d="M585 1q-93 -64 -93 -130q0 -22 14 -36.5t43 -14.5q19 0 30 4l3 -1v-37q-23 -7 -47 -7q-45 0 -71 21.5t-26 58.5q0 74 91 135q-62 8 -62 86v1q-62 -93 -187 -93q-101 0 -163.5 67.5t-62.5 190.5q0 127 73 204.5t189 77.5q92 0 152 -52l5 40h45v-413q0 -33 10 -46.5
t33 -13.5q21 0 37 15l3 -1v-47q-10 -6 -16 -9zM294 37q56 0 100 27.5t69 75.5v286q-56 53 -147 53q-90 0 -147.5 -63.5t-57.5 -166.5q0 -104 51 -158t132 -54z" />
    <glyph glyph-name="Cacute" unicode="&#x106;" horiz-adv-x="642" 
d="M292 701l-12 31l178 110l28 -44l-4 -8zM404 -12q-158 1 -252.5 93t-94.5 244q0 156 96.5 251t251.5 95q107 0 194 -41v-51l-2 -1q-81 43 -185 43q-136 0 -217 -80t-81 -214q0 -131 78.5 -209.5t218.5 -79.5q96 0 186 45l2 -1v-49q-88 -45 -195 -45z" />
    <glyph glyph-name="cacute" unicode="&#x107;" horiz-adv-x="501" 
d="M235 568l-20 28l151 139l38 -40l-2 -8zM322 -12q-120 0 -194.5 74t-74.5 197q0 121 75.5 195.5t193.5 74.5q75 0 135 -23v-47l-3 -1q-58 23 -126 23q-96 0 -157 -60.5t-61 -159.5q0 -101 58.5 -162.5t158.5 -62.5q69 0 130 34l3 -1v-48q-60 -33 -138 -33z" />
    <glyph glyph-name="Cdotaccent" unicode="&#x10a;" horiz-adv-x="642" 
d="M382 737q-16 0 -27 11.5t-11 27.5q0 15 11 26t27 11t27 -11t11 -26q0 -16 -11 -27.5t-27 -11.5zM404 -12q-158 1 -252.5 93t-94.5 244q0 156 96.5 251t251.5 95q107 0 194 -41v-51l-2 -1q-81 43 -185 43q-136 0 -217 -80t-81 -214q0 -131 78.5 -209.5t218.5 -79.5
q96 0 186 45l2 -1v-49q-88 -45 -195 -45z" />
    <glyph glyph-name="cdotaccent" unicode="&#x10b;" horiz-adv-x="501" 
d="M301 628q-17 0 -28.5 12t-11.5 29t11.5 28.5t28.5 11.5t29 -12t12 -28q0 -17 -12 -29t-29 -12zM322 -12q-120 0 -194.5 74t-74.5 197q0 121 75.5 195.5t193.5 74.5q75 0 135 -23v-47l-3 -1q-58 23 -126 23q-96 0 -157 -60.5t-61 -159.5q0 -101 58.5 -162.5t158.5 -62.5
q69 0 130 34l3 -1v-48q-60 -33 -138 -33z" />
    <glyph glyph-name="Ccaron" unicode="&#x10c;" horiz-adv-x="642" 
d="M371 701l-123 110l21 27l116 -88l110 88l21 -27l-120 -110h-25zM404 -12q-158 1 -252.5 93t-94.5 244q0 156 96.5 251t251.5 95q107 0 194 -41v-51l-2 -1q-81 43 -185 43q-136 0 -217 -80t-81 -214q0 -131 78.5 -209.5t218.5 -79.5q96 0 186 45l2 -1v-49
q-88 -45 -195 -45z" />
    <glyph glyph-name="ccaron" unicode="&#x10d;" horiz-adv-x="501" 
d="M290 571l-117 133l24 23l107 -102l102 102l24 -23l-115 -133h-25zM322 -12q-120 0 -194.5 74t-74.5 197q0 121 75.5 195.5t193.5 74.5q75 0 135 -23v-47l-3 -1q-58 23 -126 23q-96 0 -157 -60.5t-61 -159.5q0 -101 58.5 -162.5t158.5 -62.5q69 0 130 34l3 -1v-48
q-60 -33 -138 -33z" />
    <glyph glyph-name="Dcaron" unicode="&#x10e;" horiz-adv-x="732" 
d="M343 701h-25l-123 110l21 27l116 -88l110 88l21 -27zM302 669q185 0 278.5 -89t93.5 -245q0 -160 -96.5 -248t-275.5 -88q-143 0 -197 3v659q111 8 197 8zM308 48q152 0 230.5 74.5t78.5 212.5q0 133 -80 208t-236 75q-94 0 -142 -5v-561q43 -4 149 -4z" />
    <glyph glyph-name="dcaron" unicode="&#x10f;" horiz-adv-x="642" 
d="M647 714l7 -8l-23 -196h-35l8 204h43zM563 43q20 0 37 17l2 -1l-1 -48q-21 -18 -56 -18q-78 0 -78 86q-62 -91 -185 -91q-100 0 -163.5 68.5t-63.5 193.5q0 123 72 200.5t186 77.5q92 0 151 -45v227h55v-607q0 -33 10 -46.5t34 -13.5zM294 37q56 0 100.5 27.5t69.5 75.5
v288q-57 51 -147 51t-148 -62.5t-58 -164.5q0 -104 52 -159.5t131 -55.5z" />
    <glyph glyph-name="Dcroat" unicode="&#x110;" horiz-adv-x="738" 
d="M307 669q185 0 278.5 -89t93.5 -245q0 -160 -96.5 -248t-275.5 -88q-143 0 -197 3v306h-90v41h90v312q111 8 197 8zM313 48q152 0 230.5 74.5t78.5 212.5q0 133 -80 208t-236 75q-94 0 -142 -5v-264h113v-41h-113v-256q43 -4 149 -4z" />
    <glyph glyph-name="dcroat" unicode="&#x111;" horiz-adv-x="630" 
d="M519 591v-488q0 -33 10 -46.5t34 -13.5q20 0 36 17l3 -1l-1 -48q-21 -18 -56 -18q-78 0 -78 86q-62 -91 -185 -91q-100 0 -163.5 68.5t-63.5 193.5q0 123 72 200.5t186 77.5q92 0 151 -45v108h-109v41h109v78h55v-78h93v-41h-93zM464 140v288q-57 51 -147 51t-148 -62.5
t-58 -164.5q0 -104 52 -159.5t131 -55.5q56 0 100.5 27.5t69.5 75.5z" />
    <glyph glyph-name="Emacron" unicode="&#x112;" horiz-adv-x="547" 
d="M438 797v-46h-269v46h269zM159 51h338v-51h-392v661h378v-51h-324v-243h305v-51h-305v-265z" />
    <glyph glyph-name="emacron" unicode="&#x113;" horiz-adv-x="570" 
d="M432 667v-43h-277v43h277zM297 528q105 0 164.5 -67t60.5 -183q0 -18 -1 -27h-411q3 -104 64 -159.5t156 -55.5q87 0 162 42l2 -1v-46q-74 -44 -173 -44q-114 0 -190.5 69.5t-76.5 202.5q0 121 69.5 195t173.5 74zM112 297h355q-5 85 -49.5 134t-120.5 49
q-74 0 -124.5 -48.5t-60.5 -134.5z" />
    <glyph glyph-name="Edotaccent" unicode="&#x116;" horiz-adv-x="547" 
d="M304 737q-16 0 -27 11.5t-11 27.5q0 15 11 26t27 11t27 -11t11 -26q0 -16 -11 -27.5t-27 -11.5zM159 51h338v-51h-392v661h378v-51h-324v-243h305v-51h-305v-265z" />
    <glyph glyph-name="edotaccent" unicode="&#x117;" horiz-adv-x="570" 
d="M294 625q-17 0 -28.5 12t-11.5 29q0 16 12 28t28 12q17 0 29 -12t12 -28q0 -17 -12 -29t-29 -12zM297 528q105 0 164.5 -67t60.5 -183q0 -18 -1 -27h-411q3 -104 64 -159.5t156 -55.5q87 0 162 42l2 -1v-46q-74 -44 -173 -44q-114 0 -190.5 69.5t-76.5 202.5
q0 121 69.5 195t173.5 74zM112 297h355q-5 85 -49.5 134t-120.5 49q-74 0 -124.5 -48.5t-60.5 -134.5z" />
    <glyph glyph-name="Eogonek" unicode="&#x118;" horiz-adv-x="547" 
d="M497 0q-96 -65 -96 -132q0 -22 14 -36.5t43 -14.5q19 0 30 4l3 -1v-37q-23 -7 -47 -7q-45 0 -71 21.5t-26 58.5q0 79 104 144h-346v661h378v-51h-324v-243h305v-51h-305v-265h338v-51z" />
    <glyph glyph-name="eogonek" unicode="&#x119;" horiz-adv-x="570" 
d="M297 528q105 0 164.5 -67t60.5 -183q0 -18 -1 -27h-411q3 -104 64 -159.5t156 -55.5q87 0 162 42l2 -1v-46q-35 -20 -62 -28q-96 -65 -96 -132q0 -22 14 -36.5t43 -14.5q19 0 30 4l3 -1v-37q-23 -7 -47 -7q-45 0 -71 21.5t-26 58.5q0 70 84 130q-30 -2 -45 -2
q-114 0 -190.5 69.5t-76.5 202.5q0 121 69.5 195t173.5 74zM112 297h355q-5 85 -49.5 134t-120.5 49q-74 0 -124.5 -48.5t-60.5 -134.5z" />
    <glyph glyph-name="Ecaron" unicode="&#x11a;" horiz-adv-x="547" 
d="M318 701h-25l-123 110l21 27l116 -88l110 88l21 -27zM159 51h338v-51h-392v661h378v-51h-324v-243h305v-51h-305v-265z" />
    <glyph glyph-name="ecaron" unicode="&#x11b;" horiz-adv-x="570" 
d="M308 568h-25l-117 133l24 23l107 -102l102 102l24 -23zM297 528q105 0 164.5 -67t60.5 -183q0 -18 -1 -27h-411q3 -104 64 -159.5t156 -55.5q87 0 162 42l2 -1v-46q-74 -44 -173 -44q-114 0 -190.5 69.5t-76.5 202.5q0 121 69.5 195t173.5 74zM112 297h355
q-5 85 -49.5 134t-120.5 49q-74 0 -124.5 -48.5t-60.5 -134.5z" />
    <glyph glyph-name="Gbreve" unicode="&#x11e;" horiz-adv-x="701" 
d="M388 706q-56 0 -92 33.5t-36 90.5l36 3q4 -39 29 -62.5t64 -23.5q41 0 67 23.5t27 62.5l35 -3q0 -57 -37 -90.5t-93 -33.5zM392 -10q-160 0 -247.5 91t-87.5 248q0 151 96.5 246t255.5 95q114 0 199 -39v-52l-3 -1q-87 43 -197 43q-134 0 -214 -81t-80 -211
q0 -132 72.5 -210.5t208.5 -78.5q113 0 193 44v219h49v-252q-104 -61 -245 -61z" />
    <glyph glyph-name="gbreve" unicode="&#x11f;" horiz-adv-x="606" 
d="M304 577q-56 0 -92 36t-36 97l38 4l2 -2q2 -42 26.5 -66.5t62.5 -24.5q40 0 65 24.5t26 65.5l2 3l35 -4q0 -61 -36.5 -97t-92.5 -36zM478 520h40v-471q0 -105 -64 -161.5t-182 -56.5q-109 0 -182 47v55l2 1q72 -53 178 -53q193 0 193 168v51q-62 -87 -183 -87
q-100 0 -163 65.5t-63 184.5q0 121 74 193t181 72q101 0 161 -53zM463 164v263q-58 52 -149 52q-89 0 -146 -58t-57 -156q0 -96 51 -149.5t130 -53.5q115 0 171 102z" />
    <glyph glyph-name="Gdotaccent" unicode="&#x120;" horiz-adv-x="701" 
d="M389 737q-16 0 -27 11.5t-11 27.5q0 15 11 26t27 11t27 -11t11 -26q0 -16 -11 -27.5t-27 -11.5zM392 -10q-160 0 -247.5 91t-87.5 248q0 151 96.5 246t255.5 95q114 0 199 -39v-52l-3 -1q-87 43 -197 43q-134 0 -214 -81t-80 -211q0 -132 72.5 -210.5t208.5 -78.5
q113 0 193 44v219h49v-252q-104 -61 -245 -61z" />
    <glyph glyph-name="gdotaccent" unicode="&#x121;" horiz-adv-x="606" 
d="M305 625q-17 0 -28.5 12t-11.5 29q0 16 11.5 28t28.5 12t29 -12t12 -28q0 -17 -12 -29t-29 -12zM478 520h40v-471q0 -105 -64 -161.5t-182 -56.5q-109 0 -182 47v55l2 1q72 -53 178 -53q193 0 193 168v51q-62 -87 -183 -87q-100 0 -163 65.5t-63 184.5q0 121 74 193
t181 72q101 0 161 -53zM463 164v263q-58 52 -149 52q-89 0 -146 -58t-57 -156q0 -96 51 -149.5t130 -53.5q115 0 171 102z" />
    <glyph glyph-name="Gcommaaccent" unicode="&#x122;" horiz-adv-x="701" 
d="M392 -10q-160 0 -247.5 91t-87.5 248q0 151 96.5 246t255.5 95q114 0 199 -39v-52l-3 -1q-87 43 -197 43q-134 0 -214 -81t-80 -211q0 -132 72.5 -210.5t208.5 -78.5q113 0 193 44v219h49v-252q-104 -61 -245 -61zM343 -219q20 63 20 132q0 11 -2 35l52 5l5 -8
q0 -84 -37 -164h-38z" />
    <glyph glyph-name="gcommaaccent" unicode="&#x123;" horiz-adv-x="606" 
d="M341 568l-52 -5l-5 8q0 84 37 164h38q-20 -63 -20 -132q0 -11 2 -35zM478 520h40v-471q0 -105 -64 -161.5t-182 -56.5q-109 0 -182 47v55l2 1q72 -53 178 -53q193 0 193 168v51q-62 -87 -183 -87q-100 0 -163 65.5t-63 184.5q0 121 74 193t181 72q101 0 161 -53zM463 164
v263q-58 52 -149 52q-89 0 -146 -58t-57 -156q0 -96 51 -149.5t130 -53.5q115 0 171 102z" />
    <glyph glyph-name="Hbar" unicode="&#x126;" horiz-adv-x="760" 
d="M727 524v-43h-81v-481h-54v312h-424v-312h-54v481h-80v43h80v137h54v-137h424v137h54v-137h81zM592 361v120h-424v-120h424z" />
    <glyph glyph-name="hbar" unicode="&#x127;" horiz-adv-x="608" 
d="M323 528q92 0 148 -57t56 -169v-302h-55v291q0 95 -44 139.5t-117 44.5q-57 0 -101.5 -30.5t-65.5 -85.5v-359h-55v591h-86v41h86v78h55v-78h116v-41h-116v-159q25 43 71.5 69.5t107.5 26.5z" />
    <glyph glyph-name="Itilde" unicode="&#x128;" horiz-adv-x="264" 
d="M23 718l-38 10q1 37 23.5 60.5t56.5 23.5q27 0 71.5 -20t63.5 -20q17 0 30 12t13 33l2 2l37 -11q-1 -38 -23.5 -60.5t-56.5 -22.5q-23 0 -67.5 20t-66.5 20q-19 0 -31.5 -12.5t-12.5 -33.5zM105 0v661h54v-661h-54z" />
    <glyph glyph-name="itilde" unicode="&#x129;" horiz-adv-x="233" 
d="M0 605l-37 8q0 36 21.5 60t54.5 24q30 0 79 -20.5t71 -20.5q18 0 31 12t13 33l2 1l36 -7q0 -39 -22.5 -62t-55.5 -23q-27 -1 -76.5 20t-72.5 21q-18 0 -30 -11.5t-12 -33.5zM89 0v516h55v-516h-55z" />
    <glyph glyph-name="Imacron" unicode="&#x12a;" horiz-adv-x="264" 
d="M25 752v46h215v-46h-215zM105 0v661h54v-661h-54z" />
    <glyph glyph-name="imacron" unicode="&#x12b;" horiz-adv-x="233" 
d="M-2 624v43h235v-43h-235zM89 0v516h55v-516h-55z" />
    <glyph glyph-name="Iogonek" unicode="&#x12e;" horiz-adv-x="264" 
d="M153 0q-92 -63 -92 -129q0 -22 14 -36.5t43 -14.5q19 0 30 4l3 -1v-37q-23 -7 -47 -7q-45 0 -71 21.5t-26 58.5q0 77 100 141h-2v661h54v-661h-6z" />
    <glyph glyph-name="iogonek" unicode="&#x12f;" horiz-adv-x="233" 
d="M116 706q17 0 29 -12t12 -28q0 -17 -12 -29t-29 -12t-28.5 12t-11.5 29q0 16 12 28t28 12zM89 0v516h55v-516h-5q-96 -65 -96 -132q0 -22 14 -36.5t43 -14.5q19 0 30 4l3 -1v-37q-23 -7 -47 -7q-45 0 -71 21.5t-26 58.5q0 79 104 144h-4z" />
    <glyph glyph-name="Idotaccent" unicode="&#x130;" horiz-adv-x="264" 
d="M133 737q-16 0 -27 11.5t-11 27.5q0 15 11 26t27 11t27 -11t11 -26q0 -16 -11 -27.5t-27 -11.5zM105 0v661h54v-661h-54z" />
    <glyph glyph-name="dotlessi" unicode="&#x131;" horiz-adv-x="233" 
d="M89 0v516h55v-516h-55z" />
    <glyph glyph-name="IJ" unicode="&#x132;" horiz-adv-x="612" 
d="M105 0v661h54v-661h-54zM327 -3q-22 0 -49 3v47l3 1q17 -3 40 -3q70 0 104.5 43t34.5 119v454h55v-451q0 -103 -47 -158t-141 -55z" />
    <glyph glyph-name="ij" unicode="&#x133;" horiz-adv-x="473" 
d="M116 625q-17 0 -28.5 12t-11.5 29q0 16 12 28t28 12q17 0 29 -12t12 -28q0 -17 -12 -29t-29 -12zM357 625q-16 0 -28 12t-12 29q0 16 12 28t28 12q17 0 29 -12t12 -28q0 -17 -12 -29t-29 -12zM89 20v496h55v-496h-55zM213 -168q-52 0 -98 15v47l2 1q42 -13 94 -13
q66 0 92.5 42.5t26.5 144.5v447h55v-459q0 -120 -42.5 -172.5t-129.5 -52.5z" />
    <glyph glyph-name="Kcommaaccent" unicode="&#x136;" horiz-adv-x="602" 
d="M210 337l390 -334l-1 -3h-72l-368 314v-314h-54v661h54v-311l354 311h66l1 -3zM282 -52l52 5l5 -8q0 -84 -37 -164h-38q20 63 20 132q0 11 -2 35z" />
    <glyph glyph-name="kcommaaccent" unicode="&#x137;" horiz-adv-x="510" 
d="M197 269l299 -266l-1 -3h-70l-281 248v-248h-55v710h55v-429l272 235h66l1 -3zM240 -52l52 5l5 -8q0 -84 -37 -164h-38q20 63 20 132q0 11 -2 35z" />
    <glyph glyph-name="kgreenlandic" unicode="&#x138;" horiz-adv-x="509" 
d="M197 269l298 -266l-1 -3h-70l-280 248v-248h-55v516h55v-235l273 235h67l1 -3z" />
    <glyph glyph-name="Lacute" unicode="&#x139;" horiz-adv-x="499" 
d="M246 798l-4 -8l-190 -89l-12 31l178 110zM159 47h326v-47h-380v661h54v-614z" />
    <glyph glyph-name="lacute" unicode="&#x13a;" horiz-adv-x="257" 
d="M24 743l-12 31l178 110l28 -44l-4 -8zM188 -8q-102 0 -102 102v616h55v-598q0 -38 13 -54t44 -16q22 0 39 12l3 -1v-48q-22 -13 -52 -13z" />
    <glyph glyph-name="Lcommaaccent" unicode="&#x13b;" horiz-adv-x="499" 
d="M159 47h326v-47h-380v661h54v-614zM272 -52l52 5l5 -8q0 -84 -37 -164h-38q20 63 20 132q0 11 -2 35z" />
    <glyph glyph-name="lcommaaccent" unicode="&#x13c;" horiz-adv-x="257" 
d="M188 -8q-102 0 -102 102v616h55v-598q0 -38 13 -54t44 -16q22 0 39 12l3 -1v-48q-22 -13 -52 -13zM117 -219q20 63 20 132q0 11 -2 35l52 5l5 -8q0 -84 -37 -164h-38z" />
    <glyph glyph-name="Lcaron" unicode="&#x13d;" horiz-adv-x="502" 
d="M398 673l-23 -195h-35l9 203h42zM159 47h326v-47h-380v661h54v-614z" />
    <glyph glyph-name="lcaron" unicode="&#x13e;" horiz-adv-x="263" 
d="M207 510l8 204h43l7 -8l-23 -196h-35zM188 -8q-102 0 -102 102v616h55v-598q0 -38 13 -54t44 -16q21 0 40 12l2 -1v-48q-22 -13 -52 -13z" />
    <glyph glyph-name="Ldot" unicode="&#x13f;" horiz-adv-x="506" 
d="M159 47h326v-47h-380v661h54v-614zM380 336q-18 0 -27.5 10t-9.5 25q0 16 10 26t27 10t27 -10t10 -26q0 -15 -9.5 -25t-27.5 -10z" />
    <glyph glyph-name="ldot" unicode="&#x140;" horiz-adv-x="290" 
d="M188 -8q-102 0 -102 102v616h55v-598q0 -38 13 -54t44 -16q21 0 40 12l2 -1v-48q-22 -13 -52 -13zM258 323q-17 0 -26.5 10t-9.5 25q0 16 9.5 26t26.5 10t27 -10t10 -26t-9.5 -25.5t-27.5 -9.5z" />
    <glyph glyph-name="Lslash" unicode="&#x141;" horiz-adv-x="504" 
d="M164 47h326v-47h-380v289l-75 -46l-3 1v49l78 48v320h54v-287l76 47h4v-51l-80 -49v-274z" />
    <glyph glyph-name="lslash" unicode="&#x142;" horiz-adv-x="305" 
d="M267 54l2 -1v-48q-22 -13 -52 -13q-102 0 -102 102v225l-74 -46h-4v47l78 48v342h55v-308l75 47h3v-47l-78 -49v-241q0 -38 13 -54t44 -16q21 0 40 12z" />
    <glyph glyph-name="Nacute" unicode="&#x143;" horiz-adv-x="739" 
d="M284 701l-12 31l178 110l28 -44l-4 -8zM105 0v664h22l452 -553h2v550h53v-666h-21l-453 555h-3v-550h-52z" />
    <glyph glyph-name="nacute" unicode="&#x144;" horiz-adv-x="610" 
d="M401 684l-167 -119l-20 28l151 139l38 -40zM324 528q89 0 146.5 -57.5t57.5 -174.5v-296h-54v283q0 99 -45.5 145.5t-117.5 46.5q-57 0 -102 -32t-65 -87v-356h-55v516h45l7 -88q27 45 74.5 72.5t108.5 27.5z" />
    <glyph glyph-name="Ncommaaccent" unicode="&#x145;" horiz-adv-x="739" 
d="M105 0v664h22l452 -553h2v550h53v-666h-21l-453 555h-3v-550h-52zM325 -219q20 63 20 132q0 11 -2 35l52 5l5 -8q0 -84 -37 -164h-38z" />
    <glyph glyph-name="ncommaaccent" unicode="&#x146;" horiz-adv-x="610" 
d="M324 528q89 0 146.5 -57.5t57.5 -174.5v-296h-54v283q0 99 -45.5 145.5t-117.5 46.5q-57 0 -102 -32t-65 -87v-356h-55v516h45l7 -88q27 45 74.5 72.5t108.5 27.5zM265 -52l52 5l5 -8q0 -84 -37 -164h-38q20 63 20 132q0 11 -2 35z" />
    <glyph glyph-name="Ncaron" unicode="&#x147;" horiz-adv-x="739" 
d="M363 701l-123 110l21 27l116 -88l110 88l21 -27l-120 -110h-25zM105 0v664h22l452 -553h2v550h53v-666h-21l-453 555h-3v-550h-52z" />
    <glyph glyph-name="ncaron" unicode="&#x148;" horiz-adv-x="610" 
d="M314 568h-25l-117 133l24 23l107 -102l102 102l24 -23zM324 528q89 0 146.5 -57.5t57.5 -174.5v-296h-54v283q0 99 -45.5 145.5t-117.5 46.5q-57 0 -102 -32t-65 -87v-356h-55v516h45l7 -88q27 45 74.5 72.5t108.5 27.5z" />
    <glyph glyph-name="Eng" unicode="&#x14a;" horiz-adv-x="738" 
d="M581 661h53v-638q0 -106 -48 -160t-140 -54q-24 0 -49 3v46l1 1q18 -3 42 -3q71 0 106 43.5t35 120.5v13l-421 516h-3v-549h-52v664h22l452 -553h2v550z" />
    <glyph glyph-name="eng" unicode="&#x14b;" horiz-adv-x="606" 
d="M324 528q90 0 145 -57t55 -170v-319q0 -170 -150 -170q-14 0 -32 3v45l2 2q7 -2 19 -2q56 0 81.5 31.5t25.5 99.5v296q0 95 -45 141.5t-117 46.5q-55 0 -99.5 -32t-64.5 -86v-357h-55v516h45l8 -96q25 47 72.5 77.5t109.5 30.5z" />
    <glyph glyph-name="Omacron" unicode="&#x14c;" horiz-adv-x="790" 
d="M260 751v46h269v-46h-269zM395 -14q-144 0 -241 92t-97 251q0 158 96 251.5t242 93.5q144 0 241 -93t97 -252q0 -157 -96 -250t-242 -93zM395 35q123 0 202 79t79 215t-79 215.5t-202 79.5t-202 -79.5t-79 -215.5t79 -215t202 -79z" />
    <glyph glyph-name="omacron" unicode="&#x14d;" horiz-adv-x="630" 
d="M176 624v43h277v-43h-277zM314 -13q-113 0 -187 72.5t-74 199.5q0 122 75 195.5t186 73.5q113 0 187.5 -72t74.5 -198q0 -123 -75 -197t-187 -74zM314 35q91 0 148.5 60.5t57.5 163.5q0 101 -57.5 160.5t-148.5 59.5q-90 0 -147 -59.5t-57 -160.5q0 -103 57 -163.5
t147 -60.5z" />
    <glyph glyph-name="Ohungarumlaut" unicode="&#x150;" horiz-adv-x="790" 
d="M306 714l-30 14l69 141l45 -13l1 -9zM480 714l-31 14l70 141l45 -13l1 -9zM395 -14q-144 0 -241 92t-97 251q0 158 96 251.5t242 93.5q144 0 241 -93t97 -252q0 -157 -96 -250t-242 -93zM395 35q123 0 202 79t79 215t-79 215.5t-202 79.5t-202 -79.5t-79 -215.5t79 -215
t202 -79z" />
    <glyph glyph-name="ohungarumlaut" unicode="&#x151;" horiz-adv-x="630" 
d="M231 566l-28 15l91 152l42 -16v-10zM391 566l-28 15l90 152l42 -16v-10zM314 -13q-113 0 -187 72.5t-74 199.5q0 122 75 195.5t186 73.5q113 0 187.5 -72t74.5 -198q0 -123 -75 -197t-187 -74zM314 35q91 0 148.5 60.5t57.5 163.5q0 101 -57.5 160.5t-148.5 59.5
q-90 0 -147 -59.5t-57 -160.5q0 -103 57 -163.5t147 -60.5z" />
    <glyph glyph-name="OE" unicode="&#x152;" horiz-adv-x="920" 
d="M871 51v-51h-379q-50 -14 -101 -14q-142 0 -237.5 92.5t-95.5 252.5q0 159 94.5 253t238.5 94q52 0 100 -14h366v-50h-266q112 -84 125 -244h120v-50h-118q-4 -177 -125 -269h278zM115 331q0 -137 77.5 -216.5t198.5 -79.5q26 0 56 5v584q-30 5 -56 5q-121 0 -198.5 -80
t-77.5 -218zM659 370q-8 87 -49.5 148t-107.5 89v-237h157zM502 57q72 30 114.5 98t44.5 165h-159v-263z" />
    <glyph glyph-name="oe" unicode="&#x153;" horiz-adv-x="997" 
d="M732 528q101 0 158 -67.5t58 -186.5q0 -17 -1 -26h-392q3 -103 60 -157.5t149 -54.5q82 0 155 42l2 -1v-46q-70 -44 -163 -44q-78 0 -139.5 37t-91.5 109q-28 -69 -87 -107.5t-137 -38.5q-110 0 -179.5 72.5t-69.5 197.5q0 121 71 196t178 75q76 0 135.5 -37.5
t88.5 -107.5q27 68 81.5 106.5t123.5 38.5zM557 294h339q-5 89 -47.5 138.5t-116.5 49.5q-71 0 -119 -49.5t-56 -138.5zM304 35q86 0 140 60.5t54 163.5q0 102 -54 161.5t-140 59.5q-84 0 -139 -61t-55 -162q0 -102 54.5 -162t139.5 -60z" />
    <glyph glyph-name="Racute" unicode="&#x154;" horiz-adv-x="569" 
d="M378 790l-190 -89l-12 31l178 110l28 -44zM350 280l176 -277l-1 -3h-58l-170 271q-9 -1 -26 -1h-112v-270h-54v661q72 5 160 5q109 0 169 -49.5t60 -146.5q0 -76 -39.5 -124t-104.5 -66zM255 315q81 0 132.5 39t51.5 112t-42.5 112.5t-127.5 39.5q-53 0 -110 -3v-300h96z
" />
    <glyph glyph-name="racute" unicode="&#x155;" horiz-adv-x="370" 
d="M318 684l-167 -119l-20 28l151 139l38 -40zM290 527q36 0 63 -11v-50l-3 -1q-22 12 -59 12q-54 0 -92.5 -30.5t-54.5 -110.5v-336h-55v516h45l6 -84q42 95 150 95z" />
    <glyph glyph-name="Rcommaaccent" unicode="&#x156;" horiz-adv-x="569" 
d="M350 280l176 -277l-1 -3h-58l-170 271q-9 -1 -26 -1h-112v-270h-54v661q72 5 160 5q109 0 169 -49.5t60 -146.5q0 -76 -39.5 -124t-104.5 -66zM255 315q81 0 132.5 39t51.5 112t-42.5 112.5t-127.5 39.5q-53 0 -110 -3v-300h96zM264 -52l52 5l5 -8q0 -84 -37 -164h-38
q20 63 20 132q0 11 -2 35z" />
    <glyph glyph-name="rcommaaccent" unicode="&#x157;" horiz-adv-x="370" 
d="M290 527q36 0 63 -11v-50l-3 -1q-22 12 -59 12q-54 0 -92.5 -30.5t-54.5 -110.5v-336h-55v516h45l6 -84q42 95 150 95zM88 -52l52 5l5 -8q0 -84 -37 -164h-38q20 63 20 132q0 11 -2 35z" />
    <glyph glyph-name="Rcaron" unicode="&#x158;" horiz-adv-x="569" 
d="M292 701h-25l-123 110l21 27l116 -88l110 88l21 -27zM350 280l176 -277l-1 -3h-58l-170 271q-9 -1 -26 -1h-112v-270h-54v661q72 5 160 5q109 0 169 -49.5t60 -146.5q0 -76 -39.5 -124t-104.5 -66zM255 315q81 0 132.5 39t51.5 112t-42.5 112.5t-127.5 39.5
q-53 0 -110 -3v-300h96z" />
    <glyph glyph-name="rcaron" unicode="&#x159;" horiz-adv-x="370" 
d="M231 568h-25l-117 133l24 23l107 -102l102 102l24 -23zM290 527q36 0 63 -11v-50l-3 -1q-22 12 -59 12q-54 0 -92.5 -30.5t-54.5 -110.5v-336h-55v516h45l6 -84q42 95 150 95z" />
    <glyph glyph-name="Sacute" unicode="&#x15a;" horiz-adv-x="506" 
d="M172 705l-12 31l178 110l28 -44l-4 -8zM243 -14q-112 0 -190 49v56l3 2q78 -59 182 -59q72 0 115 34.5t43 90.5q0 62 -38.5 97t-117.5 70q-81 35 -126.5 76t-45.5 107q0 81 57.5 124.5t144.5 43.5q98 0 164 -33v-52l-2 -2q-64 40 -158 40q-66 0 -108.5 -29t-42.5 -84
q0 -27 11 -49t36 -40t46.5 -29.5t60.5 -28.5q82 -35 127.5 -80t45.5 -123q0 -82 -57.5 -131.5t-149.5 -49.5z" />
    <glyph glyph-name="sacute" unicode="&#x15b;" horiz-adv-x="472" 
d="M171 568l-20 28l151 139l38 -40l-2 -8zM218 -13q-103 0 -170 40v54l3 1q66 -46 165 -46q74 0 115 24.5t41 72.5q0 44 -32.5 66t-114.5 43q-83 21 -125 51.5t-42 91.5q0 65 55 103.5t144 38.5q86 0 142 -25v-50l-2 -1q-63 28 -141 28q-64 0 -103.5 -24t-39.5 -67
q0 -39 33.5 -59t107.5 -39q91 -22 131.5 -55t40.5 -97q0 -73 -56.5 -112t-151.5 -39z" />
    <glyph glyph-name="Scedilla" unicode="&#x15e;" horiz-adv-x="506" 
d="M450 167q0 -75 -48.5 -123.5t-129.5 -56.5l-25 -42q9 3 27 3q35 0 58 -19t23 -60q0 -48 -32 -71.5t-82 -23.5q-34 0 -61 11v35l3 1q23 -10 51 -10q33 0 52.5 14.5t19.5 42.5q0 47 -52 47q-27 0 -50 -10l-1 3v29l30 49q-107 2 -180 49v56l3 2q78 -59 182 -59
q72 0 115 34.5t43 90.5q0 62 -38.5 97t-117.5 70q-81 35 -126.5 76t-45.5 107q0 81 57.5 124.5t144.5 43.5q98 0 164 -33v-52l-2 -2q-64 40 -158 40q-66 0 -108.5 -29t-42.5 -84q0 -27 11 -49t36 -40t46.5 -29.5t60.5 -28.5q82 -35 127.5 -80t45.5 -123z" />
    <glyph glyph-name="scedilla" unicode="&#x15f;" horiz-adv-x="472" 
d="M426 138q0 -65 -46 -103.5t-126 -45.5l-25 -44q9 3 27 3q35 0 58 -19t23 -60q0 -48 -32 -71.5t-82 -23.5q-34 0 -61 11v35l3 1q23 -10 51 -10q33 0 52.5 14.5t19.5 42.5q0 47 -52 47q-27 0 -50 -10l-1 3v29l30 50q-100 0 -167 40v54l3 1q66 -46 165 -46q74 0 115 24.5
t41 72.5q0 44 -32.5 66t-114.5 43q-83 21 -125 51.5t-42 91.5q0 65 55 103.5t144 38.5q86 0 142 -25v-50l-2 -1q-63 28 -141 28q-64 0 -103.5 -24t-39.5 -67q0 -39 33.5 -59t107.5 -39q91 -22 131.5 -55t40.5 -97z" />
    <glyph glyph-name="Scaron" unicode="&#x160;" horiz-adv-x="506" 
d="M251 705l-123 110l21 27l116 -88l110 88l21 -27l-120 -110h-25zM243 -14q-112 0 -190 49v56l3 2q78 -59 182 -59q72 0 115 34.5t43 90.5q0 62 -38.5 97t-117.5 70q-81 35 -126.5 76t-45.5 107q0 81 57.5 124.5t144.5 43.5q98 0 164 -33v-52l-2 -2q-64 40 -158 40
q-66 0 -108.5 -29t-42.5 -84q0 -27 11 -49t36 -40t46.5 -29.5t60.5 -28.5q82 -35 127.5 -80t45.5 -123q0 -82 -57.5 -131.5t-149.5 -49.5z" />
    <glyph glyph-name="scaron" unicode="&#x161;" horiz-adv-x="472" 
d="M226 571l-117 133l24 23l107 -102l102 102l24 -23l-115 -133h-25zM218 -13q-103 0 -170 40v54l3 1q66 -46 165 -46q74 0 115 24.5t41 72.5q0 44 -32.5 66t-114.5 43q-83 21 -125 51.5t-42 91.5q0 65 55 103.5t144 38.5q86 0 142 -25v-50l-2 -1q-63 28 -141 28
q-64 0 -103.5 -24t-39.5 -67q0 -39 33.5 -59t107.5 -39q91 -22 131.5 -55t40.5 -97q0 -73 -56.5 -112t-151.5 -39z" />
    <glyph glyph-name="uni0162" unicode="&#x162;" horiz-adv-x="544" 
d="M301 0h-7l-32 -55q9 3 27 3q35 0 58 -19t23 -60q0 -48 -32 -71.5t-82 -23.5q-34 0 -61 11v35l3 1q23 -10 51 -10q33 0 52.5 14.5t19.5 42.5q0 47 -52 47q-27 0 -50 -10l-1 3v29l38 63h-10v612h-230v49h512v-49h-227v-612z" />
    <glyph glyph-name="uni0163" unicode="&#x163;" horiz-adv-x="386" 
d="M379 21q-38 -24 -101 -26l-29 -50q9 3 27 3q35 0 58 -19t23 -60q0 -48 -32 -71.5t-82 -23.5q-34 0 -61 11v35l3 1q23 -10 51 -10q33 0 52.5 14.5t19.5 42.5q0 47 -52 47q-27 0 -50 -10l-1 3v29l36 60q-109 17 -109 144v329h-106v46h106v127l53 11l2 -1v-137h189v-46h-189
v-319q0 -106 100 -106q52 0 90 24l2 -1v-47z" />
    <glyph glyph-name="Tcaron" unicode="&#x164;" horiz-adv-x="544" 
d="M287 701h-25l-123 110l21 27l116 -88l110 88l21 -27zM528 661v-49h-227v-612h-55v612h-230v49h512z" />
    <glyph glyph-name="tcaron" unicode="&#x165;" horiz-adv-x="358" 
d="M328 776l-24 -167h-30l9 175h38zM377 69l2 -1v-47q-40 -26 -106 -26q-141 0 -141 146v329h-106v46h106v127l53 11l2 -1v-137h189v-46h-189v-319q0 -106 100 -106q52 0 90 24z" />
    <glyph glyph-name="Tbar" unicode="&#x166;" horiz-adv-x="552" 
d="M532 612h-227v-272h99v-42h-99v-298h-55v298h-103v42h103v272h-230v49h512v-49z" />
    <glyph glyph-name="tbar" unicode="&#x167;" horiz-adv-x="386" 
d="M377 69l2 -1v-47q-40 -26 -106 -26q-141 0 -141 146v127h-92v41h92v161h-106v46h106v127l53 11l2 -1v-137h189v-46h-189v-161h110v-41h-110v-117q0 -106 100 -106q52 0 90 24z" />
    <glyph glyph-name="Utilde" unicode="&#x168;" horiz-adv-x="712" 
d="M246 718l-38 10q1 37 23.5 60.5t56.5 23.5q27 0 71.5 -20t63.5 -20q17 0 30 12t13 33l2 2l37 -11q-1 -38 -23.5 -60.5t-56.5 -22.5q-23 0 -67.5 20t-66.5 20q-19 0 -31.5 -12.5t-12.5 -33.5zM356 -14q-125 0 -193 69t-68 196v410h54v-404q0 -108 54.5 -165.5t153.5 -57.5
q98 0 152 57t54 166v404h53v-410q0 -126 -68.5 -195.5t-191.5 -69.5z" />
    <glyph glyph-name="utilde" unicode="&#x169;" horiz-adv-x="595" 
d="M184 606l-2 -1l-37 8q0 36 21.5 60t54.5 24q30 0 79 -20.5t71 -20.5q18 0 31 12t13 33l2 1l36 -7q0 -39 -22.5 -62t-55.5 -23q-27 -1 -76.5 20t-72.5 21q-18 0 -30 -11.5t-12 -33.5zM451 516h55v-516h-45l-7 79q-55 -91 -179 -91q-90 0 -141.5 53t-51.5 160v315h55v-307
q0 -88 40.5 -130.5t110.5 -42.5q55 0 98.5 28.5t64.5 81.5v370z" />
    <glyph glyph-name="Umacron" unicode="&#x16a;" horiz-adv-x="712" 
d="M221 751v46h269v-46h-269zM356 -14q-125 0 -193 69t-68 196v410h54v-404q0 -108 54.5 -165.5t153.5 -57.5q98 0 152 57t54 166v404h53v-410q0 -126 -68.5 -195.5t-191.5 -69.5z" />
    <glyph glyph-name="umacron" unicode="&#x16b;" horiz-adv-x="595" 
d="M436 667v-43h-277v43h277zM451 516h55v-516h-45l-7 79q-55 -91 -179 -91q-90 0 -141.5 53t-51.5 160v315h55v-307q0 -88 40.5 -130.5t110.5 -42.5q55 0 98.5 28.5t64.5 81.5v370z" />
    <glyph glyph-name="Uring" unicode="&#x16e;" horiz-adv-x="712" 
d="M356 680q-37 0 -61 23.5t-24 58.5t24 58t61 23t60.5 -23t23.5 -58t-23.5 -58.5t-60.5 -23.5zM356 712q21 0 35 14.5t14 35.5t-14 35.5t-35 14.5t-35.5 -14.5t-14.5 -35.5t14.5 -35.5t35.5 -14.5zM356 -14q-125 0 -193 69t-68 196v410h54v-404q0 -108 54.5 -165.5
t153.5 -57.5q98 0 152 57t54 166v404h53v-410q0 -126 -68.5 -195.5t-191.5 -69.5z" />
    <glyph glyph-name="uring" unicode="&#x16f;" horiz-adv-x="595" 
d="M298 564q-37 0 -61 24.5t-24 60.5t24 60t61 24q38 0 62 -23.5t24 -60.5q0 -36 -24 -60.5t-62 -24.5zM299 702q-22 0 -37 -15.5t-15 -37.5t15 -37t37 -15q23 0 37.5 15t14.5 37t-14.5 37.5t-37.5 15.5zM451 516h55v-516h-45l-7 79q-55 -91 -179 -91q-90 0 -141.5 53
t-51.5 160v315h55v-307q0 -88 40.5 -130.5t110.5 -42.5q55 0 98.5 28.5t64.5 81.5v370z" />
    <glyph glyph-name="Uhungarumlaut" unicode="&#x170;" horiz-adv-x="712" 
d="M267 714l-30 14l69 141l45 -13l1 -9zM441 714l-31 14l70 141l45 -13l1 -9zM356 -14q-125 0 -193 69t-68 196v410h54v-404q0 -108 54.5 -165.5t153.5 -57.5q98 0 152 57t54 166v404h53v-410q0 -126 -68.5 -195.5t-191.5 -69.5z" />
    <glyph glyph-name="uhungarumlaut" unicode="&#x171;" horiz-adv-x="595" 
d="M319 707l-105 -141l-28 15l91 152l42 -16v-10zM478 707l-104 -141l-28 15l90 152l42 -16v-10zM451 516h55v-516h-45l-7 79q-55 -91 -179 -91q-90 0 -141.5 53t-51.5 160v315h55v-307q0 -88 40.5 -130.5t110.5 -42.5q55 0 98.5 28.5t64.5 81.5v370z" />
    <glyph glyph-name="Uogonek" unicode="&#x172;" horiz-adv-x="712" 
d="M563 661h53v-410q0 -99 -43 -164t-122 -88q-90 -63 -90 -128q0 -22 14 -36.5t43 -14.5q19 0 30 4l3 -1v-37q-23 -7 -47 -7q-45 0 -71 21.5t-26 58.5q0 70 81 128q-10 -1 -32 -1q-125 0 -193 69t-68 196v410h54v-404q0 -108 54.5 -165.5t153.5 -57.5q98 0 152 57t54 166
v404z" />
    <glyph glyph-name="uogonek" unicode="&#x173;" horiz-adv-x="595" 
d="M451 516h55v-516h-1q-95 -64 -95 -131q0 -22 14 -36.5t43 -14.5q19 0 30 4l3 -1v-37q-23 -7 -47 -7q-45 0 -71 21.5t-26 58.5q0 79 105 144l-7 78q-55 -91 -179 -91q-90 0 -141.5 53t-51.5 160v315h55v-307q0 -88 40.5 -130.5t110.5 -42.5q55 0 98.5 28.5t64.5 81.5v370z
" />
    <glyph glyph-name="Wcircumflex" unicode="&#x174;" horiz-adv-x="964" 
d="M478 790l-110 -88l-21 27l120 110h25l123 -110l-21 -27zM939 661l1 -3l-220 -672h-39l-193 562l-5 20l-6 -19l-192 -563h-39l-224 672l1 3h56l182 -563l6 -31l8 31l189 561h38l190 -558l8 -32l8 32l179 560h52z" />
    <glyph glyph-name="wcircumflex" unicode="&#x175;" horiz-adv-x="800" 
d="M398 675l-102 -103l-24 24l114 132h26l117 -132l-24 -24zM772 516l1 -3l-172 -513h-41l-153 427l-6 21l-5 -20l-155 -428h-42l-174 513l1 3h55l138 -425l4 -20l5 20l151 425h46l151 -424l5 -19l3 19l138 424h50z" />
    <glyph glyph-name="Ycircumflex" unicode="&#x176;" horiz-adv-x="581" 
d="M178 701l-21 27l120 110h25l123 -110l-21 -27l-116 88zM264 0v280l-245 378l1 3h57l215 -331l214 331h54l1 -3l-243 -379v-279h-54z" />
    <glyph glyph-name="ycircumflex" unicode="&#x177;" horiz-adv-x="516" 
d="M262 671l-102 -103l-24 24l114 132h26l117 -132l-24 -24zM495 516l1 -3l-221 -518l-67 -156h-57l-2 2l83 175l-209 497l1 3h58l179 -446l179 446h55z" />
    <glyph glyph-name="Ydieresis" unicode="&#x178;" horiz-adv-x="581" 
d="M194 736q-14 0 -24.5 10.5t-10.5 26.5q0 14 10.5 24.5t24.5 10.5q15 0 25.5 -10.5t10.5 -24.5q0 -16 -10.5 -26.5t-25.5 -10.5zM389 736q-15 0 -25.5 10.5t-10.5 26.5q0 14 10.5 24.5t25.5 10.5t25.5 -10.5t10.5 -24.5q0 -16 -10.5 -26.5t-25.5 -10.5zM264 0v280
l-245 378l1 3h57l215 -331l214 331h54l1 -3l-243 -379v-279h-54z" />
    <glyph glyph-name="Zacute" unicode="&#x179;" horiz-adv-x="577" 
d="M198 701l-12 31l178 110l28 -44l-4 -8zM36 0v19l424 596h-420l-1 46h498v-19l-427 -596h431v-46h-505z" />
    <glyph glyph-name="zacute" unicode="&#x17a;" horiz-adv-x="505" 
d="M352 684l-167 -119l-20 28l151 139l38 -40zM115 48h355v-48h-432v24l347 444h-345v48h422v-25z" />
    <glyph glyph-name="Zdotaccent" unicode="&#x17b;" horiz-adv-x="577" 
d="M288 737q-16 0 -27 11.5t-11 27.5q0 15 11 26t27 11t27 -11t11 -26q0 -16 -11 -27.5t-27 -11.5zM36 0v19l424 596h-420l-1 46h498v-19l-427 -596h431v-46h-505z" />
    <glyph glyph-name="zdotaccent" unicode="&#x17c;" horiz-adv-x="505" 
d="M251 625q-17 0 -28.5 12t-11.5 29q0 16 11.5 28t28.5 12t29 -12t12 -28q0 -17 -12 -29t-29 -12zM115 48h355v-48h-432v24l347 444h-345v48h422v-25z" />
    <glyph glyph-name="Zcaron" unicode="&#x17d;" horiz-adv-x="577" 
d="M277 701l-123 110l21 27l116 -88l110 88l21 -27l-120 -110h-25zM36 0v19l424 596h-420l-1 46h498v-19l-427 -596h431v-46h-505z" />
    <glyph glyph-name="zcaron" unicode="&#x17e;" horiz-adv-x="505" 
d="M265 568h-25l-117 133l24 23l107 -102l102 102l24 -23zM115 48h355v-48h-432v24l347 444h-345v48h422v-25z" />
    <glyph glyph-name="uni01EA" unicode="&#x1ea;" horiz-adv-x="790" 
d="M469 -7q-91 -64 -91 -129q0 -22 14 -36.5t43 -14.5q19 0 30 4l3 -1v-37q-23 -7 -47 -7q-45 0 -71 21.5t-26 58.5q0 73 90 134h-19q-144 0 -241 92t-97 251q0 158 96 251.5t242 93.5q144 0 241 -93t97 -252q0 -136 -73 -225t-191 -111zM114 329q0 -136 79 -215t202 -79
t202 79t79 215t-79 215.5t-202 79.5t-202 -79.5t-79 -215.5z" />
    <glyph glyph-name="uni01EB" unicode="&#x1eb;" horiz-adv-x="630" 
d="M394 -2q-89 -61 -89 -127q0 -22 14 -36.5t43 -14.5q19 0 30 4l3 -1v-37q-23 -7 -47 -7q-45 0 -71 21.5t-26 58.5q0 68 81 129q-6 -1 -18 -1q-113 0 -187 72.5t-74 199.5q0 122 75 195.5t186 73.5q113 0 187.5 -72t74.5 -198q0 -99 -50 -167.5t-132 -92.5zM110 259
q0 -103 57 -163.5t147 -60.5q91 0 148.5 60.5t57.5 163.5q0 101 -57.5 160.5t-148.5 59.5q-90 0 -147 -59.5t-57 -160.5z" />
    <glyph glyph-name="AEacute" unicode="&#x1fc;" horiz-adv-x="813" 
d="M598 793l-190 -89l-12 31l178 110l28 -44zM470 46h293v-46h-348v216h-238l-137 -216h-57l419 661h347v-46h-279v-249h260v-46h-260v-274zM204 257h211v340l-39 -69z" />
    <glyph glyph-name="aeacute" unicode="&#x1fd;" horiz-adv-x="903" 
d="M546 684l-167 -119l-20 28l151 139l38 -40zM627 528q103 0 162 -67.5t60 -186.5v-26h-400q4 -102 61.5 -157t144.5 -55q92 0 164 46l2 -2v-48q-73 -45 -170 -45q-72 0 -131 31t-92 92q-79 -122 -225 -122q-70 0 -115.5 37t-45.5 105q0 49 26.5 82t78.5 49t109 22.5
t138 7.5v24q0 82 -43.5 123.5t-119.5 41.5q-91 0 -144 -35l-2 1v45q47 37 154 37q150 0 192 -120q30 57 81.5 88.5t114.5 31.5zM450 291h345q-4 90 -47.5 140.5t-120.5 50.5q-71 0 -120 -51t-57 -140zM209 36q67 0 119.5 30.5t81.5 85.5q-14 42 -15 96q-68 0 -115 -4.5
t-92.5 -15.5t-68.5 -35t-23 -61q0 -46 33 -71t80 -25z" />
    <glyph glyph-name="Oslashacute" unicode="&#x1fe;" horiz-adv-x="790" 
d="M498 790l-190 -89l-12 31l178 110l28 -44zM733 678v-5l-89 -100q89 -94 89 -244q0 -157 -96 -250t-242 -93q-126 0 -216 70l-66 -73h-56v6l88 98q-88 93 -88 242q0 158 96 251.5t242 93.5q125 0 215 -70l66 74h57zM114 329q0 -122 67 -202l394 438q-76 59 -180 59
q-123 0 -202 -79.5t-79 -215.5zM676 329q0 126 -69 204l-393 -438q74 -60 181 -60q123 0 202 79t79 215z" />
    <glyph glyph-name="oslashacute" unicode="&#x1ff;" horiz-adv-x="632" 
d="M417 684l-167 -119l-20 28l151 139l38 -40zM508 451q69 -74 69 -193q0 -123 -75 -197t-187 -74q-94 0 -161 50l-44 -52h-49v7l62 73q-69 74 -69 194q0 122 75 195.5t186 73.5q92 0 161 -49l42 50h52v-5zM111 259q0 -91 48 -152l282 332q-52 40 -126 40q-90 0 -147 -59.5
t-57 -160.5zM315 35q91 0 148.5 60.5t57.5 163.5q0 91 -49 151l-284 -333q53 -42 127 -42z" />
    <glyph glyph-name="Scommaaccent" unicode="&#x218;" horiz-adv-x="506" 
d="M243 -14q-112 0 -190 49v56l3 2q78 -59 182 -59q72 0 115 34.5t43 90.5q0 62 -38.5 97t-117.5 70q-81 35 -126.5 76t-45.5 107q0 81 57.5 124.5t144.5 43.5q98 0 164 -33v-52l-2 -2q-64 40 -158 40q-66 0 -108.5 -29t-42.5 -84q0 -27 11 -49t36 -40t46.5 -29.5
t60.5 -28.5q82 -35 127.5 -80t45.5 -123q0 -82 -57.5 -131.5t-149.5 -49.5zM209 -219q20 63 20 132q0 11 -2 35l52 5l5 -8q0 -84 -37 -164h-38z" />
    <glyph glyph-name="scommaaccent" unicode="&#x219;" horiz-adv-x="472" 
d="M218 -13q-103 0 -170 40v54l3 1q66 -46 165 -46q74 0 115 24.5t41 72.5q0 44 -32.5 66t-114.5 43q-83 21 -125 51.5t-42 91.5q0 65 55 103.5t144 38.5q86 0 142 -25v-50l-2 -1q-63 28 -141 28q-64 0 -103.5 -24t-39.5 -67q0 -39 33.5 -59t107.5 -39q91 -22 131.5 -55
t40.5 -97q0 -73 -56.5 -112t-151.5 -39zM191 -219q20 63 20 132q0 11 -2 35l52 5l5 -8q0 -84 -37 -164h-38z" />
    <glyph glyph-name="uni021A" unicode="&#x21a;" horiz-adv-x="544" 
d="M528 661v-49h-227v-612h-55v612h-230v49h512zM242 -52l52 5l5 -8q0 -84 -37 -164h-38q20 63 20 132q0 11 -2 35z" />
    <glyph glyph-name="uni021B" unicode="&#x21b;" horiz-adv-x="386" 
d="M377 69l2 -1v-47q-40 -26 -106 -26q-141 0 -141 146v329h-106v46h106v127l53 11l2 -1v-137h189v-46h-189v-319q0 -106 100 -106q52 0 90 24zM229 -52l52 5l5 -8q0 -84 -37 -164h-38q20 63 20 132q0 11 -2 35z" />
    <glyph glyph-name="uni0237" unicode="&#x237;" horiz-adv-x="249" 
d="M5 -168q-21 0 -44 4v48l3 1q14 -3 31 -3q111 0 111 136v498h54v-509q0 -175 -155 -175z" />
    <glyph glyph-name="circumflex" unicode="&#x2c6;" horiz-adv-x="314" 
d="M53 568l-24 24l114 132h26l117 -132l-24 -24l-107 103z" />
    <glyph glyph-name="caron" unicode="&#x2c7;" horiz-adv-x="314" 
d="M149 527l-118 137l19 19l108 -108l108 108l19 -19l-118 -137h-18z" />
    <glyph glyph-name="breve" unicode="&#x2d8;" horiz-adv-x="304" 
d="M151 577q-56 0 -92 36t-36 97l38 4l2 -2q2 -42 26.5 -66.5t62.5 -24.5q40 0 65 24.5t26 65.5l2 3l35 -4q0 -61 -36.5 -97t-92.5 -36z" />
    <glyph glyph-name="dotaccent" unicode="&#x2d9;" horiz-adv-x="265" 
d="M132 625q-17 0 -28.5 12t-11.5 29q0 16 12 28t28 12q17 0 29 -12t12 -28q0 -17 -12 -29t-29 -12z" />
    <glyph glyph-name="ring" unicode="&#x2da;" horiz-adv-x="328" 
d="M139 564q-37 0 -61 24.5t-24 60.5t24 60t61 24q39 0 62.5 -23.5t23.5 -60.5q0 -36 -24 -60.5t-62 -24.5zM140 597q23 0 37.5 15t14.5 37t-14.5 37.5t-37.5 15.5q-22 0 -37 -15.5t-15 -37.5t15 -37t37 -15z" />
    <glyph glyph-name="ogonek" unicode="&#x2db;" horiz-adv-x="181" 
d="M113 -221q-45 0 -71 21.5t-26 58.5q0 82 111 148l39 -4q-96 -65 -96 -132q0 -22 14 -36.5t43 -14.5q19 0 30 4l3 -1v-37q-23 -7 -47 -7z" />
    <glyph glyph-name="tilde" unicode="&#x2dc;" horiz-adv-x="334" 
d="M51 605l-37 8q0 36 21.5 60t54.5 24q30 0 79 -20.5t71 -20.5q18 0 31 12t13 33l2 1l36 -7q0 -39 -22.5 -62t-55.5 -23q-27 -1 -76.5 20t-72.5 21q-18 0 -30 -11.5t-12 -33.5z" />
    <glyph glyph-name="hungarumlaut" unicode="&#x2dd;" horiz-adv-x="335" 
d="M49 566l-28 15l91 152l42 -16v-10zM209 566l-28 15l90 152l42 -16v-10z" />
    <glyph glyph-name="gravecomb" unicode="&#x300;" 
d="M-41 565l-167 119l-2 8l38 40l151 -139z" />
    <glyph glyph-name="acutecomb" unicode="&#x301;" 
d="M-190 565l-20 28l151 139l38 -40l-2 -8z" />
    <glyph glyph-name="uni0302" unicode="&#x302;" 
d="M-261 568l-24 24l114 132h26l117 -132l-24 -24l-107 103z" />
    <glyph glyph-name="tildecomb" unicode="&#x303;" 
d="M-283 605l-37 8q0 36 21.5 60t54.5 24q30 0 79 -20.5t71 -20.5q18 0 31 12t13 33l2 1l36 -7q0 -39 -22.5 -62t-55.5 -23q-27 -1 -76.5 20t-72.5 21q-18 0 -30 -11.5t-12 -33.5z" />
    <glyph glyph-name="uni0304" unicode="&#x304;" 
d="M-303 624v43h277v-43h-277z" />
    <glyph glyph-name="uni0306" unicode="&#x306;" 
d="M-153 577q-56 0 -92 36t-36 97l38 4l2 -2q2 -42 26.5 -66.5t62.5 -24.5q40 0 65 24.5t26 65.5l2 3l35 -4q0 -61 -36.5 -97t-92.5 -36z" />
    <glyph glyph-name="uni0307" unicode="&#x307;" 
d="M-133 625q-17 0 -28.5 12t-11.5 29q0 16 11.5 28t28.5 12t29 -12t12 -28q0 -17 -12 -29t-29 -12z" />
    <glyph glyph-name="uni0308" unicode="&#x308;" 
d="M-230 626q-16 0 -27.5 11.5t-11.5 28.5q0 15 11.5 26.5t27.5 11.5t28 -11.5t12 -26.5q0 -17 -12 -28.5t-28 -11.5zM-48 626q-17 0 -28 11.5t-11 28.5q0 15 11.5 26.5t27.5 11.5t27.5 -11.5t11.5 -26.5q0 -17 -11.5 -28.5t-27.5 -11.5z" />
    <glyph glyph-name="uni030A" unicode="&#x30a;" 
d="M-140 564q-37 0 -61 24.5t-24 60.5t24 60t61 24q38 0 62 -23.5t24 -60.5q0 -36 -24 -60.5t-62 -24.5zM-139 597q23 0 37.5 15t14.5 37t-14.5 37.5t-37.5 15.5q-22 0 -37 -15.5t-15 -37.5t15 -37t37 -15z" />
    <glyph glyph-name="uni030B" unicode="&#x30b;" 
d="M-286 566l-28 15l91 152l42 -16v-10zM-126 566l-28 15l90 152l42 -16v-10z" />
    <glyph glyph-name="uni030C" unicode="&#x30c;" 
d="M-168 568l-117 133l24 23l107 -102l102 102l24 -23l-115 -133h-25z" />
    <glyph glyph-name="uni0326" unicode="&#x326;" 
d="M-125 -219q20 63 20 132q0 11 -2 35l52 5l5 -8q0 -84 -37 -164h-38z" />
    <glyph glyph-name="uni0327" unicode="&#x327;" 
d="M-127 -226q-34 0 -61 11v35l3 1q23 -10 51 -10q33 0 52.5 14.5t19.5 42.5q0 47 -52 47q-27 0 -50 -10l-1 3v29l38 63h38l-32 -55q9 3 27 3q35 0 58 -19t23 -60q0 -48 -32 -71.5t-82 -23.5z" />
    <glyph glyph-name="uni0328" unicode="&#x328;" 
d="M-73 -221q-45 0 -71 21.5t-26 58.5q0 82 111 148l39 -4q-96 -65 -96 -132q0 -22 14 -36.5t43 -14.5q19 0 30 4l3 -1v-37q-23 -7 -47 -7z" />
    <glyph glyph-name="uni0335" unicode="&#x335;" 
d="M-284 207v41h257v-41h-257z" />
    <glyph glyph-name="uni0336" unicode="&#x336;" 
d="M-558 327v43h533v-43h-533z" />
    <glyph glyph-name="uni0337" unicode="&#x337;" 
d="M-232 270v47l208 129h3v-47l-208 -129h-3z" />
    <glyph glyph-name="uni0338" unicode="&#x338;" 
d="M-556 -13v6l457 538h52v-5l-460 -539h-49z" />
    <glyph glyph-name="Wgrave" unicode="&#x1e80;" horiz-adv-x="964" 
d="M562 702l-191 89l-4 8l29 44l177 -109zM939 661l1 -3l-220 -672h-39l-193 562l-5 20l-6 -19l-192 -563h-39l-224 672l1 3h56l182 -563l6 -31l8 31l189 561h38l190 -558l8 -32l8 32l179 560h52z" />
    <glyph glyph-name="wgrave" unicode="&#x1e81;" horiz-adv-x="800" 
d="M460 569l-167 119l-2 8l38 40l151 -139zM772 516l1 -3l-172 -513h-41l-153 427l-6 21l-5 -20l-155 -428h-42l-174 513l1 3h55l138 -425l4 -20l5 20l151 425h46l151 -424l5 -19l3 19l138 424h50z" />
    <glyph glyph-name="Wacute" unicode="&#x1e82;" horiz-adv-x="964" 
d="M581 791l-190 -89l-12 31l178 110l28 -44zM939 661l1 -3l-220 -672h-39l-193 562l-5 20l-6 -19l-192 -563h-39l-224 672l1 3h56l182 -563l6 -31l8 31l189 561h38l190 -558l8 -32l8 32l179 560h52z" />
    <glyph glyph-name="wacute" unicode="&#x1e83;" horiz-adv-x="800" 
d="M501 688l-167 -119l-20 28l151 139l38 -40zM772 516l1 -3l-172 -513h-41l-153 427l-6 21l-5 -20l-155 -428h-42l-174 513l1 3h55l138 -425l4 -20l5 20l151 425h46l151 -424l5 -19l3 19l138 424h50z" />
    <glyph glyph-name="Wdieresis" unicode="&#x1e84;" horiz-adv-x="964" 
d="M384 737q-14 0 -24.5 10.5t-10.5 26.5q0 14 10.5 24.5t24.5 10.5q15 0 25.5 -10.5t10.5 -24.5q0 -16 -10.5 -26.5t-25.5 -10.5zM579 737q-15 0 -25.5 10.5t-10.5 26.5q0 14 10.5 24.5t25.5 10.5t25.5 -10.5t10.5 -24.5q0 -16 -10.5 -26.5t-25.5 -10.5zM939 661l1 -3
l-220 -672h-39l-193 562l-5 20l-6 -19l-192 -563h-39l-224 672l1 3h56l182 -563l6 -31l8 31l189 561h38l190 -558l8 -32l8 32l179 560h52z" />
    <glyph glyph-name="wdieresis" unicode="&#x1e85;" horiz-adv-x="800" 
d="M311 630q-16 0 -27.5 11.5t-11.5 28.5q0 15 11.5 26.5t27.5 11.5t28 -11.5t12 -26.5q0 -17 -12 -28.5t-28 -11.5zM493 630q-17 0 -28 11.5t-11 28.5q0 15 11.5 26.5t27.5 11.5t27.5 -11.5t11.5 -26.5q0 -17 -11.5 -28.5t-27.5 -11.5zM772 516l1 -3l-172 -513h-41
l-153 427l-6 21l-5 -20l-155 -428h-42l-174 513l1 3h55l138 -425l4 -20l5 20l151 425h46l151 -424l5 -19l3 19l138 424h50z" />
    <glyph glyph-name="Ygrave" unicode="&#x1ef2;" horiz-adv-x="581" 
d="M372 701l-191 89l-4 8l29 44l177 -109zM264 0v280l-245 378l1 3h57l215 -331l214 331h54l1 -3l-243 -379v-279h-54z" />
    <glyph glyph-name="ygrave" unicode="&#x1ef3;" horiz-adv-x="516" 
d="M324 565l-167 119l-2 8l38 40l151 -139zM495 516l1 -3l-221 -518l-67 -156h-57l-2 2l83 175l-209 497l1 3h58l179 -446l179 446h55z" />
    <glyph glyph-name="uni1EF8" unicode="&#x1ef8;" horiz-adv-x="581" 
d="M181 718l-38 10q1 37 23.5 60.5t56.5 23.5q27 0 71.5 -20t63.5 -20q17 0 30 12t13 33l2 2l37 -11q-1 -38 -23.5 -60.5t-56.5 -22.5q-23 0 -67.5 20t-66.5 20q-19 0 -31.5 -12.5t-12.5 -33.5zM264 0v280l-245 378l1 3h57l215 -331l214 331h54l1 -3l-243 -379v-279h-54z
" />
    <glyph glyph-name="uni1EF9" unicode="&#x1ef9;" horiz-adv-x="516" 
d="M150 606l-2 -1l-37 8q0 36 21.5 60t54.5 24q30 0 79 -20.5t71 -20.5q18 0 31 12t13 33l2 1l36 -7q0 -39 -22.5 -62t-55.5 -23q-27 -1 -76.5 20t-72.5 21q-18 0 -30 -11.5t-12 -33.5zM495 516l1 -3l-221 -518l-67 -156h-57l-2 2l83 175l-209 497l1 3h58l179 -446l179 446
h55z" />
    <glyph glyph-name="endash" unicode="&#x2013;" horiz-adv-x="509" 
d="M76 256v46h356v-46h-356z" />
    <glyph glyph-name="emdash" unicode="&#x2014;" horiz-adv-x="854" 
d="M76 256v46h702v-46h-702z" />
    <glyph glyph-name="quoteleft" unicode="&#x2018;" horiz-adv-x="194" 
d="M145 691q-12 -73 -14 -149q0 -31 2 -46l-50 -8l-7 9q0 85 34 194h35z" />
    <glyph glyph-name="quoteright" unicode="&#x2019;" horiz-adv-x="180" 
d="M53 488q12 73 14 149q0 31 -2 46l50 8l7 -9q0 -85 -34 -194h-35z" />
    <glyph glyph-name="quotesinglbase" unicode="&#x201a;" horiz-adv-x="186" 
d="M42 -137q12 73 14 149q0 31 -2 46l50 8l7 -9q0 -85 -34 -194h-35z" />
    <glyph glyph-name="quotedblleft" unicode="&#x201c;" horiz-adv-x="325" 
d="M145 691q-12 -73 -14 -149q0 -31 2 -46l-50 -8l-7 9q0 85 34 194h35zM276 691q-12 -73 -14 -149q0 -31 2 -46l-50 -8l-7 9q0 85 34 194h35z" />
    <glyph glyph-name="quotedblright" unicode="&#x201d;" horiz-adv-x="322" 
d="M53 488q12 73 14 149q0 31 -2 46l50 8l7 -9q0 -85 -34 -194h-35zM184 488q12 73 14 149q0 31 -2 46l50 8l7 -9q0 -85 -34 -194h-35z" />
    <glyph glyph-name="quotedblbase" unicode="&#x201e;" horiz-adv-x="316" 
d="M42 -137q12 73 14 149q0 31 -2 46l50 8l7 -9q0 -85 -34 -194h-35zM173 -137q12 73 14 149q0 31 -2 46l50 8l7 -9q0 -85 -34 -194h-35z" />
    <glyph glyph-name="dagger" unicode="&#x2020;" horiz-adv-x="495" 
d="M265 506l168 8v-52l-160 7l-7 -519h-37l-8 519l-160 -7v52l168 -8l-8 176h53z" />
    <glyph glyph-name="daggerdbl" unicode="&#x2021;" horiz-adv-x="495" 
d="M221 -49l8 174l-168 -7v52l162 -8l6 155l-7 154l-160 -7v53l167 -8l-8 173h53l-8 -173l167 8v-53l-161 7l-6 -154l7 -154l160 7v-52l-167 7l8 -174h-53z" />
    <glyph glyph-name="bullet" unicode="&#x2022;" horiz-adv-x="367" 
d="M184 188q-38 0 -64 26t-26 63t26.5 63t63.5 26t63 -26t26 -63t-26 -63t-63 -26z" />
    <glyph glyph-name="ellipsis" unicode="&#x2026;" horiz-adv-x="534" 
d="M100 -4q-18 0 -29 11.5t-11 28.5q0 16 11 27.5t29 11.5t29 -11.5t11 -27.5q0 -17 -11 -28.5t-29 -11.5zM271 -4q-18 0 -29 11.5t-11 28.5q0 16 11 27.5t29 11.5t29 -11.5t11 -27.5q0 -17 -11 -28.5t-29 -11.5zM442 -4q-18 0 -29 11.5t-11 28.5q0 16 11 27.5t29 11.5
t29 -11.5t11 -27.5q0 -17 -11 -28.5t-29 -11.5z" />
    <glyph glyph-name="perthousand" unicode="&#x2030;" horiz-adv-x="1054" 
d="M198 350q-69 0 -112 41t-43 116q0 74 43 116t112 42t112 -42t43 -116q0 -75 -43 -116t-112 -41zM114 10l443 643h49l-443 -643h-49zM198 390q49 0 78.5 31t29.5 86t-29.5 87t-78.5 32t-78.5 -31.5t-29.5 -87.5q0 -55 29.5 -86t78.5 -31zM528 -5q-70 0 -112.5 41
t-42.5 115q0 75 42.5 117t112.5 42q69 0 111.5 -42t42.5 -117q0 -74 -42.5 -115t-111.5 -41zM865 -5q-70 0 -112.5 41t-42.5 115q0 75 42.5 117t112.5 42q69 0 111.5 -42t42.5 -117q0 -74 -42.5 -115t-111.5 -41zM528 35q49 0 78 30.5t29 85.5q0 56 -29 87.5t-78 31.5
t-78.5 -31.5t-29.5 -87.5q0 -55 29 -85.5t79 -30.5zM865 35q50 0 78.5 30.5t28.5 85.5q0 56 -29 87.5t-78 31.5t-78.5 -31.5t-29.5 -87.5q0 -55 29 -85.5t79 -30.5z" />
    <glyph glyph-name="guilsinglleft" unicode="&#x2039;" horiz-adv-x="333" 
d="M213 90l-173 184l174 182h57v-6l-167 -175l167 -179v-6h-58z" />
    <glyph glyph-name="guilsinglright" unicode="&#x203a;" horiz-adv-x="333" 
d="M120 455l173 -184l-174 -182h-57v6l167 175l-167 179v6h58z" />
    <glyph glyph-name="fraction" unicode="&#x2044;" horiz-adv-x="119" 
d="M-177 -12l438 673h48l-439 -673h-47z" />
    <glyph glyph-name="Euro" unicode="&#x20ac;" horiz-adv-x="698" 
d="M632 81l3 -1l-10 -49q-76 -34 -162 -34q-123 0 -208.5 65.5t-111.5 178.5h-107l7 41h93q-3 24 -3 51q0 34 4 59h-73l8 42h74q28 110 114 174t203 64q94 0 170 -28l-9 -47l-3 -1q-61 27 -155 27q-99 0 -168.5 -50.5t-95.5 -138.5h288l-7 -42h-290q-4 -24 -4 -56
q0 -28 3 -54h270l-7 -41h-255q24 -91 93 -143t174 -52q88 0 165 35z" />
    <glyph glyph-name="trademark" unicode="&#x2122;" horiz-adv-x="798" 
d="M40 610v43h271v-43h-112v-264h-45v264h-114zM690 653l33 -307h-42l-26 224h-1l-106 -222h-23l-108 227h-1l-25 -229h-42l33 307h41l115 -240l113 240h39z" />
    <glyph glyph-name="minus" unicode="&#x2212;" horiz-adv-x="536" 
d="M78 271v44h379v-44h-379z" />
    <glyph glyph-name="approxequal" unicode="&#x2248;" horiz-adv-x="510" 
d="M116 332l-38 6q0 39 24 62.5t64 23.5q39 0 94.5 -20.5t84.5 -20.5q50 0 50 46l2 1l36 -6q0 -39 -23.5 -62.5t-63.5 -23.5q-34 0 -90 21t-86 21q-51 0 -53 -46zM116 147l-38 5q0 40 24 64t64 24q39 0 94.5 -21t84.5 -21q50 0 50 45l2 2l36 -6q0 -39 -23.5 -62.5
t-63.5 -23.5q-34 0 -90 21t-86 21q-52 0 -53 -46z" />
    <glyph glyph-name="notequal" unicode="&#x2260;" horiz-adv-x="544" 
d="M466 370h-119l-78 -165h197v-43h-217l-67 -142h-51l67 142h-119v43h139l78 165h-217v44h238l64 136h51l-64 -136h98v-44z" />
    <glyph glyph-name="uniF8FF" unicode="&#xf8ff;" horiz-adv-x="1451" 
d="M752 522q-26 0 -43.5 18t-17.5 43q0 26 17.5 44t43.5 18t44 -18t18 -44t-18 -43.5t-44 -17.5zM100 270q0 134 9 314h100q10 -200 10 -314h-119zM604 264q-82 0 -82 66q0 12 2 49t2 38h-22v79l119 30l1 -17h178q10 -64 10 -239h-118q0 92 3 147h-61l3 -65q4 -4 15 -4
q13 0 18 5v-74q-14 -15 -68 -15zM328 265q-92 0 -92 114q0 135 134 135q124 0 124 -117v-127h-83l-8 61q-6 -33 -23.5 -49.5t-51.5 -16.5zM834 270q0 175 10 239h80q6 -44 6 -76q2 15 6.5 30t24 33t49.5 18q42 0 58.5 -25t18.5 -81l3 -138h-114q0 26 1 56t1 37q0 29 -15 29
q-18 0 -18 -29q0 -7 1.5 -37t1.5 -56h-114zM1228 265q-122 0 -122 124q0 125 124 125q121 0 121 -123q0 -126 -123 -126zM366 345q24 0 24 30q0 26 -24 26q-22 0 -22 -26q0 -30 22 -30zM1228 345q23 0 23 30q0 26 -23 26q-21 0 -21 -26q0 -30 21 -30zM390 -50q-61 0 -88 17
v83q24 -16 70 -16q21 0 34 6t16.5 11.5t3.5 10.5q-16 -11 -49 -11q-90 0 -90 83v13h-55l3 -65q6 -4 15 -4q13 0 18 5v-73q-19 -15 -68 -15q-45 0 -63 17t-18 54q0 39 3 81h-18v80l117 29l-1 -18h177v-119q0 -16 3 -21.5t12 -5.5q16 0 16 27v119h104q10 -52 10 -138
q0 -81 -33.5 -115.5t-118.5 -34.5zM558 -44q0 142 10 282h78q7 -42 7 -76q17 81 80 81q37 0 58.5 -29t21.5 -84q0 -135 -137 -135q1 -15 1 -39h-119zM970 -5q-141 0 -141 122q0 59 32.5 92.5t92.5 33.5q55 0 85.5 -30t30.5 -86q0 -21 -3 -35h-124q11 -18 50 -18q34 0 55 12
v-75q-23 -16 -78 -16zM938 109h40q3 27 -17 27q-23 0 -23 -27zM670 72q5 0 12.5 2.5t16 11.5t8.5 23q0 23 -20 23q-22 0 -22 -31q0 -14 5 -29zM1098 -10q-24 0 -24 23t24 23t24 -23t-24 -23zM1098 -5q18 0 18 18t-18 18t-18 -18t18 -18zM1088 2v23h11q10 0 10 -7t-7 -7l6 -9
h-6l-4 9h-5v-9h-5zM1093 15h7q4 0 4 3t-4 3h-7v-6z" />
    <glyph glyph-name="i.loclTRK" horiz-adv-x="233" 
d="M116 625q-17 0 -28.5 12t-11.5 29q0 16 12 28t28 12q17 0 29 -12t12 -28q0 -17 -12 -29t-29 -12zM89 0v516h55v-516h-55z" />
    <glyph glyph-name="caroncomb.alt" 
d="M-88 510l9 204h42l7 -8l-23 -196h-35z" />
    <glyph glyph-name="uni0308.case" 
d="M-258 736q-14 0 -24.5 10.5t-10.5 26.5q0 14 10.5 24.5t24.5 10.5q15 0 25.5 -10.5t10.5 -24.5q0 -16 -10.5 -26.5t-25.5 -10.5zM-63 736q-15 0 -25.5 10.5t-10.5 26.5q0 14 10.5 24.5t25.5 10.5t25.5 -10.5t10.5 -24.5q0 -16 -10.5 -26.5t-25.5 -10.5z" />
    <glyph glyph-name="uni0307.case" 
d="M-126 737q-16 0 -27 11.5t-11 27.5q0 15 11 26t27 11t27 -11t11 -26q0 -16 -11 -27.5t-27 -11.5z" />
    <glyph glyph-name="gravecomb.case" 
d="M-39 701l-191 89l-4 8l29 44l177 -109z" />
    <glyph glyph-name="acutecomb.case" 
d="M-218 701l-12 31l178 110l28 -44l-4 -8z" />
    <glyph glyph-name="uni030B.case" 
d="M-286 714l-30 14l69 141l45 -13l1 -9zM-112 714l-31 14l70 141l45 -13l1 -9z" />
    <glyph glyph-name="uni0302.case" 
d="M-274 701l-21 27l120 110h25l123 -110l-21 -27l-116 88z" />
    <glyph glyph-name="uni030C.case" 
d="M-172 701l-123 110l21 27l116 -88l110 88l21 -27l-120 -110h-25z" />
    <glyph glyph-name="uni0306.case" 
d="M-153 706q-56 0 -92 33.5t-36 90.5l36 3q4 -39 29 -62.5t64 -23.5q41 0 67 23.5t27 62.5l35 -3q0 -57 -37 -90.5t-93 -33.5z" />
    <glyph glyph-name="uni030A.case" 
d="M-109 680q-37 0 -61 23.5t-24 58.5t24 58t61 23t60.5 -23t23.5 -58t-23.5 -58.5t-60.5 -23.5zM-109 712q21 0 35 14.5t14 35.5t-14 35.5t-35 14.5t-35.5 -14.5t-14.5 -35.5t14.5 -35.5t35.5 -14.5z" />
    <glyph glyph-name="tildecomb.case" 
d="M-279 718l-38 10q1 37 23.5 60.5t56.5 23.5q27 0 71.5 -20t63.5 -20q17 0 30 12t13 33l2 2l37 -11q-1 -38 -23.5 -60.5t-56.5 -22.5q-23 0 -67.5 20t-66.5 20q-19 0 -31.5 -12.5t-12.5 -33.5z" />
    <glyph glyph-name="uni0304.case" 
d="M-289 751v46h269v-46h-269z" />
    <glyph glyph-name="uni0337.case" 
d="M-235 236v47l208 128h3v-49l-208 -128z" />
    <glyph glyph-name="uni0338.case" 
d="M-701 -15v6l619 689h57v-5l-620 -690h-56z" />
    <glyph glyph-name="caron.alt" horiz-adv-x="119" 
d="M31 448l9 219h37l7 -8l-23 -211h-30z" />
    <glyph glyph-name="acute.case" horiz-adv-x="256" 
d="M38 701l-12 31l178 110l28 -44l-4 -8z" />
    <glyph glyph-name="breve.case" horiz-adv-x="304" 
d="M151 706q-56 0 -92 33.5t-36 90.5l36 3q4 -39 29 -62.5t64 -23.5q41 0 67 23.5t27 62.5l35 -3q0 -57 -37 -90.5t-93 -33.5z" />
    <glyph glyph-name="caron.case" horiz-adv-x="322" 
d="M150 701l-123 110l21 27l116 -88l110 88l21 -27l-120 -110h-25z" />
    <glyph glyph-name="circumflex.case" horiz-adv-x="322" 
d="M48 701l-21 27l120 110h25l123 -110l-21 -27l-116 88z" />
    <glyph glyph-name="dieresis.case" horiz-adv-x="321" 
d="M63 736q-14 0 -24.5 10.5t-10.5 26.5q0 14 10.5 24.5t24.5 10.5q15 0 25.5 -10.5t10.5 -24.5q0 -16 -10.5 -26.5t-25.5 -10.5zM258 736q-15 0 -25.5 10.5t-10.5 26.5q0 14 10.5 24.5t25.5 10.5t25.5 -10.5t10.5 -24.5q0 -16 -10.5 -26.5t-25.5 -10.5z" />
    <glyph glyph-name="dotaccent.case" horiz-adv-x="252" 
d="M126 737q-16 0 -27 11.5t-11 27.5q0 15 11 26t27 11t27 -11t11 -26q0 -16 -11 -27.5t-27 -11.5z" />
    <glyph glyph-name="grave.case" horiz-adv-x="256" 
d="M217 701l-191 89l-4 8l29 44l177 -109z" />
    <glyph glyph-name="hungarumlaut.case" horiz-adv-x="361" 
d="M75 714l-30 14l69 141l45 -13l1 -9zM249 714l-31 14l70 141l45 -13l1 -9z" />
    <glyph glyph-name="macron.case" horiz-adv-x="367" 
d="M20 751v46h269v-46h-269z" />
    <glyph glyph-name="ring.case" horiz-adv-x="219" 
d="M110 680q-37 0 -61 23.5t-24 58.5t24 58t61 23t60.5 -23t23.5 -58t-23.5 -58.5t-60.5 -23.5zM110 712q21 0 35 14.5t14 35.5t-14 35.5t-35 14.5t-35.5 -14.5t-14.5 -35.5t14.5 -35.5t35.5 -14.5z" />
    <glyph glyph-name="tilde.case" horiz-adv-x="337" 
d="M58 718l-38 10q1 37 23.5 60.5t56.5 23.5q27 0 71.5 -20t63.5 -20q17 0 30 12t13 33l2 2l37 -11q-1 -38 -23.5 -60.5t-56.5 -22.5q-23 0 -67.5 20t-66.5 20q-19 0 -31.5 -12.5t-12.5 -33.5z" />
    <glyph glyph-name="IJacute" horiz-adv-x="616" 
d="M68 694l-12 31l178 110l28 -44l-4 -8zM423 694l-12 31l178 110l28 -44l-4 -8zM105 0v661h54v-661h-54zM332 -3q-22 0 -49 3v47l3 1q16 -3 40 -3q70 0 104.5 43t34.5 119v454h55v-451q0 -103 -47 -158t-141 -55z" />
    <glyph glyph-name="ijacute" horiz-adv-x="473" 
d="M51 565l-20 28l151 139l38 -40l-2 -8zM297 565l-20 28l151 139l38 -40l-2 -8zM89 20v496h55v-496h-55zM213 -168q-52 0 -98 15v47l2 1q42 -13 94 -13q66 0 92.5 42.5t26.5 144.5v447h55v-459q0 -120 -42.5 -172.5t-129.5 -52.5z" />
    </font>
</defs>
</svg>
