<?xml version="1.0" standalone="no"?>
<!DOCTYPE svg PUBLIC "-//W3C//DTD SVG 1.1//EN" "http://www.w3.org/Graphics/SVG/1.1/DTD/svg11.dtd" >
<svg xmlns="http://www.w3.org/2000/svg" xmlns:xlink="http://www.w3.org/1999/xlink" version="1.1">
<metadata>
Created by FontForge 20170731 at Tue Mar  7 13:07:32 2017
 By Aleksey,,,
Copyright (c) 2017 by Alfonso Garci'a - Latinotype Team. All rights reserved.
</metadata>
<defs>
<font id="RawsonAlt-LightIt" horiz-adv-x="0" >
  <font-face 
    font-family="Rawson Alt Light It"
    font-weight="350"
    font-style="italic"
    font-stretch="normal"
    units-per-em="1100"
    panose-1="0 0 4 0 0 0 0 0 0 0"
    ascent="880"
    descent="-220"
    x-height="517"
    cap-height="661"
    bbox="-650 -226 1318 883"
    underline-thickness="50"
    underline-position="-200"
    slope="-7.5"
    unicode-range="U+0020-FB02"
  />
<missing-glyph horiz-adv-x="482" 
 />
    <glyph glyph-name="fi" unicode="fi" horiz-adv-x="508" 
d="M202 548l-4 -30h125l-6 -45h-126l-89 -638h-55l90 638h-68l6 45h68l4 29q12 82 60.5 125t113.5 43q36 0 58 -11l-7 -48l-2 -1q-19 11 -49 11q-46 0 -78 -29.5t-41 -88.5zM453 708q16 0 26.5 -10t10.5 -26q0 -19 -12 -30.5t-29 -11.5q-16 0 -26.5 10t-10.5 26
q0 19 12 30.5t29 11.5zM329 0l73 517h55l-73 -517h-55z" />
    <glyph glyph-name="fl" unicode="fl" horiz-adv-x="442" 
d="M202 548l-4 -31h125l-6 -45h-126l-89 -637h-55l89 637h-67l6 45h68l4 30q11 82 59.5 125t114.5 43q36 0 58 -11l-7 -48l-2 -1q-22 11 -49 11q-46 0 -78 -29.5t-41 -88.5zM428 712h54l-99 -712h-55z" />
    <glyph glyph-name=".notdef" horiz-adv-x="482" 
 />
    <glyph glyph-name=".null" 
 />
    <glyph glyph-name="nonmarkingreturn" horiz-adv-x="366" 
 />
    <glyph glyph-name="space" unicode=" " horiz-adv-x="260" 
 />
    <glyph glyph-name="exclam" unicode="!" horiz-adv-x="242" 
d="M88 183l65 496h55l-74 -496h-46zM85 -11q-15 0 -24 9.5t-9 22.5q0 17 11.5 28t28.5 11q32 0 32 -33q0 -15 -11 -26.5t-28 -11.5z" />
    <glyph glyph-name="quotedbl" unicode="&#x22;" horiz-adv-x="303" 
d="M104 447l29 217h45l6 -7l-45 -210h-35zM216 447l29 217h46l5 -7l-46 -210h-34z" />
    <glyph glyph-name="numbersign" unicode="#" horiz-adv-x="535" 
d="M491 373h-75l-50 -162h88l-5 -40h-95l-32 -105h-39l32 105h-157l-32 -105h-40l32 105h-71l6 40h78l49 162h-91l7 40h97l32 105h39l-32 -105h157l32 105h39l-32 -105h69zM327 211l50 162h-157l-50 -162h157z" />
    <glyph glyph-name="dollar" unicode="$" horiz-adv-x="462" 
d="M326 613q69 -3 113 -25l-7 -49l-2 -1q-57 28 -134 28q-65 0 -105.5 -25t-40.5 -79q0 -28 17 -47t38 -27.5t64 -20.5q64 -18 100 -49.5t36 -84.5q0 -74 -47 -118t-126 -53l-13 -94h-51l13 92q-91 4 -148 40l8 50l2 1q61 -46 155 -46q72 0 113 29t41 89q0 40 -30 61t-96 40
q-68 19 -101 47t-33 82q0 71 51 112.5t131 47.5l13 95h52z" />
    <glyph glyph-name="percent" unicode="%" horiz-adv-x="702" 
d="M205 351q-59 0 -93.5 34.5t-34.5 96.5q0 84 49 135t123 51q58 0 93 -36t35 -98q0 -85 -48.5 -134t-123.5 -49zM79 10l513 645h48l-513 -645h-48zM210 391q53 0 86.5 37.5t33.5 100.5q0 46 -23 72.5t-63 26.5q-54 0 -87 -38.5t-33 -102.5q0 -46 23 -71t63 -25zM474 -5
q-58 0 -92 34.5t-34 95.5q0 86 48.5 136t122.5 50q59 0 93 -35t34 -98q0 -86 -48 -134.5t-124 -48.5zM481 35q52 0 85.5 37t33.5 101q0 46 -23.5 72t-62.5 26q-54 0 -87 -38.5t-33 -102.5q0 -46 23 -70.5t64 -24.5z" />
    <glyph glyph-name="ampersand" unicode="&#x26;" horiz-adv-x="622" 
d="M574 0h-63l-68 85q-89 -101 -218 -101q-82 0 -134.5 43.5t-52.5 120.5q0 148 173 230q-43 66 -43 128q0 78 56 128t130 50q71 0 121 -33l-6 -47h-2q-48 33 -113 33q-52 0 -93 -34.5t-41 -91.5q0 -39 20.5 -77.5t62.5 -91.5l142 -179q50 82 77 205h48q-34 -149 -96 -242z
M233 32q107 0 181 89l-154 191q-5 6 -13.5 17t-11.5 15q-69 -35 -106 -78.5t-37 -108.5q0 -60 38.5 -92.5t102.5 -32.5z" />
    <glyph glyph-name="quotesingle" unicode="'" horiz-adv-x="193" 
d="M104 447l29 217h45l6 -7l-45 -210h-35z" />
    <glyph glyph-name="parenleft" unicode="(" horiz-adv-x="278" 
d="M169 -171q-47 22 -82.5 113t-35.5 230q0 119 24.5 224.5t63.5 175.5t80 115t80 62l14 -42q-76 -43 -143 -184t-67 -345q0 -121 27.5 -203t64.5 -104z" />
    <glyph glyph-name="parenright" unicode=")" horiz-adv-x="277" 
d="M118 752q48 -23 83 -113.5t35 -229.5q0 -119 -24.5 -224.5t-63.5 -175.5t-79.5 -115t-79.5 -63l-14 42q33 19 67.5 61.5t67.5 106.5t53.5 159t20.5 203q0 121 -27.5 203t-65.5 104z" />
    <glyph glyph-name="asterisk" unicode="*" horiz-adv-x="447" 
d="M267 580l-5 3l-30 140l3 5l37 10l4 -4l3 -148l-3 -4zM293 574l-5 1l-4 7l54 58l55 63l7 -4l18 -24l-58 -56zM248 563l-134 25l-1 4l13 36l11 3l122 -52v-5l-3 -9zM414 501l-126 52l-1 4l3 9l4 3l139 -26l2 -4l-14 -36zM151 430l-23 26l1 7l123 95l6 -1l6 -5l-1 -6
l-106 -116h-6zM274 394l-5 3l-2 148l5 4l8 3l4 -3l31 -141l-3 -5z" />
    <glyph glyph-name="plus" unicode="+" horiz-adv-x="465" 
d="M424 315l-6 -43h-162l-26 -185h-44l26 185h-161l6 43h161l27 186h44l-27 -186h162z" />
    <glyph glyph-name="comma" unicode="," horiz-adv-x="181" 
d="M-11 -146q39 90 44 164q2 26 2 34l52 5l6 -8q-5 -48 -25 -103t-45 -92h-34z" />
    <glyph glyph-name="hyphen" unicode="-" horiz-adv-x="404" 
d="M76 267l7 46h254l-6 -46h-255z" />
    <glyph glyph-name="period" unicode="." horiz-adv-x="199" 
d="M66 -4q-17 0 -27 10t-10 26q0 18 12 30.5t31 12.5q17 0 26.5 -10.5t9.5 -26.5q0 -18 -11.5 -30t-30.5 -12z" />
    <glyph glyph-name="slash" unicode="/" horiz-adv-x="424" 
d="M-15 -118l419 867h51l-419 -867h-51z" />
    <glyph glyph-name="zero" unicode="0" horiz-adv-x="599" 
d="M272 -13q-98 0 -152.5 67.5t-54.5 191.5q0 195 82 311.5t207 116.5q94 0 147 -69t53 -194q0 -196 -80 -310t-202 -114zM278 34q96 0 157.5 102.5t61.5 276.5q0 97 -39 155t-108 58q-100 0 -164 -105t-64 -278q0 -96 41 -152.5t115 -56.5z" />
    <glyph glyph-name="one" unicode="1" horiz-adv-x="352" 
d="M159 0l83 592l-179 -91l-3 1l8 50l227 121h12l-94 -673h-54z" />
    <glyph glyph-name="two" unicode="2" horiz-adv-x="508" 
d="M12 0q15 128 221 284q104 80 143.5 127.5t39.5 101.5q0 52 -33.5 83t-98.5 31q-56 0 -103.5 -23t-75.5 -54l-2 1l6 52q71 73 183 73q82 0 130.5 -41.5t48.5 -112.5q0 -70 -43.5 -125t-156.5 -143q-79 -61 -128 -116.5t-56 -88.5h344l-7 -49h-412z" />
    <glyph glyph-name="three" unicode="3" horiz-adv-x="508" 
d="M338 354q103 -37 103 -151q0 -100 -63.5 -159t-176.5 -59q-111 0 -178 55l8 55l3 1q59 -64 167 -64q87 0 137 44.5t50 119.5q0 127 -158 130l-57 1l6 47h57q76 1 123 38.5t47 107.5q0 49 -34 78.5t-93 29.5q-91 0 -158 -53l-3 1l7 49q70 51 164 51q78 0 124.5 -38.5
t46.5 -105.5q0 -132 -122 -178z" />
    <glyph glyph-name="four" unicode="4" horiz-adv-x="562" 
d="M520 204l-7 -49h-116l-22 -155h-51l22 155h-326l-8 21l416 498h42l-66 -470h116zM95 204h258l52 373z" />
    <glyph glyph-name="five" unicode="5" horiz-adv-x="513" 
d="M206 -15q-56 0 -94.5 11t-82.5 36l8 54l3 1q79 -53 169 -53q84 0 136.5 49.5t52.5 134.5q0 62 -37 100.5t-111 38.5q-84 0 -161 -23l-2 2l68 328h336l-7 -48h-288l-47 -223q45 13 116 13q92 0 141 -48t49 -129q0 -116 -73.5 -180t-175.5 -64z" />
    <glyph glyph-name="six" unicode="6" horiz-adv-x="550" 
d="M394 674q74 0 117 -21l-6 -46l-3 -1q-45 21 -114 21q-118 0 -189.5 -95t-83.5 -249q28 56 80 90t118 34q79 0 129 -48t50 -133q0 -102 -63.5 -172t-166.5 -70q-94 0 -148.5 63.5t-54.5 175.5q0 210 93 330.5t242 120.5zM302 357q-72 0 -122.5 -48t-65.5 -115
q8 -77 47.5 -119t106.5 -42q75 0 121.5 52.5t46.5 133.5q0 64 -35 101t-99 37z" />
    <glyph glyph-name="seven" unicode="7" horiz-adv-x="460" 
d="M95 0l326 612h-346l8 51h400l7 -26l-338 -637h-57z" />
    <glyph glyph-name="eight" unicode="8" horiz-adv-x="561" 
d="M382 343q58 -30 83.5 -66t25.5 -91q0 -87 -65.5 -144t-174.5 -57q-97 0 -150.5 42.5t-53.5 119.5q0 65 39 122.5t114 98.5q-80 51 -80 130q0 78 58.5 127.5t151.5 49.5q84 0 134.5 -37.5t50.5 -104.5q0 -58 -32 -103t-101 -87zM327 626q-70 0 -110 -34t-40 -90
q0 -39 32 -69t102 -58l29 -12q64 36 92 73.5t28 85.5q0 47 -35 75.5t-98 28.5zM257 34q82 0 130 40t48 103q0 54 -33 85t-119 66q-30 12 -43 18q-136 -67 -136 -189q0 -59 40.5 -91t112.5 -32z" />
    <glyph glyph-name="nine" unicode="9" horiz-adv-x="547" 
d="M302 677q93 0 148.5 -62t55.5 -182q0 -200 -84.5 -321t-234.5 -121q-74 0 -129 23l7 48l2 2q56 -26 121 -26q53 0 96 19.5t71.5 50.5t48.5 74.5t30 86t15 90.5q-70 -108 -191 -108q-83 0 -133 52.5t-50 135.5q0 108 66 173t161 65zM269 300q65 0 112 37.5t71 94.5
q0 95 -40.5 145.5t-112.5 50.5q-70 0 -119.5 -48.5t-49.5 -132.5q0 -66 38.5 -106.5t100.5 -40.5z" />
    <glyph glyph-name="colon" unicode=":" horiz-adv-x="221" 
d="M132 407q-32 0 -32 32q0 16 11.5 28t29.5 12q15 0 23.5 -9.5t8.5 -22.5q0 -17 -11 -28.5t-30 -11.5zM74 -4q-15 0 -23.5 9t-8.5 22q0 16 11.5 28t29.5 12q16 0 24.5 -9t8.5 -22q0 -16 -11.5 -28t-30.5 -12z" />
    <glyph glyph-name="semicolon" unicode=";" horiz-adv-x="244" 
d="M152 408q-17 0 -27 10t-10 26q0 18 12 30.5t31 12.5q17 0 26.5 -10.5t9.5 -26.5q0 -18 -11.5 -30t-30.5 -12zM20 -146q40 98 45 167q1 5 1.5 15.5t0.5 15.5l51 5l6 -8q-12 -97 -70 -195h-34z" />
    <glyph glyph-name="less" unicode="&#x3c;" horiz-adv-x="439" 
d="M101 293l11 -5l239 -159l-27 -41l-278 185l6 40l329 184l17 -40l-285 -159z" />
    <glyph glyph-name="equal" unicode="=" horiz-adv-x="525" 
d="M94 372l6 44h370l-7 -44h-369zM64 163l7 45h370l-7 -45h-370z" />
    <glyph glyph-name="greater" unicode="&#x3e;" horiz-adv-x="439" 
d="M126 497l278 -184l-6 -40l-330 -185l-17 40l285 160l12 5l-11 5l-239 159z" />
    <glyph glyph-name="question" unicode="?" horiz-adv-x="410" 
d="M132 182q9 64 32 104.5t77 81.5q34 25 53 43.5t34.5 50.5t15.5 71q0 48 -30 77.5t-82 29.5q-81 0 -138 -55h-1l7 51q57 52 144 52q67 0 111 -39t44 -103q0 -49 -18.5 -89.5t-42 -64.5t-65.5 -56q-47 -36 -66 -71.5t-26 -81.5zM135 -5q-16 0 -24.5 9t-8.5 23q0 17 10.5 28
t28.5 11q16 0 24.5 -9.5t8.5 -23.5q0 -15 -11 -26.5t-28 -11.5z" />
    <glyph glyph-name="at" unicode="@" horiz-adv-x="766" 
d="M558 74q-37 0 -53.5 21t-11.5 57l2 10q-54 -93 -149 -93q-56 0 -91.5 40t-35.5 108q0 100 57 162t140 62q72 0 111 -50l10 39h35l-31 -223l-6 -43q-7 -51 34 -51q51 0 80 61t29 153q0 103 -60 173t-177 70q-143 0 -242.5 -105t-99.5 -263q0 -122 71 -195t194 -73
q125 0 216 82h2l18 -30q-101 -93 -241 -93q-142 0 -224.5 83t-82.5 221q0 179 114.5 296.5t280.5 117.5q133 0 205.5 -81.5t72.5 -197.5q0 -108 -43 -183t-124 -75zM360 109q86 0 138 99v2l9 64l11 75q-34 54 -103 54q-63 0 -107 -50t-44 -127q0 -56 27 -86.5t69 -30.5z" />
    <glyph glyph-name="A" unicode="A" horiz-adv-x="606" 
d="M499 0l-52 198h-303l-107 -198h-54l366 674h21l186 -674h-57zM168 242h267l-82 313l-5 24l-11 -24z" />
    <glyph glyph-name="B" unicode="B" horiz-adv-x="554" 
d="M382 352q53 -14 82 -52t29 -93q0 -92 -63.5 -149.5t-208.5 -57.5h-155l93 661q60 6 145 6q98 0 144.5 -40t46.5 -104q0 -130 -113 -171zM308 622q-69 0 -102 -4l-36 -255h108q75 0 119.5 40.5t44.5 110.5q0 108 -134 108zM223 43q216 0 216 162q0 54 -35 85.5t-103 31.5
h-137l-39 -279h98z" />
    <glyph glyph-name="C" unicode="C" horiz-adv-x="616" 
d="M367 -11q-140 0 -222 77.5t-82 212.5q0 179 102 287t262 108q108 0 187 -43l-7 -52l-2 -1q-77 47 -183 47q-134 0 -218.5 -94.5t-84.5 -243.5q0 -116 69.5 -183.5t186.5 -67.5q95 0 169 47l3 -1l-8 -50q-74 -43 -172 -43z" />
    <glyph glyph-name="D" unicode="D" horiz-adv-x="702" 
d="M345 669q152 0 233.5 -76t81.5 -207q0 -180 -107 -283.5t-298 -103.5q-144 0 -189 3l93 659q79 8 186 8zM267 48q161 0 248 89.5t87 241.5q0 112 -68.5 176t-197.5 64q-84 0 -129 -5l-80 -562q41 -4 140 -4z" />
    <glyph glyph-name="E" unicode="E" horiz-adv-x="527" 
d="M513 610h-306l-35 -243h288l-7 -50h-288l-37 -266h319l-7 -51h-374l93 661h361z" />
    <glyph glyph-name="F" unicode="F" horiz-adv-x="489" 
d="M509 611h-303l-36 -262h258l-7 -49h-258l-42 -300h-55l93 661h357z" />
    <glyph glyph-name="G" unicode="G" horiz-adv-x="672" 
d="M354 -10q-134 0 -212.5 76.5t-78.5 206.5q0 181 106 291t273 110q115 0 189 -44l-8 -52l-3 -1q-73 47 -187 47q-138 0 -225 -94.5t-87 -249.5q0 -109 65 -175t179 -66q94 0 169 45l29 213h52l-35 -246q-102 -61 -226 -61z" />
    <glyph glyph-name="H" unicode="H" horiz-adv-x="712" 
d="M612 661h54l-92 -661h-55l44 314h-398l-44 -314h-55l93 661h54l-41 -298h398z" />
    <glyph glyph-name="I" unicode="I" horiz-adv-x="259" 
d="M66 0l93 661h54l-92 -661h-55z" />
    <glyph glyph-name="J" unicode="J" horiz-adv-x="339" 
d="M28 -3q-21 0 -48 3l8 47l2 1q15 -3 38 -3q66 0 104.5 43.5t49.5 119.5l64 453h55l-63 -450q-14 -103 -67 -158.5t-143 -55.5z" />
    <glyph glyph-name="K" unicode="K" horiz-adv-x="580" 
d="M612 658l-393 -325l320 -330l-1 -3h-68l-305 315l-44 -315h-55l93 661h54l-43 -309l376 309h65z" />
    <glyph glyph-name="L" unicode="L" horiz-adv-x="481" 
d="M128 47h307l-6 -47h-363l93 661h55z" />
    <glyph glyph-name="M" unicode="M" horiz-adv-x="820" 
d="M706 663h35l-29 -663h-52l25 539h-3l-296 -533h-18l-150 532h-2l-128 -538h-52l159 663h35l163 -559z" />
    <glyph glyph-name="N" unicode="N" horiz-adv-x="708" 
d="M66 0l94 666h22l348 -557h3l77 552h53l-94 -668h-20l-350 559h-2l-78 -552h-53z" />
    <glyph glyph-name="O" unicode="O" horiz-adv-x="751" 
d="M369 -12q-137 0 -220 82.5t-83 221.5q0 172 96 277t245 105q135 0 217.5 -83.5t82.5 -222.5q0 -171 -95 -275.5t-243 -104.5zM376 36q121 0 198 91.5t77 235.5q0 123 -67.5 193t-182.5 70q-125 0 -202 -91.5t-77 -237.5q0 -123 68 -192t186 -69z" />
    <glyph glyph-name="P" unicode="P" horiz-adv-x="522" 
d="M310 666q104 0 154.5 -45t50.5 -124q0 -110 -71 -172.5t-197 -62.5q-44 0 -89 5l-38 -267h-54l93 661q92 5 151 5zM248 309q102 0 157 47t55 133q0 59 -37.5 94t-115.5 35q-75 0 -100 -3l-42 -300q54 -6 83 -6z" />
    <glyph glyph-name="Q" unicode="Q" horiz-adv-x="749" 
d="M771 -166l1 -3l-10 -42q-93 3 -169.5 24t-122 46.5t-112 55.5t-132.5 46l7 48q408 27 408 358q0 121 -67 189.5t-180 68.5t-186 -76t-73 -196q0 -94 54 -149.5t158 -54.5q37 0 61 7l3 -1l-3 -49q-34 -7 -71 -7q-124 1 -192 68.5t-68 180.5q0 145 91 236t232 91
q133 0 216 -81.5t83 -223.5q0 -166 -98.5 -270t-275.5 -127q65 -21 145 -59.5t144.5 -58t156.5 -21.5z" />
    <glyph glyph-name="R" unicode="R" horiz-adv-x="549" 
d="M509 504q0 -90 -47 -146.5t-121 -75.5l128 -279l-1 -3h-56l-123 273q-8 -1 -24 -1h-107l-38 -272h-54l93 663q86 6 155 6q94 0 144.5 -41.5t50.5 -123.5zM251 316q88 0 145 46t57 132q0 127 -142 127q-47 0 -104 -3l-43 -302h87z" />
    <glyph glyph-name="S" unicode="S" horiz-adv-x="502" 
d="M233 -14q-114 0 -188 49l1 56l3 2q75 -59 180 -59q72 0 115 35.5t43 93.5q0 60 -36.5 95.5t-109.5 68.5q-77 36 -120 75.5t-43 103.5q0 81 58.5 126t147.5 45q95 0 161 -34l-1 -52l-3 -1q-59 39 -154 39q-66 1 -109.5 -29t-43.5 -85q0 -51 36 -80.5t109 -62.5
q36 -17 60.5 -32t50.5 -39t39 -56.5t13 -72.5q0 -86 -57 -136t-152 -50z" />
    <glyph glyph-name="T" unicode="T" horiz-adv-x="526" 
d="M564 661l-7 -49h-215l-86 -612h-55l87 612h-219l7 49h488z" />
    <glyph glyph-name="U" unicode="U" horiz-adv-x="684" 
d="M310 -14q-105 0 -163 54.5t-58 148.5q0 42 3 62l57 410h55l-56 -403q-4 -25 -4 -53q0 -83 45.5 -127t126.5 -44q189 0 221 224l56 403h53l-57 -410q-18 -130 -89 -197.5t-190 -67.5z" />
    <glyph glyph-name="V" unicode="V" horiz-adv-x="597" 
d="M632 661l1 -3l-357 -675h-30l-170 675l1 3h57l136 -558l5 -29l11 29l292 558h54z" />
    <glyph glyph-name="W" unicode="W" horiz-adv-x="922" 
d="M954 661l1 -3l-304 -672h-39l-102 556l-3 21l-8 -21l-260 -556h-40l-118 672l1 3h57l90 -563l3 -32l12 32l258 561h37l101 -558l3 -32l12 32l246 560h53z" />
    <glyph glyph-name="X" unicode="X" horiz-adv-x="580" 
d="M596 658l-260 -318l187 -337l-1 -3h-62l-165 299l-245 -299h-64l-1 3l281 342l-173 313l1 3h62l152 -277l223 277h64z" />
    <glyph glyph-name="Y" unicode="Y" horiz-adv-x="560" 
d="M217 0l40 282l-177 376l1 3h57l154 -327l245 327h55l1 -3l-282 -376l-40 -282h-54z" />
    <glyph glyph-name="Z" unicode="Z" horiz-adv-x="555" 
d="M8 0l-4 20l484 595h-396l6 46h467l4 -19l-487 -596h411l-6 -46h-479z" />
    <glyph glyph-name="bracketleft" unicode="[" horiz-adv-x="284" 
d="M311 704h-106l-114 -823h105l-6 -40h-152l127 904h152z" />
    <glyph glyph-name="backslash" unicode="\" horiz-adv-x="423" 
d="M334 -118h-50l-177 867h51z" />
    <glyph glyph-name="bracketright" unicode="]" horiz-adv-x="284" 
d="M104 745h152l-127 -904h-152l6 40h105l114 823h-104z" />
    <glyph glyph-name="asciicircum" unicode="^" horiz-adv-x="465" 
d="M308 671l118 -316l-40 -17l-98 275l-3 12l-7 -12l-175 -275l-35 17l205 316h35z" />
    <glyph glyph-name="underscore" unicode="_" horiz-adv-x="446" 
d="M-6 -46l7 45h372l-6 -45h-373z" />
    <glyph glyph-name="grave" unicode="`" horiz-adv-x="227" 
d="M236 573l-159 104l-1 8l39 42l141 -121z" />
    <glyph glyph-name="a" unicode="a" horiz-adv-x="539" 
d="M486 59l3 -1l-7 -48q-24 -16 -57 -16q-65 0 -65 63q0 6 2 26q-76 -95 -185 -95q-67 0 -109.5 37t-42.5 99q0 86 63 128t153 42t144 -26l7 48q3 20 3 36q0 65 -38 97t-106 32q-91 0 -152 -51l-3 1l7 50q21 19 65.5 33.5t96.5 14.5q88 0 137 -42.5t49 -122.5q0 -25 -4 -46
l-30 -212q0 -3 -0.5 -9.5t-1.5 -9.5q-1 -42 35 -42q21 0 36 14zM191 35q106 0 176 103l12 86q-50 25 -134 25q-70 0 -117 -29t-47 -91q0 -44 31.5 -69t78.5 -25z" />
    <glyph glyph-name="b" unicode="b" horiz-adv-x="584" 
d="M341 529q87 0 140 -55t53 -154q0 -151 -78.5 -241.5t-204.5 -90.5q-116 0 -196 47l93 677h55l-38 -274q61 91 176 91zM256 37q96 0 158 74.5t62 199.5q0 82 -40.5 124.5t-106.5 42.5q-63 0 -113.5 -39t-65.5 -112v1l-36 -257q58 -34 142 -34z" />
    <glyph glyph-name="c" unicode="c" horiz-adv-x="483" 
d="M272 -12q-100 0 -160.5 62t-60.5 168q0 143 81 227t205 84q79 0 130 -27l-8 -49l-2 -1q-55 28 -124 28q-98 0 -161.5 -69t-63.5 -184q0 -87 46 -138.5t129 -51.5q68 0 128 35l3 -1l-8 -51q-61 -32 -134 -32z" />
    <glyph glyph-name="d" unicode="d" horiz-adv-x="584" 
d="M505 712h55l-99 -712h-45l3 78q-59 -90 -180 -90q-85 0 -137.5 57t-52.5 155q0 149 81 239t202 90q84 0 141 -45zM429 171l36 258q-48 51 -135 51q-96 0 -160 -74t-64 -197q0 -82 40 -127t109 -45q58 0 107 35t67 99z" />
    <glyph glyph-name="e" unicode="e" horiz-adv-x="549" 
d="M312 529q95 0 144.5 -55.5t49.5 -137.5q0 -37 -10 -82h-387q-1 -9 -1 -29q0 -91 49 -140t127 -49q94 0 162 49l2 -1l-7 -52q-64 -44 -163 -44q-100 0 -163.5 59.5t-63.5 172.5q0 138 76 223.5t185 85.5zM115 299h336q2 22 2 34q0 65 -35.5 106t-110.5 41
q-69 0 -121.5 -48.5t-70.5 -132.5z" />
    <glyph glyph-name="f" unicode="f" horiz-adv-x="313" 
d="M318 715q42 0 69 -11l-7 -48l-3 -1q-20 11 -56 11q-102 0 -120 -125l-3 -24h128l-7 -45h-128l-88 -637h-56l90 637h-68l6 45h68l3 18q13 94 59.5 137t112.5 43z" />
    <glyph glyph-name="g" unicode="g" horiz-adv-x="538" 
d="M537 517l-6 -42h-116q54 -39 54 -107q0 -78 -57 -127t-149 -49q-56 0 -97 19q-30 -18 -30 -45q0 -23 29 -35.5t111 -21.5q98 -12 140.5 -39t42.5 -83q0 -77 -68.5 -117.5t-184.5 -40.5q-91 0 -145.5 27.5t-54.5 85.5q0 88 124 146q-48 20 -48 61q0 46 53 81
q-50 39 -50 108q0 80 58 129.5t150 49.5h244zM268 237q67 -1 107 34.5t40 94.5q0 49 -33.5 78t-91.5 29q-67 0 -108.5 -36t-41.5 -94q0 -49 34 -77.5t94 -28.5zM407 -23q0 39 -34 57.5t-117 27.5q-48 6 -80 12q-117 -50 -117 -120q0 -81 157 -81q191 0 191 104z" />
    <glyph glyph-name="h" unicode="h" horiz-adv-x="585" 
d="M343 529q78 0 125 -44.5t47 -128.5q0 -24 -3 -51l-43 -305h-54l42 300q2 26 2 39q0 139 -133 139q-58 0 -106 -35.5t-66 -102.5l-48 -340h-55l100 712h55l-38 -273q59 90 175 90z" />
    <glyph glyph-name="i" unicode="i" horiz-adv-x="230" 
d="M171 630q-16 0 -26.5 10t-10.5 26q0 19 12 30.5t29 11.5q16 0 26.5 -10t10.5 -26q0 -19 -12 -30.5t-29 -11.5zM51 0l73 517h55l-73 -517h-55z" />
    <glyph glyph-name="j" unicode="j" horiz-adv-x="245" 
d="M187 630q-16 0 -26.5 10t-10.5 26q0 19 12 30.5t29 11.5q16 0 26.5 -10t10.5 -26q0 -19 -12 -30.5t-29 -11.5zM-51 -169q-21 0 -42 4l8 48l2 1q13 -3 30 -3q104 0 123 137l70 499h54l-71 -510q-24 -176 -174 -176z" />
    <glyph glyph-name="k" unicode="k" horiz-adv-x="495" 
d="M494 515l-296 -247l254 -265l-1 -3h-69l-240 249l-35 -249h-56l100 712h56l-60 -429l279 234h67z" />
    <glyph glyph-name="l" unicode="l" horiz-adv-x="251" 
d="M146 -8q-99 0 -84 103l87 617h54l-84 -599q-5 -39 5 -55t39 -16q20 0 39 12l3 -1l-7 -48q-23 -13 -52 -13z" />
    <glyph glyph-name="m" unicode="m" horiz-adv-x="898" 
d="M669 529q67 0 112.5 -41.5t45.5 -127.5q0 -39 -4 -63l-41 -297h-55l39 283q5 33 5 72q0 64 -34 93.5t-85 29.5q-63 0 -108.5 -43t-55.5 -118q0 -3 -0.5 -10t-1.5 -10l-42 -297h-55l40 283q4 27 4 72q0 64 -33.5 93.5t-83.5 29.5q-61 0 -105.5 -39t-58.5 -110l-46 -329
h-55l73 517h45l-5 -82q54 94 168 94q57 0 100 -30.5t54 -93.5q24 59 71 91.5t112 32.5z" />
    <glyph glyph-name="n" unicode="n" horiz-adv-x="587" 
d="M345 529q73 0 122 -43.5t49 -131.5q0 -33 -4 -57l-41 -297h-55l39 283q5 33 5 59q0 71 -37.5 103.5t-93.5 32.5q-64 0 -114 -40.5t-63 -108.5l-46 -329h-55l73 517h45l-6 -88q27 46 74.5 73t107.5 27z" />
    <glyph glyph-name="o" unicode="o" horiz-adv-x="605" 
d="M279 -12q-100 0 -164 63t-64 173q0 132 76.5 218t196.5 86q102 0 166 -62.5t64 -173.5q0 -131 -77 -217.5t-198 -86.5zM286 37q96 0 153.5 72.5t57.5 178.5q0 88 -49 139.5t-130 51.5q-95 0 -152.5 -73t-57.5 -177q0 -89 49 -140.5t129 -51.5z" />
    <glyph glyph-name="p" unicode="p" horiz-adv-x="586" 
d="M341 529q86 0 140 -54.5t54 -154.5q0 -152 -79 -242t-202 -90q-84 0 -145 35l-26 -188h-55l96 682h46l-5 -73q59 85 176 85zM256 37q97 0 159.5 74t62.5 198q0 85 -42 128t-110 43q-54 0 -105 -36.5t-68 -106.5l-36 -262q56 -38 139 -38z" />
    <glyph glyph-name="q" unicode="q" horiz-adv-x="585" 
d="M489 517h46l-97 -682h-55l34 245q-30 -45 -78 -68.5t-103 -23.5q-85 0 -135.5 55.5t-50.5 153.5q0 149 81.5 240.5t199.5 91.5q98 0 148 -53zM429 159l35 251l4 16q-50 54 -138 54q-95 0 -158.5 -75.5t-63.5 -198.5q0 -81 39.5 -125t107.5 -44q54 0 101.5 30.5t72.5 91.5
z" />
    <glyph glyph-name="r" unicode="r" horiz-adv-x="360" 
d="M318 528q36 0 54 -10l-7 -49l-2 -1q-23 10 -50 10q-55 0 -95.5 -30t-65.5 -122l-46 -326h-55l73 517h45l-5 -79q50 90 154 90z" />
    <glyph glyph-name="s" unicode="s" horiz-adv-x="456" 
d="M178 -13q-104 0 -161 40l8 54l3 1q55 -46 160 -46q70 0 111 26.5t41 78.5q0 39 -28 59.5t-97 42.5t-104.5 51.5t-35.5 81.5q0 71 58 111.5t153 40.5q81 0 133 -25l-7 -49l-2 -1q-57 27 -130 27q-67 0 -108 -25.5t-41 -72.5q0 -34 28 -53.5t91 -38.5q75 -24 110 -53.5
t35 -82.5q0 -80 -59.5 -123.5t-157.5 -43.5z" />
    <glyph glyph-name="t" unicode="t" horiz-adv-x="353" 
d="M204 472l-43 -310q-3 -16 -3 -38q0 -37 24.5 -58t68.5 -21q36 0 68 16l2 -1l-7 -47q-32 -18 -78 -18q-61 0 -97.5 31.5t-36.5 84.5q0 19 3 45l44 316h-110l7 45h110l17 122l54 11l1 -2l-18 -131h163l-7 -45h-162z" />
    <glyph glyph-name="u" unicode="u" horiz-adv-x="573" 
d="M467 517h55l-73 -517h-45l5 76q-66 -88 -178 -88q-76 0 -118.5 41.5t-42.5 118.5q0 28 4 56l44 313h55l-44 -307q-3 -24 -3 -52q0 -60 32.5 -91t88.5 -31q53 0 98 29.5t70 81.5z" />
    <glyph glyph-name="v" unicode="v" horiz-adv-x="523" 
d="M535 517l1 -2l-292 -522h-39l-145 522l1 2h59l116 -452l242 452h57z" />
    <glyph glyph-name="w" unicode="w" horiz-adv-x="767" 
d="M775 517l1 -2l-235 -515h-50l-75 431l-2 19l-8 -18l-200 -432h-51l-92 515l1 2h55l70 -429l1 -18l7 18l198 429h56l75 -428l2 -20l7 20l189 428h51z" />
    <glyph glyph-name="x" unicode="x" horiz-adv-x="500" 
d="M502 515l-218 -250l152 -262l-1 -3h-57l-131 229l-198 -229h-61l-1 3l231 264l-147 248l1 2h59l125 -216l185 216h60z" />
    <glyph glyph-name="y" unicode="y" horiz-adv-x="511" 
d="M525 515l-277 -518h-1q-49 -90 -91 -128t-106 -38q-26 0 -55 9l8 44l3 1q23 -7 50 -7q42 0 75 31t70 98l5 10l-145 498l1 2h58l121 -438l227 438h56z" />
    <glyph glyph-name="z" unicode="z" horiz-adv-x="487" 
d="M471 492l-387 -445h337l-7 -47h-404l-3 25l385 445h-318l6 47h389z" />
    <glyph glyph-name="braceleft" unicode="{" horiz-adv-x="296" 
d="M307 749h23l-7 -43h-13q-41 0 -61 -15.5t-26 -62.5l-33 -230q-7 -49 -41.5 -76.5t-63.5 -27.5v-2q29 0 55.5 -28t19.5 -77l-32 -231q-7 -48 9 -63t57 -15h13l-6 -43h-22q-61 0 -85.5 26t-14.5 94l31 221q6 43 -17.5 67.5t-50.5 24.5l7 51q27 0 58 23.5t36 64.5l31 223
q9 67 41 93t92 26z" />
    <glyph glyph-name="bar" unicode="|" horiz-adv-x="243" 
d="M46 -102l117 830h50l-117 -830h-50z" />
    <glyph glyph-name="braceright" unicode="}" horiz-adv-x="297" 
d="M264 317l-6 -51q-28 0 -58.5 -24t-36.5 -66l-32 -222q-9 -67 -39.5 -93t-90.5 -26h-24l6 43h14q41 0 61 15.5t26 62.5l32 231q7 49 42 77t64 28l1 2q-30 0 -57 27.5t-20 76.5l33 230q6 47 -9.5 62.5t-56.5 15.5h-15l7 43h23q60 0 83.5 -26t14.5 -92l-30 -223
q-6 -42 17.5 -66.5t50.5 -24.5z" />
    <glyph glyph-name="asciitilde" unicode="~" horiz-adv-x="503" 
d="M112 244l-37 5q5 40 34.5 64t68.5 24q36 0 86 -22t76 -22q23 0 40.5 12t21.5 35l2 2l35 -7q-7 -39 -35.5 -62.5t-67.5 -23.5q-31 0 -82 22t-78 22q-24 0 -42 -12.5t-21 -34.5z" />
    <glyph glyph-name="exclamdown" unicode="&#xa1;" horiz-adv-x="226" 
d="M144 463q-15 0 -23.5 9t-8.5 23q0 16 11 27.5t28 11.5q16 0 24.5 -9.5t8.5 -23.5q0 -16 -11.5 -27t-28.5 -11zM27 -155l74 496h47l-66 -496h-55z" />
    <glyph glyph-name="cent" unicode="&#xa2;" horiz-adv-x="559" 
d="M392 609q75 -1 142 -33l-7 -46l-3 -3q-64 34 -143 34q-115 0 -188.5 -73.5t-73.5 -189.5q0 -89 51.5 -142t144.5 -53q85 0 164 43l2 -2l-7 -47q-72 -39 -162 -42l-13 -93h-52l13 95q-94 12 -146.5 73.5t-52.5 157.5q0 131 77.5 218t201.5 101l14 96h52z" />
    <glyph glyph-name="sterling" unicode="&#xa3;" horiz-adv-x="554" 
d="M382 673q93 0 151 -40l-7 -51l-2 -1q-58 42 -145 42q-77 0 -128 -50t-56 -144q-2 -23 -2 -69h221l-6 -45h-213q0 -63 -1 -74q-4 -57 -22 -109.5t-47 -84.5h349l-6 -47h-427l-1 5q58 60 79.5 123.5t21.5 145.5q0 26 -1 41h-92l7 45h83q-1 13 -1 36q0 136 70.5 206.5
t174.5 70.5z" />
    <glyph glyph-name="currency" unicode="&#xa4;" horiz-adv-x="681" 
d="M574 500q34 -57 34 -133q0 -128 -78 -214l55 -66l-42 -36l-54 65q-72 -51 -161 -51q-102 0 -165 58l-79 -72l-32 36l80 72q-40 58 -40 142q0 127 77 213l-53 64l42 37l52 -63q71 52 163 52q108 0 171 -65l78 71l32 -37zM140 306q0 -88 51 -142t143 -54q101 0 164 72
t63 179q0 88 -51.5 142t-143.5 54q-100 0 -163 -72t-63 -179z" />
    <glyph glyph-name="yen" unicode="&#xa5;" horiz-adv-x="594" 
d="M615 668l-259 -347h151l-6 -43h-174l-15 -107h174l-6 -44h-175l-18 -127h-52l18 127h-172l6 44h172l15 107h-172l5 43h151l-164 347h60l155 -335l249 335h57z" />
    <glyph glyph-name="brokenbar" unicode="&#xa6;" horiz-adv-x="250" 
d="M123 422l43 306h51l-44 -306h-50zM49 -102l44 311h50l-43 -311h-51z" />
    <glyph glyph-name="section" unicode="&#xa7;" horiz-adv-x="500" 
d="M325 687q95 0 146 -37l-6 -48l-1 -1q-52 39 -141 39q-65 0 -111 -31t-46 -90q0 -10 2 -18.5t7 -17t9 -14.5t14.5 -14t16 -12.5t20 -12.5t21 -11.5t24.5 -13t25 -13.5q69 -36 104 -71t35 -85q0 -80 -79 -134q29 -32 29 -75q0 -80 -62.5 -127.5t-153.5 -47.5q-95 0 -153 39
l8 48l2 2q54 -43 147 -43q67 0 111.5 31t44.5 91q0 9 -2 17t-4.5 14.5t-8.5 14t-10.5 12.5t-14.5 12t-15.5 10.5t-19 11t-20 11t-22.5 12t-23 12.5q-70 37 -103.5 70.5t-33.5 83.5q0 79 81 134q-31 34 -31 79q0 81 61.5 127t152.5 46zM267 352q-75 40 -103 62
q-52 -40 -52 -101q0 -37 29.5 -65.5t94.5 -61.5q80 -41 107 -63q51 41 51 101q0 37 -29.5 64.5t-97.5 63.5z" />
    <glyph glyph-name="dieresis" unicode="&#xa8;" horiz-adv-x="279" 
d="M106 630q-16 0 -26.5 10t-10.5 26q0 18 12.5 29t28.5 11t25.5 -9.5t9.5 -24.5q0 -19 -11.5 -30.5t-27.5 -11.5zM280 630q-16 0 -26 10t-10 26q0 18 12 29t28 11t26 -9.5t10 -24.5q0 -19 -11.5 -30.5t-28.5 -11.5z" />
    <glyph glyph-name="copyright" unicode="&#xa9;" horiz-adv-x="668" 
d="M297 -10q-108 0 -174 70.5t-66 182.5q0 143 94 239.5t229 96.5q108 0 174 -70.5t66 -182.5q0 -143 -94 -239.5t-229 -96.5zM301 24q119 0 199.5 85t80.5 213q0 100 -57 161.5t-150 61.5q-116 0 -197 -85t-81 -213q0 -99 56.5 -161t148.5 -62zM328 131q-60 0 -96 35
t-36 93q0 78 50 126.5t125 48.5q47 0 80 -16l-5 -38l-3 -1q-33 17 -72 17q-58 0 -94.5 -36t-36.5 -93q0 -44 26 -70.5t73 -26.5q43 0 82 21l1 -1l-5 -38q-39 -21 -89 -21z" />
    <glyph glyph-name="ordfeminine" unicode="&#xaa;" horiz-adv-x="453" 
d="M420 395l2 -1l-5 -37q-15 -11 -36 -11q-54 0 -49 58v4q-60 -67 -142 -67q-49 0 -80 26.5t-31 71.5q0 64 46.5 94.5t112.5 30.5q70 0 110 -19l5 34q9 58 -19.5 87t-84.5 29q-63 0 -104 -25l-2 1l5 35q35 27 109 27q77 0 112.5 -38.5t24.5 -114.5l-21 -150q-6 -44 21 -44
q16 0 26 9zM202 378q34 0 71.5 19t61.5 52l8 61q-38 18 -102 18q-117 0 -117 -83q0 -31 21.5 -49t56.5 -18z" />
    <glyph glyph-name="guillemotleft" unicode="&#xab;" horiz-adv-x="517" 
d="M254 90l-137 189l189 178h54v-6l-183 -175l129 -180l-1 -6h-51zM447 90l-137 189l189 178h54v-6l-183 -175l129 -180l-1 -6h-51z" />
    <glyph glyph-name="registered" unicode="&#xae;" horiz-adv-x="609" 
d="M371 723q94 0 151 -60.5t57 -158.5q0 -126 -81 -209.5t-199 -83.5q-95 0 -153 61t-58 159q0 125 82 208.5t201 83.5zM303 243q102 0 170.5 73t68.5 184q0 85 -48 138t-128 53q-101 0 -170.5 -73t-69.5 -183q0 -85 48.5 -138.5t128.5 -53.5zM435 529q0 -69 -58 -90l50 -91
h-42l-46 84h-7h-57l-12 -84h-37l35 249q36 2 89 2q85 0 85 -70zM340 465q56 0 56 59q0 40 -51 40q-44 0 -52 -1l-14 -98h61z" />
    <glyph glyph-name="macron" unicode="&#xaf;" horiz-adv-x="334" 
d="M75 626l7 42h272l-6 -42h-273z" />
    <glyph glyph-name="degree" unicode="&#xb0;" horiz-adv-x="339" 
d="M214 437q-51 0 -84.5 33.5t-33.5 83.5t33.5 83t84.5 33t84 -33t33 -83t-33 -83.5t-84 -33.5zM214 470q35 0 57.5 24.5t22.5 59.5t-22.5 59.5t-57.5 24.5q-36 0 -59 -24.5t-23 -59.5t23 -59.5t59 -24.5z" />
    <glyph glyph-name="plusminus" unicode="&#xb1;" horiz-adv-x="512" 
d="M442 277h-161l-23 -159h159l-6 -44h-362l7 44h158l23 159h-162l6 43h162l26 181h43l-25 -181h161z" />
    <glyph glyph-name="acute" unicode="&#xb4;" horiz-adv-x="226" 
d="M102 569l-22 32l134 129l41 -40l-1 -9z" />
    <glyph glyph-name="paragraph" unicode="&#xb6;" horiz-adv-x="546" 
d="M544 602l-7 -49h-62l-93 -664h-20l93 664h-68l-93 -664h-52l47 337q-131 -1 -187.5 44t-42.5 146q13 87 78 136.5t188 49.5h219z" />
    <glyph glyph-name="periodcentered" unicode="&#xb7;" horiz-adv-x="219" 
d="M103 208q-32 0 -32 30q0 17 11 29t30 12q32 0 32 -31q0 -17 -11 -28.5t-30 -11.5z" />
    <glyph glyph-name="cedilla" unicode="&#xb8;" horiz-adv-x="196" 
d="M13 -226q-34 0 -59 10l5 35l1 1q19 -9 51 -9t53.5 15.5t21.5 44.5q0 21 -13 32.5t-34 11.5q-27 0 -52 -10l-1 1l5 30l44 64h38l-38 -56q12 4 29 4q32 0 51.5 -17.5t19.5 -52.5q0 -52 -35 -78t-87 -26z" />
    <glyph glyph-name="ordmasculine" unicode="&#xba;" horiz-adv-x="483" 
d="M258 332q-76 0 -122.5 46t-46.5 130q0 106 62.5 171t155.5 65q73 0 120 -46t47 -129q0 -105 -63.5 -171t-152.5 -66zM263 373q68 0 114.5 54t46.5 139q0 65 -33.5 101t-88.5 36q-71 0 -117.5 -53t-46.5 -142q0 -63 33.5 -99t91.5 -36z" />
    <glyph glyph-name="guillemotright" unicode="&#xbb;" horiz-adv-x="516" 
d="M147 457l137 -189l-189 -178h-54v6l183 175l-129 180l1 6h51zM341 457l137 -189l-189 -178h-54v6l183 175l-129 180l1 6h51z" />
    <glyph glyph-name="onequarter" unicode="&#xbc;" horiz-adv-x="686" 
d="M106 301l44 310l-88 -39l7 49l129 53h6l-52 -373h-46zM560 663h44l-513 -675h-45zM642 111l-5 -32h-64l-11 -79h-42l11 79h-196l2 19l244 280h35l-38 -267h64zM394 111h142l29 201z" />
    <glyph glyph-name="onehalf" unicode="&#xbd;" horiz-adv-x="702" 
d="M130 301l45 310l-89 -39l7 49l129 53h6l-52 -373h-46zM29 -12l513 675h45l-514 -675h-44zM378 0q2 82 118 158q62 41 84.5 65.5t22.5 53.5q0 26 -19 42t-54 16q-62 0 -109 -43l-1 1l7 41q44 41 116 41q48 0 78 -24.5t30 -65.5q0 -44 -26 -76t-88 -72q-91 -58 -100 -98
h196l-5 -39h-250z" />
    <glyph glyph-name="threequarters" unicode="&#xbe;" horiz-adv-x="741" 
d="M306 420q0 -57 -41 -92t-107 -35q-68 0 -108 30l7 40h1q33 -33 105 -33q43 0 71.5 24t28.5 64q0 30 -20 45.5t-53 15.5h-46l5 33h37q38 0 61.5 19t23.5 52q0 55 -74 55q-56 0 -94 -27h-1l5 39q39 26 96 26q52 0 82.5 -21.5t30.5 -63.5q0 -63 -63 -93q53 -22 53 -78z
M628 663h44l-513 -675h-45zM686 111l-5 -32h-64l-11 -79h-42l11 79h-197l3 19l244 280h35l-38 -267h64zM438 111h142l29 201z" />
    <glyph glyph-name="questiondown" unicode="&#xbf;" horiz-adv-x="403" 
d="M344 530q16 0 24.5 -9t8.5 -23q0 -17 -10.5 -28t-28.5 -11q-16 0 -24.5 9.5t-8.5 23.5q0 15 11 26.5t28 11.5zM347 343q-9 -64 -32 -104.5t-77 -81.5q-34 -25 -53 -43.5t-34.5 -50.5t-15.5 -71q0 -48 30 -77.5t82 -29.5q81 0 138 55h1l-7 -51q-57 -52 -144 -52
q-67 0 -111 39t-44 103q0 49 18.5 89.5t42 64.5t65.5 56q47 36 66 71.5t26 81.5z" />
    <glyph glyph-name="Agrave" unicode="&#xc0;" horiz-adv-x="606" 
d="M440 701l-170 89l-2 8l34 44l154 -110zM499 0l-52 198h-303l-107 -198h-54l366 674h21l186 -674h-57zM168 242h267l-82 313l-5 24l-11 -24z" />
    <glyph glyph-name="Aacute" unicode="&#xc1;" horiz-adv-x="606" 
d="M466 785l-184 -84l-14 31l172 107l30 -45zM499 0l-52 198h-303l-107 -198h-54l366 674h21l186 -674h-57zM168 242h267l-82 313l-5 24l-11 -24z" />
    <glyph glyph-name="Acircumflex" unicode="&#xc2;" horiz-adv-x="606" 
d="M373 789l-118 -88l-18 26l130 111h25l101 -111l-23 -26zM499 0l-52 198h-303l-107 -198h-54l366 674h21l186 -674h-57zM168 242h267l-82 313l-5 24l-11 -24z" />
    <glyph glyph-name="Atilde" unicode="&#xc3;" horiz-adv-x="606" 
d="M262 718l-2 -1l-36 11q6 37 31 60.5t57 23.5q26 0 65.5 -20.5t57.5 -20.5q17 0 31 12t17 34l2 2l35 -11q-7 -38 -31 -61t-56 -23q-22 0 -62.5 20.5t-60.5 20.5q-18 0 -31.5 -12.5t-16.5 -34.5zM499 0l-52 198h-303l-107 -198h-54l366 674h21l186 -674h-57zM168 242h267
l-82 313l-5 24l-11 -24z" />
    <glyph glyph-name="Adieresis" unicode="&#xc4;" horiz-adv-x="606" 
d="M279 736q-14 0 -23.5 9t-9.5 24q0 18 11 28t26 10t24 -9t9 -23q0 -18 -10.5 -28.5t-26.5 -10.5zM463 736q-14 0 -23.5 9t-9.5 24q0 18 11 28t27 10q14 0 23.5 -9t9.5 -23q0 -18 -11 -28.5t-27 -10.5zM499 0l-52 198h-303l-107 -198h-54l366 674h21l186 -674h-57zM168 242
h267l-82 313l-5 24l-11 -24z" />
    <glyph glyph-name="Aring" unicode="&#xc5;" horiz-adv-x="606" 
d="M363 679q-33 0 -55 20.5t-22 53.5q0 39 25.5 64.5t64.5 25.5q33 0 55 -20.5t22 -52.5q0 -39 -25 -65t-65 -26zM372 811q-22 0 -37 -16t-15 -39q0 -20 13.5 -32.5t33.5 -12.5q24 0 38 15.5t14 39.5q0 20 -13 32.5t-34 12.5zM499 0l-52 198h-303l-107 -198h-54l366 674h21
l186 -674h-57zM168 242h267l-82 313l-5 24l-11 -24z" />
    <glyph glyph-name="AE" unicode="&#xc6;" horiz-adv-x="781" 
d="M768 615h-265l-34 -249h246l-7 -46h-246l-38 -274h277l-6 -46h-333l31 218h-224l-161 -218h-56l489 661h333zM199 258h199l48 339l-48 -69z" />
    <glyph glyph-name="Ccedilla" unicode="&#xc7;" horiz-adv-x="616" 
d="M427 674q108 0 187 -43l-7 -52l-2 -1q-77 47 -183 47q-134 0 -218.5 -94.5t-84.5 -243.5q0 -116 69.5 -183.5t186.5 -67.5q95 0 169 47l3 -1l-8 -50q-74 -43 -171 -43l-31 -45q12 4 29 4q32 0 51.5 -17.5t19.5 -52.5q0 -52 -35 -78t-87 -26q-34 0 -59 10l5 35l1 1
q19 -9 51 -9t53.5 15.5t21.5 44.5q0 21 -13 32.5t-34 11.5q-27 0 -52 -10l-1 1l5 30l37 54q-124 11 -195.5 87t-71.5 202q0 179 102 287t262 108z" />
    <glyph glyph-name="Egrave" unicode="&#xc8;" horiz-adv-x="527" 
d="M427 701l-170 89l-2 8l34 44l154 -110zM513 610h-306l-35 -243h288l-7 -50h-288l-37 -266h319l-7 -51h-374l93 661h361z" />
    <glyph glyph-name="Eacute" unicode="&#xc9;" horiz-adv-x="527" 
d="M453 785l-184 -84l-14 31l172 107l30 -45zM513 610h-306l-35 -243h288l-7 -50h-288l-37 -266h319l-7 -51h-374l93 661h361z" />
    <glyph glyph-name="Ecircumflex" unicode="&#xca;" horiz-adv-x="527" 
d="M360 789l-118 -88l-18 26l130 111h25l101 -111l-23 -26zM513 610h-306l-35 -243h288l-7 -50h-288l-37 -266h319l-7 -51h-374l93 661h361z" />
    <glyph glyph-name="Edieresis" unicode="&#xcb;" horiz-adv-x="527" 
d="M266 736q-14 0 -23.5 9t-9.5 24q0 18 11 28t26 10t24 -9t9 -23q0 -18 -10.5 -28.5t-26.5 -10.5zM450 736q-14 0 -23.5 9t-9.5 24q0 18 11 28t27 10q14 0 23.5 -9t9.5 -23q0 -18 -11 -28.5t-27 -10.5zM513 610h-306l-35 -243h288l-7 -50h-288l-37 -266h319l-7 -51h-374
l93 661h361z" />
    <glyph glyph-name="Igrave" unicode="&#xcc;" horiz-adv-x="259" 
d="M270 701l-170 89l-2 8l34 44l154 -110zM66 0l93 661h54l-92 -661h-55z" />
    <glyph glyph-name="Iacute" unicode="&#xcd;" horiz-adv-x="259" 
d="M112 701l-14 31l172 107l30 -45l-4 -9zM66 0l93 661h54l-92 -661h-55z" />
    <glyph glyph-name="Icircumflex" unicode="&#xce;" horiz-adv-x="259" 
d="M85 701l-18 26l130 111h25l101 -111l-23 -26l-97 88zM66 0l93 661h54l-92 -661h-55z" />
    <glyph glyph-name="Idieresis" unicode="&#xcf;" horiz-adv-x="259" 
d="M109 736q-14 0 -23.5 9t-9.5 24q0 18 11 28t26 10t24 -9t9 -23q0 -18 -10.5 -28.5t-26.5 -10.5zM293 736q-14 0 -23.5 9t-9.5 24q0 18 11 28t27 10q14 0 23.5 -9t9.5 -23q0 -18 -11 -28.5t-27 -10.5zM66 0l93 661h54l-92 -661h-55z" />
    <glyph glyph-name="Eth" unicode="&#xd0;" horiz-adv-x="702" 
d="M345 669q152 0 233.5 -76t81.5 -207q0 -180 -107 -283.5t-298 -103.5q-144 0 -189 3l43 307h-86l6 41h86l44 311q79 8 186 8zM267 48q161 0 248 89.5t87 241.5q0 112 -68.5 176t-197.5 64q-84 0 -129 -5l-38 -264h106l-5 -41h-106l-37 -257q41 -4 140 -4z" />
    <glyph glyph-name="Ntilde" unicode="&#xd1;" horiz-adv-x="708" 
d="M318 717l-36 11q6 37 31 60.5t57 23.5q26 0 65.5 -20.5t57.5 -20.5q17 0 31 12t17 34l2 2l35 -11q-7 -38 -31 -61t-56 -23q-22 0 -62.5 20.5t-60.5 20.5q-18 0 -31.5 -12.5t-16.5 -34.5zM66 0l94 666h22l348 -557h3l77 552h53l-94 -668h-20l-350 559h-2l-78 -552h-53z
" />
    <glyph glyph-name="Ograve" unicode="&#xd2;" horiz-adv-x="751" 
d="M499 699l-170 89l-2 8l34 44l154 -110zM369 -12q-137 0 -220 82.5t-83 221.5q0 172 96 277t245 105q135 0 217.5 -83.5t82.5 -222.5q0 -171 -95 -275.5t-243 -104.5zM376 36q121 0 198 91.5t77 235.5q0 123 -67.5 193t-182.5 70q-125 0 -202 -91.5t-77 -237.5
q0 -123 68 -192t186 -69z" />
    <glyph glyph-name="Oacute" unicode="&#xd3;" horiz-adv-x="751" 
d="M341 699l-14 31l172 107l30 -45l-4 -9zM369 -12q-137 0 -220 82.5t-83 221.5q0 172 96 277t245 105q135 0 217.5 -83.5t82.5 -222.5q0 -171 -95 -275.5t-243 -104.5zM376 36q121 0 198 91.5t77 235.5q0 123 -67.5 193t-182.5 70q-125 0 -202 -91.5t-77 -237.5
q0 -123 68 -192t186 -69z" />
    <glyph glyph-name="Ocircumflex" unicode="&#xd4;" horiz-adv-x="751" 
d="M314 699l-18 26l130 111h25l101 -111l-23 -26l-97 88zM369 -12q-137 0 -220 82.5t-83 221.5q0 172 96 277t245 105q135 0 217.5 -83.5t82.5 -222.5q0 -171 -95 -275.5t-243 -104.5zM376 36q121 0 198 91.5t77 235.5q0 123 -67.5 193t-182.5 70q-125 0 -202 -91.5
t-77 -237.5q0 -123 68 -192t186 -69z" />
    <glyph glyph-name="Otilde" unicode="&#xd5;" horiz-adv-x="751" 
d="M319 715l-36 11q6 37 31 60.5t57 23.5q26 0 65.5 -20.5t57.5 -20.5q17 0 31 12t17 34l2 2l35 -11q-7 -38 -31 -61t-56 -23q-22 0 -62.5 20.5t-60.5 20.5q-18 0 -31.5 -12.5t-16.5 -34.5zM369 -12q-137 0 -220 82.5t-83 221.5q0 172 96 277t245 105q135 0 217.5 -83.5
t82.5 -222.5q0 -171 -95 -275.5t-243 -104.5zM376 36q121 0 198 91.5t77 235.5q0 123 -67.5 193t-182.5 70q-125 0 -202 -91.5t-77 -237.5q0 -123 68 -192t186 -69z" />
    <glyph glyph-name="Odieresis" unicode="&#xd6;" horiz-adv-x="751" 
d="M338 734q-14 0 -23.5 9t-9.5 24q0 18 11 28t26 10t24 -9t9 -23q0 -18 -10.5 -28.5t-26.5 -10.5zM522 734q-14 0 -23.5 9t-9.5 24q0 18 11 28t27 10q14 0 23.5 -9t9.5 -23q0 -18 -11 -28.5t-27 -10.5zM369 -12q-137 0 -220 82.5t-83 221.5q0 172 96 277t245 105
q135 0 217.5 -83.5t82.5 -222.5q0 -171 -95 -275.5t-243 -104.5zM376 36q121 0 198 91.5t77 235.5q0 123 -67.5 193t-182.5 70q-125 0 -202 -91.5t-77 -237.5q0 -123 68 -192t186 -69z" />
    <glyph glyph-name="multiply" unicode="&#xd7;" horiz-adv-x="489" 
d="M458 445l-175 -155l127 -154l-37 -30l-126 152l-173 -153l-31 36l174 154l-127 154l37 30l125 -152l174 154z" />
    <glyph glyph-name="Oslash" unicode="&#xd8;" horiz-adv-x="751" 
d="M616 599q91 -85 91 -231q0 -171 -95 -275.5t-243 -104.5q-105 0 -179 49l-72 -94h-47v5l87 114q-92 83 -92 230q0 172 96 277t245 105q102 0 177 -50l70 92h48v-5zM122 297q0 -122 68 -192l363 477q-62 44 -152 44q-125 0 -202 -91.5t-77 -237.5zM376 36q121 0 198 91.5
t77 235.5q0 121 -67 193l-363 -477q63 -43 155 -43z" />
    <glyph glyph-name="Ugrave" unicode="&#xd9;" horiz-adv-x="684" 
d="M479 701l-170 89l-2 8l34 44l154 -110zM310 -14q-105 0 -163 54.5t-58 148.5q0 42 3 62l57 410h55l-56 -403q-4 -25 -4 -53q0 -83 45.5 -127t126.5 -44q189 0 221 224l56 403h53l-57 -410q-18 -130 -89 -197.5t-190 -67.5z" />
    <glyph glyph-name="Uacute" unicode="&#xda;" horiz-adv-x="684" 
d="M321 701l-14 31l172 107l30 -45l-4 -9zM310 -14q-105 0 -163 54.5t-58 148.5q0 42 3 62l57 410h55l-56 -403q-4 -25 -4 -53q0 -83 45.5 -127t126.5 -44q189 0 221 224l56 403h53l-57 -410q-18 -130 -89 -197.5t-190 -67.5z" />
    <glyph glyph-name="Ucircumflex" unicode="&#xdb;" horiz-adv-x="684" 
d="M294 701l-18 26l130 111h25l101 -111l-23 -26l-97 88zM310 -14q-105 0 -163 54.5t-58 148.5q0 42 3 62l57 410h55l-56 -403q-4 -25 -4 -53q0 -83 45.5 -127t126.5 -44q189 0 221 224l56 403h53l-57 -410q-18 -130 -89 -197.5t-190 -67.5z" />
    <glyph glyph-name="Udieresis" unicode="&#xdc;" horiz-adv-x="684" 
d="M318 736q-14 0 -23.5 9t-9.5 24q0 18 11 28t26 10t24 -9t9 -23q0 -18 -10.5 -28.5t-26.5 -10.5zM502 736q-14 0 -23.5 9t-9.5 24q0 18 11 28t27 10q14 0 23.5 -9t9.5 -23q0 -18 -11 -28.5t-27 -10.5zM310 -14q-105 0 -163 54.5t-58 148.5q0 42 3 62l57 410h55l-56 -403
q-4 -25 -4 -53q0 -83 45.5 -127t126.5 -44q189 0 221 224l56 403h53l-57 -410q-18 -130 -89 -197.5t-190 -67.5z" />
    <glyph glyph-name="Yacute" unicode="&#xdd;" horiz-adv-x="560" 
d="M264 701l-14 31l172 107l30 -45l-4 -9zM217 0l40 282l-177 376l1 3h57l154 -327l245 327h55l1 -3l-282 -376l-40 -282h-54z" />
    <glyph glyph-name="Thorn" unicode="&#xde;" horiz-adv-x="531" 
d="M285 535q101 0 154.5 -45.5t53.5 -126.5q0 -107 -70.5 -168.5t-197.5 -61.5q-50 0 -86 4l-19 -137h-54l93 661h54l-18 -131q55 5 90 5zM226 179q102 0 156.5 45.5t54.5 128.5q0 62 -40.5 98t-123.5 36q-47 0 -85 -4l-42 -300q54 -4 80 -4z" />
    <glyph glyph-name="germandbls" unicode="&#xdf;" horiz-adv-x="586" 
d="M368 -13q-82 0 -125 39l7 53l2 1q37 -44 112 -44q52 0 83 25.5t31 74.5q0 33 -17 54t-57 47q-28 18 -42.5 29.5t-27 32t-12.5 45.5q0 29 11 53t22.5 36t37.5 35q60 53 60 109q0 42 -32.5 65.5t-78.5 23.5q-66 0 -109.5 -40t-55.5 -122l-71 -504h-55l72 510q15 101 75 153
t149 52q66 0 113.5 -33.5t47.5 -96.5q0 -46 -19.5 -78.5t-54.5 -63.5q-20 -17 -27.5 -24.5t-16.5 -24t-9 -34.5q0 -26 17 -44t55 -43q41 -28 60.5 -56t19.5 -74q0 -72 -47.5 -114t-117.5 -42z" />
    <glyph glyph-name="agrave" unicode="&#xe0;" horiz-adv-x="539" 
d="M356 573l-159 104l-1 8l39 42l141 -121zM486 59l3 -1l-7 -48q-24 -16 -57 -16q-65 0 -65 63q0 6 2 26q-76 -95 -185 -95q-67 0 -109.5 37t-42.5 99q0 86 63 128t153 42t144 -26l7 48q3 20 3 36q0 65 -38 97t-106 32q-91 0 -152 -51l-3 1l7 50q21 19 65.5 33.5t96.5 14.5
q88 0 137 -42.5t49 -122.5q0 -25 -4 -46l-30 -212q0 -3 -0.5 -9.5t-1.5 -9.5q-1 -42 35 -42q21 0 36 14zM191 35q106 0 176 103l12 86q-50 25 -134 25q-70 0 -117 -29t-47 -91q0 -44 31.5 -69t78.5 -25z" />
    <glyph glyph-name="aacute" unicode="&#xe1;" horiz-adv-x="539" 
d="M396 681l-152 -112l-22 32l134 129l41 -40zM486 59l3 -1l-7 -48q-24 -16 -57 -16q-65 0 -65 63q0 6 2 26q-76 -95 -185 -95q-67 0 -109.5 37t-42.5 99q0 86 63 128t153 42t144 -26l7 48q3 20 3 36q0 65 -38 97t-106 32q-91 0 -152 -51l-3 1l7 50q21 19 65.5 33.5
t96.5 14.5q88 0 137 -42.5t49 -122.5q0 -25 -4 -46l-30 -212q0 -3 -0.5 -9.5t-1.5 -9.5q-1 -42 35 -42q21 0 36 14zM191 35q106 0 176 103l12 86q-50 25 -134 25q-70 0 -117 -29t-47 -91q0 -44 31.5 -69t78.5 -25z" />
    <glyph glyph-name="acircumflex" unicode="&#xe2;" horiz-adv-x="539" 
d="M306 672l-115 -102l-21 23l129 133h25l93 -133l-28 -23zM486 59l3 -1l-7 -48q-24 -16 -57 -16q-65 0 -65 63q0 6 2 26q-76 -95 -185 -95q-67 0 -109.5 37t-42.5 99q0 86 63 128t153 42t144 -26l7 48q3 20 3 36q0 65 -38 97t-106 32q-91 0 -152 -51l-3 1l7 50
q21 19 65.5 33.5t96.5 14.5q88 0 137 -42.5t49 -122.5q0 -25 -4 -46l-30 -212q0 -3 -0.5 -9.5t-1.5 -9.5q-1 -42 35 -42q21 0 36 14zM191 35q106 0 176 103l12 86q-50 25 -134 25q-70 0 -117 -29t-47 -91q0 -44 31.5 -69t78.5 -25z" />
    <glyph glyph-name="atilde" unicode="&#xe3;" horiz-adv-x="539" 
d="M188 608l-2 -2l-35 8q5 38 27.5 61.5t55.5 23.5q28 0 69.5 -20.5t62.5 -20.5q40 0 47 45l2 2l38 -8q-6 -41 -30.5 -63t-56.5 -22q-27 0 -68.5 20.5t-63.5 20.5q-16 0 -29 -12t-17 -33zM486 59l3 -1l-7 -48q-24 -16 -57 -16q-65 0 -65 63q0 6 2 26q-76 -95 -185 -95
q-67 0 -109.5 37t-42.5 99q0 86 63 128t153 42t144 -26l7 48q3 20 3 36q0 65 -38 97t-106 32q-91 0 -152 -51l-3 1l7 50q21 19 65.5 33.5t96.5 14.5q88 0 137 -42.5t49 -122.5q0 -25 -4 -46l-30 -212q0 -3 -0.5 -9.5t-1.5 -9.5q-1 -42 35 -42q21 0 36 14zM191 35
q106 0 176 103l12 86q-50 25 -134 25q-70 0 -117 -29t-47 -91q0 -44 31.5 -69t78.5 -25z" />
    <glyph glyph-name="adieresis" unicode="&#xe4;" horiz-adv-x="539" 
d="M213 630q-16 0 -26.5 10t-10.5 26q0 18 12.5 29t28.5 11t25.5 -9.5t9.5 -24.5q0 -19 -11.5 -30.5t-27.5 -11.5zM387 630q-16 0 -26 10t-10 26q0 18 12 29t28 11t26 -9.5t10 -24.5q0 -19 -11.5 -30.5t-28.5 -11.5zM486 59l3 -1l-7 -48q-24 -16 -57 -16q-65 0 -65 63
q0 6 2 26q-76 -95 -185 -95q-67 0 -109.5 37t-42.5 99q0 86 63 128t153 42t144 -26l7 48q3 20 3 36q0 65 -38 97t-106 32q-91 0 -152 -51l-3 1l7 50q21 19 65.5 33.5t96.5 14.5q88 0 137 -42.5t49 -122.5q0 -25 -4 -46l-30 -212q0 -3 -0.5 -9.5t-1.5 -9.5q-1 -42 35 -42
q21 0 36 14zM191 35q106 0 176 103l12 86q-50 25 -134 25q-70 0 -117 -29t-47 -91q0 -44 31.5 -69t78.5 -25z" />
    <glyph glyph-name="aring" unicode="&#xe5;" horiz-adv-x="539" 
d="M292 566q-34 0 -55.5 21.5t-21.5 54.5q0 40 25.5 66.5t65.5 26.5q34 0 55.5 -21t21.5 -54q0 -41 -25 -67.5t-66 -26.5zM302 703q-23 0 -37.5 -16.5t-14.5 -41.5q0 -21 12.5 -34t33.5 -13q24 0 38.5 16.5t14.5 41.5q0 21 -13 34t-34 13zM486 59l3 -1l-7 -48
q-24 -16 -57 -16q-65 0 -65 63q0 6 2 26q-76 -95 -185 -95q-67 0 -109.5 37t-42.5 99q0 86 63 128t153 42t144 -26l7 48q3 20 3 36q0 65 -38 97t-106 32q-91 0 -152 -51l-3 1l7 50q21 19 65.5 33.5t96.5 14.5q88 0 137 -42.5t49 -122.5q0 -25 -4 -46l-30 -212
q0 -3 -0.5 -9.5t-1.5 -9.5q-1 -42 35 -42q21 0 36 14zM191 35q106 0 176 103l12 86q-50 25 -134 25q-70 0 -117 -29t-47 -91q0 -44 31.5 -69t78.5 -25z" />
    <glyph glyph-name="ae" unicode="&#xe6;" horiz-adv-x="913" 
d="M676 529q95 0 144.5 -55.5t49.5 -137.5q0 -37 -10 -82h-387q-1 -9 -1 -29q0 -90 49.5 -139.5t125.5 -49.5q95 0 163 49l2 -2l-7 -51q-64 -44 -164 -44q-82 0 -140.5 41t-77.5 120q-63 -161 -200 -161q-87 0 -136.5 55.5t-49.5 149.5q0 154 79.5 245t196.5 91
q69 0 111 -19t77 -56q73 75 175 75zM235 37q69 0 118 66t65 166q8 81 51 146q-55 65 -155 65q-93 0 -156.5 -74.5t-63.5 -204.5q0 -76 37 -120t104 -44zM479 299h336q2 22 2 34q0 65 -35.5 106t-110.5 41q-69 0 -121.5 -48.5t-70.5 -132.5z" />
    <glyph glyph-name="ccedilla" unicode="&#xe7;" horiz-adv-x="483" 
d="M337 529q79 0 130 -27l-8 -49l-2 -1q-55 28 -124 28q-98 0 -161.5 -69t-63.5 -184q0 -87 46 -138.5t129 -51.5q68 0 128 35l3 -1l-8 -51q-57 -31 -123 -32l-30 -44q12 4 29 4q32 0 51.5 -17.5t19.5 -52.5q0 -52 -35 -78t-87 -26q-34 0 -59 10l5 35l1 1q19 -9 51 -9
t53.5 15.5t21.5 44.5q0 21 -13 32.5t-34 11.5q-27 0 -52 -10l-1 1l5 30l37 53q-89 8 -142 69t-53 160q0 143 81 227t205 84z" />
    <glyph glyph-name="egrave" unicode="&#xe8;" horiz-adv-x="549" 
d="M383 573l-159 104l-1 8l39 42l141 -121zM312 529q95 0 144.5 -55.5t49.5 -137.5q0 -37 -10 -82h-387q-1 -9 -1 -29q0 -91 49 -140t127 -49q94 0 162 49l2 -1l-7 -52q-64 -44 -163 -44q-100 0 -163.5 59.5t-63.5 172.5q0 138 76 223.5t185 85.5zM115 299h336q2 22 2 34
q0 65 -35.5 106t-110.5 41q-69 0 -121.5 -48.5t-70.5 -132.5z" />
    <glyph glyph-name="eacute" unicode="&#xe9;" horiz-adv-x="549" 
d="M423 681l-152 -112l-22 32l134 129l41 -40zM312 529q95 0 144.5 -55.5t49.5 -137.5q0 -37 -10 -82h-387q-1 -9 -1 -29q0 -91 49 -140t127 -49q94 0 162 49l2 -1l-7 -52q-64 -44 -163 -44q-100 0 -163.5 59.5t-63.5 172.5q0 138 76 223.5t185 85.5zM115 299h336q2 22 2 34
q0 65 -35.5 106t-110.5 41q-69 0 -121.5 -48.5t-70.5 -132.5z" />
    <glyph glyph-name="ecircumflex" unicode="&#xea;" horiz-adv-x="549" 
d="M333 672l-115 -102l-21 23l129 133h25l93 -133l-28 -23zM312 529q95 0 144.5 -55.5t49.5 -137.5q0 -37 -10 -82h-387q-1 -9 -1 -29q0 -91 49 -140t127 -49q94 0 162 49l2 -1l-7 -52q-64 -44 -163 -44q-100 0 -163.5 59.5t-63.5 172.5q0 138 76 223.5t185 85.5zM115 299
h336q2 22 2 34q0 65 -35.5 106t-110.5 41q-69 0 -121.5 -48.5t-70.5 -132.5z" />
    <glyph glyph-name="edieresis" unicode="&#xeb;" horiz-adv-x="549" 
d="M240 630q-16 0 -26.5 10t-10.5 26q0 18 12.5 29t28.5 11t25.5 -9.5t9.5 -24.5q0 -19 -11.5 -30.5t-27.5 -11.5zM414 630q-16 0 -26 10t-10 26q0 18 12 29t28 11t26 -9.5t10 -24.5q0 -19 -11.5 -30.5t-28.5 -11.5zM312 529q95 0 144.5 -55.5t49.5 -137.5q0 -37 -10 -82
h-387q-1 -9 -1 -29q0 -91 49 -140t127 -49q94 0 162 49l2 -1l-7 -52q-64 -44 -163 -44q-100 0 -163.5 59.5t-63.5 172.5q0 138 76 223.5t185 85.5zM115 299h336q2 22 2 34q0 65 -35.5 106t-110.5 41q-69 0 -121.5 -48.5t-70.5 -132.5z" />
    <glyph glyph-name="igrave" unicode="&#xec;" horiz-adv-x="230" 
d="M218 564l-144 119l-1 9l44 39l124 -139zM51 0l73 517h55l-73 -517h-55z" />
    <glyph glyph-name="iacute" unicode="&#xed;" horiz-adv-x="230" 
d="M102 569l-22 32l134 129l41 -40l-1 -9zM51 0l73 517h55l-73 -517h-55z" />
    <glyph glyph-name="icircumflex" unicode="&#xee;" horiz-adv-x="230" 
d="M63 567l-20 24l128 133h25l93 -133l-27 -24l-87 103zM51 0l73 517h55l-73 -517h-55z" />
    <glyph glyph-name="idieresis" unicode="&#xef;" horiz-adv-x="235" 
d="M94 630q-16 0 -26 10t-10 26q0 18 12 29t28 11t26 -9.5t10 -24.5q0 -19 -11.5 -30.5t-28.5 -11.5zM238 630q-16 0 -26.5 10t-10.5 26q0 18 12.5 29t28.5 11t25.5 -9.5t9.5 -24.5q0 -19 -11.5 -30.5t-27.5 -11.5zM53 0l73 517h55l-73 -517h-55z" />
    <glyph glyph-name="eth" unicode="&#xf0;" horiz-adv-x="615" 
d="M474 670q90 -80 90 -269q0 -197 -82.5 -305.5t-221.5 -108.5q-96 0 -153.5 57t-57.5 156q0 125 79 206t195 81q132 0 186 -97v5q0 171 -76 238l-95 -88l-22 26l88 81q-36 21 -89 21q-77 0 -138 -26l-2 2l7 47q61 26 142 26q71 0 122 -31l97 89l22 -26zM269 35
q93 0 155 68t79 197q-8 48 -54 93.5t-125 45.5q-97 0 -157.5 -65t-60.5 -165q0 -78 44.5 -126t118.5 -48z" />
    <glyph glyph-name="ntilde" unicode="&#xf1;" horiz-adv-x="587" 
d="M230 608l-2 -2l-35 8q5 38 27.5 61.5t55.5 23.5q28 0 69.5 -20.5t62.5 -20.5q40 0 47 45l2 2l38 -8q-6 -41 -30.5 -63t-56.5 -22q-27 0 -68.5 20.5t-63.5 20.5q-16 0 -29 -12t-17 -33zM345 529q73 0 122 -43.5t49 -131.5q0 -33 -4 -57l-41 -297h-55l39 283q5 33 5 59
q0 71 -37.5 103.5t-93.5 32.5q-64 0 -114 -40.5t-63 -108.5l-46 -329h-55l73 517h45l-6 -88q27 46 74.5 73t107.5 27z" />
    <glyph glyph-name="ograve" unicode="&#xf2;" horiz-adv-x="605" 
d="M397 570l-159 104l-1 8l39 42l141 -121zM279 -12q-100 0 -164 63t-64 173q0 132 76.5 218t196.5 86q102 0 166 -62.5t64 -173.5q0 -131 -77 -217.5t-198 -86.5zM286 37q96 0 153.5 72.5t57.5 178.5q0 88 -49 139.5t-130 51.5q-95 0 -152.5 -73t-57.5 -177
q0 -89 49 -140.5t129 -51.5z" />
    <glyph glyph-name="oacute" unicode="&#xf3;" horiz-adv-x="605" 
d="M285 566l-22 32l134 129l41 -40l-1 -9zM279 -12q-100 0 -164 63t-64 173q0 132 76.5 218t196.5 86q102 0 166 -62.5t64 -173.5q0 -131 -77 -217.5t-198 -86.5zM286 37q96 0 153.5 72.5t57.5 178.5q0 88 -49 139.5t-130 51.5q-95 0 -152.5 -73t-57.5 -177q0 -89 49 -140.5
t129 -51.5z" />
    <glyph glyph-name="ocircumflex" unicode="&#xf4;" horiz-adv-x="605" 
d="M232 567l-21 23l129 133h25l93 -133l-28 -23l-83 102zM279 -12q-100 0 -164 63t-64 173q0 132 76.5 218t196.5 86q102 0 166 -62.5t64 -173.5q0 -131 -77 -217.5t-198 -86.5zM286 37q96 0 153.5 72.5t57.5 178.5q0 88 -49 139.5t-130 51.5q-95 0 -152.5 -73t-57.5 -177
q0 -89 49 -140.5t129 -51.5z" />
    <glyph glyph-name="otilde" unicode="&#xf5;" horiz-adv-x="605" 
d="M227 603l-35 8q5 38 27.5 61.5t55.5 23.5q28 0 69.5 -20.5t62.5 -20.5q39 0 47 45l2 2l38 -8q-6 -41 -30.5 -63t-56.5 -22q-27 0 -68.5 20.5t-63.5 20.5q-16 0 -29 -12t-17 -33zM279 -12q-100 0 -164 63t-64 173q0 132 76.5 218t196.5 86q102 0 166 -62.5t64 -173.5
q0 -131 -77 -217.5t-198 -86.5zM286 37q96 0 153.5 72.5t57.5 178.5q0 88 -49 139.5t-130 51.5q-95 0 -152.5 -73t-57.5 -177q0 -89 49 -140.5t129 -51.5z" />
    <glyph glyph-name="odieresis" unicode="&#xf6;" horiz-adv-x="605" 
d="M254 627q-16 0 -26.5 10t-10.5 26q0 18 12.5 29t28.5 11t25.5 -9.5t9.5 -24.5q0 -19 -11.5 -30.5t-27.5 -11.5zM428 627q-16 0 -26 10t-10 26q0 19 12 29.5t28 10.5t26 -9.5t10 -24.5q0 -19 -11.5 -30.5t-28.5 -11.5zM279 -12q-100 0 -164 63t-64 173q0 132 76.5 218
t196.5 86q102 0 166 -62.5t64 -173.5q0 -131 -77 -217.5t-198 -86.5zM286 37q96 0 153.5 72.5t57.5 178.5q0 88 -49 139.5t-130 51.5q-95 0 -152.5 -73t-57.5 -177q0 -89 49 -140.5t129 -51.5z" />
    <glyph glyph-name="divide" unicode="&#xf7;" horiz-adv-x="508" 
d="M275 409q-16 0 -25 9.5t-9 23.5q0 19 12 31.5t33 12.5q35 0 35 -33q0 -19 -12.5 -31.5t-33.5 -12.5zM72 274l5 44h370l-5 -44h-370zM232 100q-35 0 -35 33q0 18 13 31.5t33 13.5q16 0 25 -10t9 -25q0 -18 -12 -30.5t-33 -12.5z" />
    <glyph glyph-name="oslash" unicode="&#xf8;" horiz-adv-x="605" 
d="M475 479q79 -64 79 -187q0 -131 -77 -217.5t-198 -86.5q-60 0 -112 25l-46 -69l-42 1v6l55 83q-83 65 -83 190q0 132 76.5 218t196.5 86q66 0 117 -27l42 65h45l1 -5zM108 229q0 -95 56 -148l247 375q-40 23 -93 23q-95 0 -152.5 -73t-57.5 -177zM286 37q96 0 153.5 72.5
t57.5 178.5q0 93 -53 144l-248 -374q39 -21 90 -21z" />
    <glyph glyph-name="ugrave" unicode="&#xf9;" horiz-adv-x="573" 
d="M396 573l-159 104l-1 8l39 42l141 -121zM467 517h55l-73 -517h-45l5 76q-66 -88 -178 -88q-76 0 -118.5 41.5t-42.5 118.5q0 28 4 56l44 313h55l-44 -307q-3 -24 -3 -52q0 -60 32.5 -91t88.5 -31q53 0 98 29.5t70 81.5z" />
    <glyph glyph-name="uacute" unicode="&#xfa;" horiz-adv-x="573" 
d="M436 681l-152 -112l-22 32l134 129l41 -40zM467 517h55l-73 -517h-45l5 76q-66 -88 -178 -88q-76 0 -118.5 41.5t-42.5 118.5q0 28 4 56l44 313h55l-44 -307q-3 -24 -3 -52q0 -60 32.5 -91t88.5 -31q53 0 98 29.5t70 81.5z" />
    <glyph glyph-name="ucircumflex" unicode="&#xfb;" horiz-adv-x="573" 
d="M346 672l-115 -102l-21 23l129 133h25l93 -133l-28 -23zM467 517h55l-73 -517h-45l5 76q-66 -88 -178 -88q-76 0 -118.5 41.5t-42.5 118.5q0 28 4 56l44 313h55l-44 -307q-3 -24 -3 -52q0 -60 32.5 -91t88.5 -31q53 0 98 29.5t70 81.5z" />
    <glyph glyph-name="udieresis" unicode="&#xfc;" horiz-adv-x="573" 
d="M253 630q-16 0 -26.5 10t-10.5 26q0 18 12.5 29t28.5 11t25.5 -9.5t9.5 -24.5q0 -19 -11.5 -30.5t-27.5 -11.5zM427 630q-16 0 -26 10t-10 26q0 18 12 29t28 11t26 -9.5t10 -24.5q0 -19 -11.5 -30.5t-28.5 -11.5zM467 517h55l-73 -517h-45l5 76q-66 -88 -178 -88
q-76 0 -118.5 41.5t-42.5 118.5q0 28 4 56l44 313h55l-44 -307q-3 -24 -3 -52q0 -60 32.5 -91t88.5 -31q53 0 98 29.5t70 81.5z" />
    <glyph glyph-name="yacute" unicode="&#xfd;" horiz-adv-x="511" 
d="M414 681l-152 -112l-22 32l134 129l41 -40zM525 515l-277 -518h-1q-49 -90 -91 -128t-106 -38q-26 0 -55 9l8 44l3 1q23 -7 50 -7q42 0 75 31t70 98l5 10l-145 498l1 2h58l121 -438l227 438h56z" />
    <glyph glyph-name="thorn" unicode="&#xfe;" horiz-adv-x="586" 
d="M337 529q90 0 143.5 -55t53.5 -154q0 -155 -80.5 -243.5t-200.5 -88.5q-89 0 -145 34l-26 -187h-55l123 877h55l-38 -269q26 41 71.5 63.5t98.5 22.5zM254 37q95 0 159 71.5t64 200.5q0 85 -41 128t-107 43q-57 0 -106.5 -34.5t-69.5 -103.5l-37 -267q52 -38 138 -38z
" />
    <glyph glyph-name="ydieresis" unicode="&#xff;" horiz-adv-x="511" 
d="M231 630q-16 0 -26.5 10t-10.5 26q0 18 12.5 29t28.5 11t25.5 -9.5t9.5 -24.5q0 -19 -11.5 -30.5t-27.5 -11.5zM405 630q-16 0 -26 10t-10 26q0 18 12 29t28 11t26 -9.5t10 -24.5q0 -19 -11.5 -30.5t-28.5 -11.5zM525 515l-277 -518h-1q-49 -90 -91 -128t-106 -38
q-26 0 -55 9l8 44l3 1q23 -7 50 -7q42 0 75 31t70 98l5 10l-145 498l1 2h58l121 -438l227 438h56z" />
    <glyph glyph-name="Amacron" unicode="&#x100;" horiz-adv-x="606" 
d="M504 797l-7 -46h-257l7 46h257zM499 0l-52 198h-303l-107 -198h-54l366 674h21l186 -674h-57zM168 242h267l-82 313l-5 24l-11 -24z" />
    <glyph glyph-name="amacron" unicode="&#x101;" horiz-adv-x="539" 
d="M440 668l-6 -42h-273l7 42h272zM486 59l3 -1l-7 -48q-24 -16 -57 -16q-65 0 -65 63q0 6 2 26q-76 -95 -185 -95q-67 0 -109.5 37t-42.5 99q0 86 63 128t153 42t144 -26l7 48q3 20 3 36q0 65 -38 97t-106 32q-91 0 -152 -51l-3 1l7 50q21 19 65.5 33.5t96.5 14.5
q88 0 137 -42.5t49 -122.5q0 -25 -4 -46l-30 -212q0 -3 -0.5 -9.5t-1.5 -9.5q-1 -42 35 -42q21 0 36 14zM191 35q106 0 176 103l12 86q-50 25 -134 25q-70 0 -117 -29t-47 -91q0 -44 31.5 -69t78.5 -25z" />
    <glyph glyph-name="Abreve" unicode="&#x102;" horiz-adv-x="606" 
d="M367 705q-56 0 -87 33.5t-22 91.5l36 3q-2 -40 18.5 -63t56.5 -23q39 0 67 23.5t35 62.5l33 -3q-7 -58 -45.5 -91.5t-91.5 -33.5zM499 0l-52 198h-303l-107 -198h-54l366 674h21l186 -674h-57zM168 242h267l-82 313l-5 24l-11 -24z" />
    <glyph glyph-name="abreve" unicode="&#x103;" horiz-adv-x="539" 
d="M295 579q-52 0 -83.5 36t-22.5 97l37 4l2 -2q-4 -42 15.5 -67t55.5 -25q37 0 64 25t35 66l2 3l35 -4q-9 -62 -47 -97.5t-93 -35.5zM486 59l3 -1l-7 -48q-24 -16 -57 -16q-65 0 -65 63q0 6 2 26q-76 -95 -185 -95q-67 0 -109.5 37t-42.5 99q0 86 63 128t153 42t144 -26
l7 48q3 20 3 36q0 65 -38 97t-106 32q-91 0 -152 -51l-3 1l7 50q21 19 65.5 33.5t96.5 14.5q88 0 137 -42.5t49 -122.5q0 -25 -4 -46l-30 -212q0 -3 -0.5 -9.5t-1.5 -9.5q-1 -42 35 -42q21 0 36 14zM191 35q106 0 176 103l12 86q-50 25 -134 25q-70 0 -117 -29t-47 -91
q0 -44 31.5 -69t78.5 -25z" />
    <glyph glyph-name="Aogonek" unicode="&#x104;" horiz-adv-x="606" 
d="M545 0q-110 -71 -110 -140q0 -43 47 -43q18 0 29 4l2 -2l-5 -36q-18 -7 -45 -7q-39 0 -61 18t-22 50q0 86 120 156h-1l-52 198h-303l-107 -198h-54l366 674h21l186 -674h-11zM168 242h267l-82 313l-5 24l-11 -24z" />
    <glyph glyph-name="aogonek" unicode="&#x105;" horiz-adv-x="539" 
d="M464 1q-107 -70 -107 -138q0 -43 47 -43q18 0 29 4l2 -2l-5 -36q-18 -7 -45 -7q-39 0 -61 18t-22 50q0 80 107 148q-49 7 -49 62q0 6 2 26q-76 -95 -185 -95q-67 0 -109.5 37t-42.5 99q0 86 63 128t153 42t144 -26l7 48q3 20 3 36q0 65 -38 97t-106 32q-91 0 -152 -51
l-3 1l7 50q21 19 65.5 33.5t96.5 14.5q88 0 137 -42.5t49 -122.5q0 -25 -4 -46l-30 -212q0 -3 -0.5 -9.5t-1.5 -9.5q-1 -42 35 -42q21 0 36 14l3 -1l-7 -48q-8 -6 -18 -9zM191 35q106 0 176 103l12 86q-50 25 -134 25q-70 0 -117 -29t-47 -91q0 -44 31.5 -69t78.5 -25z" />
    <glyph glyph-name="Cacute" unicode="&#x106;" horiz-adv-x="616" 
d="M346 701l-14 31l172 107l30 -45l-4 -9zM367 -11q-140 0 -222 77.5t-82 212.5q0 179 102 287t262 108q108 0 187 -43l-7 -52l-2 -1q-77 47 -183 47q-134 0 -218.5 -94.5t-84.5 -243.5q0 -116 69.5 -183.5t186.5 -67.5q95 0 169 47l3 -1l-8 -50q-74 -43 -172 -43z" />
    <glyph glyph-name="cacute" unicode="&#x107;" horiz-adv-x="483" 
d="M280 572l-22 32l134 129l41 -40l-1 -9zM272 -12q-100 0 -160.5 62t-60.5 168q0 143 81 227t205 84q79 0 130 -27l-8 -49l-2 -1q-55 28 -124 28q-98 0 -161.5 -69t-63.5 -184q0 -87 46 -138.5t129 -51.5q68 0 128 35l3 -1l-8 -51q-61 -32 -134 -32z" />
    <glyph glyph-name="Cdotaccent" unicode="&#x10a;" horiz-adv-x="616" 
d="M436 737q-16 0 -26.5 10t-10.5 26q0 19 12 30.5t29 11.5q16 0 26.5 -10t10.5 -26q0 -19 -12 -30.5t-29 -11.5zM367 -11q-140 0 -222 77.5t-82 212.5q0 179 102 287t262 108q108 0 187 -43l-7 -52l-2 -1q-77 47 -183 47q-134 0 -218.5 -94.5t-84.5 -243.5
q0 -116 69.5 -183.5t186.5 -67.5q95 0 169 47l3 -1l-8 -50q-74 -43 -172 -43z" />
    <glyph glyph-name="cdotaccent" unicode="&#x10b;" horiz-adv-x="483" 
d="M339 633q-16 0 -26.5 10t-10.5 26q0 19 12 30.5t29 11.5q16 0 26.5 -10t10.5 -26q0 -19 -12 -30.5t-29 -11.5zM272 -12q-100 0 -160.5 62t-60.5 168q0 143 81 227t205 84q79 0 130 -27l-8 -49l-2 -1q-55 28 -124 28q-98 0 -161.5 -69t-63.5 -184q0 -87 46 -138.5
t129 -51.5q68 0 128 35l3 -1l-8 -51q-61 -32 -134 -32z" />
    <glyph glyph-name="Ccaron" unicode="&#x10c;" horiz-adv-x="616" 
d="M418 701l-104 110l25 27l97 -89l114 89l20 -26l-127 -111h-25zM367 -11q-140 0 -222 77.5t-82 212.5q0 179 102 287t262 108q108 0 187 -43l-7 -52l-2 -1q-77 47 -183 47q-134 0 -218.5 -94.5t-84.5 -243.5q0 -116 69.5 -183.5t186.5 -67.5q95 0 169 47l3 -1l-8 -50
q-74 -43 -172 -43z" />
    <glyph glyph-name="ccaron" unicode="&#x10d;" horiz-adv-x="483" 
d="M316 573l-93 133l27 23l85 -102l114 102l20 -23l-128 -133h-25zM272 -12q-100 0 -160.5 62t-60.5 168q0 143 81 227t205 84q79 0 130 -27l-8 -49l-2 -1q-55 28 -124 28q-98 0 -161.5 -69t-63.5 -184q0 -87 46 -138.5t129 -51.5q68 0 128 35l3 -1l-8 -51q-61 -32 -134 -32
z" />
    <glyph glyph-name="Dcaron" unicode="&#x10e;" horiz-adv-x="702" 
d="M395 703h-25l-104 110l25 27l97 -89l114 89l20 -26zM345 669q152 0 233.5 -76t81.5 -207q0 -180 -107 -283.5t-298 -103.5q-144 0 -189 3l93 659q79 8 186 8zM267 48q161 0 248 89.5t87 241.5q0 112 -68.5 176t-197.5 64q-84 0 -129 -5l-80 -562q41 -4 140 -4z" />
    <glyph glyph-name="dcaron" unicode="&#x10f;" horiz-adv-x="601" 
d="M666 713l6 -9l-50 -196h-35l37 205h42zM473 484l32 228h55l-99 -712h-45l3 78q-59 -90 -180 -90q-85 0 -137.5 57t-52.5 155q0 149 81 239t202 90q84 0 141 -45zM429 171l36 258q-48 51 -135 51q-96 0 -160 -74t-64 -197q0 -82 40 -127t109 -45q58 0 107 35t67 99z" />
    <glyph glyph-name="Dcroat" unicode="&#x110;" horiz-adv-x="702" 
d="M345 669q152 0 233.5 -76t81.5 -207q0 -180 -107 -283.5t-298 -103.5q-144 0 -189 3l43 307h-86l6 41h86l44 311q79 8 186 8zM267 48q161 0 248 89.5t87 241.5q0 112 -68.5 176t-197.5 64q-84 0 -129 -5l-38 -264h106l-5 -41h-106l-37 -257q41 -4 140 -4z" />
    <glyph glyph-name="dcroat" unicode="&#x111;" horiz-adv-x="584" 
d="M636 630l-5 -41h-88l-82 -589h-45l3 78q-59 -90 -180 -90q-85 0 -137.5 57t-52.5 155q0 149 81 239t202 90q84 0 141 -45l15 105h-104l6 41h103l12 82h55l-11 -82h87zM429 171l36 258q-48 51 -135 51q-96 0 -160 -74t-64 -197q0 -82 40 -127t109 -45q58 0 107 35t67 99z
" />
    <glyph glyph-name="Emacron" unicode="&#x112;" horiz-adv-x="527" 
d="M491 797l-7 -46h-257l7 46h257zM513 610h-306l-35 -243h288l-7 -50h-288l-37 -266h319l-7 -51h-374l93 661h361z" />
    <glyph glyph-name="emacron" unicode="&#x113;" horiz-adv-x="549" 
d="M467 668l-6 -42h-273l7 42h272zM312 529q95 0 144.5 -55.5t49.5 -137.5q0 -37 -10 -82h-387q-1 -9 -1 -29q0 -91 49 -140t127 -49q94 0 162 49l2 -1l-7 -52q-64 -44 -163 -44q-100 0 -163.5 59.5t-63.5 172.5q0 138 76 223.5t185 85.5zM115 299h336q2 22 2 34
q0 65 -35.5 106t-110.5 41q-69 0 -121.5 -48.5t-70.5 -132.5z" />
    <glyph glyph-name="Edotaccent" unicode="&#x116;" horiz-adv-x="527" 
d="M359 737q-16 0 -26.5 10t-10.5 26q0 19 12 30.5t29 11.5q16 0 26.5 -10t10.5 -26q0 -19 -12 -30.5t-29 -11.5zM513 610h-306l-35 -243h288l-7 -50h-288l-37 -266h319l-7 -51h-374l93 661h361z" />
    <glyph glyph-name="edotaccent" unicode="&#x117;" horiz-adv-x="549" 
d="M330 630q-16 0 -26.5 10t-10.5 26q0 19 12 30.5t29 11.5q16 0 26.5 -10t10.5 -26q0 -19 -12 -30.5t-29 -11.5zM312 529q95 0 144.5 -55.5t49.5 -137.5q0 -37 -10 -82h-387q-1 -9 -1 -29q0 -91 49 -140t127 -49q94 0 162 49l2 -1l-7 -52q-64 -44 -163 -44
q-100 0 -163.5 59.5t-63.5 172.5q0 138 76 223.5t185 85.5zM115 299h336q2 22 2 34q0 65 -35.5 106t-110.5 41q-69 0 -121.5 -48.5t-70.5 -132.5z" />
    <glyph glyph-name="Eogonek" unicode="&#x118;" horiz-adv-x="527" 
d="M513 610h-306l-35 -243h288l-7 -50h-288l-37 -266h319l-7 -51q-110 -71 -110 -140q0 -43 47 -43q18 0 29 4l2 -2l-5 -36q-18 -7 -45 -7q-39 0 -61 18t-22 50q0 86 120 156h-329l93 661h361z" />
    <glyph glyph-name="eogonek" unicode="&#x119;" horiz-adv-x="549" 
d="M312 529q95 0 144.5 -55.5t49.5 -137.5q0 -37 -10 -82h-387q-1 -9 -1 -29q0 -91 49 -140t127 -49q94 0 162 49l2 -1l-7 -52q-30 -20 -65 -32q-106 -67 -106 -137q0 -43 47 -43q18 0 29 4l2 -2l-5 -36q-18 -7 -45 -7q-39 0 -61 18t-22 50q0 78 98 142q-12 -1 -35 -1
q-100 0 -163.5 59.5t-63.5 172.5q0 138 76 223.5t185 85.5zM115 299h336q2 22 2 34q0 65 -35.5 106t-110.5 41q-69 0 -121.5 -48.5t-70.5 -132.5z" />
    <glyph glyph-name="Ecaron" unicode="&#x11a;" horiz-adv-x="527" 
d="M366 701h-25l-104 110l25 27l97 -89l114 89l20 -26zM513 610h-306l-35 -243h288l-7 -50h-288l-37 -266h319l-7 -51h-374l93 661h361z" />
    <glyph glyph-name="ecaron" unicode="&#x11b;" horiz-adv-x="549" 
d="M332 570h-25l-93 133l27 23l85 -102l114 102l20 -23zM312 529q95 0 144.5 -55.5t49.5 -137.5q0 -37 -10 -82h-387q-1 -9 -1 -29q0 -91 49 -140t127 -49q94 0 162 49l2 -1l-7 -52q-64 -44 -163 -44q-100 0 -163.5 59.5t-63.5 172.5q0 138 76 223.5t185 85.5zM115 299h336
q2 22 2 34q0 65 -35.5 106t-110.5 41q-69 0 -121.5 -48.5t-70.5 -132.5z" />
    <glyph glyph-name="Gbreve" unicode="&#x11e;" horiz-adv-x="672" 
d="M437 707q-56 0 -87 33.5t-22 91.5l36 3q-2 -40 18.5 -63t56.5 -23q39 0 67 23.5t35 62.5l33 -3q-7 -58 -45.5 -91.5t-91.5 -33.5zM354 -10q-134 0 -212.5 76.5t-78.5 206.5q0 181 106 291t273 110q115 0 189 -44l-8 -52l-3 -1q-73 47 -187 47q-138 0 -225 -94.5
t-87 -249.5q0 -109 65 -175t179 -66q94 0 169 45l29 213h52l-35 -246q-102 -61 -226 -61z" />
    <glyph glyph-name="gbreve" unicode="&#x11f;" horiz-adv-x="538" 
d="M301 582q-52 0 -83.5 36t-22.5 97l37 4l2 -2q-4 -42 15.5 -67t55.5 -25q37 0 64 25t35 66l2 3l35 -4q-9 -62 -47 -97.5t-93 -35.5zM537 517l-6 -42h-116q54 -39 54 -107q0 -78 -57 -127t-149 -49q-56 0 -97 19q-30 -18 -30 -45q0 -23 29 -35.5t111 -21.5
q98 -12 140.5 -39t42.5 -83q0 -77 -68.5 -117.5t-184.5 -40.5q-91 0 -145.5 27.5t-54.5 85.5q0 88 124 146q-48 20 -48 61q0 46 53 81q-50 39 -50 108q0 80 58 129.5t150 49.5h244zM268 237q67 -1 107 34.5t40 94.5q0 49 -33.5 78t-91.5 29q-67 0 -108.5 -36t-41.5 -94
q0 -49 34 -77.5t94 -28.5zM407 -23q0 39 -34 57.5t-117 27.5q-48 6 -80 12q-117 -50 -117 -120q0 -81 157 -81q191 0 191 104z" />
    <glyph glyph-name="Gdotaccent" unicode="&#x120;" horiz-adv-x="672" 
d="M442 739q-16 0 -26.5 10t-10.5 26q0 19 12 30.5t29 11.5q16 0 26.5 -10t10.5 -26q0 -19 -12 -30.5t-29 -11.5zM354 -10q-134 0 -212.5 76.5t-78.5 206.5q0 181 106 291t273 110q115 0 189 -44l-8 -52l-3 -1q-73 47 -187 47q-138 0 -225 -94.5t-87 -249.5q0 -109 65 -175
t179 -66q94 0 169 45l29 213h52l-35 -246q-102 -61 -226 -61z" />
    <glyph glyph-name="gdotaccent" unicode="&#x121;" horiz-adv-x="538" 
d="M309 633q-16 0 -26.5 10t-10.5 26q0 19 12 30.5t29 11.5q16 0 26.5 -10t10.5 -26q0 -19 -12 -30.5t-29 -11.5zM537 517l-6 -42h-116q54 -39 54 -107q0 -78 -57 -127t-149 -49q-56 0 -97 19q-30 -18 -30 -45q0 -23 29 -35.5t111 -21.5q98 -12 140.5 -39t42.5 -83
q0 -77 -68.5 -117.5t-184.5 -40.5q-91 0 -145.5 27.5t-54.5 85.5q0 88 124 146q-48 20 -48 61q0 46 53 81q-50 39 -50 108q0 80 58 129.5t150 49.5h244zM268 237q67 -1 107 34.5t40 94.5q0 49 -33.5 78t-91.5 29q-67 0 -108.5 -36t-41.5 -94q0 -49 34 -77.5t94 -28.5z
M407 -23q0 39 -34 57.5t-117 27.5q-48 6 -80 12q-117 -50 -117 -120q0 -81 157 -81q191 0 191 104z" />
    <glyph glyph-name="Gcommaaccent" unicode="&#x122;" horiz-adv-x="672" 
d="M354 -10q-134 0 -212.5 76.5t-78.5 206.5q0 181 106 291t273 110q115 0 189 -44l-8 -52l-3 -1q-73 47 -187 47q-138 0 -225 -94.5t-87 -249.5q0 -109 65 -175t179 -66q94 0 169 45l29 213h52l-35 -246q-102 -61 -226 -61zM271 -219q26 62 37 134l3 32l51 5l5 -7
q-11 -81 -59 -164h-37z" />
    <glyph glyph-name="gcommaaccent" unicode="&#x123;" horiz-adv-x="538" 
d="M334 573l-51 -5l-5 7q11 81 59 164h37q-26 -62 -37 -134zM537 517l-6 -42h-116q54 -39 54 -107q0 -78 -57 -127t-149 -49q-56 0 -97 19q-30 -18 -30 -45q0 -23 29 -35.5t111 -21.5q98 -12 140.5 -39t42.5 -83q0 -77 -68.5 -117.5t-184.5 -40.5q-91 0 -145.5 27.5
t-54.5 85.5q0 88 124 146q-48 20 -48 61q0 46 53 81q-50 39 -50 108q0 80 58 129.5t150 49.5h244zM268 237q67 -1 107 34.5t40 94.5q0 49 -33.5 78t-91.5 29q-67 0 -108.5 -36t-41.5 -94q0 -49 34 -77.5t94 -28.5zM407 -23q0 39 -34 57.5t-117 27.5q-48 6 -80 12
q-117 -50 -117 -120q0 -81 157 -81q191 0 191 104z" />
    <glyph glyph-name="Hbar" unicode="&#x126;" horiz-adv-x="712" 
d="M698 527l-6 -43h-51l-67 -484h-55l44 314h-398l-44 -314h-55l68 484h-51l6 43h51l19 134h54l-19 -134h399l19 134h54l-19 -134h51zM570 363l17 121h-399l-16 -121h398z" />
    <glyph glyph-name="hbar" unicode="&#x127;" horiz-adv-x="585" 
d="M343 529q78 0 125 -44.5t47 -128.5q0 -24 -3 -51l-43 -305h-54l41 293q3 26 3 46q0 139 -133 139q-58 0 -106 -35.5t-66 -102.5l-48 -340h-55l83 590h-79l5 41h80l11 81h55l-11 -81h112l-6 -41h-112l-21 -151q59 90 175 90z" />
    <glyph glyph-name="Itilde" unicode="&#x128;" horiz-adv-x="259" 
d="M90 717l-36 11q6 37 31 60.5t57 23.5q26 0 65.5 -20.5t57.5 -20.5q17 0 31 12t17 34l2 2l35 -11q-7 -38 -31 -61t-56 -23q-22 0 -62.5 20.5t-60.5 20.5q-18 0 -31.5 -12.5t-16.5 -34.5zM66 0l93 661h54l-92 -661h-55z" />
    <glyph glyph-name="itilde" unicode="&#x129;" horiz-adv-x="230" 
d="M57 604l-35 8q5 37 29 61t57 24q28 0 71.5 -21t64.5 -21q40 0 48 45l2 2l35 -8q-6 -39 -30.5 -62t-56.5 -23q-26 0 -69.5 21t-65.5 21q-17 0 -30.5 -12t-17.5 -34zM51 0l73 517h55l-73 -517h-55z" />
    <glyph glyph-name="Imacron" unicode="&#x12a;" horiz-adv-x="259" 
d="M70 751l7 46h257l-7 -46h-257zM66 0l93 661h54l-92 -661h-55z" />
    <glyph glyph-name="imacron" unicode="&#x12b;" horiz-adv-x="230" 
d="M52 623l7 43h232l-6 -43h-233zM51 0l73 517h55l-73 -517h-55z" />
    <glyph glyph-name="Iogonek" unicode="&#x12e;" horiz-adv-x="259" 
d="M113 0q-105 -70 -105 -137q0 -43 47 -43q18 0 29 4l2 -2l-5 -36q-18 -7 -45 -7q-39 0 -61 18t-22 50q0 85 115 153h-2l93 661h54l-92 -661h-8z" />
    <glyph glyph-name="iogonek" unicode="&#x12f;" horiz-adv-x="229" 
d="M175 708q16 0 26.5 -10t10.5 -26q0 -19 -12 -30.5t-29 -11.5q-16 0 -26.5 10t-10.5 26q0 19 12 30.5t29 11.5zM51 0l73 517h55l-73 -517h-1q-111 -70 -111 -140q0 -18 12 -30.5t36 -12.5q17 0 29 4l2 -1l-5 -37q-23 -7 -46 -7q-38 0 -60 18.5t-22 50.5q0 86 120 155h-9z
" />
    <glyph glyph-name="Idotaccent" unicode="&#x130;" horiz-adv-x="259" 
d="M202 737q-16 0 -26.5 10t-10.5 26q0 19 12 30.5t29 11.5q16 0 26.5 -10t10.5 -26q0 -19 -12 -30.5t-29 -11.5zM66 0l93 661h54l-92 -661h-55z" />
    <glyph glyph-name="dotlessi" unicode="&#x131;" horiz-adv-x="230" 
d="M51 0l73 517h55l-73 -517h-55z" />
    <glyph glyph-name="IJ" unicode="&#x132;" horiz-adv-x="598" 
d="M66 0l93 661h54l-92 -661h-55zM287 -3q-21 0 -48 3l8 47l2 1q15 -3 38 -3q66 0 104.5 43.5t49.5 119.5l64 453h55l-63 -450q-14 -103 -67 -158.5t-143 -55.5z" />
    <glyph glyph-name="ij" unicode="&#x133;" horiz-adv-x="475" 
d="M171 630q-16 0 -26.5 10t-10.5 26q0 19 12 30.5t29 11.5q16 0 26.5 -10t10.5 -26q0 -19 -12 -30.5t-29 -11.5zM418 630q-16 0 -26.5 10t-10.5 26q0 19 12 30.5t29 11.5q16 0 26.5 -10t10.5 -26q0 -19 -12 -30.5t-29 -11.5zM51 0l73 517h55l-73 -517h-55zM179 -169
q-21 0 -42 4l8 48l2 1q13 -3 30 -3q104 0 123 137l70 499h54l-71 -510q-24 -176 -174 -176z" />
    <glyph glyph-name="Kcommaaccent" unicode="&#x136;" horiz-adv-x="580" 
d="M612 658l-393 -325l320 -330l-1 -3h-68l-305 315l-44 -315h-55l93 661h54l-43 -309l376 309h65zM235 -53l51 5l5 -7q-11 -81 -59 -164h-37q26 62 37 134z" />
    <glyph glyph-name="kcommaaccent" unicode="&#x137;" horiz-adv-x="495" 
d="M494 515l-296 -247l254 -265l-1 -3h-69l-240 249l-35 -249h-56l100 712h56l-60 -429l279 234h67zM183 -53l51 5l5 -7q-11 -81 -59 -164h-37q26 62 37 134z" />
    <glyph glyph-name="kgreenlandic" unicode="&#x138;" horiz-adv-x="495" 
d="M505 517l-306 -249l246 -268h-73l-230 249l-35 -249h-56l72 517h56l-33 -235l291 235h68z" />
    <glyph glyph-name="Lacute" unicode="&#x139;" horiz-adv-x="481" 
d="M304 785l-184 -84l-14 31l172 107l30 -45zM128 47h307l-6 -47h-363l93 661h55z" />
    <glyph glyph-name="lacute" unicode="&#x13a;" horiz-adv-x="251" 
d="M101 745l-14 31l172 107l30 -45l-4 -9zM146 -8q-99 0 -84 103l87 617h54l-84 -599q-5 -39 5 -55t39 -16q20 0 39 12l3 -1l-7 -48q-23 -13 -52 -13z" />
    <glyph glyph-name="Lcommaaccent" unicode="&#x13b;" horiz-adv-x="481" 
d="M128 47h307l-6 -47h-363l93 661h55zM216 -53l51 5l5 -7q-11 -81 -59 -164h-37q26 62 37 134z" />
    <glyph glyph-name="lcommaaccent" unicode="&#x13c;" horiz-adv-x="251" 
d="M146 -8q-99 0 -84 103l87 617h54l-84 -599q-5 -39 5 -55t39 -16q20 0 39 12l3 -1l-7 -48q-23 -13 -52 -13zM47 -219q26 62 37 134l3 32l51 5l5 -7q-11 -81 -59 -164h-37z" />
    <glyph glyph-name="Lcaron" unicode="&#x13d;" horiz-adv-x="483" 
d="M442 673l-49 -196h-35l37 204h42zM213 661l-85 -614h307l-6 -47h-363l93 661h54z" />
    <glyph glyph-name="lcaron" unicode="&#x13e;" horiz-adv-x="251" 
d="M250 511l37 205h42l6 -9l-50 -196h-35zM146 -8q-99 0 -84 103l87 617h54l-84 -599q-5 -39 5 -55t39 -16q20 0 39 12l3 -1l-7 -48q-23 -13 -52 -13z" />
    <glyph glyph-name="Ldot" unicode="&#x13f;" horiz-adv-x="488" 
d="M128 47h307l-6 -47h-363l93 661h55zM378 337q-15 0 -24 8.5t-9 22.5q0 17 11 28.5t30 11.5q32 0 32 -32q0 -17 -10.5 -28t-29.5 -11z" />
    <glyph glyph-name="ldot" unicode="&#x140;" horiz-adv-x="307" 
d="M146 -8q-99 0 -84 103l87 617h54l-84 -599q-5 -39 5 -55t39 -16q20 0 39 12l3 -1l-7 -48q-23 -13 -52 -13zM275 324q-32 0 -32 30q0 17 11 29t30 12q32 0 32 -31q0 -17 -11 -28.5t-30 -11.5z" />
    <glyph glyph-name="Lslash" unicode="&#x141;" horiz-adv-x="481" 
d="M128 47h307l-6 -47h-363l40 288l-76 -45l-2 2l6 47l80 47l45 322h55l-40 -287l78 46h4l-7 -49l-82 -48z" />
    <glyph glyph-name="lslash" unicode="&#x142;" horiz-adv-x="251" 
d="M153 354l-34 -241q-5 -39 5 -55t39 -16q20 0 39 12l3 -1l-7 -48q-23 -13 -52 -13q-99 0 -84 103l32 224l-78 -46h-3l7 47l80 48l49 344h54l-43 -309l78 46h3l-7 -47z" />
    <glyph glyph-name="Nacute" unicode="&#x143;" horiz-adv-x="708" 
d="M340 701l-14 31l172 107l30 -45l-4 -9zM66 0l94 666h22l348 -557h3l77 552h53l-94 -668h-20l-350 559h-2l-78 -552h-53z" />
    <glyph glyph-name="nacute" unicode="&#x144;" horiz-adv-x="587" 
d="M438 681l-152 -112l-22 32l134 129l41 -40zM345 529q73 0 122 -43.5t49 -131.5q0 -33 -4 -57l-41 -297h-55l39 283q5 33 5 59q0 71 -37.5 103.5t-93.5 32.5q-64 0 -114 -40.5t-63 -108.5l-46 -329h-55l73 517h45l-6 -88q27 46 74.5 73t107.5 27z" />
    <glyph glyph-name="Ncommaaccent" unicode="&#x145;" horiz-adv-x="708" 
d="M66 0l94 666h22l348 -557h3l77 552h53l-94 -668h-20l-350 559h-2l-78 -552h-53zM243 -219q26 62 37 134l3 32l51 5l5 -7q-11 -81 -59 -164h-37z" />
    <glyph glyph-name="ncommaaccent" unicode="&#x146;" horiz-adv-x="587" 
d="M345 529q73 0 122 -43.5t49 -131.5q0 -33 -4 -57l-41 -297h-55l39 283q5 33 5 59q0 71 -37.5 103.5t-93.5 32.5q-64 0 -114 -40.5t-63 -108.5l-46 -329h-55l73 517h45l-6 -88q27 46 74.5 73t107.5 27zM232 -53l51 5l5 -7q-11 -81 -59 -164h-37q26 62 37 134z" />
    <glyph glyph-name="Ncaron" unicode="&#x147;" horiz-adv-x="708" 
d="M412 701l-104 110l25 27l97 -89l114 89l20 -26l-127 -111h-25zM66 0l94 666h22l348 -557h3l77 552h53l-94 -668h-20l-350 559h-2l-78 -552h-53z" />
    <glyph glyph-name="ncaron" unicode="&#x148;" horiz-adv-x="587" 
d="M347 570h-25l-93 133l27 23l85 -102l114 102l20 -23zM345 529q73 0 122 -43.5t49 -131.5q0 -33 -4 -57l-41 -297h-55l39 283q5 33 5 59q0 71 -37.5 103.5t-93.5 32.5q-64 0 -114 -40.5t-63 -108.5l-46 -329h-55l73 517h45l-6 -88q27 46 74.5 73t107.5 27z" />
    <glyph glyph-name="Eng" unicode="&#x14a;" horiz-adv-x="708" 
d="M663 661l-88 -632q-31 -221 -212 -221q-25 0 -45 4l6 45l1 1q17 -3 39 -3q67 0 106.5 44t50.5 121l2 16l-324 515h-2l-78 -551h-53l94 666h22l349 -555h2l77 550h53z" />
    <glyph glyph-name="eng" unicode="&#x14b;" horiz-adv-x="587" 
d="M345 529q73 0 122.5 -43.5t49.5 -131.5q0 -21 -4 -57l-45 -316q-24 -169 -169 -169q-19 0 -31 2l7 46l2 1q12 -2 19 -2q52 0 80.5 32t37.5 100l41 292q5 33 5 59q0 71 -37.5 103.5t-93.5 32.5q-64 0 -114 -40.5t-63 -108.5l-46 -329h-55l73 517h45l-8 -92q27 48 74.5 76
t109.5 28z" />
    <glyph glyph-name="Omacron" unicode="&#x14c;" horiz-adv-x="751" 
d="M299 749l7 46h257l-7 -46h-257zM369 -12q-137 0 -220 82.5t-83 221.5q0 172 96 277t245 105q135 0 217.5 -83.5t82.5 -222.5q0 -171 -95 -275.5t-243 -104.5zM376 36q121 0 198 91.5t77 235.5q0 123 -67.5 193t-182.5 70q-125 0 -202 -91.5t-77 -237.5q0 -123 68 -192
t186 -69z" />
    <glyph glyph-name="omacron" unicode="&#x14d;" horiz-adv-x="605" 
d="M202 623l7 42h272l-6 -42h-273zM279 -12q-100 0 -164 63t-64 173q0 132 76.5 218t196.5 86q102 0 166 -62.5t64 -173.5q0 -131 -77 -217.5t-198 -86.5zM286 37q96 0 153.5 72.5t57.5 178.5q0 88 -49 139.5t-130 51.5q-95 0 -152.5 -73t-57.5 -177q0 -89 49 -140.5
t129 -51.5z" />
    <glyph glyph-name="Ohungarumlaut" unicode="&#x150;" horiz-adv-x="751" 
d="M323 711l-28 14l78 142l46 -13l-1 -9zM489 711l-28 15l79 141l45 -13v-9zM369 -12q-137 0 -220 82.5t-83 221.5q0 172 96 277t245 105q135 0 217.5 -83.5t82.5 -222.5q0 -171 -95 -275.5t-243 -104.5zM376 36q121 0 198 91.5t77 235.5q0 123 -67.5 193t-182.5 70
q-125 0 -202 -91.5t-77 -237.5q0 -123 68 -192t186 -69z" />
    <glyph glyph-name="ohungarumlaut" unicode="&#x151;" horiz-adv-x="605" 
d="M247 564l-26 16l102 152l39 -16l-1 -10zM399 564l-25 16l101 152l39 -16l-1 -10zM279 -12q-100 0 -164 63t-64 173q0 132 76.5 218t196.5 86q102 0 166 -62.5t64 -173.5q0 -131 -77 -217.5t-198 -86.5zM286 37q96 0 153.5 72.5t57.5 178.5q0 88 -49 139.5t-130 51.5
q-95 0 -152.5 -73t-57.5 -177q0 -89 49 -140.5t129 -51.5z" />
    <glyph glyph-name="OE" unicode="&#x152;" horiz-adv-x="870" 
d="M863 666l-7 -50l-256 1q107 -85 107 -245v-1h96l-7 -50h-91q-18 -181 -146 -271l231 1l-7 -51h-338q-38 -8 -76 -8q-137 0 -220 82.5t-83 221.5q0 172 96 277t245 105q51 0 93 -12h363zM122 301q0 -123 68 -192t186 -69h9l81 583q-28 7 -65 7q-125 0 -202 -91.5
t-77 -237.5zM651 371q-2 175 -133 235l-33 -235h166zM446 49q84 23 138.5 95.5t64.5 176.5h-171l-38 -272h6z" />
    <glyph glyph-name="oe" unicode="&#x153;" horiz-adv-x="957" 
d="M729 529q86 0 136 -51t50 -144q0 -36 -12 -84h-373q-1 -10 -1 -32q0 -88 44.5 -135t119.5 -47q82 0 160 49l2 -2l-8 -52q-70 -44 -162 -44q-69 0 -120.5 34t-71.5 102q-65 -136 -225 -136q-96 0 -156.5 63.5t-60.5 166.5q0 142 77 227t192 85q72 0 124 -37t73 -106
q33 68 89 105.5t123 37.5zM275 35q93 0 148 67.5t55 190.5q0 84 -43.5 135.5t-119.5 51.5q-88 0 -148 -69.5t-60 -188.5q0 -83 46.5 -135t121.5 -52zM536 294h323q2 26 2 41q0 71 -35 108t-102 37q-67 -1 -118.5 -50.5t-69.5 -135.5z" />
    <glyph glyph-name="Racute" unicode="&#x154;" horiz-adv-x="549" 
d="M433 785l-184 -84l-14 31l172 107l30 -45zM509 504q0 -90 -47 -146.5t-121 -75.5l128 -279l-1 -3h-56l-123 273q-8 -1 -24 -1h-107l-38 -272h-54l93 663q86 6 155 6q94 0 144.5 -41.5t50.5 -123.5zM251 316q88 0 145 46t57 132q0 127 -142 127q-47 0 -104 -3l-43 -302h87
z" />
    <glyph glyph-name="racute" unicode="&#x155;" horiz-adv-x="360" 
d="M360 681l-152 -112l-22 32l134 129l41 -40zM318 528q36 0 54 -10l-7 -49l-2 -1q-23 10 -50 10q-55 0 -95.5 -30t-65.5 -122l-46 -326h-55l73 517h45l-5 -79q50 90 154 90z" />
    <glyph glyph-name="Rcommaaccent" unicode="&#x156;" horiz-adv-x="549" 
d="M509 504q0 -90 -47 -146.5t-121 -75.5l128 -279l-1 -3h-56l-123 273q-8 -1 -24 -1h-107l-38 -272h-54l93 663q86 6 155 6q94 0 144.5 -41.5t50.5 -123.5zM251 316q88 0 145 46t57 132q0 127 -142 127q-47 0 -104 -3l-43 -302h87zM209 -53l51 5l5 -7q-11 -81 -59 -164h-37
q26 62 37 134z" />
    <glyph glyph-name="rcommaaccent" unicode="&#x157;" horiz-adv-x="360" 
d="M318 528q36 0 54 -10l-7 -49l-2 -1q-23 10 -50 10q-55 0 -95.5 -30t-65.5 -122l-46 -326h-55l73 517h45l-5 -79q50 90 154 90zM46 -53l51 5l5 -7q-11 -81 -59 -164h-37q26 62 37 134z" />
    <glyph glyph-name="Rcaron" unicode="&#x158;" horiz-adv-x="549" 
d="M346 701h-25l-104 110l25 27l97 -89l114 89l20 -26zM509 504q0 -90 -47 -146.5t-121 -75.5l128 -279l-1 -3h-56l-123 273q-8 -1 -24 -1h-107l-38 -272h-54l93 663q86 6 155 6q94 0 144.5 -41.5t50.5 -123.5zM251 316q88 0 145 46t57 132q0 127 -142 127q-47 0 -104 -3
l-43 -302h87z" />
    <glyph glyph-name="rcaron" unicode="&#x159;" horiz-adv-x="360" 
d="M269 570h-25l-93 133l27 23l85 -102l114 102l20 -23zM164 438q50 90 154 90q36 0 54 -10l-7 -49l-2 -1q-23 10 -50 10q-55 0 -95.5 -30t-65.5 -122l-46 -326h-55l73 517h45z" />
    <glyph glyph-name="Sacute" unicode="&#x15a;" horiz-adv-x="502" 
d="M201 705l-14 31l172 107l30 -45l-4 -9zM233 -14q-114 0 -188 49l1 56l3 2q75 -59 180 -59q72 0 115 35.5t43 93.5q0 60 -36.5 95.5t-109.5 68.5q-77 36 -120 75.5t-43 103.5q0 81 58.5 126t147.5 45q95 0 161 -34l-1 -52l-3 -1q-59 39 -154 39q-66 1 -109.5 -29
t-43.5 -85q0 -51 36 -80.5t109 -62.5q36 -17 60.5 -32t50.5 -39t39 -56.5t13 -72.5q0 -86 -57 -136t-152 -50z" />
    <glyph glyph-name="sacute" unicode="&#x15b;" horiz-adv-x="456" 
d="M226 572l-22 32l134 129l41 -40l-1 -9zM178 -13q-104 0 -161 40l8 54l3 1q55 -46 160 -46q70 0 111 26.5t41 78.5q0 39 -28 59.5t-97 42.5t-104.5 51.5t-35.5 81.5q0 71 58 111.5t153 40.5q81 0 133 -25l-7 -49l-2 -1q-57 27 -130 27q-67 0 -108 -25.5t-41 -72.5
q0 -34 28 -53.5t91 -38.5q75 -24 110 -53.5t35 -82.5q0 -80 -59.5 -123.5t-157.5 -43.5z" />
    <glyph glyph-name="Scedilla" unicode="&#x15e;" horiz-adv-x="502" 
d="M287 629q-66 1 -109.5 -29t-43.5 -85q0 -51 36 -80.5t109 -62.5q36 -17 60.5 -32t50.5 -39t39 -56.5t13 -72.5q0 -79 -50 -128.5t-134 -56.5l-29 -43q12 4 29 4q32 0 51.5 -17.5t19.5 -52.5q0 -52 -35 -78t-87 -26q-34 0 -59 10l5 35l1 1q19 -9 51 -9t53.5 15.5
t21.5 44.5q0 21 -13 32.5t-34 11.5q-27 0 -52 -10l-1 1l5 30l34 50q-104 3 -174 49l1 56l3 2q75 -59 180 -59q72 0 115 35.5t43 93.5q0 60 -36.5 95.5t-109.5 68.5q-77 36 -120 75.5t-43 103.5q0 81 58.5 126t147.5 45q95 0 161 -34l-1 -52l-3 -1q-59 39 -154 39z" />
    <glyph glyph-name="scedilla" unicode="&#x15f;" horiz-adv-x="456" 
d="M286 528q81 0 133 -25l-7 -49l-2 -1q-57 27 -130 27q-67 0 -108 -25.5t-41 -72.5q0 -34 28 -53.5t91 -38.5q75 -24 110 -53.5t35 -82.5q0 -73 -50.5 -116t-134.5 -50l-30 -44q12 4 29 4q32 0 51.5 -17.5t19.5 -52.5q0 -52 -35 -78t-87 -26q-34 0 -59 10l5 35l1 1
q19 -9 51 -9t53.5 15.5t21.5 44.5q0 21 -13 32.5t-34 11.5q-27 0 -52 -10l-1 1l5 30l35 51q-98 1 -154 40l8 54l3 1q55 -46 160 -46q70 0 111 26.5t41 78.5q0 39 -28 59.5t-97 42.5t-104.5 51.5t-35.5 81.5q0 71 58 111.5t153 40.5z" />
    <glyph glyph-name="Scaron" unicode="&#x160;" horiz-adv-x="502" 
d="M273 705l-104 110l25 27l97 -89l114 89l20 -26l-127 -111h-25zM233 -14q-114 0 -188 49l1 56l3 2q75 -59 180 -59q72 0 115 35.5t43 93.5q0 60 -36.5 95.5t-109.5 68.5q-77 36 -120 75.5t-43 103.5q0 81 58.5 126t147.5 45q95 0 161 -34l-1 -52l-3 -1q-59 39 -154 39
q-66 1 -109.5 -29t-43.5 -85q0 -51 36 -80.5t109 -62.5q36 -17 60.5 -32t50.5 -39t39 -56.5t13 -72.5q0 -86 -57 -136t-152 -50z" />
    <glyph glyph-name="scaron" unicode="&#x161;" horiz-adv-x="456" 
d="M262 573l-93 133l27 23l85 -102l114 102l20 -23l-128 -133h-25zM178 -13q-104 0 -161 40l8 54l3 1q55 -46 160 -46q70 0 111 26.5t41 78.5q0 39 -28 59.5t-97 42.5t-104.5 51.5t-35.5 81.5q0 71 58 111.5t153 40.5q81 0 133 -25l-7 -49l-2 -1q-57 27 -130 27
q-67 0 -108 -25.5t-41 -72.5q0 -34 28 -53.5t91 -38.5q75 -24 110 -53.5t35 -82.5q0 -80 -59.5 -123.5t-157.5 -43.5z" />
    <glyph glyph-name="uni0162" unicode="&#x162;" horiz-adv-x="526" 
d="M256 0h-8l-38 -56q12 4 29 4q32 0 51.5 -17.5t19.5 -52.5q0 -52 -35 -78t-87 -26q-34 0 -59 10l5 35l1 1q19 -9 51 -9t53.5 15.5t21.5 44.5q0 21 -13 32.5t-34 11.5q-27 0 -52 -10l-1 1l5 30l44 64h-9l87 612h-219l7 49h488l-7 -49h-215z" />
    <glyph glyph-name="uni0163" unicode="&#x163;" horiz-adv-x="353" 
d="M204 472l-43 -310q-3 -16 -3 -38q0 -37 24.5 -58t68.5 -21q36 0 68 16l2 -1l-7 -47q-32 -18 -78 -18h-12l-35 -51q12 4 29 4q32 0 51.5 -17.5t19.5 -52.5q0 -52 -35 -78t-87 -26q-34 0 -59 10l5 35l1 1q19 -9 51 -9t53.5 15.5t21.5 44.5q0 21 -13 32.5t-34 11.5
q-27 0 -52 -10l-1 1l5 30l44 64h3q-42 11 -66 40t-24 71q0 19 3 45l44 316h-110l7 45h110l17 122l54 11l1 -2l-18 -131h163l-7 -45h-162z" />
    <glyph glyph-name="Tcaron" unicode="&#x164;" horiz-adv-x="526" 
d="M343 701h-25l-104 110l25 27l97 -89l114 89l20 -26zM564 661l-7 -49h-215l-86 -612h-55l87 612h-219l7 49h488z" />
    <glyph glyph-name="tcaron" unicode="&#x165;" horiz-adv-x="353" 
d="M385 779l-50 -196h-35l37 205h42zM228 648l-18 -131h163l-7 -45h-162l-43 -310q-3 -16 -3 -38q0 -37 24.5 -58t68.5 -21q36 0 68 16l2 -1l-7 -47q-32 -18 -78 -18q-61 0 -97.5 31.5t-36.5 84.5q0 19 3 45l44 316h-110l7 45h110l17 122l54 11z" />
    <glyph glyph-name="Tbar" unicode="&#x166;" horiz-adv-x="527" 
d="M558 612h-215l-39 -273h97l-6 -42h-96l-42 -297h-55l42 297h-95l5 42h96l39 273h-219l7 49h488z" />
    <glyph glyph-name="tbar" unicode="&#x167;" horiz-adv-x="353" 
d="M366 472h-162l-23 -162h103l-5 -41h-103l-15 -107q-3 -16 -3 -38q0 -37 24.5 -58t68.5 -21q36 0 68 16l2 -1l-7 -47q-32 -18 -78 -18q-61 0 -97.5 31.5t-36.5 84.5q0 19 3 45l16 113h-89l6 41h89l22 162h-110l7 45h110l17 122l54 11l1 -2l-18 -131h163z" />
    <glyph glyph-name="Utilde" unicode="&#x168;" horiz-adv-x="684" 
d="M299 717l-36 11q6 37 31 60.5t57 23.5q26 0 65.5 -20.5t57.5 -20.5q17 0 31 12t17 34l2 2l35 -11q-7 -38 -31 -61t-56 -23q-22 0 -62.5 20.5t-60.5 20.5q-18 0 -31.5 -12.5t-16.5 -34.5zM310 -14q-105 0 -163 54.5t-58 148.5q0 42 3 62l57 410h55l-56 -403q-4 -25 -4 -53
q0 -83 45.5 -127t126.5 -44q189 0 221 224l56 403h53l-57 -410q-18 -130 -89 -197.5t-190 -67.5z" />
    <glyph glyph-name="utilde" unicode="&#x169;" horiz-adv-x="573" 
d="M228 608l-2 -2l-35 8q5 38 27.5 61.5t55.5 23.5q28 0 69.5 -20.5t62.5 -20.5q40 0 47 45l2 2l38 -8q-6 -41 -30.5 -63t-56.5 -22q-27 0 -68.5 20.5t-63.5 20.5q-16 0 -29 -12t-17 -33zM467 517h55l-73 -517h-45l5 76q-66 -88 -178 -88q-76 0 -118.5 41.5t-42.5 118.5
q0 28 4 56l44 313h55l-44 -307q-3 -24 -3 -52q0 -60 32.5 -91t88.5 -31q53 0 98 29.5t70 81.5z" />
    <glyph glyph-name="Umacron" unicode="&#x16a;" horiz-adv-x="684" 
d="M279 751l7 46h257l-7 -46h-257zM310 -14q-105 0 -163 54.5t-58 148.5q0 42 3 62l57 410h55l-56 -403q-4 -25 -4 -53q0 -83 45.5 -127t126.5 -44q189 0 221 224l56 403h53l-57 -410q-18 -130 -89 -197.5t-190 -67.5z" />
    <glyph glyph-name="umacron" unicode="&#x16b;" horiz-adv-x="573" 
d="M480 668l-6 -42h-273l7 42h272zM467 517h55l-73 -517h-45l5 76q-66 -88 -178 -88q-76 0 -118.5 41.5t-42.5 118.5q0 28 4 56l44 313h55l-44 -307q-3 -24 -3 -52q0 -60 32.5 -91t88.5 -31q53 0 98 29.5t70 81.5z" />
    <glyph glyph-name="Uring" unicode="&#x16e;" horiz-adv-x="684" 
d="M402 679q-33 0 -55 20.5t-22 53.5q0 39 25.5 64.5t64.5 25.5q33 0 55 -20.5t22 -52.5q0 -39 -25 -65t-65 -26zM406 711q24 0 38 15.5t14 39.5q0 20 -13 32.5t-34 12.5q-22 0 -37 -16t-15 -39q0 -20 13.5 -32.5t33.5 -12.5zM310 -14q-105 0 -163 54.5t-58 148.5q0 42 3 62
l57 410h55l-56 -403q-4 -25 -4 -53q0 -83 45.5 -127t126.5 -44q189 0 221 224l56 403h53l-57 -410q-18 -130 -89 -197.5t-190 -67.5z" />
    <glyph glyph-name="uring" unicode="&#x16f;" horiz-adv-x="573" 
d="M332 566q-34 0 -55.5 21.5t-21.5 54.5q0 40 25.5 66.5t65.5 26.5q34 0 55.5 -21t21.5 -54q0 -41 -25 -67.5t-66 -26.5zM342 703q-23 0 -37.5 -16.5t-14.5 -41.5q0 -21 12.5 -34t33.5 -13q24 0 38.5 16.5t14.5 41.5q0 21 -13 34t-34 13zM467 517h55l-73 -517h-45l5 76
q-66 -88 -178 -88q-76 0 -118.5 41.5t-42.5 118.5q0 28 4 56l44 313h55l-44 -307q-3 -24 -3 -52q0 -60 32.5 -91t88.5 -31q53 0 98 29.5t70 81.5z" />
    <glyph glyph-name="Uhungarumlaut" unicode="&#x170;" horiz-adv-x="684" 
d="M303 713l-28 14l78 142l46 -13l-1 -9zM469 713l-28 15l79 141l45 -13v-9zM310 -14q-105 0 -163 54.5t-58 148.5q0 42 3 62l57 410h55l-56 -403q-4 -25 -4 -53q0 -83 45.5 -127t126.5 -44q189 0 221 224l56 403h53l-57 -410q-18 -130 -89 -197.5t-190 -67.5z" />
    <glyph glyph-name="uhungarumlaut" unicode="&#x171;" horiz-adv-x="573" 
d="M360 709l-114 -142l-26 16l102 152l39 -16zM512 709l-114 -142l-25 16l101 152l39 -16zM467 517h55l-73 -517h-45l5 76q-66 -88 -178 -88q-76 0 -118.5 41.5t-42.5 118.5q0 28 4 56l44 313h55l-44 -307q-3 -24 -3 -52q0 -60 32.5 -91t88.5 -31q53 0 98 29.5t70 81.5z" />
    <glyph glyph-name="Uogonek" unicode="&#x172;" horiz-adv-x="684" 
d="M593 661h53l-57 -410q-30 -215 -198 -256q-98 -66 -98 -132q0 -43 47 -43q18 0 29 4l2 -2l-5 -36q-18 -7 -45 -7q-39 0 -61 18t-22 50q0 75 94 140q-7 -1 -22 -1q-105 0 -163 54.5t-58 148.5q0 42 3 62l57 410h55l-56 -403q-4 -25 -4 -53q0 -83 45.5 -127t126.5 -44
q189 0 221 224z" />
    <glyph glyph-name="uogonek" unicode="&#x173;" horiz-adv-x="573" 
d="M447 0q-108 -71 -108 -139q0 -43 47 -43q18 0 29 4l2 -2l-5 -36q-18 -7 -45 -7q-39 0 -61 18t-22 50q0 86 120 156l5 75q-66 -88 -178 -88q-76 0 -118.5 41.5t-42.5 118.5q0 28 4 56l44 313h55l-44 -307q-3 -24 -3 -52q0 -60 32.5 -91t88.5 -31q53 0 98 29.5t70 81.5
l52 370h55l-73 -517h-2z" />
    <glyph glyph-name="Wcircumflex" unicode="&#x174;" horiz-adv-x="922" 
d="M535 789l-118 -88l-18 26l130 111h25l101 -111l-23 -26zM954 661l1 -3l-304 -672h-39l-102 556l-3 21l-8 -21l-260 -556h-40l-118 672l1 3h57l90 -563l3 -32l12 32l258 561h37l101 -558l3 -32l12 32l246 560h53z" />
    <glyph glyph-name="wcircumflex" unicode="&#x175;" horiz-adv-x="767" 
d="M443 676l-115 -102l-21 23l129 133h25l93 -133l-28 -23zM775 517l1 -2l-235 -515h-50l-75 431l-2 19l-8 -18l-200 -432h-51l-92 515l1 2h55l70 -429l1 -18l7 18l198 429h56l75 -428l2 -20l7 20l189 428h51z" />
    <glyph glyph-name="Ycircumflex" unicode="&#x176;" horiz-adv-x="560" 
d="M237 701l-18 26l130 111h25l101 -111l-23 -26l-97 88zM217 0l40 282l-177 376l1 3h57l154 -327l245 327h55l1 -3l-282 -376l-40 -282h-54z" />
    <glyph glyph-name="ycircumflex" unicode="&#x177;" horiz-adv-x="511" 
d="M324 672l-115 -102l-21 23l129 133h25l93 -133l-28 -23zM525 515l-277 -518h-1q-49 -90 -91 -128t-106 -38q-26 0 -55 9l8 44l3 1q23 -7 50 -7q42 0 75 31t70 98l5 10l-145 498l1 2h58l121 -438l227 438h56z" />
    <glyph glyph-name="Ydieresis" unicode="&#x178;" horiz-adv-x="560" 
d="M261 736q-14 0 -23.5 9t-9.5 24q0 18 11 28t26 10t24 -9t9 -23q0 -18 -10.5 -28.5t-26.5 -10.5zM445 736q-14 0 -23.5 9t-9.5 24q0 18 11 28t27 10q14 0 23.5 -9t9.5 -23q0 -18 -11 -28.5t-27 -10.5zM217 0l40 282l-177 376l1 3h57l154 -327l245 327h55l1 -3l-282 -376
l-40 -282h-54z" />
    <glyph glyph-name="Zacute" unicode="&#x179;" horiz-adv-x="555" 
d="M259 704l-14 31l172 107l30 -45l-4 -9zM8 0l-4 20l484 595h-396l6 46h467l4 -19l-487 -596h411l-6 -46h-479z" />
    <glyph glyph-name="zacute" unicode="&#x17a;" horiz-adv-x="487" 
d="M391 681l-152 -112l-22 32l134 129l41 -40zM471 492l-387 -445h337l-7 -47h-404l-3 25l385 445h-318l6 47h389z" />
    <glyph glyph-name="Zdotaccent" unicode="&#x17b;" horiz-adv-x="555" 
d="M349 740q-16 0 -26.5 10t-10.5 26q0 19 12 30.5t29 11.5q16 0 26.5 -10t10.5 -26q0 -19 -12 -30.5t-29 -11.5zM8 0l-4 20l484 595h-396l6 46h467l4 -19l-487 -596h411l-6 -46h-479z" />
    <glyph glyph-name="zdotaccent" unicode="&#x17c;" horiz-adv-x="487" 
d="M298 630q-16 0 -26.5 10t-10.5 26q0 19 12 30.5t29 11.5q16 0 26.5 -10t10.5 -26q0 -19 -12 -30.5t-29 -11.5zM471 492l-387 -445h337l-7 -47h-404l-3 25l385 445h-318l6 47h389z" />
    <glyph glyph-name="Zcaron" unicode="&#x17d;" horiz-adv-x="555" 
d="M331 704l-104 110l25 27l97 -89l114 89l20 -26l-127 -111h-25zM8 0l-4 20l484 595h-396l6 46h467l4 -19l-487 -596h411l-6 -46h-479z" />
    <glyph glyph-name="zcaron" unicode="&#x17e;" horiz-adv-x="487" 
d="M300 570h-25l-93 133l27 23l85 -102l114 102l20 -23zM471 492l-387 -445h337l-7 -47h-404l-3 25l385 445h-318l6 47h389z" />
    <glyph glyph-name="uni01EA" unicode="&#x1ea;" horiz-adv-x="751" 
d="M421 -8q-99 -67 -99 -133q0 -43 47 -43q18 0 29 4l2 -2l-5 -36q-18 -7 -45 -7q-39 0 -61 18t-22 50q0 78 102 145q-137 0 -220 82.5t-83 221.5q0 172 96 277t245 105q135 0 217.5 -83.5t82.5 -222.5q0 -155 -79.5 -256.5t-206.5 -119.5zM122 297q0 -123 68 -192t186 -69
q121 0 198 91.5t77 235.5q0 123 -67.5 193t-182.5 70q-125 0 -202 -91.5t-77 -237.5z" />
    <glyph glyph-name="uni01EB" unicode="&#x1eb;" horiz-adv-x="605" 
d="M356 -1q-103 -69 -103 -136q0 -43 47 -43q18 0 29 4l2 -2l-5 -36q-18 -7 -45 -7q-39 0 -61 18t-22 50q0 77 97 141h-16q-100 0 -164 63t-64 173q0 132 76.5 218t196.5 86q102 0 166 -62.5t64 -173.5q0 -108 -54 -187.5t-144 -105.5zM108 229q0 -89 49 -140.5t129 -51.5
q96 0 153.5 72.5t57.5 178.5q0 88 -49 139.5t-130 51.5q-95 0 -152.5 -73t-57.5 -177z" />
    <glyph glyph-name="AEacute" unicode="&#x1fc;" horiz-adv-x="781" 
d="M645 785l-184 -84l-14 31l172 107l30 -45zM768 615h-265l-34 -249h246l-7 -46h-246l-38 -274h277l-6 -46h-333l31 218h-224l-161 -218h-56l489 661h333zM199 258h199l48 339l-48 -69z" />
    <glyph glyph-name="aeacute" unicode="&#x1fd;" horiz-adv-x="913" 
d="M615 681l-152 -112l-22 32l134 129l41 -40zM676 529q95 0 144.5 -55.5t49.5 -137.5q0 -37 -10 -82h-387q-1 -9 -1 -29q0 -90 49.5 -139.5t125.5 -49.5q95 0 163 49l2 -2l-7 -51q-64 -44 -164 -44q-82 0 -140.5 41t-77.5 120q-63 -161 -200 -161q-87 0 -136.5 55.5
t-49.5 149.5q0 154 79.5 245t196.5 91q69 0 111 -19t77 -56q73 75 175 75zM235 37q69 0 118 66t65 166q8 81 51 146q-55 65 -155 65q-93 0 -156.5 -74.5t-63.5 -204.5q0 -76 37 -120t104 -44zM479 299h336q2 22 2 34q0 65 -35.5 106t-110.5 41q-69 0 -121.5 -48.5
t-70.5 -132.5z" />
    <glyph glyph-name="Oslashacute" unicode="&#x1fe;" horiz-adv-x="751" 
d="M538 785l-184 -84l-14 31l172 107l30 -45zM616 599q91 -85 91 -231q0 -171 -95 -275.5t-243 -104.5q-105 0 -179 49l-72 -94h-47v5l87 114q-92 83 -92 230q0 172 96 277t245 105q102 0 177 -50l70 92h48v-5zM122 297q0 -122 68 -192l363 477q-62 44 -152 44
q-125 0 -202 -91.5t-77 -237.5zM376 36q121 0 198 91.5t77 235.5q0 121 -67 193l-363 -477q63 -43 155 -43z" />
    <glyph glyph-name="oslashacute" unicode="&#x1ff;" horiz-adv-x="605" 
d="M427 681l-152 -112l-22 32l134 129l41 -40zM475 479q79 -64 79 -187q0 -131 -77 -217.5t-198 -86.5q-60 0 -112 25l-46 -69l-42 1v6l55 83q-83 65 -83 190q0 132 76.5 218t196.5 86q66 0 117 -27l42 65h45l1 -5zM108 229q0 -95 56 -148l247 375q-40 23 -93 23
q-95 0 -152.5 -73t-57.5 -177zM286 37q96 0 153.5 72.5t57.5 178.5q0 93 -53 144l-248 -374q39 -21 90 -21z" />
    <glyph glyph-name="Scommaaccent" unicode="&#x218;" horiz-adv-x="502" 
d="M233 -14q-114 0 -188 49l1 56l3 2q75 -59 180 -59q72 0 115 35.5t43 93.5q0 60 -36.5 95.5t-109.5 68.5q-77 36 -120 75.5t-43 103.5q0 81 58.5 126t147.5 45q95 0 161 -34l-1 -52l-3 -1q-59 39 -154 39q-66 1 -109.5 -29t-43.5 -85q0 -51 36 -80.5t109 -62.5
q36 -17 60.5 -32t50.5 -39t39 -56.5t13 -72.5q0 -86 -57 -136t-152 -50zM167 -219q26 62 37 134l3 32l51 5l5 -7q-11 -81 -59 -164h-37z" />
    <glyph glyph-name="scommaaccent" unicode="&#x219;" horiz-adv-x="456" 
d="M178 -13q-104 0 -161 40l8 54l3 1q55 -46 160 -46q70 0 111 26.5t41 78.5q0 39 -28 59.5t-97 42.5t-104.5 51.5t-35.5 81.5q0 71 58 111.5t153 40.5q81 0 133 -25l-7 -49l-2 -1q-57 27 -130 27q-67 0 -108 -25.5t-41 -72.5q0 -34 28 -53.5t91 -38.5q75 -24 110 -53.5
t35 -82.5q0 -80 -59.5 -123.5t-157.5 -43.5zM118 -219q26 62 37 134l3 32l51 5l5 -7q-11 -81 -59 -164h-37z" />
    <glyph glyph-name="uni021A" unicode="&#x21a;" horiz-adv-x="526" 
d="M564 661l-7 -49h-215l-86 -612h-55l87 612h-219l7 49h488zM188 -53l51 5l5 -7q-11 -81 -59 -164h-37q26 62 37 134z" />
    <glyph glyph-name="uni021B" unicode="&#x21b;" horiz-adv-x="353" 
d="M204 472l-43 -310q-3 -16 -3 -38q0 -37 24.5 -58t68.5 -21q36 0 68 16l2 -1l-7 -47q-32 -18 -78 -18q-61 0 -97.5 31.5t-36.5 84.5q0 19 3 45l44 316h-110l7 45h110l17 122l54 11l1 -2l-18 -131h163l-7 -45h-162zM167 -53l51 5l5 -7q-11 -81 -59 -164h-37q26 62 37 134z
" />
    <glyph glyph-name="uni0237" unicode="&#x237;" horiz-adv-x="245" 
d="M-51 -169q-21 0 -42 4l8 48l2 1q13 -3 30 -3q104 0 123 137l70 499h54l-71 -510q-24 -176 -174 -176z" />
    <glyph glyph-name="circumflex" unicode="&#x2c6;" horiz-adv-x="308" 
d="M99 570l-21 23l129 133h25l93 -133l-28 -23l-83 102z" />
    <glyph glyph-name="caron" unicode="&#x2c7;" horiz-adv-x="308" 
d="M187 570l-93 133l27 23l85 -102l114 102l20 -23l-128 -133h-25z" />
    <glyph glyph-name="breve" unicode="&#x2d8;" horiz-adv-x="297" 
d="M196 579q-52 0 -83.5 36t-22.5 97l37 4l2 -2q-4 -42 15.5 -67t55.5 -25q37 0 64 25t35 66l2 3l35 -4q-9 -62 -47 -97.5t-93 -35.5z" />
    <glyph glyph-name="dotaccent" unicode="&#x2d9;" horiz-adv-x="260" 
d="M186 630q-16 0 -26.5 10t-10.5 26q0 19 12 30.5t29 11.5q16 0 26.5 -10t10.5 -26q0 -19 -12 -30.5t-29 -11.5z" />
    <glyph glyph-name="ring" unicode="&#x2da;" horiz-adv-x="318" 
d="M181 566q-34 0 -55.5 21.5t-21.5 54.5q0 40 25.5 66.5t65.5 26.5q34 0 55.5 -21t21.5 -54q0 -41 -25 -67.5t-66 -26.5zM185 598q24 0 38.5 16.5t14.5 41.5q0 21 -13 34t-34 13q-23 0 -37.5 -16.5t-14.5 -41.5q0 -21 12.5 -34t33.5 -13z" />
    <glyph glyph-name="ogonek" unicode="&#x2db;" horiz-adv-x="181" 
d="M46 -221q-39 0 -61 18t-22 50q0 47 36 88.5t91 71.5l38 -4q-110 -71 -110 -140q0 -43 47 -43q18 0 29 4l2 -2l-5 -36q-18 -7 -45 -7z" />
    <glyph glyph-name="tilde" unicode="&#x2dc;" horiz-adv-x="326" 
d="M102 606l-35 8q5 38 27.5 61.5t55.5 23.5q28 0 69.5 -20.5t62.5 -20.5q40 0 47 45l2 2l38 -8q-6 -41 -30.5 -63t-56.5 -22q-27 0 -68.5 20.5t-63.5 20.5q-16 0 -29 -12t-17 -33z" />
    <glyph glyph-name="hungarumlaut" unicode="&#x2dd;" horiz-adv-x="328" 
d="M97 567l-26 16l102 152l39 -16l-1 -10zM249 567l-25 16l101 152l39 -16l-1 -10z" />
    <glyph glyph-name="gravecomb" unicode="&#x300;" 
d="M9 573l-159 104l-1 8l39 42l141 -121z" />
    <glyph glyph-name="acutecomb" unicode="&#x301;" 
d="M-125 569l-22 32l134 129l41 -40l-1 -9z" />
    <glyph glyph-name="uni0302" unicode="&#x302;" 
d="M-208 570l-21 23l129 133h25l93 -133l-28 -23l-83 102z" />
    <glyph glyph-name="tildecomb" unicode="&#x303;" 
d="M-224 606l-35 8q5 38 27.5 61.5t55.5 23.5q28 0 69.5 -20.5t62.5 -20.5q40 0 47 45l2 2l38 -8q-6 -41 -30.5 -63t-56.5 -22q-27 0 -68.5 20.5t-63.5 20.5q-16 0 -29 -12t-17 -33z" />
    <glyph glyph-name="uni0304" unicode="&#x304;" 
d="M-245 626l7 42h272l-6 -42h-273z" />
    <glyph glyph-name="uni0306" unicode="&#x306;" 
d="M-101 579q-52 0 -83.5 36t-22.5 97l37 4l2 -2q-4 -42 15.5 -67t55.5 -25q37 0 64 25t35 66l2 3l35 -4q-9 -62 -47 -97.5t-93 -35.5z" />
    <glyph glyph-name="uni0307" unicode="&#x307;" 
d="M-74 630q-16 0 -26.5 10t-10.5 26q0 19 12 30.5t29 11.5q16 0 26.5 -10t10.5 -26q0 -19 -12 -30.5t-29 -11.5z" />
    <glyph glyph-name="uni0308" unicode="&#x308;" 
d="M-183 630q-16 0 -26.5 10t-10.5 26q0 18 12.5 29t28.5 11t25.5 -9.5t9.5 -24.5q0 -19 -11.5 -30.5t-27.5 -11.5zM-9 630q-16 0 -26 10t-10 26q0 18 12 29t28 11t26 -9.5t10 -24.5q0 -19 -11.5 -30.5t-28.5 -11.5z" />
    <glyph glyph-name="uni030A" unicode="&#x30a;" 
d="M-92 566q-34 0 -55.5 21.5t-21.5 54.5q0 40 25.5 66.5t65.5 26.5q34 0 55.5 -21t21.5 -54q0 -41 -25 -67.5t-66 -26.5zM-88 598q24 0 38.5 16.5t14.5 41.5q0 21 -13 34t-34 13q-23 0 -37.5 -16.5t-14.5 -41.5q0 -21 12.5 -34t33.5 -13z" />
    <glyph glyph-name="uni030B" unicode="&#x30b;" 
d="M-231 567l-26 16l102 152l39 -16l-1 -10zM-79 567l-25 16l101 152l39 -16l-1 -10z" />
    <glyph glyph-name="uni030C" unicode="&#x30c;" 
d="M-121 570l-93 133l27 23l85 -102l114 102l20 -23l-128 -133h-25z" />
    <glyph glyph-name="uni0326" unicode="&#x326;" 
d="M-190 -219q26 62 37 134l3 32l51 5l5 -7q-11 -81 -59 -164h-37z" />
    <glyph glyph-name="uni0327" unicode="&#x327;" 
d="M-183 -226q-34 0 -59 10l5 35l1 1q19 -9 51 -9t53.5 15.5t21.5 44.5q0 21 -13 32.5t-34 11.5q-27 0 -52 -10l-1 1l5 30l44 64h38l-38 -56q12 4 29 4q32 0 51.5 -17.5t19.5 -52.5q0 -52 -35 -78t-87 -26z" />
    <glyph glyph-name="uni0328" unicode="&#x328;" 
d="M-140 -221q-39 0 -61 18t-22 50q0 47 36 88.5t91 71.5l38 -4q-110 -71 -110 -140q0 -43 47 -43q18 0 29 4l2 -2l-5 -36q-18 -7 -45 -7z" />
    <glyph glyph-name="uni0335" unicode="&#x335;" 
d="M-283 208l6 41h246l-5 -41h-247z" />
    <glyph glyph-name="uni0336" unicode="&#x336;" 
d="M-576 328l6 43h609l-6 -43h-609z" />
    <glyph glyph-name="uni0337" unicode="&#x337;" 
d="M-224 271l7 47l218 129h3l-7 -47l-218 -129h-3z" />
    <glyph glyph-name="uni0338" unicode="&#x338;" 
d="M-514 -51v6l404 615h45l1 -5l-408 -617z" />
    <glyph glyph-name="Wgrave" unicode="&#x1e80;" horiz-adv-x="922" 
d="M602 701l-170 89l-2 8l34 44l154 -110zM954 661l1 -3l-304 -672h-39l-102 556l-3 21l-8 -21l-260 -556h-40l-118 672l1 3h57l90 -563l3 -32l12 32l258 561h37l101 -558l3 -32l12 32l246 560h53z" />
    <glyph glyph-name="wgrave" unicode="&#x1e81;" horiz-adv-x="767" 
d="M493 577l-159 104l-1 8l39 42l141 -121zM775 517l1 -2l-235 -515h-50l-75 431l-2 19l-8 -18l-200 -432h-51l-92 515l1 2h55l70 -429l1 -18l7 18l198 429h56l75 -428l2 -20l7 20l189 428h51z" />
    <glyph glyph-name="Wacute" unicode="&#x1e82;" horiz-adv-x="922" 
d="M628 785l-184 -84l-14 31l172 107l30 -45zM954 661l1 -3l-304 -672h-39l-102 556l-3 21l-8 -21l-260 -556h-40l-118 672l1 3h57l90 -563l3 -32l12 32l258 561h37l101 -558l3 -32l12 32l246 560h53z" />
    <glyph glyph-name="wacute" unicode="&#x1e83;" horiz-adv-x="767" 
d="M533 685l-152 -112l-22 32l134 129l41 -40zM775 517l1 -2l-235 -515h-50l-75 431l-2 19l-8 -18l-200 -432h-51l-92 515l1 2h55l70 -429l1 -18l7 18l198 429h56l75 -428l2 -20l7 20l189 428h51z" />
    <glyph glyph-name="Wdieresis" unicode="&#x1e84;" horiz-adv-x="922" 
d="M441 736q-14 0 -23.5 9t-9.5 24q0 18 11 28t26 10t24 -9t9 -23q0 -18 -10.5 -28.5t-26.5 -10.5zM625 736q-14 0 -23.5 9t-9.5 24q0 18 11 28t27 10q14 0 23.5 -9t9.5 -23q0 -18 -11 -28.5t-27 -10.5zM954 661l1 -3l-304 -672h-39l-102 556l-3 21l-8 -21l-260 -556h-40
l-118 672l1 3h57l90 -563l3 -32l12 32l258 561h37l101 -558l3 -32l12 32l246 560h53z" />
    <glyph glyph-name="wdieresis" unicode="&#x1e85;" horiz-adv-x="767" 
d="M350 634q-16 0 -26.5 10t-10.5 26q0 18 12.5 29t28.5 11t25.5 -9.5t9.5 -24.5q0 -19 -11.5 -30.5t-27.5 -11.5zM524 634q-16 0 -26 10t-10 26q0 18 12 29t28 11t26 -9.5t10 -24.5q0 -19 -11.5 -30.5t-28.5 -11.5zM775 517l1 -2l-235 -515h-50l-75 431l-2 19l-8 -18
l-200 -432h-51l-92 515l1 2h55l70 -429l1 -18l7 18l198 429h56l75 -428l2 -20l7 20l189 428h51z" />
    <glyph glyph-name="Ygrave" unicode="&#x1ef2;" horiz-adv-x="560" 
d="M422 701l-170 89l-2 8l34 44l154 -110zM217 0l40 282l-177 376l1 3h57l154 -327l245 327h55l1 -3l-282 -376l-40 -282h-54z" />
    <glyph glyph-name="ygrave" unicode="&#x1ef3;" horiz-adv-x="511" 
d="M374 573l-159 104l-1 8l39 42l141 -121zM525 515l-277 -518h-1q-49 -90 -91 -128t-106 -38q-26 0 -55 9l8 44l3 1q23 -7 50 -7q42 0 75 31t70 98l5 10l-145 498l1 2h58l121 -438l227 438h56z" />
    <glyph glyph-name="uni1EF8" unicode="&#x1ef8;" horiz-adv-x="560" 
d="M242 717l-36 11q6 37 31 60.5t57 23.5q26 0 65.5 -20.5t57.5 -20.5q17 0 31 12t17 34l2 2l35 -11q-7 -38 -31 -61t-56 -23q-22 0 -62.5 20.5t-60.5 20.5q-18 0 -31.5 -12.5t-16.5 -34.5zM217 0l40 282l-177 376l1 3h57l154 -327l245 327h55l1 -3l-282 -376l-40 -282h-54z
" />
    <glyph glyph-name="uni1EF9" unicode="&#x1ef9;" horiz-adv-x="511" 
d="M206 608l-2 -2l-35 8q5 38 27.5 61.5t55.5 23.5q28 0 69.5 -20.5t62.5 -20.5q40 0 47 45l2 2l38 -8q-6 -41 -30.5 -63t-56.5 -22q-27 0 -68.5 20.5t-63.5 20.5q-16 0 -29 -12t-17 -33zM525 515l-277 -518h-1q-49 -90 -91 -128t-106 -38q-26 0 -55 9l8 44l3 1q23 -7 50 -7
q42 0 75 31t70 98l5 10l-145 498l1 2h58l121 -438l227 438h56z" />
    <glyph glyph-name="endash" unicode="&#x2013;" horiz-adv-x="492" 
d="M75 257l7 46h340l-6 -46h-341z" />
    <glyph glyph-name="emdash" unicode="&#x2014;" horiz-adv-x="819" 
d="M75 257l7 46h668l-6 -46h-669z" />
    <glyph glyph-name="quoteleft" unicode="&#x2018;" horiz-adv-x="193" 
d="M203 693q-26 -90 -35 -158q-2 -10 -4 -38l-49 -8l-7 8q14 89 61 196h34z" />
    <glyph glyph-name="quoteright" unicode="&#x2019;" horiz-adv-x="180" 
d="M87 489q20 67 34 152q3 13 5 44l50 8l6 -8q-13 -86 -60 -196h-35z" />
    <glyph glyph-name="quotesinglbase" unicode="&#x201a;" horiz-adv-x="186" 
d="M-11 -137q17 60 34 151q3 14 5 44l50 8l6 -8q-14 -90 -61 -195h-34z" />
    <glyph glyph-name="quotedblleft" unicode="&#x201c;" horiz-adv-x="319" 
d="M203 693q-26 -90 -35 -158q-2 -10 -4 -38l-49 -8l-7 8q14 89 61 196h34zM329 693q-25 -92 -34 -158q-4 -24 -4 -38l-50 -8l-6 8q12 88 60 196h34z" />
    <glyph glyph-name="quotedblright" unicode="&#x201d;" horiz-adv-x="315" 
d="M87 489q20 67 34 152q3 13 5 44l50 8l6 -8q-13 -86 -60 -196h-35zM213 489q24 81 35 158q2 10 4 38l50 8l6 -8q-11 -84 -61 -196h-34z" />
    <glyph glyph-name="quotedblbase" unicode="&#x201e;" horiz-adv-x="310" 
d="M-11 -137q17 60 34 151q3 14 5 44l50 8l6 -8q-14 -90 -61 -195h-34zM115 -137q21 72 35 157q3 19 3 38l51 8l6 -8q-14 -90 -61 -195h-34z" />
    <glyph glyph-name="dagger" unicode="&#x2020;" horiz-adv-x="480" 
d="M294 507l159 8l-7 -51l-152 5l-79 -516h-36l65 517l-152 -7l7 52l158 -8l18 176h52z" />
    <glyph glyph-name="daggerdbl" unicode="&#x2021;" horiz-adv-x="481" 
d="M171 -49l32 174l-161 -7l8 52l152 -8l29 156l14 154l-153 -7l7 53l158 -8l18 174h53l-33 -175l161 9l-8 -53l-152 7l-28 -154l-15 -155l153 7l-7 -52l-159 7l-16 -174h-53z" />
    <glyph glyph-name="bullet" unicode="&#x2022;" horiz-adv-x="357" 
d="M171 188q-35 0 -56 22.5t-21 56.5q0 41 28.5 70.5t69.5 29.5q33 0 55 -23t22 -56q0 -41 -28.5 -70.5t-69.5 -29.5z" />
    <glyph glyph-name="ellipsis" unicode="&#x2026;" horiz-adv-x="520" 
d="M66 -4q-17 0 -27 10t-10 26q0 18 12 30.5t31 12.5q17 0 26.5 -10.5t9.5 -26.5q0 -18 -11.5 -30t-30.5 -12zM231 -4q-17 0 -27 10t-10 26q0 18 12 30.5t31 12.5q17 0 26.5 -10.5t9.5 -26.5q0 -18 -11.5 -30t-30.5 -12zM395 -4q-17 0 -27 10t-10 26q0 18 12 30.5t31 12.5
q17 0 26.5 -10.5t9.5 -26.5q0 -18 -11.5 -30t-30.5 -12z" />
    <glyph glyph-name="perthousand" unicode="&#x2030;" horiz-adv-x="1011" 
d="M205 351q-59 0 -93 34.5t-34 96.5q0 84 49 135t123 51q58 0 92.5 -35.5t34.5 -98.5q0 -85 -48.5 -134t-123.5 -49zM77 10l512 645h49l-513 -645h-48zM211 391q52 0 86 37.5t34 100.5q0 46 -23.5 72.5t-63.5 26.5q-52 0 -85.5 -38.5t-33.5 -101.5q0 -46 23 -71.5t63 -25.5
zM469 -5q-58 0 -92 34.5t-34 95.5q0 86 48 136t123 50q59 0 93.5 -35t34.5 -98q0 -85 -49 -134t-124 -49zM791 -5q-59 0 -93 34.5t-34 96.5q0 85 48.5 135t123.5 50q58 0 92.5 -35t34.5 -98q0 -85 -48.5 -134t-123.5 -49zM476 35q52 0 85.5 37t33.5 101q0 46 -23.5 72
t-62.5 26q-53 0 -86.5 -38.5t-33.5 -102.5q0 -45 23 -70t64 -25zM797 35q53 0 86 37t33 101q0 46 -22.5 72t-62.5 26q-53 0 -87 -38.5t-34 -102.5q0 -45 23.5 -70t63.5 -25z" />
    <glyph glyph-name="guilsinglleft" unicode="&#x2039;" horiz-adv-x="325" 
d="M254 90l-137 189l189 178h54v-6l-183 -175l129 -180l-1 -6h-51z" />
    <glyph glyph-name="guilsinglright" unicode="&#x203a;" horiz-adv-x="324" 
d="M148 457l137 -189l-189 -178h-54v6l183 175l-129 180l1 6h51z" />
    <glyph glyph-name="fraction" unicode="&#x2044;" horiz-adv-x="135" 
d="M-198 -12l514 675h44l-513 -675h-45z" />
    <glyph glyph-name="Euro" unicode="&#x20ac;" horiz-adv-x="669" 
d="M499 673q92 0 160 -28l-7 -51l-2 -1q-60 31 -152 31q-97 0 -170 -50.5t-108 -138.5h265l-14 -42h-264q-13 -46 -13 -105v-5h242l-13 -41h-226q12 -91 71.5 -144.5t154.5 -53.5q79 0 156 34l1 -2l-5 -48q-77 -34 -156 -34q-120 0 -194.5 67t-85.5 181h-113l12 41h99
q0 55 13 110h-76l13 42h75q39 111 129.5 174.5t207.5 63.5z" />
    <glyph glyph-name="trademark" unicode="&#x2122;" horiz-adv-x="767" 
d="M351 612h-107l-36 -265h-45l36 265h-107l6 43h259zM678 655h40l-12 -308h-42l8 225h-1l-132 -223h-23l-69 228h-1l-55 -230h-42l74 308h41l75 -241z" />
    <glyph glyph-name="minus" unicode="&#x2212;" horiz-adv-x="517" 
d="M80 272l6 44h362l-6 -44h-362z" />
    <glyph glyph-name="approxequal" unicode="&#x2248;" horiz-adv-x="492" 
d="M126 333l-37 5q5 40 31.5 63.5t64.5 23.5q37 0 87 -20.5t77 -20.5q47 0 54 46l3 1l34 -6q-5 -39 -31 -62.5t-64 -23.5q-32 0 -83 21t-79 21q-48 0 -56 -47zM100 148l-37 5q5 40 31.5 63.5t64.5 23.5q37 0 87 -21t77 -21q47 0 54 46l2 2l35 -6q-5 -40 -31 -63t-65 -23
q-31 0 -81.5 20.5t-79.5 20.5q-49 0 -56 -46z" />
    <glyph glyph-name="notequal" unicode="&#x2260;" horiz-adv-x="525" 
d="M464 371h-113l-97 -165h187l-6 -44h-207l-83 -142h-50l83 142h-113l6 44h133l96 165h-206l7 44h225l80 137h51l-80 -137h93z" />
    <glyph glyph-name="uniF8FF" unicode="&#xf8ff;" horiz-adv-x="1458" 
d="M719 520q-25 0 -43 18t-18 43q0 26 17.5 44t43.5 18t44 -18t18 -44t-18 -43.5t-44 -17.5zM67 269q0 133 9 313h100q10 -200 10 -313h-119zM571 263q-82 0 -82 66q0 12 2 49t2 38h-22v79l119 29l1 -17h178q10 -63 10 -238h-118q0 91 3 147h-61l3 -65q4 -4 15 -4q13 0 18 5
v-74q-14 -15 -68 -15zM295 264q-92 0 -92 114q0 134 134 134q124 0 124 -116v-127h-83l-8 61q-6 -33 -23.5 -49.5t-51.5 -16.5zM801 269q0 175 10 238h80q6 -42 6 -75q2 15 6.5 29.5t24 32.5t49.5 18q43 0 59 -24.5t18 -80.5l3 -138h-114q0 26 1 56t1 37q0 29 -15 29
q-18 0 -18 -29q0 -7 1.5 -37t1.5 -56h-114zM1195 264q-122 0 -122 124t124 124q121 0 121 -122q0 -126 -123 -126zM333 344q24 0 24 30q0 26 -24 26q-22 0 -22 -26q0 -30 22 -30zM1195 344q23 0 23 30q0 26 -23 26q-21 0 -21 -26q0 -30 21 -30zM357 -50q-61 0 -88 17v83
q24 -16 70 -16q21 0 34 6t16.5 11.5t3.5 10.5q-17 -11 -49 -11q-90 0 -90 82v13h-55l3 -64q6 -4 15 -4q13 0 18 5v-73q-19 -15 -68 -15q-45 0 -63 17t-18 54q0 38 3 80h-18v80l117 29l-1 -18h177v-119q0 -16 3 -21t12 -5q16 0 16 26v119h104q10 -53 10 -138
q0 -80 -33.5 -114.5t-118.5 -34.5zM525 -44q0 141 10 281h78q7 -42 7 -76q17 81 80 81q37 0 58.5 -29t21.5 -84q0 -134 -137 -134q1 -15 1 -39h-119zM937 -5q-141 0 -141 122q0 58 33 91.5t92 33.5q55 0 85.5 -30t30.5 -86q0 -22 -3 -34h-124q11 -18 50 -18q34 0 55 12v-75
q-23 -16 -78 -16zM905 108h40q3 27 -17 27q-23 0 -23 -27zM637 72q5 0 12.5 2.5t16 11t8.5 22.5q0 23 -20 23q-22 0 -22 -30q0 -14 5 -29zM1065 -10q-24 0 -24 23t24 23t24 -23t-24 -23zM1065 -5q18 0 18 18t-18 18t-18 -18t18 -18zM1055 2v23h11q10 0 10 -7t-7 -7l6 -9h-6
l-4 9h-5v-9h-5zM1060 15h7q4 0 4 3t-4 3h-7v-6z" />
    <glyph glyph-name="i.loclTRK" horiz-adv-x="230" 
d="M171 630q-16 0 -26.5 10t-10.5 26q0 19 12 30.5t29 11.5q16 0 26.5 -10t10.5 -26q0 -19 -12 -30.5t-29 -11.5zM51 0l73 517h55l-73 -517h-55z" />
    <glyph glyph-name="caroncomb.alt" 
d="M-53 511l37 205h42l6 -9l-50 -196h-35z" />
    <glyph glyph-name="uni0308.case" 
d="M-180 738q-14 0 -23.5 9t-9.5 24q0 18 11 28t26 10t24 -9t9 -23q0 -18 -10.5 -28.5t-26.5 -10.5zM4 738q-14 0 -23.5 9t-9.5 24q0 18 11 28t27 10q14 0 23.5 -9t9.5 -23q0 -18 -11 -28.5t-27 -10.5z" />
    <glyph glyph-name="uni0307.case" 
d="M-51 739q-16 0 -26.5 10t-10.5 26q0 19 12 30.5t29 11.5q16 0 26.5 -10t10.5 -26q0 -19 -12 -30.5t-29 -11.5z" />
    <glyph glyph-name="gravecomb.case" 
d="M21 703l-170 89l-2 8l34 44l154 -110z" />
    <glyph glyph-name="acutecomb.case" 
d="M-139 703l-14 31l172 107l30 -45l-4 -9z" />
    <glyph glyph-name="uni030B.case" 
d="M-212 715l-28 14l78 142l46 -13l-1 -9zM-46 715l-28 15l79 141l45 -13v-9z" />
    <glyph glyph-name="uni0302.case" 
d="M-201 703l-18 26l130 111h25l101 -111l-23 -26l-97 88z" />
    <glyph glyph-name="uni030C.case" 
d="M-103 703l-104 110l25 27l97 -89l114 89l20 -26l-127 -111h-25z" />
    <glyph glyph-name="uni0306.case" 
d="M-82 707q-56 0 -87 33.5t-22 91.5l36 3q-2 -40 18.5 -63t56.5 -23q39 0 67 23.5t35 62.5l33 -3q-7 -58 -45.5 -91.5t-91.5 -33.5z" />
    <glyph glyph-name="uni030A.case" 
d="M-45 681q-33 0 -55 20.5t-22 53.5q0 39 25.5 64.5t64.5 25.5q33 0 55 -20.5t22 -52.5q0 -39 -25 -65t-65 -26zM-41 713q24 0 38 15.5t14 39.5q0 20 -13 32.5t-34 12.5q-22 0 -37 -16t-15 -39q0 -20 13.5 -32.5t33.5 -12.5z" />
    <glyph glyph-name="tildecomb.case" 
d="M-204 719l-36 11q6 37 31 60.5t57 23.5q26 0 65.5 -20.5t57.5 -20.5q17 0 31 12t17 34l2 2l35 -11q-7 -38 -31 -61t-56 -23q-22 0 -62.5 20.5t-60.5 20.5q-18 0 -31.5 -12.5t-16.5 -34.5z" />
    <glyph glyph-name="uni0304.case" 
d="M-210 753l7 46h257l-7 -46h-257z" />
    <glyph glyph-name="uni0337.case" 
d="M-232 237l6 47l218 128h4l-7 -49l-219 -128z" />
    <glyph glyph-name="uni0338.case" 
d="M-650 -52v5l583 768h48v-5l-584 -768h-47z" />
    <glyph glyph-name="caron.alt" horiz-adv-x="122" 
d="M69 511l37 205h42l6 -9l-50 -196h-35z" />
    <glyph glyph-name="acute.case" horiz-adv-x="252" 
d="M113 703l-14 31l172 107l30 -45l-4 -9z" />
    <glyph glyph-name="breve.case" horiz-adv-x="297" 
d="M215 707q-56 0 -87 33.5t-22 91.5l36 3q-2 -40 18.5 -63t56.5 -23q39 0 67 23.5t35 62.5l33 -3q-7 -58 -45.5 -91.5t-91.5 -33.5z" />
    <glyph glyph-name="caron.case" horiz-adv-x="314" 
d="M211 703l-104 110l25 27l97 -89l114 89l20 -26l-127 -111h-25z" />
    <glyph glyph-name="circumflex.case" horiz-adv-x="314" 
d="M113 703l-18 26l130 111h25l101 -111l-23 -26l-97 88z" />
    <glyph glyph-name="dieresis.case" horiz-adv-x="316" 
d="M136 738q-14 0 -23.5 9t-9.5 24q0 18 11 28t26 10t24 -9t9 -23q0 -18 -10.5 -28.5t-26.5 -10.5zM320 738q-14 0 -23.5 9t-9.5 24q0 18 11 28t27 10q14 0 23.5 -9t9.5 -23q0 -18 -11 -28.5t-27 -10.5z" />
    <glyph glyph-name="dotaccent.case" horiz-adv-x="246" 
d="M195 739q-16 0 -26.5 10t-10.5 26q0 19 12 30.5t29 11.5q16 0 26.5 -10t10.5 -26q0 -19 -12 -30.5t-29 -11.5z" />
    <glyph glyph-name="grave.case" horiz-adv-x="252" 
d="M273 703l-170 89l-2 8l34 44l154 -110z" />
    <glyph glyph-name="hungarumlaut.case" horiz-adv-x="353" 
d="M141 715l-28 14l78 142l46 -13l-1 -9zM307 715l-28 15l79 141l45 -13v-9z" />
    <glyph glyph-name="macron.case" horiz-adv-x="356" 
d="M92 753l7 46h257l-7 -46h-257z" />
    <glyph glyph-name="ring.case" horiz-adv-x="217" 
d="M172 681q-33 0 -55 20.5t-22 53.5q0 39 25.5 64.5t64.5 25.5q33 0 55 -20.5t22 -52.5q0 -39 -25 -65t-65 -26zM176 713q24 0 38 15.5t14 39.5q0 20 -13 32.5t-34 12.5q-22 0 -37 -16t-15 -39q0 -20 13.5 -32.5t33.5 -12.5z" />
    <glyph glyph-name="tilde.case" horiz-adv-x="329" 
d="M125 719l-36 11q6 37 31 60.5t57 23.5q26 0 65.5 -20.5t57.5 -20.5q17 0 31 12t17 34l2 2l35 -11q-7 -38 -31 -61t-56 -23q-22 0 -62.5 20.5t-60.5 20.5q-18 0 -31.5 -12.5t-16.5 -34.5z" />
    <glyph glyph-name="IJacute" horiz-adv-x="591" 
d="M124 708l-14 31l172 107l30 -45l-4 -9zM456 708l-14 31l172 107l30 -45l-4 -9zM66 0l93 661h54l-92 -661h-55zM287 -3q-21 0 -48 3l8 47l2 1q15 -3 38 -3q66 0 104.5 43.5t49.5 119.5l64 453h55l-63 -450q-14 -103 -67 -158.5t-143 -55.5z" />
    <glyph glyph-name="ijacute" horiz-adv-x="468" 
d="M114 569l-23 29l133 134l42 -41l-1 -9zM350 569l-22 29l132 134l42 -41v-9zM51 0l73 517h55l-73 -517h-55zM172 -169q-22 0 -42 4l7 48l2 1q13 -3 30 -3q105 0 124 137l70 499h54l-71 -510q-24 -176 -174 -176z" />
    </font>
</defs>
</svg>
