<?xml version="1.0" standalone="no"?>
<!DOCTYPE svg PUBLIC "-//W3C//DTD SVG 1.1//EN" "http://www.w3.org/Graphics/SVG/1.1/DTD/svg11.dtd" >
<svg xmlns="http://www.w3.org/2000/svg" xmlns:xlink="http://www.w3.org/1999/xlink" version="1.1">
<metadata>
Created by FontForge 20170731 at Thu Mar  2 15:41:47 2017
 By Aleksey,,,
Copyright (c) 2017 by Alfonso Garci'a - Latinotype Team. All rights reserved.
</metadata>
<defs>
<font id="RawsonAlt-Medium" horiz-adv-x="0" >
  <font-face 
    font-family="Rawson Alt Medium"
    font-weight="500"
    font-stretch="normal"
    units-per-em="1100"
    panose-1="0 0 6 0 0 0 0 0 0 0"
    ascent="880"
    descent="-220"
    x-height="516"
    cap-height="661"
    bbox="-710 -235 1351 914"
    underline-thickness="50"
    underline-position="-200"
    unicode-range="U+0020-FB02"
  />
<missing-glyph horiz-adv-x="500" 
 />
    <glyph glyph-name="fi" unicode="fi" horiz-adv-x="571" 
d="M444 611q-25 0 -42.5 18t-17.5 43q0 24 17.5 41.5t42.5 17.5t42.5 -17.5t17.5 -41.5q0 -25 -17.5 -43t-42.5 -18zM105 526q0 91 49.5 140t127.5 49q38 0 65 -10v-82l-3 -1q-18 9 -48 9q-44 0 -70 -26.5t-26 -78.5v-9h117v-75h-117v-442h-95v442h-71v75h71v9zM397 0v516
h94v-516h-94z" />
    <glyph glyph-name="fl" unicode="fl" horiz-adv-x="571" 
d="M105 526q0 91 49.5 140t127.5 49q41 0 65 -10v-83l-3 -1q-20 10 -48 10q-44 0 -70 -26.5t-26 -78.5v-10h117v-75h-117v-441h-95v441h-71v75h71v10zM396 710h94v-710h-94v710z" />
    <glyph glyph-name=".notdef" horiz-adv-x="500" 
 />
    <glyph glyph-name=".null" 
 />
    <glyph glyph-name="nonmarkingreturn" horiz-adv-x="366" 
 />
    <glyph glyph-name="space" unicode=" " horiz-adv-x="257" 
 />
    <glyph glyph-name="exclam" unicode="!" horiz-adv-x="265" 
d="M93 200l-7 484h94l-7 -484h-80zM132 -11q-27 0 -41.5 15t-14.5 38q0 22 14.5 36.5t41.5 14.5q26 0 40.5 -14.5t14.5 -36.5q0 -23 -14.5 -38t-40.5 -15z" />
    <glyph glyph-name="quotedbl" unicode="&#x22;" horiz-adv-x="342" 
d="M74 430l-4 231h78l9 -9l-23 -222h-60zM209 430l-4 231h78l9 -9l-23 -222h-60z" />
    <glyph glyph-name="numbersign" unicode="#" horiz-adv-x="579" 
d="M523 363h-81l-23 -139h93v-64h-104l-18 -106h-64l18 106h-149l-18 -106h-64l18 106h-75v64h86l23 139h-99v64h110l18 105h64l-18 -105h149l18 105h64l-18 -105h70v-64zM355 224l23 139h-149l-23 -139h149z" />
    <glyph glyph-name="dollar" unicode="$" horiz-adv-x="490" 
d="M441 220q0 -66 -39.5 -106t-110.5 -51v-95h-88v92q-80 5 -151 39v83l2 1q75 -49 174 -49q128 0 128 79q0 36 -31 54.5t-108 37.5q-82 23 -120.5 58.5t-38.5 98.5t44 101.5t118 47.5v97h89v-95q68 -4 115 -25v-83l-2 -1q-64 29 -149 29q-118 0 -118 -68q0 -15 6.5 -27
t14 -19t28 -15t34 -12t45.5 -13q77 -23 117.5 -60t40.5 -99z" />
    <glyph glyph-name="percent" unicode="%" horiz-adv-x="775" 
d="M202 334q-74 0 -119 42.5t-45 121.5q0 78 45.5 122.5t118.5 44.5q74 0 120.5 -44t46.5 -123t-46 -121.5t-121 -42.5zM122 11l450 641h81l-450 -641h-81zM202 399q41 0 64.5 25t23.5 74q0 48 -23.5 74.5t-64.5 26.5q-40 0 -63 -26.5t-23 -74.5q0 -49 22.5 -74t63.5 -25z
M571 -5q-73 0 -118.5 42.5t-45.5 120.5q0 80 45.5 124t118.5 44q75 0 120.5 -44t45.5 -124q0 -79 -45.5 -121t-120.5 -42zM571 61q41 0 64.5 25t23.5 72q0 49 -23.5 75.5t-64.5 26.5q-40 0 -63 -26.5t-23 -75.5q0 -47 23 -72t63 -25z" />
    <glyph glyph-name="ampersand" unicode="&#x26;" horiz-adv-x="667" 
d="M663 338h-81q-10 -116 -56 -198l132 -140h-105l-73 75q-83 -91 -216 -91q-95 0 -156 49t-61 142q0 131 141 205q-61 75 -61 148q0 67 52 111t130 44q80 0 136 -30v-78h-2q-57 30 -122 30q-44 0 -74.5 -22.5t-30.5 -61.5q0 -34 23.5 -67.5t85.5 -99.5l142 -151
q24 57 33 135h-85v70h248v-70zM277 64q89 0 147 69l-164 169l-22 23q-51 -25 -76 -56.5t-25 -78.5q0 -60 37.5 -93t102.5 -33z" />
    <glyph glyph-name="quotesingle" unicode="'" horiz-adv-x="208" 
d="M74 430l-4 231h78l9 -9l-23 -222h-60z" />
    <glyph glyph-name="parenleft" unicode="(" horiz-adv-x="308" 
d="M247 -175q-75 30 -137 154t-62 313q0 187 62 311t137 156l35 -71q-56 -33 -100.5 -137t-44.5 -258q0 -155 45 -261t100 -136z" />
    <glyph glyph-name="parenright" unicode=")" horiz-adv-x="308" 
d="M61 764q75 -30 137 -154t62 -313q0 -187 -62 -311t-137 -156l-35 71q56 33 100.5 137t44.5 258q0 155 -45 261t-100 136z" />
    <glyph glyph-name="asterisk" unicode="*" horiz-adv-x="479" 
d="M232 573l-7 4l-62 139l3 8l58 16l10 -7l16 -150l-4 -6zM275 563l-8 1l-9 10l-1 8l91 124l8 1l42 -43l-1 -11zM213 547l-152 16l-5 6l15 59l11 5l138 -61l3 -7l-3 -14zM408 471l-138 60l-3 7l3 14l6 5l153 -17l5 -6l-15 -59zM135 397l-43 43l1 11l122 89l8 -1l10 -9v-8
l-90 -124zM265 364l-9 6l-16 150l5 6l13 4l7 -4l63 -140l-4 -7z" />
    <glyph glyph-name="plus" unicode="+" horiz-adv-x="509" 
d="M467 329v-73h-175v-185h-74v185h-176v73h176v185h74v-185h175z" />
    <glyph glyph-name="comma" unicode="," horiz-adv-x="208" 
d="M41 -146q22 87 22 161q0 30 -4 63l87 8l12 -13q0 -117 -60 -219h-57z" />
    <glyph glyph-name="hyphen" unicode="-" horiz-adv-x="421" 
d="M70 250v78h280v-78h-280z" />
    <glyph glyph-name="period" unicode="." horiz-adv-x="233" 
d="M116 -7q-29 0 -45.5 17t-16.5 43q0 25 17 42.5t45 17.5q29 0 45.5 -17.5t16.5 -42.5q0 -26 -16.5 -43t-45.5 -17z" />
    <glyph glyph-name="slash" unicode="/" horiz-adv-x="463" 
d="M33 -119l313 867h85l-313 -867h-85z" />
    <glyph glyph-name="zero" unicode="0" horiz-adv-x="638" 
d="M318 -14q-118 0 -190.5 88.5t-72.5 251.5q0 165 73 256.5t191 91.5q119 0 191.5 -91.5t72.5 -256.5q0 -163 -73 -251.5t-192 -88.5zM319 66q76 0 121 68.5t45 191.5q0 126 -45 196.5t-121 70.5t-120.5 -70.5t-44.5 -196.5q0 -124 44.5 -192t120.5 -68z" />
    <glyph glyph-name="one" unicode="1" horiz-adv-x="382" 
d="M192 0v533l-162 -72h-5v94l241 117h19v-672h-93z" />
    <glyph glyph-name="two" unicode="2" horiz-adv-x="545" 
d="M44 0q-3 140 194 301q83 68 114.5 106.5t31.5 79.5q0 50 -34.5 77.5t-101.5 27.5q-62 0 -111 -21.5t-76 -47.5l-2 1l-1 82q75 69 202 69q93 0 155 -48t62 -133q0 -65 -35.5 -114t-128.5 -129q-144 -114 -153 -168h336v-83h-452z" />
    <glyph glyph-name="three" unicode="3" horiz-adv-x="536" 
d="M483 191q2 -93 -64.5 -149.5t-172.5 -56.5q-116 0 -196 45v90l2 1q73 -57 182 -57q69 0 114 34t45 95q0 58 -45.5 85t-140.5 28l-52 1v80h52q73 0 115 27t42 78q0 48 -35 75.5t-97 27.5q-101 0 -163 -45l-1 1v79q81 46 177 46q93 0 151.5 -44t58.5 -126q0 -96 -86 -147
q111 -39 114 -168z" />
    <glyph glyph-name="four" unicode="4" horiz-adv-x="597" 
d="M563 223v-84h-111v-139h-86v139h-347v40l360 491h73v-447h111zM144 223h222v305z" />
    <glyph glyph-name="five" unicode="5" horiz-adv-x="544" 
d="M258 -15q-108 0 -200 41v91h2q95 -48 189 -48q71 0 111 35t40 101q0 57 -39.5 93.5t-115.5 36.5q-93 0 -173 -23l-2 2l23 349h372v-81h-292l-11 -173q39 9 96 9q113 0 176 -54t63 -152q0 -59 -20.5 -104t-55.5 -71t-76.5 -39t-86.5 -13z" />
    <glyph glyph-name="six" unicode="6" horiz-adv-x="588" 
d="M330 419q95 0 152 -56t57 -148q0 -98 -66.5 -164.5t-174.5 -66.5q-117 0 -180.5 78t-63.5 228q0 177 86 280.5t221 103.5q75 0 124 -19v-79l-3 -2q-49 19 -119 19q-99 0 -153.5 -73t-62.5 -193q61 92 183 92zM301 67q65 0 104.5 39t39.5 101q0 56 -35.5 92t-101.5 36
q-60 0 -103 -37.5t-51 -94.5q15 -67 53 -101.5t94 -34.5z" />
    <glyph glyph-name="seven" unicode="7" horiz-adv-x="493" 
d="M119 0l246 575h-341v86h449v-45l-256 -616h-98z" />
    <glyph glyph-name="eight" unicode="8" horiz-adv-x="592" 
d="M537 175q1 -83 -64 -136.5t-174 -53.5q-118 0 -181.5 47.5t-63.5 134.5q-2 113 116 189q-89 55 -89 146q0 78 60.5 125.5t155.5 47.5q96 0 156.5 -42t60.5 -122q0 -94 -106 -162q67 -33 97.5 -72.5t31.5 -101.5zM297 591q-57 0 -87.5 -23.5t-30.5 -63.5q0 -39 35 -65.5
t112 -53.5q7 -3 13 -5q81 50 81 122q0 43 -32 66t-91 23zM301 68q66 0 103.5 29.5t35.5 77.5q-1 45 -37 71.5t-121 55.5q-27 10 -46 19q-85 -59 -84 -144q0 -53 39.5 -81t109.5 -28z" />
    <glyph glyph-name="nine" unicode="9" horiz-adv-x="584" 
d="M281 676q116 0 182 -80.5t66 -239.5q0 -179 -74.5 -273t-211.5 -94q-91 0 -153 25v84l3 2q65 -31 141 -31q98 -1 145 61t55 175q-64 -71 -173 -71q-100 0 -159 57.5t-59 158.5q0 100 68.5 163t169.5 63zM277 318q53 0 94 26t63 69q-10 90 -51.5 135t-101.5 45
q-63 0 -103.5 -36.5t-40.5 -102.5q0 -62 37.5 -99t102.5 -37z" />
    <glyph glyph-name="colon" unicode=":" horiz-adv-x="248" 
d="M124 388q-26 0 -40.5 14.5t-14.5 37.5q0 22 14.5 37.5t40.5 15.5t41 -15.5t15 -37.5q0 -23 -14.5 -37.5t-41.5 -14.5zM124 -7q-26 0 -40.5 14.5t-14.5 37.5q0 22 14.5 37.5t40.5 15.5t41 -15.5t15 -37.5q0 -23 -14.5 -37.5t-41.5 -14.5z" />
    <glyph glyph-name="semicolon" unicode=";" horiz-adv-x="264" 
d="M142 389q-29 0 -45.5 17t-16.5 43q0 25 17 42.5t45 17.5q29 0 45.5 -17.5t16.5 -42.5q0 -26 -16.5 -43t-45.5 -17zM69 -146q22 87 22 161q0 30 -4 63l87 8l12 -13q0 -117 -60 -219h-57z" />
    <glyph glyph-name="less" unicode="&#x3c;" horiz-adv-x="472" 
d="M127 295l17 -7l270 -156l-37 -67l-340 196v67l340 196l37 -66l-271 -156z" />
    <glyph glyph-name="equal" unicode="=" horiz-adv-x="573" 
d="M71 360v73h431v-73h-431zM71 144v74h431v-74h-431z" />
    <glyph glyph-name="greater" unicode="&#x3e;" horiz-adv-x="472" 
d="M95 524l340 -196v-67l-340 -196l-37 66l271 156l16 7l-17 7l-270 156z" />
    <glyph glyph-name="question" unicode="?" horiz-adv-x="434" 
d="M132 194q0 67 18.5 107.5t70.5 78.5q39 30 57 56.5t18 71.5t-29.5 73t-84.5 28q-81 0 -135 -46l-2 1v82q55 44 149 44q85 0 140 -45.5t55 -126.5q0 -65 -26.5 -104.5t-82.5 -84.5q-65 -48 -65 -134zM174 -5q-26 0 -40.5 15.5t-14.5 37.5q0 23 14 37.5t41 14.5t41 -14.5
t14 -37.5q0 -22 -14.5 -37.5t-40.5 -15.5z" />
    <glyph glyph-name="at" unicode="@" horiz-adv-x="813" 
d="M586 431v-253q0 -41 35 -41q71 0 71 157q0 110 -71 183.5t-193 73.5q-133 0 -216 -84t-83 -218t82 -214t219 -80q123 0 201 70h3l35 -51q-90 -87 -239 -87q-174 0 -276 99t-102 263q0 163 104.5 266t271.5 103q154 0 248 -93t94 -226q0 -104 -39 -165.5t-119 -61.5
q-42 0 -65.5 20t-26.5 54q-38 -79 -130 -79q-70 0 -114.5 48t-44.5 134q0 87 50 139.5t127 52.5q68 0 115 -41l5 31h58zM514 210v130q-37 40 -97 40q-50 0 -81.5 -34.5t-31.5 -92.5q0 -57 29 -89t74 -32q76 0 107 78z" />
    <glyph glyph-name="A" unicode="A" horiz-adv-x="636" 
d="M534 0l-67 153h-302l-63 -153h-93l287 670h39l297 -670h-98zM196 227h239l-111 256l-11 33l-11 -33z" />
    <glyph glyph-name="B" unicode="B" horiz-adv-x="588" 
d="M418 356q57 -19 90 -61.5t33 -101.5q0 -91 -62.5 -142t-192.5 -51h-191v661q79 7 170 7q123 0 178 -46t55 -123q0 -101 -80 -143zM276 593q-54 0 -90 -3v-214h98q59 0 93 29t34 81q0 50 -33 78.5t-102 28.5zM278 71q93 0 132 31t39 89q0 50 -38 82t-104 32h-121v-234h92z
" />
    <glyph glyph-name="C" unicode="C" horiz-adv-x="630" 
d="M401 -12q-157 1 -253.5 92.5t-96.5 244.5q0 158 96.5 253t253.5 95q102 0 186 -35v-88l-3 -1q-76 39 -171 39q-122 0 -193.5 -70t-71.5 -189q0 -118 70 -186.5t196 -68.5q91 0 170 38l3 -1v-85q-81 -38 -186 -38z" />
    <glyph glyph-name="D" unicode="D" horiz-adv-x="732" 
d="M312 670q179 0 274 -89.5t95 -244.5q0 -160 -98.5 -248.5t-276.5 -88.5q-163 0 -211 3v659q122 9 217 9zM316 82q132 1 199.5 66t67.5 187q0 119 -70.5 184t-202.5 65q-68 0 -122 -4v-495q45 -3 128 -3z" />
    <glyph glyph-name="E" unicode="E" horiz-adv-x="554" 
d="M189 87h316v-87h-410v661h398v-86h-304v-193h285v-86h-285v-209z" />
    <glyph glyph-name="F" unicode="F" horiz-adv-x="517" 
d="M488 576h-299v-219h255v-83h-255v-274h-94v661h393v-85z" />
    <glyph glyph-name="G" unicode="G" horiz-adv-x="694" 
d="M394 -10q-163 0 -253 89.5t-90 249.5q0 155 99 249.5t265 94.5q108 0 192 -35l-1 -91l-3 -1q-84 42 -191 42q-121 0 -192 -71t-71 -188q0 -118 64.5 -186t185.5 -68q88 0 151 28v202h85v-261q-103 -54 -241 -54z" />
    <glyph glyph-name="H" unicode="H" horiz-adv-x="745" 
d="M556 661h94v-661h-94v292h-367v-292h-94v661h94v-284h367v284z" />
    <glyph glyph-name="I" unicode="I" horiz-adv-x="284" 
d="M95 0v661h94v-661h-94z" />
    <glyph glyph-name="J" unicode="J" horiz-adv-x="364" 
d="M67 -3q-23 0 -53 3v80l3 1q17 -3 39 -3q126 0 126 152v431h95v-423q0 -241 -210 -241z" />
    <glyph glyph-name="K" unicode="K" horiz-adv-x="630" 
d="M273 337l361 -334l-1 -3h-121l-323 294v-294h-94v661h94v-295l313 295h112l1 -3z" />
    <glyph glyph-name="L" unicode="L" horiz-adv-x="502" 
d="M189 79h301v-79h-395v661h94v-582z" />
    <glyph glyph-name="M" unicode="M" horiz-adv-x="852" 
d="M722 661l65 -661h-89l-40 452h-3l-212 -447h-31l-215 445h-2l-42 -450h-88l66 661h57l244 -500l235 500h55z" />
    <glyph glyph-name="N" unicode="N" horiz-adv-x="739" 
d="M95 0v661h40l416 -471h3v471h90v-661h-39l-417 472h-3v-472h-90z" />
    <glyph glyph-name="O" unicode="O" horiz-adv-x="786" 
d="M393 -14q-144 0 -243 91.5t-99 252.5q0 158 96.5 251.5t245.5 93.5q144 0 243 -92t99 -253q0 -158 -96.5 -251t-245.5 -93zM393 71q108 0 176 69.5t68 189.5q0 121 -67.5 190.5t-176.5 69.5t-176.5 -69.5t-67.5 -190.5q0 -120 68 -189.5t176 -69.5z" />
    <glyph glyph-name="P" unicode="P" horiz-adv-x="563" 
d="M530 459q1 -106 -67 -162.5t-188 -56.5q-40 0 -87 5v-245h-93v661q96 6 177 6q126 0 191.5 -53.5t66.5 -154.5zM264 319q172 0 172 136q0 60 -39.5 95.5t-117.5 35.5q-57 0 -91 -2v-259q42 -6 76 -6z" />
    <glyph glyph-name="Q" unicode="Q" horiz-adv-x="786" 
d="M735 330q0 -138 -76 -228t-199 -111q19 -50 57 -78t103 -42l1 -3l-33 -70q-89 20 -139.5 66t-76.5 123q-137 6 -229 97.5t-92 245.5q0 158 96.5 251.5t245.5 93.5q144 0 243 -92t99 -253zM393 71q108 0 176 69.5t68 189.5q0 121 -67.5 190.5t-176.5 69.5t-176.5 -69.5
t-67.5 -190.5q0 -120 68 -189.5t176 -69.5z" />
    <glyph glyph-name="R" unicode="R" horiz-adv-x="593" 
d="M389 265l167 -262l-1 -3h-102l-156 250h-2h-107v-250h-93v661q81 6 179 6q115 0 182.5 -50t67.5 -155q0 -77 -37 -126t-98 -71zM188 583v-257h83q70 0 114 33t44 95q0 64 -37 98t-110 34q-66 0 -94 -3z" />
    <glyph glyph-name="S" unicode="S" horiz-adv-x="530" 
d="M243 -13q-110 0 -186 44v96l3 1q79 -56 174 -56q65 0 104 26.5t39 73.5q0 45 -29.5 73.5t-107.5 63.5q-80 35 -125 76t-45 108q0 87 61.5 134.5t153.5 47.5q98 0 164 -32v-89l-3 -1q-61 37 -151 37q-58 1 -94 -21t-36 -64q0 -25 17 -45.5t39.5 -33t62.5 -31.5
q13 -6 20 -9q84 -40 125 -85.5t41 -123.5q0 -87 -62.5 -138.5t-164.5 -51.5z" />
    <glyph glyph-name="T" unicode="T" horiz-adv-x="563" 
d="M548 661v-84h-217v-577h-94v577h-222v84h533z" />
    <glyph glyph-name="U" unicode="U" horiz-adv-x="715" 
d="M358 -14q-131 0 -201.5 70t-70.5 200v405h93v-393q0 -99 46.5 -150t133.5 -51q86 0 132.5 51.5t46.5 149.5v393h91v-405q0 -129 -71 -199.5t-200 -70.5z" />
    <glyph glyph-name="V" unicode="V" horiz-adv-x="628" 
d="M618 661l1 -3l-278 -670h-56l-275 670l1 3h99l198 -501l10 -35l9 35l198 501h93z" />
    <glyph glyph-name="W" unicode="W" horiz-adv-x="964" 
d="M947 661l1 -3l-218 -668h-70l-169 493l-7 27l-7 -27l-169 -493h-71l-224 668l1 3h99l155 -498l8 -41l10 41l165 495h68l166 -487l10 -44l10 44l151 490h91z" />
    <glyph glyph-name="X" unicode="X" horiz-adv-x="626" 
d="M374 345l242 -342l-1 -3h-110l-197 281l-191 -281h-101l-1 3l235 339l-224 316l1 3h111l178 -256l174 256h103l1 -3z" />
    <glyph glyph-name="Y" unicode="Y" horiz-adv-x="596" 
d="M252 0v272l-241 386l1 3h100l189 -303l187 303h95l1 -3l-239 -387v-271h-93z" />
    <glyph glyph-name="Z" unicode="Z" horiz-adv-x="588" 
d="M36 0v32l382 552h-379l-1 77h509v-32l-386 -551h392v-78h-517z" />
    <glyph glyph-name="bracketleft" unicode="[" horiz-adv-x="314" 
d="M280 681h-110v-770h110v-69h-190v908h190v-69z" />
    <glyph glyph-name="backslash" unicode="\" horiz-adv-x="463" 
d="M431 -119h-85l-313 867h85z" />
    <glyph glyph-name="bracketright" unicode="]" horiz-adv-x="314" 
d="M34 750h190v-908h-190v69h109v770h-109v69z" />
    <glyph glyph-name="asciicircum" unicode="^" horiz-adv-x="504" 
d="M281 677l178 -333l-62 -28l-138 267l-6 15l-7 -15l-137 -267l-63 28l177 333h58z" />
    <glyph glyph-name="underscore" unicode="_" horiz-adv-x="488" 
d="M39 -76v75h410v-75h-410z" />
    <glyph glyph-name="grave" unicode="`" horiz-adv-x="246" 
d="M200 562l-183 115l-3 12l65 68l155 -147z" />
    <glyph glyph-name="a" unicode="a" horiz-adv-x="636" 
d="M608 89l3 -1v-79q-29 -16 -68 -16q-80 0 -92 72q-61 -77 -177 -77q-101 0 -164 68.5t-63 190.5q0 126 74.5 203.5t194.5 77.5q83 0 138 -42l5 30h77v-388q0 -49 38 -49q19 0 34 10zM300 71q47 0 84.5 23.5t57.5 62.5v249q-50 40 -125 40q-76 0 -124 -53t-48 -141
q0 -90 43 -135.5t112 -45.5z" />
    <glyph glyph-name="b" unicode="b" horiz-adv-x="617" 
d="M336 528q102 0 167 -67.5t65 -190.5q0 -130 -77 -206t-193 -76q-132 0 -220 47v675h95v-251q57 69 163 69zM299 70q76 0 124 49.5t48 142.5q0 89 -42.5 135.5t-111.5 46.5q-44 0 -85 -24t-59 -63v-261q54 -26 126 -26z" />
    <glyph glyph-name="c" unicode="c" horiz-adv-x="499" 
d="M322 -12q-122 0 -198.5 73t-76.5 197t76.5 197.5t197.5 73.5q75 0 135 -23v-79l-4 -2q-57 23 -121 23q-84 0 -135.5 -51t-51.5 -136q0 -87 50.5 -139t136.5 -53q64 0 123 32l4 -2v-81q-58 -30 -136 -30z" />
    <glyph glyph-name="d" unicode="d" horiz-adv-x="640" 
d="M609 93l3 -1l-1 -81q-27 -18 -68 -18q-80 0 -92 71q-59 -76 -174 -76q-100 0 -164.5 68.5t-64.5 194.5q0 120 74 198.5t188 78.5q82 0 133 -33v215h95v-582q0 -27 9 -38t29 -11q17 0 33 14zM300 71q46 0 84 23t59 62v251q-51 39 -124 39q-77 0 -125.5 -52.5t-48.5 -139.5
q0 -91 44 -137t111 -46z" />
    <glyph glyph-name="e" unicode="e" horiz-adv-x="572" 
d="M297 528q108 0 169 -65.5t62 -184.5q0 -28 -1 -42h-383q7 -80 60 -123t133 -43q78 0 158 38l3 -1v-78q-75 -42 -178 -42q-54 0 -101.5 16t-86.5 47.5t-62 85.5t-23 123q0 119 71.5 194t178.5 75zM297 448q-57 0 -97 -35.5t-52 -100.5h287q-8 65 -44 100.5t-94 35.5z" />
    <glyph glyph-name="f" unicode="f" horiz-adv-x="343" 
d="M282 715q45 0 71 -11v-82l-3 -1q-21 10 -54 10q-96 0 -96 -105v-10h122v-75h-122v-441h-95v441h-71v75h71q0 98 49.5 148.5t127.5 50.5z" />
    <glyph glyph-name="g" unicode="g" horiz-adv-x="616" 
d="M471 523h66v-462q0 -112 -71.5 -171.5t-198.5 -59.5q-106 0 -185 41v93l3 1q79 -51 178 -51q94 0 136.5 36.5t42.5 108.5v26q-61 -68 -168 -68q-100 0 -163 65t-63 184t76.5 190.5t180.5 71.5q99 0 155 -46zM442 185v221q-50 40 -127 40q-75 0 -122.5 -46.5t-47.5 -129.5
q0 -82 42.5 -126t110.5 -44q97 0 144 85z" />
    <glyph glyph-name="h" unicode="h" horiz-adv-x="617" 
d="M342 528q90 0 146 -58.5t56 -162.5v-307h-94v285q0 79 -36.5 115.5t-95.5 36.5q-50 0 -88.5 -26t-54.5 -71v-340h-95v710h95v-256q56 74 167 74z" />
    <glyph glyph-name="i" unicode="i" horiz-adv-x="255" 
d="M127 603q-26 0 -44.5 19t-18.5 45q0 25 18.5 43.5t44.5 18.5t44.5 -18.5t18.5 -43.5q0 -26 -18.5 -45t-44.5 -19zM80 0v516h95v-516h-95z" />
    <glyph glyph-name="j" unicode="j" horiz-adv-x="272" 
d="M145 603q-26 0 -44.5 19t-18.5 45q0 25 18.5 43.5t44.5 18.5t44.5 -18.5t18.5 -43.5q0 -26 -18.5 -45t-44.5 -19zM16 -169q-22 0 -55 5v82l3 1q15 -3 33 -3q54 0 77.5 31t23.5 91v478h94v-499q0 -186 -176 -186z" />
    <glyph glyph-name="k" unicode="k" horiz-adv-x="542" 
d="M265 270l269 -267l-1 -3h-118l-240 234v-234h-95v710h95v-416l233 222h111l1 -3z" />
    <glyph glyph-name="l" unicode="l" horiz-adv-x="284" 
d="M206 -9q-129 0 -129 129v590h94v-564q0 -37 13 -53.5t41 -16.5q22 0 39 10l3 -1v-82q-29 -12 -61 -12z" />
    <glyph glyph-name="m" unicode="m" horiz-adv-x="941" 
d="M674 528q81 0 137.5 -55t56.5 -158v-315h-94v289q0 76 -33.5 112t-88.5 36q-42 0 -77 -24t-54 -69q1 -10 1 -29v-315h-95v289q0 76 -33.5 112t-88.5 36q-44 0 -79.5 -26t-50.5 -73v-338h-95v516h77l10 -69q22 34 63.5 57.5t100.5 23.5q111 0 163 -92q24 39 69 65.5
t111 26.5z" />
    <glyph glyph-name="n" unicode="n" horiz-adv-x="618" 
d="M341 528q90 0 147 -57t57 -167v-304h-94v279q0 83 -37.5 120.5t-98.5 37.5q-49 0 -86.5 -26.5t-53.5 -72.5v-338h-95v516h77l10 -70q57 82 174 82z" />
    <glyph glyph-name="o" unicode="o" horiz-adv-x="632" 
d="M315 -13q-116 0 -192 71.5t-76 200.5q0 122 78 195.5t190 73.5q117 0 193.5 -71t76.5 -199q0 -123 -78 -197t-192 -74zM315 69q78 0 125.5 52t47.5 138t-47.5 136.5t-125.5 50.5q-76 0 -123.5 -51t-47.5 -136q0 -87 47 -138.5t124 -51.5z" />
    <glyph glyph-name="p" unicode="p" horiz-adv-x="618" 
d="M341 528q104 0 166.5 -69.5t62.5 -186.5q0 -129 -72 -206.5t-190 -77.5q-79 0 -133 30v-182h-95v680h77l9 -65q57 77 175 77zM302 70q82 0 126.5 51.5t44.5 145.5q0 84 -40.5 130.5t-114.5 46.5q-44 0 -85 -25t-58 -62v-252q50 -35 127 -35z" />
    <glyph glyph-name="q" unicode="q" horiz-adv-x="617" 
d="M460 516h78v-680h-95v218q-59 -66 -167 -66q-101 0 -164.5 69t-63.5 193q0 125 75 201.5t182 76.5q97 0 150 -43zM300 71q48 0 85.5 23.5t57.5 64.5v247q-50 40 -126 40q-75 0 -123 -52t-48 -139q0 -92 42 -138t112 -46z" />
    <glyph glyph-name="r" unicode="r" horiz-adv-x="389" 
d="M311 527q33 0 57 -9v-85l-3 -1q-23 9 -54 9q-116 0 -136 -137v-304h-95v516h77l9 -69q46 80 145 80z" />
    <glyph glyph-name="s" unicode="s" horiz-adv-x="481" 
d="M224 -13q-107 0 -178 38v91l3 1q72 -49 170 -49q128 0 128 67q0 33 -28 51.5t-104 38.5q-84 22 -123.5 55t-39.5 97q0 69 58.5 110t154.5 41q89 0 147 -25v-84l-3 -1q-61 29 -145 29q-54 0 -86.5 -16.5t-32.5 -46.5q0 -29 26 -44t95 -33q90 -23 131.5 -59t41.5 -103
q0 -76 -57.5 -117t-157.5 -41z" />
    <glyph glyph-name="t" unicode="t" horiz-adv-x="394" 
d="M384 438h-176v-263q0 -96 87 -96q48 0 86 21l3 -1v-80q-43 -24 -115 -24q-75 0 -115.5 41.5t-40.5 119.5v282h-93v78h93v126l92 18l3 -2v-142h176v-78z" />
    <glyph glyph-name="u" unicode="u" horiz-adv-x="605" 
d="M430 516h95v-516h-77l-9 65q-54 -77 -172 -77q-93 0 -143 52.5t-50 153.5v322h95v-306q0 -141 124 -141q45 0 83.5 25t53.5 75v347z" />
    <glyph glyph-name="v" unicode="v" horiz-adv-x="551" 
d="M536 516l1 -3l-227 -518h-69l-227 518l1 3h103l160 -399l160 399h98z" />
    <glyph glyph-name="w" unicode="w" horiz-adv-x="804" 
d="M784 516l1 -3l-173 -513h-69l-133 380l-5 21l-6 -21l-136 -380h-71l-174 513l1 3h96l113 -372l4 -23l5 23l130 372h78l128 -371l5 -23l4 24l115 370h87z" />
    <glyph glyph-name="x" unicode="x" horiz-adv-x="536" 
d="M327 264l193 -261l-1 -3h-108l-144 200l-146 -200h-101l-1 3l193 259l-187 251l1 3h109l137 -191l139 191h99l1 -3z" />
    <glyph glyph-name="y" unicode="y" horiz-adv-x="528" 
d="M513 516l1 -3l-219 -518l-66 -157h-98l-2 3l92 188l-205 484l1 3h101l151 -395l149 395h95z" />
    <glyph glyph-name="z" unicode="z" horiz-adv-x="517" 
d="M167 82h315v-82h-444v44l306 390h-304v82h434v-46z" />
    <glyph glyph-name="braceleft" unicode="{" horiz-adv-x="332" 
d="M204 409q0 -50 -33 -80.5t-66 -30.5v-4q33 0 66 -30.5t33 -80.5v-213q0 -40 17 -53.5t55 -13.5h21v-71h-35q-70 0 -105.5 31.5t-35.5 101.5v198q0 44 -28.5 69t-55.5 25v81q27 0 55.5 24t28.5 66v198q0 70 35.5 101.5t105.5 31.5h35v-71h-21q-38 0 -55 -13.5t-17 -52.5
v-213z" />
    <glyph glyph-name="bar" unicode="|" horiz-adv-x="265" 
d="M90 -100v826h86v-826h-86z" />
    <glyph glyph-name="braceright" unicode="}" horiz-adv-x="332" 
d="M210 428q0 -44 29 -69t56 -25v-81q-28 0 -56.5 -24t-28.5 -66v-198q0 -70 -35 -101.5t-105 -31.5h-35v71h22q37 0 54 13.5t17 53.5v213q0 50 33.5 80.5t66.5 30.5v4q-33 0 -66.5 30.5t-33.5 80.5v213q0 39 -17 52.5t-54 13.5h-22v71h35q70 0 105 -31.5t35 -101.5v-198z
" />
    <glyph glyph-name="asciitilde" unicode="~" horiz-adv-x="536" 
d="M131 231l-63 9q0 49 31 80t79 31q40 0 95 -20t83 -20q21 0 35.5 11t15.5 32l3 2l59 -12q0 -47 -31 -77t-78 -30q-33 0 -90 20t-85 20q-22 0 -37 -11.5t-16 -31.5z" />
    <glyph glyph-name="exclamdown" unicode="&#xa1;" horiz-adv-x="250" 
d="M126 428q-27 0 -41 14.5t-14 36.5q0 23 14.5 38.5t40.5 15.5t40.5 -15.5t14.5 -38.5q0 -22 -14 -36.5t-41 -14.5zM78 -163l6 484h81l6 -484h-93z" />
    <glyph glyph-name="cent" unicode="&#xa2;" horiz-adv-x="566" 
d="M508 172v-83q-63 -32 -142 -35v-93h-89v97q-106 17 -167.5 88t-61.5 179q0 112 62 186t169 91v99h89v-95q72 -3 134 -28v-82l-4 -3q-71 30 -149 30q-92 0 -147 -52.5t-55 -139.5t54 -140t146 -53q90 0 157 37z" />
    <glyph glyph-name="sterling" unicode="&#xa3;" horiz-adv-x="579" 
d="M198 79h334v-79h-460l-3 6q68 99 68 238q0 28 -4 51h-94v77h82q-7 44 -7 76q0 110 69 167.5t168 57.5q92 0 159 -35v-86l-3 -2q-68 40 -150 40q-70 0 -109.5 -34.5t-39.5 -102.5q0 -36 7 -81h211v-77h-199q4 -34 4 -51q0 -92 -33 -165z" />
    <glyph glyph-name="currency" unicode="&#xa4;" horiz-adv-x="713" 
d="M621 334q0 -86 -49 -154l79 -79l-63 -62l-78 78q-70 -49 -155 -49q-84 0 -151 47l-76 -76l-63 62l75 75q-52 72 -52 158q0 84 50 155l-73 72l63 63l73 -73q68 49 154 49q88 0 157 -52l76 76l63 -63l-77 -77q47 -66 47 -150zM171 334q0 -78 53.5 -132.5t130.5 -54.5
t130.5 54.5t53.5 132.5q0 77 -53.5 131.5t-130.5 54.5t-130.5 -54.5t-53.5 -131.5z" />
    <glyph glyph-name="yen" unicode="&#xa5;" horiz-adv-x="642" 
d="M610 667l-204 -332h129v-74h-167v-76h167v-73h-167v-112h-92v112h-164v73h164v76h-164v74h127l-208 332h104l189 -311l188 311h98z" />
    <glyph glyph-name="brokenbar" unicode="&#xa6;" horiz-adv-x="273" 
d="M94 421v305h86v-305h-86zM94 -100v309h86v-309h-86z" />
    <glyph glyph-name="section" unicode="&#xa7;" horiz-adv-x="531" 
d="M420 114q42 -39 42 -95q0 -77 -61.5 -122t-154.5 -45q-105 0 -170 37v80l3 2q69 -42 163 -42q55 0 89.5 21.5t34.5 64.5q0 24 -18 43t-38 29.5t-75 34.5q-13 6 -20 9q-87 38 -126.5 74t-39.5 97q0 72 69 122q-47 42 -47 104q0 75 60 118t153 43q101 0 160 -32v-80l-2 -1
q-57 35 -149 35q-54 0 -91 -21.5t-37 -64.5q0 -36 30 -57t106 -52q9 -3 13 -5q86 -36 128.5 -74.5t42.5 -97.5q0 -73 -65 -125zM269 196q74 -32 106 -50q29 30 29 74q0 37 -31 63t-113 62q-68 30 -99 48q-31 -34 -31 -75q0 -37 30.5 -62.5t108.5 -59.5z" />
    <glyph glyph-name="dieresis" unicode="&#xa8;" horiz-adv-x="336" 
d="M72 606q-25 0 -42.5 17.5t-17.5 43.5q0 24 17.5 41.5t42.5 17.5q24 0 42 -18t18 -41q0 -25 -18 -43t-42 -18zM274 606q-25 0 -42.5 17.5t-17.5 43.5q0 24 17.5 41.5t42.5 17.5q24 0 42 -18t18 -41q0 -25 -18 -43t-42 -18z" />
    <glyph glyph-name="copyright" unicode="&#xa9;" horiz-adv-x="694" 
d="M348 -13q-132 0 -215 84t-83 213t83 212.5t215 83.5q131 0 213.5 -83.5t82.5 -212.5t-82.5 -213t-213.5 -84zM347 40q108 0 172.5 67.5t64.5 176.5q0 107 -66 175t-171 68t-170.5 -68t-65.5 -175q0 -108 65.5 -176t170.5 -68zM363 131q-72 0 -117.5 40t-45.5 108
q0 71 45.5 112.5t117.5 41.5q48 0 82 -14v-59l-3 -1q-31 14 -71 14q-46 0 -73.5 -25t-27.5 -66t27.5 -66t74.5 -25q41 0 73 17l2 -1v-59q-32 -17 -84 -17z" />
    <glyph glyph-name="ordfeminine" unicode="&#xaa;" horiz-adv-x="473" 
d="M428 416l2 -1v-60q-19 -11 -56 -11q-53 0 -61 54q-56 -59 -142 -59q-51 0 -84.5 31t-33.5 80q0 63 42.5 92t104.5 29q68 0 106 -15v13q0 99 -112 99q-65 0 -110 -25l-2 2v61q39 26 123 26q86 0 129.5 -41.5t43.5 -118.5v-125q0 -38 26 -38q14 0 24 7zM191 401
q33 0 66 15.5t49 39.5v41q-39 14 -91 14q-87 0 -87 -56q0 -26 17 -40t46 -14z" />
    <glyph glyph-name="guillemotleft" unicode="&#xab;" horiz-adv-x="555" 
d="M191 97l-158 182l160 180h95v-9l-151 -169l151 -177v-7h-97zM408 97l-158 182l160 180h95v-9l-151 -169l151 -177v-7h-97z" />
    <glyph glyph-name="registered" unicode="&#xae;" horiz-adv-x="641" 
d="M322 730q117 0 190 -74.5t73 -189.5t-73 -189.5t-190 -74.5q-118 0 -192.5 74.5t-74.5 189.5t74.5 189.5t192.5 74.5zM320 252q95 0 151 59.5t56 154.5q0 94 -57.5 154t-149.5 60t-149.5 -60t-57.5 -154t57.5 -154t149.5 -60zM428 510q0 -61 -50 -81l61 -86h-66l-54 76
h-48v-76h-58v254q50 2 102 2q113 0 113 -89zM271 546v-77h44q52 0 52 39t-52 39q-36 0 -44 -1z" />
    <glyph glyph-name="macron" unicode="&#xaf;" horiz-adv-x="351" 
d="M22 618v70h296v-70h-296z" />
    <glyph glyph-name="degree" unicode="&#xb0;" horiz-adv-x="360" 
d="M181 415q-56 0 -93.5 36.5t-37.5 91.5t37.5 91.5t93.5 36.5t92.5 -36.5t36.5 -91.5t-37 -91.5t-92 -36.5zM181 468q31 0 51 22t20 53q0 32 -20 54t-51 22q-32 0 -52.5 -22t-20.5 -54t20.5 -53.5t52.5 -21.5z" />
    <glyph glyph-name="plusminus" unicode="&#xb1;" horiz-adv-x="548" 
d="M486 267h-175v-148h170v-74h-414v74h170v148h-176v72h177v175h73v-175h175v-72z" />
    <glyph glyph-name="acute" unicode="&#xb4;" horiz-adv-x="246" 
d="M48 562l-34 48l155 147l65 -68l-3 -12z" />
    <glyph glyph-name="paragraph" unicode="&#xb6;" horiz-adv-x="588" 
d="M538 600v-84h-63v-627h-28v627h-67v-627h-89v324q-129 0 -193.5 46.5t-64.5 148.5q1 92 65 142t188 50h252z" />
    <glyph glyph-name="periodcentered" unicode="&#xb7;" horiz-adv-x="242" 
d="M121 190q-27 0 -41 14t-14 37t14 38t41 15t41 -15t14 -38t-14 -37t-41 -14z" />
    <glyph glyph-name="cedilla" unicode="&#xb8;" horiz-adv-x="207" 
d="M75 -235q-33 0 -63 10v56l3 1q20 -8 47 -8q28 0 44 11.5t16 31.5q0 35 -44 35q-24 0 -43 -8l-1 3v45l36 58h62l-30 -48q6 2 15 2q37 0 63 -20t26 -65q0 -53 -37.5 -78.5t-93.5 -25.5z" />
    <glyph glyph-name="ordmasculine" unicode="&#xba;" horiz-adv-x="502" 
d="M251 330q-86 0 -145.5 55t-59.5 151q0 93 58 150t147 57q87 0 146.5 -55t59.5 -151q0 -94 -58 -150.5t-148 -56.5zM251 399q56 0 90 37.5t34 100.5q0 62 -34 99.5t-90 37.5q-54 0 -88.5 -37.5t-34.5 -99.5q0 -63 34 -100.5t89 -37.5z" />
    <glyph glyph-name="guillemotright" unicode="&#xbb;" horiz-adv-x="555" 
d="M147 459l158 -182l-160 -180h-95v9l151 169l-151 177v7h97zM364 459l158 -182l-160 -180h-95v9l151 169l-151 177v7h97z" />
    <glyph glyph-name="onequarter" unicode="&#xbc;" horiz-adv-x="742" 
d="M108 300v268l-84 -29v80l151 53h10v-372h-77zM500 661h77l-422 -673h-76zM712 119v-51h-56v-68h-72v68h-198v32l206 274h64v-255h56zM467 119h117v158z" />
    <glyph glyph-name="onehalf" unicode="&#xbd;" horiz-adv-x="748" 
d="M121 300v268l-84 -29v80l151 53h10v-372h-77zM53 -12l421 673h77l-422 -673h-76zM430 0q-2 90 104 167q52 38 69.5 56.5t17.5 37.5q0 20 -17 33.5t-47 13.5q-69 0 -118 -39l-1 1v65q57 39 127 39q58 0 97 -27t39 -76q0 -40 -22 -69t-71 -64q-66 -46 -73 -76h181v-62h-286
z" />
    <glyph glyph-name="threequarters" unicode="&#xbe;" horiz-adv-x="777" 
d="M306 411q0 -55 -41 -87t-108 -32q-72 0 -119 26v61l1 1q40 -27 109 -27q38 0 63 15t25 44q0 26 -18.5 39.5t-48.5 13.5h-65v53h57q27 0 43 12t16 34q0 48 -76 48q-62 0 -95 -21h-1v62q44 21 106 21t100 -23.5t38 -72.5q0 -52 -47 -81q61 -24 61 -86zM558 661h77
l-422 -673h-76zM746 119v-51h-56v-68h-72v68h-198v32l206 274h64v-255h56zM501 119h117v158z" />
    <glyph glyph-name="questiondown" unicode="&#xbf;" horiz-adv-x="427" 
d="M255 527q26 0 40.5 -15.5t14.5 -37.5q0 -23 -14 -37.5t-41 -14.5t-41 14.5t-14 37.5q0 22 14.5 37.5t40.5 15.5zM297 328q0 -67 -18.5 -107.5t-70.5 -78.5q-39 -30 -57 -56.5t-18 -71.5t29.5 -73t84.5 -28q81 0 135 46l2 -1v-82q-55 -44 -149 -44q-85 0 -140 45.5
t-55 126.5q0 65 26.5 104.5t82.5 84.5q65 48 65 134z" />
    <glyph glyph-name="Agrave" unicode="&#xc0;" horiz-adv-x="636" 
d="M402 701l-208 82l-6 12l51 75l182 -116zM534 0l-67 153h-302l-63 -153h-93l287 670h39l297 -670h-98zM196 227h239l-111 256l-11 33l-11 -33z" />
    <glyph glyph-name="Aacute" unicode="&#xc1;" horiz-adv-x="636" 
d="M427 783l-208 -82l-20 52l183 117l51 -75zM534 0l-67 153h-302l-63 -153h-93l287 670h39l297 -670h-98zM196 227h239l-111 256l-11 33l-11 -33z" />
    <glyph glyph-name="Acircumflex" unicode="&#xc2;" horiz-adv-x="636" 
d="M311 779l-107 -78l-34 46l121 113h43l125 -113l-35 -46zM534 0l-67 153h-302l-63 -153h-93l287 670h39l297 -670h-98zM196 227h239l-111 256l-11 33l-11 -33z" />
    <glyph glyph-name="Atilde" unicode="&#xc3;" horiz-adv-x="636" 
d="M211 713l-2 -1l-63 18q2 46 30 75t71 29q29 0 71.5 -17.5t61.5 -17.5q16 0 28.5 11t12.5 30l2 2l63 -20q-2 -46 -30 -74t-71 -28q-24 0 -67.5 17.5t-64.5 17.5q-18 0 -30 -11.5t-12 -30.5zM534 0l-67 153h-302l-63 -153h-93l287 670h39l297 -670h-98zM196 227h239
l-111 256l-11 33l-11 -33z" />
    <glyph glyph-name="Adieresis" unicode="&#xc4;" horiz-adv-x="636" 
d="M211 726q-23 0 -38.5 16t-15.5 38t15.5 38t38.5 16t38.5 -16t15.5 -38t-15.5 -38t-38.5 -16zM422 726q-22 0 -38 16t-16 38t16 38t38 16t38 -16t16 -38t-16 -38t-38 -16zM534 0l-67 153h-302l-63 -153h-93l287 670h39l297 -670h-98zM196 227h239l-111 256l-11 33l-11 -33
z" />
    <glyph glyph-name="Aring" unicode="&#xc5;" horiz-adv-x="636" 
d="M315 683q-44 0 -71.5 26.5t-27.5 66.5t27.5 66.5t71.5 26.5q43 0 70.5 -26.5t27.5 -66.5t-27.5 -66.5t-70.5 -26.5zM315 818q-18 0 -30 -12t-12 -30t12 -30t30 -12t30 12t12 30t-12 30t-30 12zM534 0l-67 153h-302l-63 -153h-93l287 670h39l297 -670h-98zM196 227h239
l-111 256l-11 33l-11 -33z" />
    <glyph glyph-name="AE" unicode="&#xc6;" horiz-adv-x="824" 
d="M499 78h276v-78h-371v188h-220l-116 -188h-96l406 661h385v-77h-264v-203h245v-77h-245v-226zM225 255h179v302l-53 -97z" />
    <glyph glyph-name="Ccedilla" unicode="&#xc7;" horiz-adv-x="630" 
d="M413 588q-122 0 -193.5 -70t-71.5 -189q0 -118 70 -186.5t196 -68.5q91 0 170 38l3 -1v-85q-68 -33 -158 -37l-23 -37q6 2 15 2q37 0 63 -20t26 -65q0 -53 -37.5 -78.5t-93.5 -25.5q-33 0 -63 10v56l3 1q20 -8 47 -8q28 0 44 11.5t16 31.5q0 35 -44 35q-24 0 -43 -8l-1 3
v45l29 47q-143 11 -229.5 101t-86.5 235q0 158 96.5 253t253.5 95q102 0 186 -35v-88l-3 -1q-76 39 -171 39z" />
    <glyph glyph-name="Egrave" unicode="&#xc8;" horiz-adv-x="554" 
d="M396 701l-208 82l-6 12l51 75l182 -116zM189 87h316v-87h-410v661h398v-86h-304v-193h285v-86h-285v-209z" />
    <glyph glyph-name="Eacute" unicode="&#xc9;" horiz-adv-x="554" 
d="M421 783l-208 -82l-20 52l183 117l51 -75zM189 87h316v-87h-410v661h398v-86h-304v-193h285v-86h-285v-209z" />
    <glyph glyph-name="Ecircumflex" unicode="&#xca;" horiz-adv-x="554" 
d="M305 779l-107 -78l-34 46l121 113h43l125 -113l-35 -46zM189 87h316v-87h-410v661h398v-86h-304v-193h285v-86h-285v-209z" />
    <glyph glyph-name="Edieresis" unicode="&#xcb;" horiz-adv-x="554" 
d="M205 726q-23 0 -38.5 16t-15.5 38t15.5 38t38.5 16t38.5 -16t15.5 -38t-15.5 -38t-38.5 -16zM416 726q-22 0 -38 16t-16 38t16 38t38 16t38 -16t16 -38t-16 -38t-38 -16zM189 87h316v-87h-410v661h398v-86h-304v-193h285v-86h-285v-209z" />
    <glyph glyph-name="Igrave" unicode="&#xcc;" horiz-adv-x="284" 
d="M230 701l-208 82l-6 12l51 75l182 -116zM95 0v661h94v-661h-94z" />
    <glyph glyph-name="Iacute" unicode="&#xcd;" horiz-adv-x="284" 
d="M47 701l-20 52l183 117l51 -75l-6 -12zM95 0v661h94v-661h-94z" />
    <glyph glyph-name="Icircumflex" unicode="&#xce;" horiz-adv-x="284" 
d="M32 701l-34 46l121 113h43l125 -113l-35 -46l-113 78zM95 0v661h94v-661h-94z" />
    <glyph glyph-name="Idieresis" unicode="&#xcf;" horiz-adv-x="284" 
d="M39 726q-23 0 -38.5 16t-15.5 38t15.5 38t38.5 16t38.5 -16t15.5 -38t-15.5 -38t-38.5 -16zM250 726q-22 0 -38 16t-16 38t16 38t38 16t38 -16t16 -38t-16 -38t-38 -16zM95 0v661h94v-661h-94z" />
    <glyph glyph-name="Eth" unicode="&#xd0;" horiz-adv-x="742" 
d="M322 670q179 0 274 -89.5t95 -244.5q0 -160 -98.5 -248.5t-276.5 -88.5q-163 0 -211 3v290h-89v69h89v300q122 9 217 9zM326 82q132 1 199.5 66t67.5 187q0 119 -70.5 184t-202.5 65q-68 0 -122 -4v-219h105v-69h-105v-207q45 -3 128 -3z" />
    <glyph glyph-name="Ntilde" unicode="&#xd1;" horiz-adv-x="739" 
d="M267 712l-63 18q2 46 30 75t71 29q29 0 71.5 -17.5t61.5 -17.5q16 0 28.5 11t12.5 30l2 2l63 -20q-2 -46 -30 -74t-71 -28q-23 0 -67 17.5t-65 17.5q-18 0 -30 -11.5t-12 -30.5zM95 0v661h40l416 -471h3v471h90v-661h-39l-417 472h-3v-472h-90z" />
    <glyph glyph-name="Ograve" unicode="&#xd2;" horiz-adv-x="786" 
d="M480 701l-208 82l-6 12l51 75l182 -116zM393 -14q-144 0 -243 91.5t-99 252.5q0 158 96.5 251.5t245.5 93.5q144 0 243 -92t99 -253q0 -158 -96.5 -251t-245.5 -93zM393 71q108 0 176 69.5t68 189.5q0 121 -67.5 190.5t-176.5 69.5t-176.5 -69.5t-67.5 -190.5
q0 -120 68 -189.5t176 -69.5z" />
    <glyph glyph-name="Oacute" unicode="&#xd3;" horiz-adv-x="786" 
d="M297 701l-20 52l183 117l51 -75l-6 -12zM393 -14q-144 0 -243 91.5t-99 252.5q0 158 96.5 251.5t245.5 93.5q144 0 243 -92t99 -253q0 -158 -96.5 -251t-245.5 -93zM393 71q108 0 176 69.5t68 189.5q0 121 -67.5 190.5t-176.5 69.5t-176.5 -69.5t-67.5 -190.5
q0 -120 68 -189.5t176 -69.5z" />
    <glyph glyph-name="Ocircumflex" unicode="&#xd4;" horiz-adv-x="786" 
d="M282 701l-34 46l121 113h43l125 -113l-35 -46l-113 78zM393 -14q-144 0 -243 91.5t-99 252.5q0 158 96.5 251.5t245.5 93.5q144 0 243 -92t99 -253q0 -158 -96.5 -251t-245.5 -93zM393 71q108 0 176 69.5t68 189.5q0 121 -67.5 190.5t-176.5 69.5t-176.5 -69.5
t-67.5 -190.5q0 -120 68 -189.5t176 -69.5z" />
    <glyph glyph-name="Otilde" unicode="&#xd5;" horiz-adv-x="786" 
d="M287 712l-63 18q2 46 30 75t71 29q29 0 71.5 -17.5t61.5 -17.5q16 0 28.5 11t12.5 30l2 2l63 -20q-2 -46 -30 -74t-71 -28q-23 0 -67 17.5t-65 17.5q-18 0 -30 -11.5t-12 -30.5zM393 -14q-144 0 -243 91.5t-99 252.5q0 158 96.5 251.5t245.5 93.5q144 0 243 -92t99 -253
q0 -158 -96.5 -251t-245.5 -93zM393 71q108 0 176 69.5t68 189.5q0 121 -67.5 190.5t-176.5 69.5t-176.5 -69.5t-67.5 -190.5q0 -120 68 -189.5t176 -69.5z" />
    <glyph glyph-name="Odieresis" unicode="&#xd6;" horiz-adv-x="786" 
d="M289 726q-23 0 -38.5 16t-15.5 38t15.5 38t38.5 16t38.5 -16t15.5 -38t-15.5 -38t-38.5 -16zM500 726q-22 0 -38 16t-16 38t16 38t38 16t38 -16t16 -38t-16 -38t-38 -16zM393 -14q-144 0 -243 91.5t-99 252.5q0 158 96.5 251.5t245.5 93.5q144 0 243 -92t99 -253
q0 -158 -96.5 -251t-245.5 -93zM393 71q108 0 176 69.5t68 189.5q0 121 -67.5 190.5t-176.5 69.5t-176.5 -69.5t-67.5 -190.5q0 -120 68 -189.5t176 -69.5z" />
    <glyph glyph-name="multiply" unicode="&#xd7;" horiz-adv-x="516" 
d="M458 439l-147 -147l147 -148l-52 -52l-148 147l-147 -147l-53 52l148 148l-148 147l53 53l147 -148l148 148z" />
    <glyph glyph-name="Oslash" unicode="&#xd8;" horiz-adv-x="786" 
d="M736 678v-7l-87 -101q86 -94 86 -240q0 -158 -96.5 -251t-245.5 -93q-112 0 -198 56l-50 -59h-94v9l85 100q-85 93 -85 238q0 158 96.5 251.5t245.5 93.5q110 0 196 -55l49 58h98zM149 330q0 -100 49 -166l332 388q-58 38 -137 38q-109 0 -176.5 -69.5t-67.5 -190.5z
M637 330q0 102 -49 168l-334 -388q61 -39 139 -39q108 0 176 69.5t68 189.5z" />
    <glyph glyph-name="Ugrave" unicode="&#xd9;" horiz-adv-x="715" 
d="M445 701l-208 82l-6 12l51 75l182 -116zM358 -14q-131 0 -201.5 70t-70.5 200v405h93v-393q0 -99 46.5 -150t133.5 -51q86 0 132.5 51.5t46.5 149.5v393h91v-405q0 -129 -71 -199.5t-200 -70.5z" />
    <glyph glyph-name="Uacute" unicode="&#xda;" horiz-adv-x="715" 
d="M262 701l-20 52l183 117l51 -75l-6 -12zM358 -14q-131 0 -201.5 70t-70.5 200v405h93v-393q0 -99 46.5 -150t133.5 -51q86 0 132.5 51.5t46.5 149.5v393h91v-405q0 -129 -71 -199.5t-200 -70.5z" />
    <glyph glyph-name="Ucircumflex" unicode="&#xdb;" horiz-adv-x="715" 
d="M247 701l-34 46l121 113h43l125 -113l-35 -46l-113 78zM358 -14q-131 0 -201.5 70t-70.5 200v405h93v-393q0 -99 46.5 -150t133.5 -51q86 0 132.5 51.5t46.5 149.5v393h91v-405q0 -129 -71 -199.5t-200 -70.5z" />
    <glyph glyph-name="Udieresis" unicode="&#xdc;" horiz-adv-x="715" 
d="M254 726q-22 0 -38 16t-16 38t16 38t38 16t38 -16t16 -38t-16 -38t-38 -16zM465 726q-23 0 -38.5 16t-15.5 38t15.5 38t38.5 16t38.5 -16t15.5 -38t-15.5 -38t-38.5 -16zM358 -14q-131 0 -201.5 70t-70.5 200v405h93v-393q0 -99 46.5 -150t133.5 -51q86 0 132.5 51.5
t46.5 149.5v393h91v-405q0 -129 -71 -199.5t-200 -70.5z" />
    <glyph glyph-name="Yacute" unicode="&#xdd;" horiz-adv-x="596" 
d="M203 701l-20 52l183 117l51 -75l-6 -12zM252 0v272l-241 386l1 3h100l189 -303l187 303h95l1 -3l-239 -387v-271h-93z" />
    <glyph glyph-name="Thorn" unicode="&#xde;" horiz-adv-x="569" 
d="M523 344q1 -108 -66.5 -165.5t-187.5 -57.5q-42 0 -81 3v-124h-93v661h93v-119q48 4 89 4q112 0 178.5 -51.5t67.5 -150.5zM258 198q171 0 171 137q0 61 -41 95.5t-121 34.5q-25 0 -79 -3v-261q39 -3 70 -3z" />
    <glyph glyph-name="germandbls" unicode="&#xdf;" horiz-adv-x="624" 
d="M497 284q53 -36 75.5 -66.5t22.5 -83.5q0 -68 -49 -107.5t-119 -39.5q-81 0 -133 31v89l3 1q52 -40 120 -40q86 0 86 57q0 32 -17.5 51.5t-68.5 48.5q-29 19 -41.5 28t-29 25.5t-22.5 34.5t-6 42q0 35 15 63.5t33 44.5t33 39.5t15 48.5q0 38 -29 59t-79 21
q-131 0 -131 -146v-485h-95v495q0 106 61 163t162 57q90 0 147 -38.5t57 -123.5q0 -35 -14 -64.5t-31 -45.5t-31 -35t-14 -35q0 -17 11.5 -32.5t24.5 -25.5t44 -31z" />
    <glyph glyph-name="agrave" unicode="&#xe0;" horiz-adv-x="636" 
d="M376 562l-183 115l-3 12l65 68l155 -147zM608 89l3 -1v-79q-29 -16 -68 -16q-80 0 -92 72q-61 -77 -177 -77q-101 0 -164 68.5t-63 190.5q0 126 74.5 203.5t194.5 77.5q83 0 138 -42l5 30h77v-388q0 -49 38 -49q19 0 34 10zM300 71q47 0 84.5 23.5t57.5 62.5v249
q-50 40 -125 40q-76 0 -124 -53t-48 -141q0 -90 43 -135.5t112 -45.5z" />
    <glyph glyph-name="aacute" unicode="&#xe1;" horiz-adv-x="636" 
d="M428 677l-183 -115l-34 48l155 147l65 -68zM608 89l3 -1v-79q-29 -16 -68 -16q-80 0 -92 72q-61 -77 -177 -77q-101 0 -164 68.5t-63 190.5q0 126 74.5 203.5t194.5 77.5q83 0 138 -42l5 30h77v-388q0 -49 38 -49q19 0 34 10zM300 71q47 0 84.5 23.5t57.5 62.5v249
q-50 40 -125 40q-76 0 -124 -53t-48 -141q0 -90 43 -135.5t112 -45.5z" />
    <glyph glyph-name="acircumflex" unicode="&#xe2;" horiz-adv-x="636" 
d="M311 656l-99 -89l-41 40l119 137h44l123 -137l-42 -40zM608 89l3 -1v-79q-29 -16 -68 -16q-80 0 -92 72q-61 -77 -177 -77q-101 0 -164 68.5t-63 190.5q0 126 74.5 203.5t194.5 77.5q83 0 138 -42l5 30h77v-388q0 -49 38 -49q19 0 34 10zM300 71q47 0 84.5 23.5
t57.5 62.5v249q-50 40 -125 40q-76 0 -124 -53t-48 -141q0 -90 43 -135.5t112 -45.5z" />
    <glyph glyph-name="atilde" unicode="&#xe3;" horiz-adv-x="636" 
d="M209 602l-3 -2l-61 14q0 44 25.5 74.5t67.5 30.5q30 0 76 -19t68 -19q18 0 29.5 11t11.5 29l3 2l61 -14q0 -49 -27.5 -77t-69.5 -28q-28 -1 -74.5 18.5t-67.5 19.5q-17 0 -28 -11t-11 -29zM608 89l3 -1v-79q-29 -16 -68 -16q-80 0 -92 72q-61 -77 -177 -77
q-101 0 -164 68.5t-63 190.5q0 126 74.5 203.5t194.5 77.5q83 0 138 -42l5 30h77v-388q0 -49 38 -49q19 0 34 10zM300 71q47 0 84.5 23.5t57.5 62.5v249q-50 40 -125 40q-76 0 -124 -53t-48 -141q0 -90 43 -135.5t112 -45.5z" />
    <glyph glyph-name="adieresis" unicode="&#xe4;" horiz-adv-x="636" 
d="M217 606q-25 0 -42.5 17.5t-17.5 43.5q0 24 17.5 41.5t42.5 17.5q24 0 42 -18t18 -41q0 -25 -18 -43t-42 -18zM419 606q-25 0 -42.5 17.5t-17.5 43.5q0 24 17.5 41.5t42.5 17.5q24 0 42 -18t18 -41q0 -25 -18 -43t-42 -18zM608 89l3 -1v-79q-29 -16 -68 -16q-80 0 -92 72
q-61 -77 -177 -77q-101 0 -164 68.5t-63 190.5q0 126 74.5 203.5t194.5 77.5q83 0 138 -42l5 30h77v-388q0 -49 38 -49q19 0 34 10zM300 71q47 0 84.5 23.5t57.5 62.5v249q-50 40 -125 40q-76 0 -124 -53t-48 -141q0 -90 43 -135.5t112 -45.5z" />
    <glyph glyph-name="aring" unicode="&#xe5;" horiz-adv-x="636" 
d="M313 560q-44 0 -72.5 28.5t-28.5 70.5t28.5 70t72.5 28q46 0 74 -28t28 -70q0 -43 -28 -71t-74 -28zM314 707q-20 0 -34 -14t-14 -34t14 -34t34 -14q21 0 34.5 14t13.5 34t-13.5 34t-34.5 14zM608 89l3 -1v-79q-29 -16 -68 -16q-80 0 -92 72q-61 -77 -177 -77
q-101 0 -164 68.5t-63 190.5q0 126 74.5 203.5t194.5 77.5q83 0 138 -42l5 30h77v-388q0 -49 38 -49q19 0 34 10zM300 71q47 0 84.5 23.5t57.5 62.5v249q-50 40 -125 40q-76 0 -124 -53t-48 -141q0 -90 43 -135.5t112 -45.5z" />
    <glyph glyph-name="ae" unicode="&#xe6;" horiz-adv-x="895" 
d="M610 528q106 0 167 -65.5t62 -185.5v-42h-371q7 -79 55.5 -121.5t116.5 -42.5q93 0 166 44l3 -2v-82q-75 -44 -177 -44q-66 0 -122.5 26.5t-91.5 79.5q-83 -105 -216 -105q-77 0 -121.5 38.5t-44.5 108.5q0 50 24.5 84t72 52.5t104.5 26.5t135 9q-1 70 -38.5 105.5
t-106.5 35.5q-91 0 -144 -34l-3 2v75q20 15 64 26t99 11q136 0 187 -93q69 93 180 93zM470 307h277q-6 70 -41.5 107.5t-95.5 37.5q-54 0 -92 -38t-48 -107zM215 68q56 0 101.5 24.5t72.5 65.5q-12 38 -13 77q-57 0 -97.5 -4t-77 -14t-54.5 -29.5t-18 -48.5q0 -34 24 -52.5
t62 -18.5z" />
    <glyph glyph-name="ccedilla" unicode="&#xe7;" horiz-adv-x="499" 
d="M458 18q-51 -26 -116 -30l-23 -36q6 2 15 2q37 0 63 -20t26 -65q0 -53 -37.5 -78.5t-93.5 -25.5q-33 0 -63 10v56l3 1q20 -8 47 -8q28 0 44 11.5t16 31.5q0 35 -44 35q-24 0 -43 -8l-1 3v45l30 48q-105 12 -169.5 83.5t-64.5 184.5q0 124 76.5 197.5t197.5 73.5
q75 0 135 -23v-79l-4 -2q-57 23 -121 23q-84 0 -135.5 -51t-51.5 -136q0 -87 50.5 -139t136.5 -53q64 0 123 32l4 -2v-81z" />
    <glyph glyph-name="egrave" unicode="&#xe8;" horiz-adv-x="572" 
d="M358 562l-183 115l-3 12l65 68l155 -147zM297 528q108 0 169 -65.5t62 -184.5q0 -28 -1 -42h-383q7 -80 60 -123t133 -43q78 0 158 38l3 -1v-78q-75 -42 -178 -42q-54 0 -101.5 16t-86.5 47.5t-62 85.5t-23 123q0 119 71.5 194t178.5 75zM297 448q-57 0 -97 -35.5
t-52 -100.5h287q-8 65 -44 100.5t-94 35.5z" />
    <glyph glyph-name="eacute" unicode="&#xe9;" horiz-adv-x="572" 
d="M410 677l-183 -115l-34 48l155 147l65 -68zM297 528q108 0 169 -65.5t62 -184.5q0 -28 -1 -42h-383q7 -80 60 -123t133 -43q78 0 158 38l3 -1v-78q-75 -42 -178 -42q-54 0 -101.5 16t-86.5 47.5t-62 85.5t-23 123q0 119 71.5 194t178.5 75zM297 448q-57 0 -97 -35.5
t-52 -100.5h287q-8 65 -44 100.5t-94 35.5z" />
    <glyph glyph-name="ecircumflex" unicode="&#xea;" horiz-adv-x="572" 
d="M293 656l-99 -89l-41 40l119 137h44l123 -137l-42 -40zM297 528q108 0 169 -65.5t62 -184.5q0 -28 -1 -42h-383q7 -80 60 -123t133 -43q78 0 158 38l3 -1v-78q-75 -42 -178 -42q-54 0 -101.5 16t-86.5 47.5t-62 85.5t-23 123q0 119 71.5 194t178.5 75zM297 448
q-57 0 -97 -35.5t-52 -100.5h287q-8 65 -44 100.5t-94 35.5z" />
    <glyph glyph-name="edieresis" unicode="&#xeb;" horiz-adv-x="572" 
d="M199 606q-25 0 -42.5 17.5t-17.5 43.5q0 24 17.5 41.5t42.5 17.5q24 0 42 -18t18 -41q0 -25 -18 -43t-42 -18zM401 606q-25 0 -42.5 17.5t-17.5 43.5q0 24 17.5 41.5t42.5 17.5q24 0 42 -18t18 -41q0 -25 -18 -43t-42 -18zM297 528q108 0 169 -65.5t62 -184.5
q0 -28 -1 -42h-383q7 -80 60 -123t133 -43q78 0 158 38l3 -1v-78q-75 -42 -178 -42q-54 0 -101.5 16t-86.5 47.5t-62 85.5t-23 123q0 119 71.5 194t178.5 75zM297 448q-57 0 -97 -35.5t-52 -100.5h287q-8 65 -44 100.5t-94 35.5z" />
    <glyph glyph-name="igrave" unicode="&#xec;" horiz-adv-x="255" 
d="M190 562l-183 115l-3 12l65 68l155 -147zM80 0v516h95v-516h-95z" />
    <glyph glyph-name="iacute" unicode="&#xed;" horiz-adv-x="255" 
d="M59 562l-34 48l155 147l65 -68l-3 -12zM80 0v516h95v-516h-95z" />
    <glyph glyph-name="icircumflex" unicode="&#xee;" horiz-adv-x="255" 
d="M26 567l-41 40l119 137h44l123 -137l-42 -40l-104 89zM80 0v516h95v-516h-95z" />
    <glyph glyph-name="idieresis" unicode="&#xef;" horiz-adv-x="255" 
d="M46 606q-25 0 -42.5 17.5t-17.5 43.5q0 24 17.5 41.5t42.5 17.5q24 0 42 -18t18 -41q0 -25 -18 -43t-42 -18zM215 606q-25 0 -42.5 17.5t-17.5 43.5q0 24 17.5 41.5t42.5 17.5q24 0 42 -18t18 -41q0 -25 -18 -43t-42 -18zM80 0v516h95v-516h-95z" />
    <glyph glyph-name="eth" unicode="&#xf0;" horiz-adv-x="643" 
d="M425 681q159 -91 159 -367q0 -154 -73.5 -240.5t-203.5 -86.5q-116 0 -187 65.5t-71 184.5q0 109 73 178t177 69q112 0 178 -62q-26 148 -117 194l-80 -81l-50 50l51 51q-6 1 -20 1q-79 0 -138 -24l-3 3v81q55 23 144 23q48 0 90 -11l85 85l50 -49zM310 69q83 0 129 56.5
t47 169.5q-15 41 -60.5 74t-112.5 33q-76 0 -121.5 -45.5t-45.5 -117.5q0 -76 45 -123t119 -47z" />
    <glyph glyph-name="ntilde" unicode="&#xf1;" horiz-adv-x="618" 
d="M200 602l-3 -2l-61 14q0 44 25.5 74.5t67.5 30.5q31 0 77 -19t67 -19q18 0 29.5 11t11.5 29l3 2l61 -14q0 -49 -27.5 -77t-69.5 -28q-28 -1 -74.5 18.5t-67.5 19.5q-17 0 -28 -11t-11 -29zM341 528q90 0 147 -57t57 -167v-304h-94v279q0 83 -37.5 120.5t-98.5 37.5
q-49 0 -86.5 -26.5t-53.5 -72.5v-338h-95v516h77l10 -70q57 82 174 82z" />
    <glyph glyph-name="ograve" unicode="&#xf2;" horiz-adv-x="632" 
d="M379 562l-183 115l-3 12l65 68l155 -147zM315 -13q-116 0 -192 71.5t-76 200.5q0 122 78 195.5t190 73.5q117 0 193.5 -71t76.5 -199q0 -123 -78 -197t-192 -74zM315 69q78 0 125.5 52t47.5 138t-47.5 136.5t-125.5 50.5q-76 0 -123.5 -51t-47.5 -136q0 -87 47 -138.5
t124 -51.5z" />
    <glyph glyph-name="oacute" unicode="&#xf3;" horiz-adv-x="632" 
d="M248 562l-34 48l155 147l65 -68l-3 -12zM315 -13q-116 0 -192 71.5t-76 200.5q0 122 78 195.5t190 73.5q117 0 193.5 -71t76.5 -199q0 -123 -78 -197t-192 -74zM315 69q78 0 125.5 52t47.5 138t-47.5 136.5t-125.5 50.5q-76 0 -123.5 -51t-47.5 -136q0 -87 47 -138.5
t124 -51.5z" />
    <glyph glyph-name="ocircumflex" unicode="&#xf4;" horiz-adv-x="632" 
d="M215 567l-41 40l119 137h44l123 -137l-42 -40l-104 89zM315 -13q-116 0 -192 71.5t-76 200.5q0 122 78 195.5t190 73.5q117 0 193.5 -71t76.5 -199q0 -123 -78 -197t-192 -74zM315 69q78 0 125.5 52t47.5 138t-47.5 136.5t-125.5 50.5q-76 0 -123.5 -51t-47.5 -136
q0 -87 47 -138.5t124 -51.5z" />
    <glyph glyph-name="otilde" unicode="&#xf5;" horiz-adv-x="632" 
d="M209 600l-61 14q0 44 25.5 74.5t67.5 30.5q31 0 77 -19t67 -19q18 0 29.5 11t11.5 29l3 2l61 -14q0 -49 -27.5 -77t-69.5 -28q-28 -1 -74.5 18.5t-67.5 19.5q-17 0 -28 -11t-11 -29zM315 -13q-116 0 -192 71.5t-76 200.5q0 122 78 195.5t190 73.5q117 0 193.5 -71
t76.5 -199q0 -123 -78 -197t-192 -74zM315 69q78 0 125.5 52t47.5 138t-47.5 136.5t-125.5 50.5q-76 0 -123.5 -51t-47.5 -136q0 -87 47 -138.5t124 -51.5z" />
    <glyph glyph-name="odieresis" unicode="&#xf6;" horiz-adv-x="632" 
d="M220 606q-25 0 -42.5 17.5t-17.5 43.5q0 24 17.5 41.5t42.5 17.5q24 0 42 -18t18 -41q0 -25 -18 -43t-42 -18zM422 606q-25 0 -42.5 17.5t-17.5 43.5q0 24 17.5 41.5t42.5 17.5q24 0 42 -18t18 -41q0 -25 -18 -43t-42 -18zM315 -13q-116 0 -192 71.5t-76 200.5
q0 122 78 195.5t190 73.5q117 0 193.5 -71t76.5 -199q0 -123 -78 -197t-192 -74zM315 69q78 0 125.5 52t47.5 138t-47.5 136.5t-125.5 50.5q-76 0 -123.5 -51t-47.5 -136q0 -87 47 -138.5t124 -51.5z" />
    <glyph glyph-name="divide" unicode="&#xf7;" horiz-adv-x="540" 
d="M270 401q-30 0 -46 16.5t-16 41.5q0 26 16 43t46 17t46.5 -17t16.5 -43q0 -25 -16.5 -41.5t-46.5 -16.5zM55 261v74h431v-74h-431zM270 72q-30 0 -46 16.5t-16 41.5t16.5 42.5t45.5 17.5q30 0 46.5 -17t16.5 -43q0 -25 -16.5 -41.5t-46.5 -16.5z" />
    <glyph glyph-name="oslash" unicode="&#xf8;" horiz-adv-x="634" 
d="M519 448q67 -72 67 -190q0 -123 -78 -197t-192 -74q-86 0 -149 39l-36 -43h-83v9l65 78q-65 71 -65 189q0 122 78 195.5t190 73.5q83 0 146 -36l33 40h88v-7zM145 259q0 -68 29 -114l231 279q-39 22 -89 22q-76 0 -123.5 -51t-47.5 -136zM316 69q78 0 125.5 52t47.5 138
q0 68 -31 116l-234 -281q41 -25 92 -25z" />
    <glyph glyph-name="ugrave" unicode="&#xf9;" horiz-adv-x="605" 
d="M367 562l-183 115l-3 12l65 68l155 -147zM430 516h95v-516h-77l-9 65q-54 -77 -172 -77q-93 0 -143 52.5t-50 153.5v322h95v-306q0 -141 124 -141q45 0 83.5 25t53.5 75v347z" />
    <glyph glyph-name="uacute" unicode="&#xfa;" horiz-adv-x="605" 
d="M419 677l-183 -115l-34 48l155 147l65 -68zM430 516h95v-516h-77l-9 65q-54 -77 -172 -77q-93 0 -143 52.5t-50 153.5v322h95v-306q0 -141 124 -141q45 0 83.5 25t53.5 75v347z" />
    <glyph glyph-name="ucircumflex" unicode="&#xfb;" horiz-adv-x="605" 
d="M302 656l-99 -89l-41 40l119 137h44l123 -137l-42 -40zM430 516h95v-516h-77l-9 65q-54 -77 -172 -77q-93 0 -143 52.5t-50 153.5v322h95v-306q0 -141 124 -141q45 0 83.5 25t53.5 75v347z" />
    <glyph glyph-name="udieresis" unicode="&#xfc;" horiz-adv-x="605" 
d="M208 606q-25 0 -42.5 17.5t-17.5 43.5q0 24 17.5 41.5t42.5 17.5q24 0 42 -18t18 -41q0 -25 -18 -43t-42 -18zM410 606q-25 0 -42.5 17.5t-17.5 43.5q0 24 17.5 41.5t42.5 17.5q24 0 42 -18t18 -41q0 -25 -18 -43t-42 -18zM430 516h95v-516h-77l-9 65q-54 -77 -172 -77
q-93 0 -143 52.5t-50 153.5v322h95v-306q0 -141 124 -141q45 0 83.5 25t53.5 75v347z" />
    <glyph glyph-name="yacute" unicode="&#xfd;" horiz-adv-x="528" 
d="M385 677l-183 -115l-34 48l155 147l65 -68zM513 516l1 -3l-219 -518l-66 -157h-98l-2 3l92 188l-205 484l1 3h101l151 -395l149 395h95z" />
    <glyph glyph-name="thorn" unicode="&#xfe;" horiz-adv-x="618" 
d="M346 528q100 0 162 -69t62 -190q0 -129 -73.5 -205t-183.5 -76q-83 0 -138 30v-182h-95v874h95v-249q60 67 171 67zM308 70q74 0 119.5 51t45.5 143q0 89 -42 134.5t-110 45.5q-48 0 -87.5 -24t-58.5 -63v-253q51 -34 133 -34z" />
    <glyph glyph-name="ydieresis" unicode="&#xff;" horiz-adv-x="528" 
d="M174 606q-25 0 -42.5 17.5t-17.5 43.5q0 24 17.5 41.5t42.5 17.5q24 0 42 -18t18 -41q0 -25 -18 -43t-42 -18zM376 606q-25 0 -42.5 17.5t-17.5 43.5q0 24 17.5 41.5t42.5 17.5q24 0 42 -18t18 -41q0 -25 -18 -43t-42 -18zM513 516l1 -3l-219 -518l-66 -157h-98l-2 3
l92 188l-205 484l1 3h101l151 -395l149 395h95z" />
    <glyph glyph-name="Amacron" unicode="&#x100;" horiz-adv-x="636" 
d="M459 824v-78h-290v78h290zM534 0l-67 153h-302l-63 -153h-93l287 670h39l297 -670h-98zM196 227h239l-111 256l-11 33l-11 -33z" />
    <glyph glyph-name="amacron" unicode="&#x101;" horiz-adv-x="636" 
d="M460 688v-70h-296v70h296zM608 89l3 -1v-79q-29 -16 -68 -16q-80 0 -92 72q-61 -77 -177 -77q-101 0 -164 68.5t-63 190.5q0 126 74.5 203.5t194.5 77.5q83 0 138 -42l5 30h77v-388q0 -49 38 -49q19 0 34 10zM300 71q47 0 84.5 23.5t57.5 62.5v249q-50 40 -125 40
q-76 0 -124 -53t-48 -141q0 -90 43 -135.5t112 -45.5z" />
    <glyph glyph-name="Abreve" unicode="&#x102;" horiz-adv-x="636" 
d="M314 708q-61 0 -101.5 37.5t-40.5 100.5l62 6q4 -34 25 -54.5t56 -20.5q37 0 59.5 20.5t24.5 54.5l60 -6q0 -63 -41.5 -100.5t-103.5 -37.5zM534 0l-67 153h-302l-63 -153h-93l287 670h39l297 -670h-98zM196 227h239l-111 256l-11 33l-11 -33z" />
    <glyph glyph-name="abreve" unicode="&#x103;" horiz-adv-x="636" 
d="M312 576q-61 0 -101.5 39t-40.5 105l64 7l3 -2q2 -35 22.5 -56t53.5 -21q35 0 56.5 21t23.5 55l2 3l61 -7q0 -66 -41 -105t-103 -39zM608 89l3 -1v-79q-29 -16 -68 -16q-80 0 -92 72q-61 -77 -177 -77q-101 0 -164 68.5t-63 190.5q0 126 74.5 203.5t194.5 77.5
q83 0 138 -42l5 30h77v-388q0 -49 38 -49q19 0 34 10zM300 71q47 0 84.5 23.5t57.5 62.5v249q-50 40 -125 40q-76 0 -124 -53t-48 -141q0 -90 43 -135.5t112 -45.5z" />
    <glyph glyph-name="Aogonek" unicode="&#x104;" horiz-adv-x="636" 
d="M612 0q-86 -59 -86 -124q0 -17 11 -28.5t35 -11.5q19 0 30 4l4 -2v-61q-24 -8 -61 -8q-49 0 -79.5 22t-30.5 62q0 85 105 147h-6l-67 153h-302l-63 -153h-93l287 670h39l297 -670h-20zM196 227h239l-111 256l-11 33l-11 -33z" />
    <glyph glyph-name="aogonek" unicode="&#x105;" horiz-adv-x="636" 
d="M600 4q-84 -59 -84 -123q0 -17 11 -28.5t35 -11.5q19 0 30 4l4 -2v-61q-24 -8 -61 -8q-49 0 -79.5 22t-30.5 62q0 79 90 138q-54 11 -64 69q-61 -77 -177 -77q-101 0 -164 68.5t-63 190.5q0 126 74.5 203.5t194.5 77.5q83 0 138 -42l5 30h77v-388q0 -49 38 -49
q19 0 34 10l3 -1v-79q-5 -4 -11 -5zM300 71q47 0 84.5 23.5t57.5 62.5v249q-50 40 -125 40q-76 0 -124 -53t-48 -141q0 -90 43 -135.5t112 -45.5z" />
    <glyph glyph-name="Cacute" unicode="&#x106;" horiz-adv-x="630" 
d="M281 701l-20 52l183 117l51 -75l-6 -12zM401 -12q-157 1 -253.5 92.5t-96.5 244.5q0 158 96.5 253t253.5 95q102 0 186 -35v-88l-3 -1q-76 39 -171 39q-122 0 -193.5 -70t-71.5 -189q0 -118 70 -186.5t196 -68.5q91 0 170 38l3 -1v-85q-81 -38 -186 -38z" />
    <glyph glyph-name="cacute" unicode="&#x107;" horiz-adv-x="499" 
d="M229 568l-34 48l155 147l65 -68l-3 -12zM322 -12q-122 0 -198.5 73t-76.5 197t76.5 197.5t197.5 73.5q75 0 135 -23v-79l-4 -2q-57 23 -121 23q-84 0 -135.5 -51t-51.5 -136q0 -87 50.5 -139t136.5 -53q64 0 123 32l4 -2v-81q-58 -30 -136 -30z" />
    <glyph glyph-name="Cdotaccent" unicode="&#x10a;" horiz-adv-x="630" 
d="M377 727q-24 0 -41 17t-17 42q0 23 17 40.5t41 17.5t41 -17.5t17 -40.5q0 -25 -17 -42t-41 -17zM401 -12q-157 1 -253.5 92.5t-96.5 244.5q0 158 96.5 253t253.5 95q102 0 186 -35v-88l-3 -1q-76 39 -171 39q-122 0 -193.5 -70t-71.5 -189q0 -118 70 -186.5t196 -68.5
q91 0 170 38l3 -1v-85q-81 -38 -186 -38z" />
    <glyph glyph-name="cdotaccent" unicode="&#x10b;" horiz-adv-x="499" 
d="M297 609q-26 0 -44.5 19t-18.5 45q0 25 18.5 43.5t44.5 18.5t44.5 -18.5t18.5 -43.5q0 -26 -18.5 -45t-44.5 -19zM322 -12q-122 0 -198.5 73t-76.5 197t76.5 197.5t197.5 73.5q75 0 135 -23v-79l-4 -2q-57 23 -121 23q-84 0 -135.5 -51t-51.5 -136q0 -87 50.5 -139
t136.5 -53q64 0 123 32l4 -2v-81q-58 -30 -136 -30z" />
    <glyph glyph-name="Ccaron" unicode="&#x10c;" horiz-adv-x="630" 
d="M357 701l-125 113l35 46l113 -78l107 78l34 -46l-121 -113h-43zM401 -12q-157 1 -253.5 92.5t-96.5 244.5q0 158 96.5 253t253.5 95q102 0 186 -35v-88l-3 -1q-76 39 -171 39q-122 0 -193.5 -70t-71.5 -189q0 -118 70 -186.5t196 -68.5q91 0 170 38l3 -1v-85
q-81 -38 -186 -38z" />
    <glyph glyph-name="ccaron" unicode="&#x10d;" horiz-adv-x="499" 
d="M278 573l-123 137l42 40l104 -89l99 89l41 -40l-119 -137h-44zM322 -12q-122 0 -198.5 73t-76.5 197t76.5 197.5t197.5 73.5q75 0 135 -23v-79l-4 -2q-57 23 -121 23q-84 0 -135.5 -51t-51.5 -136q0 -87 50.5 -139t136.5 -53q64 0 123 32l4 -2v-81q-58 -30 -136 -30z" />
    <glyph glyph-name="Dcaron" unicode="&#x10e;" horiz-adv-x="732" 
d="M354 701h-43l-125 113l35 46l113 -78l107 78l34 -46zM312 670q179 0 274 -89.5t95 -244.5q0 -160 -98.5 -248.5t-276.5 -88.5q-163 0 -211 3v659q122 9 217 9zM316 82q132 1 199.5 66t67.5 187q0 119 -70.5 184t-202.5 65q-68 0 -122 -4v-495q45 -3 128 -3z" />
    <glyph glyph-name="dcaron" unicode="&#x10f;" horiz-adv-x="665" 
d="M686 714l9 -10l-31 -209h-61l8 219h75zM576 79q18 0 34 14l2 -1l-1 -81q-27 -18 -68 -18q-80 0 -92 71q-59 -76 -174 -76q-100 0 -164.5 68.5t-64.5 194.5q0 120 74 198.5t188 78.5q82 0 133 -33v215h95v-582q0 -27 9 -38t29 -11zM300 71q46 0 84 23t59 62v251
q-51 39 -124 39q-77 0 -125.5 -52.5t-48.5 -139.5q0 -91 44 -137t111 -46z" />
    <glyph glyph-name="Dcroat" unicode="&#x110;" horiz-adv-x="742" 
d="M322 670q179 0 274 -89.5t95 -244.5q0 -160 -98.5 -248.5t-276.5 -88.5q-163 0 -211 3v290h-89v69h89v300q122 9 217 9zM326 82q132 1 199.5 66t67.5 187q0 119 -70.5 184t-202.5 65q-68 0 -122 -4v-219h105v-69h-105v-207q45 -3 128 -3z" />
    <glyph glyph-name="dcroat" unicode="&#x111;" horiz-adv-x="640" 
d="M538 575v-447q0 -27 9 -38t29 -11q17 0 33 14l3 -1l-1 -81q-27 -18 -68 -18q-80 0 -92 71q-59 -76 -174 -76q-100 0 -164.5 68.5t-64.5 194.5q0 120 74 198.5t188 78.5q82 0 133 -33v80h-107v69h107v66h95v-66h85v-69h-85zM443 156v251q-51 39 -124 39
q-77 0 -125.5 -52.5t-48.5 -139.5q0 -91 44 -137t111 -46q46 0 84 23t59 62z" />
    <glyph glyph-name="Emacron" unicode="&#x112;" horiz-adv-x="554" 
d="M453 824v-78h-290v78h290zM189 87h316v-87h-410v661h398v-86h-304v-193h285v-86h-285v-209z" />
    <glyph glyph-name="emacron" unicode="&#x113;" horiz-adv-x="572" 
d="M442 688v-70h-296v70h296zM297 528q108 0 169 -65.5t62 -184.5q0 -28 -1 -42h-383q7 -80 60 -123t133 -43q78 0 158 38l3 -1v-78q-75 -42 -178 -42q-54 0 -101.5 16t-86.5 47.5t-62 85.5t-23 123q0 119 71.5 194t178.5 75zM297 448q-57 0 -97 -35.5t-52 -100.5h287
q-8 65 -44 100.5t-94 35.5z" />
    <glyph glyph-name="Edotaccent" unicode="&#x116;" horiz-adv-x="554" 
d="M309 727q-24 0 -41 17t-17 42q0 23 17 40.5t41 17.5t41 -17.5t17 -40.5q0 -25 -17 -42t-41 -17zM189 87h316v-87h-410v661h398v-86h-304v-193h285v-86h-285v-209z" />
    <glyph glyph-name="edotaccent" unicode="&#x117;" horiz-adv-x="572" 
d="M295 603q-26 0 -44.5 19t-18.5 45q0 25 18.5 43.5t44.5 18.5t44.5 -18.5t18.5 -43.5q0 -26 -18.5 -45t-44.5 -19zM297 528q108 0 169 -65.5t62 -184.5q0 -28 -1 -42h-383q7 -80 60 -123t133 -43q78 0 158 38l3 -1v-78q-75 -42 -178 -42q-54 0 -101.5 16t-86.5 47.5
t-62 85.5t-23 123q0 119 71.5 194t178.5 75zM297 448q-57 0 -97 -35.5t-52 -100.5h287q-8 65 -44 100.5t-94 35.5z" />
    <glyph glyph-name="Eogonek" unicode="&#x118;" horiz-adv-x="554" 
d="M505 0q-86 -59 -86 -124q0 -17 11 -28.5t35 -11.5q19 0 30 4l4 -2v-61q-24 -8 -61 -8q-49 0 -79.5 22t-30.5 62q0 85 105 147h-338v661h398v-86h-304v-193h285v-86h-285v-209h316v-87z" />
    <glyph glyph-name="eogonek" unicode="&#x119;" horiz-adv-x="572" 
d="M297 528q108 0 169 -65.5t62 -184.5q0 -28 -1 -42h-383q7 -80 60 -123t133 -43q78 0 158 38l3 -1v-78q-27 -15 -54 -24h1q-86 -59 -86 -124q0 -17 11 -28.5t35 -11.5q19 0 30 4l4 -2v-61q-24 -8 -61 -8q-49 0 -79.5 22t-30.5 62q0 74 78 130q-9 -1 -26 -1
q-54 0 -101.5 16t-86.5 47.5t-62 85.5t-23 123q0 119 71.5 194t178.5 75zM297 448q-57 0 -97 -35.5t-52 -100.5h287q-8 65 -44 100.5t-94 35.5z" />
    <glyph glyph-name="Ecaron" unicode="&#x11a;" horiz-adv-x="554" 
d="M332 701h-43l-125 113l35 46l113 -78l107 78l34 -46zM189 87h316v-87h-410v661h398v-86h-304v-193h285v-86h-285v-209z" />
    <glyph glyph-name="ecaron" unicode="&#x11b;" horiz-adv-x="572" 
d="M320 567h-44l-123 137l42 40l104 -89l99 89l41 -40zM297 528q108 0 169 -65.5t62 -184.5q0 -28 -1 -42h-383q7 -80 60 -123t133 -43q78 0 158 38l3 -1v-78q-75 -42 -178 -42q-54 0 -101.5 16t-86.5 47.5t-62 85.5t-23 123q0 119 71.5 194t178.5 75zM297 448
q-57 0 -97 -35.5t-52 -100.5h287q-8 65 -44 100.5t-94 35.5z" />
    <glyph glyph-name="Gbreve" unicode="&#x11e;" horiz-adv-x="694" 
d="M385 708q-61 0 -101.5 37.5t-40.5 100.5l62 6q4 -34 25 -54.5t56 -20.5q37 0 59.5 20.5t24.5 54.5l60 -6q0 -63 -41.5 -100.5t-103.5 -37.5zM394 -10q-163 0 -253 89.5t-90 249.5q0 155 99 249.5t265 94.5q108 0 192 -35l-1 -91l-3 -1q-84 42 -191 42q-121 0 -192 -71
t-71 -188q0 -118 64.5 -186t185.5 -68q88 0 151 28v202h85v-261q-103 -54 -241 -54z" />
    <glyph glyph-name="gbreve" unicode="&#x11f;" horiz-adv-x="616" 
d="M307 576q-61 0 -101.5 39t-40.5 105l64 7l3 -2q2 -35 22.5 -56t53.5 -21q35 0 56.5 21t23.5 55l2 3l61 -7q0 -66 -41 -105t-103 -39zM471 523h66v-462q0 -112 -71.5 -171.5t-198.5 -59.5q-106 0 -185 41v93l3 1q79 -51 178 -51q94 0 136.5 36.5t42.5 108.5v26
q-61 -68 -168 -68q-100 0 -163 65t-63 184t76.5 190.5t180.5 71.5q99 0 155 -46zM442 185v221q-50 40 -127 40q-75 0 -122.5 -46.5t-47.5 -129.5q0 -82 42.5 -126t110.5 -44q97 0 144 85z" />
    <glyph glyph-name="Gdotaccent" unicode="&#x120;" horiz-adv-x="694" 
d="M386 727q-24 0 -41 17t-17 42q0 23 17 40.5t41 17.5t41 -17.5t17 -40.5q0 -25 -17 -42t-41 -17zM394 -10q-163 0 -253 89.5t-90 249.5q0 155 99 249.5t265 94.5q108 0 192 -35l-1 -91l-3 -1q-84 42 -191 42q-121 0 -192 -71t-71 -188q0 -118 64.5 -186t185.5 -68
q88 0 151 28v202h85v-261q-103 -54 -241 -54z" />
    <glyph glyph-name="gdotaccent" unicode="&#x121;" horiz-adv-x="616" 
d="M308 603q-26 0 -44.5 19t-18.5 45q0 25 18.5 43.5t44.5 18.5t44.5 -18.5t18.5 -43.5q0 -26 -18.5 -45t-44.5 -19zM471 523h66v-462q0 -112 -71.5 -171.5t-198.5 -59.5q-106 0 -185 41v93l3 1q79 -51 178 -51q94 0 136.5 36.5t42.5 108.5v26q-61 -68 -168 -68
q-100 0 -163 65t-63 184t76.5 190.5t180.5 71.5q99 0 155 -46zM442 185v221q-50 40 -127 40q-75 0 -122.5 -46.5t-47.5 -129.5q0 -82 42.5 -126t110.5 -44q97 0 144 85z" />
    <glyph glyph-name="Gcommaaccent" unicode="&#x122;" horiz-adv-x="694" 
d="M394 -10q-163 0 -253 89.5t-90 249.5q0 155 99 249.5t265 94.5q108 0 192 -35l-1 -91l-3 -1q-84 42 -191 42q-121 0 -192 -71t-71 -188q0 -118 64.5 -186t185.5 -68q88 0 151 28v202h85v-261q-103 -54 -241 -54zM327 -230q18 59 18 133q0 15 -2 45l88 7l8 -11
q0 -91 -47 -174h-65z" />
    <glyph glyph-name="gcommaaccent" unicode="&#x123;" horiz-adv-x="616" 
d="M362 568l-88 -7l-8 11q0 91 47 174h65q-18 -59 -18 -133q0 -15 2 -45zM471 523h66v-462q0 -112 -71.5 -171.5t-198.5 -59.5q-106 0 -185 41v93l3 1q79 -51 178 -51q94 0 136.5 36.5t42.5 108.5v26q-61 -68 -168 -68q-100 0 -163 65t-63 184t76.5 190.5t180.5 71.5
q99 0 155 -46zM442 185v221q-50 40 -127 40q-75 0 -122.5 -46.5t-47.5 -129.5q0 -82 42.5 -126t110.5 -44q97 0 144 85z" />
    <glyph glyph-name="Hbar" unicode="&#x126;" horiz-adv-x="781" 
d="M751 545v-72h-83v-473h-94v292h-367v-292h-94v473h-82v72h82v116h94v-116h367v116h94v-116h83zM574 377v96h-367v-96h367z" />
    <glyph glyph-name="hbar" unicode="&#x127;" horiz-adv-x="617" 
d="M342 528q90 0 146 -58.5t56 -162.5v-307h-94v285q0 79 -36.5 115.5t-95.5 36.5q-50 0 -88.5 -26t-54.5 -71v-340h-95v575h-83v69h83v66h95v-66h109v-69h-109v-121q56 74 167 74z" />
    <glyph glyph-name="Itilde" unicode="&#x128;" horiz-adv-x="284" 
d="M37 712l-63 18q2 46 30 75t71 29q29 0 71.5 -17.5t61.5 -17.5q16 0 28.5 11t12.5 30l2 2l63 -20q-2 -46 -30 -74t-71 -28q-23 0 -67 17.5t-65 17.5q-18 0 -30 -11.5t-12 -30.5zM95 0v661h94v-661h-94z" />
    <glyph glyph-name="itilde" unicode="&#x129;" horiz-adv-x="255" 
d="M20 600l-61 14q0 44 25.5 74.5t67.5 30.5q30 0 76.5 -19t67.5 -19q18 0 29.5 11t11.5 29l3 2l61 -14q0 -49 -27.5 -77t-69.5 -28q-28 -1 -74.5 18.5t-67.5 19.5q-17 0 -28 -11t-11 -29zM80 0v516h95v-516h-95z" />
    <glyph glyph-name="Imacron" unicode="&#x12a;" horiz-adv-x="284" 
d="M26 748v80h232v-80h-232zM95 0v661h94v-661h-94z" />
    <glyph glyph-name="imacron" unicode="&#x12b;" horiz-adv-x="255" 
d="M-6 618v70h264v-70h-264zM80 0v516h95v-516h-95z" />
    <glyph glyph-name="Iogonek" unicode="&#x12e;" horiz-adv-x="284" 
d="M177 0q-79 -56 -79 -119q0 -17 11 -28.5t35 -11.5q19 0 30 4l4 -2v-61q-24 -8 -61 -8q-49 0 -79.5 22t-30.5 62q0 82 96 142h-8v661h94v-661h-12z" />
    <glyph glyph-name="iogonek" unicode="&#x12f;" horiz-adv-x="255" 
d="M127 603q-26 0 -44.5 19t-18.5 45q0 25 18.5 43.5t44.5 18.5t44.5 -18.5t18.5 -43.5q0 -26 -18.5 -45t-44.5 -19zM80 0v516h95v-516h-9q-86 -59 -86 -124q0 -17 11 -28.5t35 -11.5q19 0 30 4l4 -2v-61q-24 -8 -61 -8q-49 0 -79.5 22t-30.5 62q0 85 105 147h-14z" />
    <glyph glyph-name="Idotaccent" unicode="&#x130;" horiz-adv-x="284" 
d="M143 727q-24 0 -41 17t-17 42q0 23 17 40.5t41 17.5t41 -17.5t17 -40.5q0 -25 -17 -42t-41 -17zM95 0v661h94v-661h-94z" />
    <glyph glyph-name="dotlessi" unicode="&#x131;" horiz-adv-x="255" 
d="M80 0v516h95v-516h-95z" />
    <glyph glyph-name="IJ" unicode="&#x132;" horiz-adv-x="648" 
d="M95 0v661h94v-661h-94zM351 -3q-23 0 -53 3v80l3 1q16 -3 39 -3q126 0 126 152v431h95v-423q0 -241 -210 -241z" />
    <glyph glyph-name="ij" unicode="&#x133;" horiz-adv-x="510" 
d="M127 603q-26 0 -44.5 19t-18.5 45q0 25 18.5 43.5t44.5 18.5t44.5 -18.5t18.5 -43.5q0 -26 -18.5 -45t-44.5 -19zM383 603q-26 0 -44.5 19t-18.5 45q0 25 18.5 43.5t44.5 18.5t44.5 -18.5t18.5 -43.5q0 -26 -18.5 -45t-44.5 -19zM80 40v476h95v-476h-95zM234 -169
q-55 0 -116 16v82l2 1q49 -14 110 -14q60 0 83 41.5t23 150.5v408h94v-429q0 -139 -50 -197.5t-146 -58.5z" />
    <glyph glyph-name="Kcommaaccent" unicode="&#x136;" horiz-adv-x="630" 
d="M273 337l361 -334l-1 -3h-121l-323 294v-294h-94v661h94v-295l313 295h112l1 -3zM274 -52l88 7l8 -11q0 -91 -47 -174h-65q18 59 18 133q0 15 -2 45z" />
    <glyph glyph-name="kcommaaccent" unicode="&#x137;" horiz-adv-x="542" 
d="M265 270l269 -267l-1 -3h-118l-240 234v-234h-95v710h95v-416l233 222h111l1 -3zM231 -52l88 7l8 -11q0 -91 -47 -174h-65q18 59 18 133q0 15 -2 45z" />
    <glyph glyph-name="kgreenlandic" unicode="&#x138;" horiz-adv-x="542" 
d="M265 270l269 -267l-1 -3h-118l-240 234v-234h-95v516h95v-223l237 223h111l1 -3z" />
    <glyph glyph-name="Lacute" unicode="&#x139;" horiz-adv-x="502" 
d="M273 795l-6 -12l-208 -82l-20 52l183 117zM189 79h301v-79h-395v661h94v-582z" />
    <glyph glyph-name="lacute" unicode="&#x13a;" horiz-adv-x="284" 
d="M28 745l-20 52l183 117l51 -75l-6 -12zM206 -9q-129 0 -129 129v590h94v-564q0 -37 13 -53.5t41 -16.5q22 0 39 10l3 -1v-82q-29 -12 -61 -12z" />
    <glyph glyph-name="Lcommaaccent" unicode="&#x13b;" horiz-adv-x="502" 
d="M189 79h301v-79h-395v661h94v-582zM248 -52l88 7l8 -11q0 -91 -47 -174h-65q18 59 18 133q0 15 -2 45z" />
    <glyph glyph-name="lcommaaccent" unicode="&#x13c;" horiz-adv-x="284" 
d="M206 -9q-129 0 -129 129v590h94v-564q0 -37 13 -53.5t41 -16.5q22 0 39 10l3 -1v-82q-29 -12 -61 -12zM109 -230q18 59 18 133q0 15 -2 45l88 7l8 -11q0 -91 -47 -174h-65z" />
    <glyph glyph-name="Lcaron" unicode="&#x13d;" horiz-adv-x="507" 
d="M433 669l-31 -209h-61l8 219h75zM189 79h301v-79h-395v661h94v-582z" />
    <glyph glyph-name="lcaron" unicode="&#x13e;" horiz-adv-x="296" 
d="M225 495l8 219h75l9 -10l-31 -209h-61zM206 -9q-129 0 -129 129v590h94v-564q0 -37 13 -53.5t41 -16.5q23 0 40 10l2 -1v-82q-29 -12 -61 -12z" />
    <glyph glyph-name="Ldot" unicode="&#x13f;" horiz-adv-x="516" 
d="M189 79h301v-79h-395v661h94v-582zM394 331q-27 0 -41 14t-14 37t14 38t41 15t41 -15t14 -38t-14 -37t-41 -14z" />
    <glyph glyph-name="ldot" unicode="&#x140;" horiz-adv-x="340" 
d="M206 -9q-129 0 -129 129v590h94v-564q0 -37 13 -53.5t41 -16.5q23 0 40 10l2 -1v-82q-29 -12 -61 -12zM294 306q-27 0 -41 14t-14 37t14 38t41 15t41 -15t14 -38t-14 -37t-41 -14z" />
    <glyph glyph-name="Lslash" unicode="&#x141;" horiz-adv-x="511" 
d="M198 79h301v-79h-395v258l-71 -44l-4 2v83l75 47v315h94v-256l72 45h4v-86l-76 -47v-238z" />
    <glyph glyph-name="lslash" unicode="&#x142;" horiz-adv-x="331" 
d="M296 86l2 -1v-82q-28 -12 -61 -12q-129 0 -129 129v171l-70 -45h-4v81l74 47v336h94v-276l73 46h3v-81l-76 -48v-205q0 -37 13 -53.5t41 -16.5q22 0 40 10z" />
    <glyph glyph-name="Nacute" unicode="&#x143;" horiz-adv-x="739" 
d="M277 701l-20 52l183 117l51 -75l-6 -12zM95 0v661h40l416 -471h3v471h90v-661h-39l-417 472h-3v-472h-90z" />
    <glyph glyph-name="nacute" unicode="&#x144;" horiz-adv-x="618" 
d="M419 677l-183 -115l-34 48l155 147l65 -68zM341 528q90 0 147 -57t57 -167v-304h-94v279q0 83 -37.5 120.5t-98.5 37.5q-49 0 -86.5 -26.5t-53.5 -72.5v-338h-95v516h77l10 -70q57 82 174 82z" />
    <glyph glyph-name="Ncommaaccent" unicode="&#x145;" horiz-adv-x="739" 
d="M95 0v661h40l416 -471h3v471h90v-661h-39l-417 472h-3v-472h-90zM309 -230q18 59 18 133q0 15 -2 45l88 7l8 -11q0 -91 -47 -174h-65z" />
    <glyph glyph-name="ncommaaccent" unicode="&#x146;" horiz-adv-x="618" 
d="M341 528q90 0 147 -57t57 -167v-304h-94v279q0 83 -37.5 120.5t-98.5 37.5q-49 0 -86.5 -26.5t-53.5 -72.5v-338h-95v516h77l10 -70q57 82 174 82zM253 -52l88 7l8 -11q0 -91 -47 -174h-65q18 59 18 133q0 15 -2 45z" />
    <glyph glyph-name="Ncaron" unicode="&#x147;" horiz-adv-x="739" 
d="M353 701l-125 113l35 46l113 -78l107 78l34 -46l-121 -113h-43zM95 0v661h40l416 -471h3v471h90v-661h-39l-417 472h-3v-472h-90z" />
    <glyph glyph-name="ncaron" unicode="&#x148;" horiz-adv-x="618" 
d="M329 567h-44l-123 137l42 40l104 -89l99 89l41 -40zM341 528q90 0 147 -57t57 -167v-304h-94v279q0 83 -37.5 120.5t-98.5 37.5q-49 0 -86.5 -26.5t-53.5 -72.5v-338h-95v516h77l10 -70q57 82 174 82z" />
    <glyph glyph-name="Eng" unicode="&#x14a;" horiz-adv-x="738" 
d="M554 661h90v-613q0 -242 -208 -242q-29 0 -53 4v77l1 1q18 -3 40 -3q66 0 98 41.5t32 114.5v16l-366 415h-3v-472h-90v661h40l416 -471h3v471z" />
    <glyph glyph-name="eng" unicode="&#x14b;" horiz-adv-x="610" 
d="M344 528q88 0 140.5 -54t52.5 -159v-347q0 -90 -43.5 -133t-121.5 -43q-8 0 -32 2v77l2 2q5 -1 9 -1q48 0 70 25t22 87v304q0 77 -36.5 113t-95.5 36q-47 0 -83.5 -25.5t-52.5 -70.5v-341h-95v516h77l12 -84q24 42 69 69t106 27z" />
    <glyph glyph-name="Omacron" unicode="&#x14c;" horiz-adv-x="786" 
d="M247 746v78h290v-78h-290zM393 -14q-144 0 -243 91.5t-99 252.5q0 158 96.5 251.5t245.5 93.5q144 0 243 -92t99 -253q0 -158 -96.5 -251t-245.5 -93zM393 71q108 0 176 69.5t68 189.5q0 121 -67.5 190.5t-176.5 69.5t-176.5 -69.5t-67.5 -190.5q0 -120 68 -189.5
t176 -69.5z" />
    <glyph glyph-name="omacron" unicode="&#x14d;" horiz-adv-x="632" 
d="M167 618v70h296v-70h-296zM315 -13q-116 0 -192 71.5t-76 200.5q0 122 78 195.5t190 73.5q117 0 193.5 -71t76.5 -199q0 -123 -78 -197t-192 -74zM315 69q78 0 125.5 52t47.5 138t-47.5 136.5t-125.5 50.5q-76 0 -123.5 -51t-47.5 -136q0 -87 47 -138.5t124 -51.5z" />
    <glyph glyph-name="Ohungarumlaut" unicode="&#x150;" horiz-adv-x="786" 
d="M307 709l-52 22l70 156l80 -17l2 -14zM494 709l-53 22l71 156l79 -17l2 -14zM393 -14q-144 0 -243 91.5t-99 252.5q0 158 96.5 251.5t245.5 93.5q144 0 243 -92t99 -253q0 -158 -96.5 -251t-245.5 -93zM393 71q108 0 176 69.5t68 189.5q0 121 -67.5 190.5t-176.5 69.5
t-176.5 -69.5t-67.5 -190.5q0 -120 68 -189.5t176 -69.5z" />
    <glyph glyph-name="ohungarumlaut" unicode="&#x151;" horiz-adv-x="632" 
d="M235 564l-48 24l83 165l73 -25l1 -14zM407 564l-48 24l82 165l73 -25l1 -14zM315 -13q-116 0 -192 71.5t-76 200.5q0 122 78 195.5t190 73.5q117 0 193.5 -71t76.5 -199q0 -123 -78 -197t-192 -74zM315 69q78 0 125.5 52t47.5 138t-47.5 136.5t-125.5 50.5
q-76 0 -123.5 -51t-47.5 -136q0 -87 47 -138.5t124 -51.5z" />
    <glyph glyph-name="OE" unicode="&#x152;" horiz-adv-x="921" 
d="M872 87v-87h-373q-51 -14 -106 -14q-144 0 -243 91.5t-99 252.5q0 158 96.5 251.5t245.5 93.5q52 0 105 -14h362v-86h-216q71 -73 87 -185h110v-85h-107q-7 -133 -88 -218h226zM149 330q0 -120 68 -189.5t176 -69.5q13 0 20 1v517q-7 1 -20 1q-109 0 -176.5 -69.5
t-67.5 -190.5zM507 390h125q-21 125 -125 175v-175zM507 96q118 56 129 209h-129v-209z" />
    <glyph glyph-name="oe" unicode="&#x153;" horiz-adv-x="981" 
d="M713 528q104 0 163.5 -65.5t60.5 -185.5q0 -27 -1 -41h-369q7 -81 56 -123.5t129 -42.5q74 0 153 38l3 -1v-78q-72 -42 -168 -42q-69 0 -127.5 29.5t-92.5 87.5q-66 -117 -215 -117q-115 0 -186.5 72t-71.5 197q0 118 74 195t184 77q70 0 126 -29.5t88 -85.5
q30 55 80.5 85t113.5 30zM570 312h278q-7 68 -42 104t-94 36q-54 0 -92.5 -36.5t-49.5 -103.5zM307 68q74 0 118.5 51.5t44.5 139.5q0 87 -44 137.5t-119 50.5q-70 0 -116.5 -53t-46.5 -138q0 -86 46 -137t117 -51z" />
    <glyph glyph-name="Racute" unicode="&#x154;" horiz-adv-x="593" 
d="M401 783l-208 -82l-20 52l183 117l51 -75zM389 265l167 -262l-1 -3h-102l-156 250h-2h-107v-250h-93v661q81 6 179 6q115 0 182.5 -50t67.5 -155q0 -77 -37 -126t-98 -71zM188 583v-257h83q70 0 114 33t44 95q0 64 -37 98t-110 34q-66 0 -94 -3z" />
    <glyph glyph-name="racute" unicode="&#x155;" horiz-adv-x="389" 
d="M340 677l-183 -115l-34 48l155 147l65 -68zM311 527q33 0 57 -9v-85l-3 -1q-23 9 -54 9q-116 0 -136 -137v-304h-95v516h77l9 -69q46 80 145 80z" />
    <glyph glyph-name="Rcommaaccent" unicode="&#x156;" horiz-adv-x="593" 
d="M389 265l167 -262l-1 -3h-102l-156 250h-2h-107v-250h-93v661q81 6 179 6q115 0 182.5 -50t67.5 -155q0 -77 -37 -126t-98 -71zM188 583v-257h83q70 0 114 33t44 95q0 64 -37 98t-110 34q-66 0 -94 -3zM251 -52l88 7l8 -11q0 -91 -47 -174h-65q18 59 18 133q0 15 -2 45z
" />
    <glyph glyph-name="rcommaaccent" unicode="&#x157;" horiz-adv-x="389" 
d="M311 527q33 0 57 -9v-85l-3 -1q-23 9 -54 9q-116 0 -136 -137v-304h-95v516h77l9 -69q46 80 145 80zM80 -52l88 7l8 -11q0 -91 -47 -174h-65q18 59 18 133q0 15 -2 45z" />
    <glyph glyph-name="Rcaron" unicode="&#x158;" horiz-adv-x="593" 
d="M312 701h-43l-125 113l35 46l113 -78l107 78l34 -46zM389 265l167 -262l-1 -3h-102l-156 250h-2h-107v-250h-93v661q81 6 179 6q115 0 182.5 -50t67.5 -155q0 -77 -37 -126t-98 -71zM188 583v-257h83q70 0 114 33t44 95q0 64 -37 98t-110 34q-66 0 -94 -3z" />
    <glyph glyph-name="rcaron" unicode="&#x159;" horiz-adv-x="389" 
d="M250 567h-44l-123 137l42 40l104 -89l99 89l41 -40zM166 447q46 80 145 80q33 0 57 -9v-85l-3 -1q-23 9 -54 9q-116 0 -136 -137v-304h-95v516h77z" />
    <glyph glyph-name="Sacute" unicode="&#x15a;" horiz-adv-x="530" 
d="M178 701l-20 52l183 117l51 -75l-6 -12zM243 -13q-110 0 -186 44v96l3 1q79 -56 174 -56q65 0 104 26.5t39 73.5q0 45 -29.5 73.5t-107.5 63.5q-80 35 -125 76t-45 108q0 87 61.5 134.5t153.5 47.5q98 0 164 -32v-89l-3 -1q-61 37 -151 37q-58 1 -94 -21t-36 -64
q0 -25 17 -45.5t39.5 -33t62.5 -31.5q13 -6 20 -9q84 -40 125 -85.5t41 -123.5q0 -87 -62.5 -138.5t-164.5 -51.5z" />
    <glyph glyph-name="sacute" unicode="&#x15b;" horiz-adv-x="481" 
d="M173 568l-34 48l155 147l65 -68l-3 -12zM224 -13q-107 0 -178 38v91l3 1q72 -49 170 -49q128 0 128 67q0 33 -28 51.5t-104 38.5q-84 22 -123.5 55t-39.5 97q0 69 58.5 110t154.5 41q89 0 147 -25v-84l-3 -1q-61 29 -145 29q-54 0 -86.5 -16.5t-32.5 -46.5q0 -29 26 -44
t95 -33q90 -23 131.5 -59t41.5 -103q0 -76 -57.5 -117t-157.5 -41z" />
    <glyph glyph-name="Scedilla" unicode="&#x15e;" horiz-adv-x="530" 
d="M470 177q0 -74 -46 -123t-126 -63l-25 -39q6 2 15 2q37 0 63 -20t26 -65q0 -53 -37.5 -78.5t-93.5 -25.5q-33 0 -63 10v56l3 1q20 -8 47 -8q28 0 44 11.5t16 31.5q0 35 -44 35q-24 0 -43 -8l-1 3v45l28 45q-102 1 -176 44v96l3 1q79 -56 174 -56q65 0 104 26.5t39 73.5
q0 45 -29.5 73.5t-107.5 63.5q-80 35 -125 76t-45 108q0 87 61.5 134.5t153.5 47.5q98 0 164 -32v-89l-3 -1q-61 37 -151 37q-58 1 -94 -21t-36 -64q0 -25 17 -45.5t39.5 -33t62.5 -31.5q13 -6 20 -9q84 -40 125 -85.5t41 -123.5z" />
    <glyph glyph-name="scedilla" unicode="&#x15f;" horiz-adv-x="481" 
d="M439 145q0 -66 -44 -106t-122 -49l-24 -38q6 2 15 2q37 0 63 -20t26 -65q0 -53 -37.5 -78.5t-93.5 -25.5q-33 0 -63 10v56l3 1q20 -8 47 -8q28 0 44 11.5t16 31.5q0 35 -44 35q-24 0 -43 -8l-1 3v45l28 45q-97 3 -163 38v91l3 1q72 -49 170 -49q128 0 128 67
q0 33 -28 51.5t-104 38.5q-84 22 -123.5 55t-39.5 97q0 69 58.5 110t154.5 41q89 0 147 -25v-84l-3 -1q-61 29 -145 29q-54 0 -86.5 -16.5t-32.5 -46.5q0 -29 26 -44t95 -33q90 -23 131.5 -59t41.5 -103z" />
    <glyph glyph-name="Scaron" unicode="&#x160;" horiz-adv-x="530" 
d="M254 701l-125 113l35 46l113 -78l107 78l34 -46l-121 -113h-43zM243 -13q-110 0 -186 44v96l3 1q79 -56 174 -56q65 0 104 26.5t39 73.5q0 45 -29.5 73.5t-107.5 63.5q-80 35 -125 76t-45 108q0 87 61.5 134.5t153.5 47.5q98 0 164 -32v-89l-3 -1q-61 37 -151 37
q-58 1 -94 -21t-36 -64q0 -25 17 -45.5t39.5 -33t62.5 -31.5q13 -6 20 -9q84 -40 125 -85.5t41 -123.5q0 -87 -62.5 -138.5t-164.5 -51.5z" />
    <glyph glyph-name="scaron" unicode="&#x161;" horiz-adv-x="481" 
d="M222 573l-123 137l42 40l104 -89l99 89l41 -40l-119 -137h-44zM224 -13q-107 0 -178 38v91l3 1q72 -49 170 -49q128 0 128 67q0 33 -28 51.5t-104 38.5q-84 22 -123.5 55t-39.5 97q0 69 58.5 110t154.5 41q89 0 147 -25v-84l-3 -1q-61 29 -145 29q-54 0 -86.5 -16.5
t-32.5 -46.5q0 -29 26 -44t95 -33q90 -23 131.5 -59t41.5 -103q0 -76 -57.5 -117t-157.5 -41z" />
    <glyph glyph-name="uni0162" unicode="&#x162;" horiz-adv-x="563" 
d="M331 0h-14l-30 -48q6 2 15 2q37 0 63 -20t26 -65q0 -53 -37.5 -78.5t-93.5 -25.5q-33 0 -63 10v56l3 1q20 -8 47 -8q28 0 44 11.5t16 31.5q0 35 -44 35q-24 0 -43 -8l-1 3v45l36 58h-18v577h-222v84h533v-84h-217v-577z" />
    <glyph glyph-name="uni0163" unicode="&#x163;" horiz-adv-x="394" 
d="M384 438h-176v-263q0 -96 87 -96q48 0 86 21l3 -1v-80q-40 -21 -92 -23l-27 -44q6 2 15 2q37 0 63 -20t26 -65q0 -53 -37.5 -78.5t-93.5 -25.5q-33 0 -63 10v56l3 1q20 -8 47 -8q28 0 44 11.5t16 31.5q0 35 -44 35q-24 0 -43 -8l-1 3v45l35 56q-57 10 -88 50t-31 108v282
h-93v78h93v126l92 18l3 -2v-142h176v-78z" />
    <glyph glyph-name="Tcaron" unicode="&#x164;" horiz-adv-x="563" 
d="M305 701h-43l-125 113l35 46l113 -78l107 78l34 -46zM548 661v-84h-217v-577h-94v577h-222v84h533z" />
    <glyph glyph-name="tcaron" unicode="&#x165;" horiz-adv-x="390" 
d="M375 783l-32 -180h-50l8 190h65zM384 438h-176v-263q0 -96 87 -96q48 0 86 21l3 -1v-80q-43 -24 -115 -24q-75 0 -115.5 41.5t-40.5 119.5v282h-93v78h93v126l92 18l3 -2v-142h176v-78z" />
    <glyph glyph-name="Tbar" unicode="&#x166;" horiz-adv-x="570" 
d="M552 577h-217v-235h93v-69h-93v-273h-94v273h-100v69h100v235h-222v84h533v-84z" />
    <glyph glyph-name="tbar" unicode="&#x167;" horiz-adv-x="394" 
d="M384 438h-176v-125h102v-69h-102v-69q0 -96 87 -96q48 0 86 21l3 -1v-80q-43 -24 -115 -24q-75 0 -115.5 41.5t-40.5 119.5v88h-90v69h90v125h-93v78h93v126l92 18l3 -2v-142h176v-78z" />
    <glyph glyph-name="Utilde" unicode="&#x168;" horiz-adv-x="715" 
d="M252 712l-63 18q2 46 30 75t71 29q29 0 71.5 -17.5t61.5 -17.5q16 0 28.5 11t12.5 30l2 2l63 -20q-2 -46 -30 -74t-71 -28q-24 0 -68 17.5t-64 17.5q-18 0 -30 -11.5t-12 -30.5zM358 -14q-131 0 -201.5 70t-70.5 200v405h93v-393q0 -99 46.5 -150t133.5 -51
q86 0 132.5 51.5t46.5 149.5v393h91v-405q0 -129 -71 -199.5t-200 -70.5z" />
    <glyph glyph-name="utilde" unicode="&#x169;" horiz-adv-x="605" 
d="M200 602l-3 -2l-61 14q0 44 25.5 74.5t67.5 30.5q31 0 77 -19t67 -19q18 0 29.5 11t11.5 29l3 2l61 -14q0 -49 -27.5 -77t-69.5 -28q-28 -1 -74.5 18.5t-67.5 19.5q-17 0 -28 -11t-11 -29zM430 516h95v-516h-77l-9 65q-54 -77 -172 -77q-93 0 -143 52.5t-50 153.5v322h95
v-306q0 -141 124 -141q45 0 83.5 25t53.5 75v347z" />
    <glyph glyph-name="Umacron" unicode="&#x16a;" horiz-adv-x="715" 
d="M212 746v78h290v-78h-290zM358 -14q-131 0 -201.5 70t-70.5 200v405h93v-393q0 -99 46.5 -150t133.5 -51q86 0 132.5 51.5t46.5 149.5v393h91v-405q0 -129 -71 -199.5t-200 -70.5z" />
    <glyph glyph-name="umacron" unicode="&#x16b;" horiz-adv-x="605" 
d="M451 688v-70h-296v70h296zM430 516h95v-516h-77l-9 65q-54 -77 -172 -77q-93 0 -143 52.5t-50 153.5v322h95v-306q0 -141 124 -141q45 0 83.5 25t53.5 75v347z" />
    <glyph glyph-name="Uring" unicode="&#x16e;" horiz-adv-x="715" 
d="M358 683q-44 0 -71.5 26.5t-27.5 66.5t27.5 66.5t71.5 26.5q43 0 70.5 -26.5t27.5 -66.5t-27.5 -66.5t-70.5 -26.5zM358 734q18 0 30 12t12 30t-12 30t-30 12t-30 -12t-12 -30t12 -30t30 -12zM358 -14q-131 0 -201.5 70t-70.5 200v405h93v-393q0 -99 46.5 -150t133.5 -51
q86 0 132.5 51.5t46.5 149.5v393h91v-405q0 -129 -71 -199.5t-200 -70.5z" />
    <glyph glyph-name="uring" unicode="&#x16f;" horiz-adv-x="605" 
d="M304 560q-44 0 -72.5 28.5t-28.5 70.5t28.5 70t72.5 28q46 0 74 -28t28 -70q0 -43 -28 -71t-74 -28zM305 707q-20 0 -34 -14t-14 -34t14 -34t34 -14q21 0 34.5 14t13.5 34t-13.5 34t-34.5 14zM430 516h95v-516h-77l-9 65q-54 -77 -172 -77q-93 0 -143 52.5t-50 153.5v322
h95v-306q0 -141 124 -141q45 0 83.5 25t53.5 75v347z" />
    <glyph glyph-name="Uhungarumlaut" unicode="&#x170;" horiz-adv-x="715" 
d="M272 709l-52 22l70 156l80 -17l2 -14zM459 709l-53 22l71 156l79 -17l2 -14zM358 -14q-131 0 -201.5 70t-70.5 200v405h93v-393q0 -99 46.5 -150t133.5 -51q86 0 132.5 51.5t46.5 149.5v393h91v-405q0 -129 -71 -199.5t-200 -70.5z" />
    <glyph glyph-name="uhungarumlaut" unicode="&#x171;" horiz-adv-x="605" 
d="M332 714l-109 -150l-48 24l83 165l73 -25zM503 714l-108 -150l-48 24l82 165l73 -25zM430 516h95v-516h-77l-9 65q-54 -77 -172 -77q-93 0 -143 52.5t-50 153.5v322h95v-306q0 -141 124 -141q45 0 83.5 25t53.5 75v347z" />
    <glyph glyph-name="Uogonek" unicode="&#x172;" horiz-adv-x="715" 
d="M538 661h91v-405q0 -101 -44.5 -167t-126.5 -90q-78 -56 -78 -118q0 -17 11 -28.5t35 -11.5q19 0 30 4l4 -2v-61q-24 -8 -61 -8q-49 0 -79.5 22t-30.5 62q0 72 76 128h-7q-131 0 -201.5 70t-70.5 200v405h93v-393q0 -99 46.5 -150t133.5 -51q86 0 132.5 51.5t46.5 149.5
v393z" />
    <glyph glyph-name="uogonek" unicode="&#x173;" horiz-adv-x="605" 
d="M430 516h95v-516h-1q-85 -59 -85 -123q0 -17 11 -28.5t35 -11.5q19 0 30 4l4 -2v-61q-24 -8 -61 -8q-49 0 -79.5 22t-30.5 62q0 84 103 146h-3l-9 65q-54 -77 -172 -77q-93 0 -143 52.5t-50 153.5v322h95v-306q0 -141 124 -141q45 0 83.5 25t53.5 75v347z" />
    <glyph glyph-name="Wcircumflex" unicode="&#x174;" horiz-adv-x="964" 
d="M478 781l-107 -78l-34 46l121 113h43l125 -113l-35 -46zM947 661l1 -3l-218 -668h-70l-169 493l-7 27l-7 -27l-169 -493h-71l-224 668l1 3h99l155 -498l8 -41l10 41l165 495h68l166 -487l10 -44l10 44l151 490h91z" />
    <glyph glyph-name="wcircumflex" unicode="&#x175;" horiz-adv-x="804" 
d="M401 663l-99 -89l-41 40l119 137h44l123 -137l-42 -40zM784 516l1 -3l-173 -513h-69l-133 380l-5 21l-6 -21l-136 -380h-71l-174 513l1 3h96l113 -372l4 -23l5 23l130 372h78l128 -371l5 -23l4 24l115 370h87z" />
    <glyph glyph-name="Ycircumflex" unicode="&#x176;" horiz-adv-x="596" 
d="M188 701l-34 46l121 113h43l125 -113l-35 -46l-113 78zM252 0v272l-241 386l1 3h100l189 -303l187 303h95l1 -3l-239 -387v-271h-93z" />
    <glyph glyph-name="ycircumflex" unicode="&#x177;" horiz-adv-x="528" 
d="M268 656l-99 -89l-41 40l119 137h44l123 -137l-42 -40zM513 516l1 -3l-219 -518l-66 -157h-98l-2 3l92 188l-205 484l1 3h101l151 -395l149 395h95z" />
    <glyph glyph-name="Ydieresis" unicode="&#x178;" horiz-adv-x="596" 
d="M195 726q-23 0 -38.5 16t-15.5 38t15.5 38t38.5 16t38.5 -16t15.5 -38t-15.5 -38t-38.5 -16zM406 726q-22 0 -38 16t-16 38t16 38t38 16t38 -16t16 -38t-16 -38t-38 -16zM252 0v272l-241 386l1 3h100l189 -303l187 303h95l1 -3l-239 -387v-271h-93z" />
    <glyph glyph-name="Zacute" unicode="&#x179;" horiz-adv-x="588" 
d="M196 701l-20 52l183 117l51 -75l-6 -12zM36 0v32l382 552h-379l-1 77h509v-32l-386 -551h392v-78h-517z" />
    <glyph glyph-name="zacute" unicode="&#x17a;" horiz-adv-x="517" 
d="M371 677l-183 -115l-34 48l155 147l65 -68zM167 82h315v-82h-444v44l306 390h-304v82h434v-46z" />
    <glyph glyph-name="Zdotaccent" unicode="&#x17b;" horiz-adv-x="588" 
d="M292 727q-24 0 -41 17t-17 42q0 23 17 40.5t41 17.5t41 -17.5t17 -40.5q0 -25 -17 -42t-41 -17zM36 0v32l382 552h-379l-1 77h509v-32l-386 -551h392v-78h-517z" />
    <glyph glyph-name="zdotaccent" unicode="&#x17c;" horiz-adv-x="517" 
d="M256 603q-26 0 -44.5 19t-18.5 45q0 25 18.5 43.5t44.5 18.5t44.5 -18.5t18.5 -43.5q0 -26 -18.5 -45t-44.5 -19zM167 82h315v-82h-444v44l306 390h-304v82h434v-46z" />
    <glyph glyph-name="Zcaron" unicode="&#x17d;" horiz-adv-x="588" 
d="M272 701l-125 113l35 46l113 -78l107 78l34 -46l-121 -113h-43zM36 0v32l382 552h-379l-1 77h509v-32l-386 -551h392v-78h-517z" />
    <glyph glyph-name="zcaron" unicode="&#x17e;" horiz-adv-x="517" 
d="M281 567h-44l-123 137l42 40l104 -89l99 89l41 -40zM167 82h315v-82h-444v44l306 390h-304v82h434v-46z" />
    <glyph glyph-name="uni01EA" unicode="&#x1ea;" horiz-adv-x="786" 
d="M488 -3q-82 -57 -82 -121q0 -17 11 -28.5t35 -11.5q19 0 30 4l4 -2v-61q-24 -8 -61 -8q-49 0 -79.5 22t-30.5 62q0 77 83 133h-5q-144 0 -243 91.5t-99 252.5q0 158 96.5 251.5t245.5 93.5q144 0 243 -92t99 -253q0 -130 -67.5 -217.5t-179.5 -115.5zM149 330
q0 -120 68 -189.5t176 -69.5t176 69.5t68 189.5q0 121 -67.5 190.5t-176.5 69.5t-176.5 -69.5t-67.5 -190.5z" />
    <glyph glyph-name="uni01EB" unicode="&#x1eb;" horiz-adv-x="632" 
d="M405 1q-80 -58 -80 -120q0 -17 11 -28.5t35 -11.5q19 0 30 4l4 -2v-61q-24 -8 -61 -8q-49 0 -79.5 22t-30.5 62q0 72 77 129q-114 2 -189 73t-75 199q0 122 78 195.5t190 73.5q117 0 193.5 -71t76.5 -199q0 -97 -49.5 -164t-130.5 -93zM144 259q0 -87 47 -138.5
t124 -51.5q78 0 125.5 52t47.5 138t-47.5 136.5t-125.5 50.5q-76 0 -123.5 -51t-47.5 -136z" />
    <glyph glyph-name="AEacute" unicode="&#x1fc;" horiz-adv-x="824" 
d="M609 789l-208 -82l-20 52l183 117l51 -75zM499 78h276v-78h-371v188h-220l-116 -188h-96l406 661h385v-77h-264v-203h245v-77h-245v-226zM225 255h179v302l-53 -97z" />
    <glyph glyph-name="aeacute" unicode="&#x1fd;" horiz-adv-x="895" 
d="M557 677l-183 -115l-34 48l155 147l65 -68zM610 528q106 0 167 -65.5t62 -185.5v-42h-371q7 -79 55.5 -121.5t116.5 -42.5q93 0 166 44l3 -2v-82q-75 -44 -177 -44q-66 0 -122.5 26.5t-91.5 79.5q-83 -105 -216 -105q-77 0 -121.5 38.5t-44.5 108.5q0 50 24.5 84t72 52.5
t104.5 26.5t135 9q-1 70 -38.5 105.5t-106.5 35.5q-91 0 -144 -34l-3 2v75q20 15 64 26t99 11q136 0 187 -93q69 93 180 93zM470 307h277q-6 70 -41.5 107.5t-95.5 37.5q-54 0 -92 -38t-48 -107zM215 68q56 0 101.5 24.5t72.5 65.5q-12 38 -13 77q-57 0 -97.5 -4t-77 -14
t-54.5 -29.5t-18 -48.5q0 -34 24 -52.5t62 -18.5z" />
    <glyph glyph-name="Oslashacute" unicode="&#x1fe;" horiz-adv-x="786" 
d="M508 783l-208 -82l-20 52l183 117l51 -75zM736 678v-7l-87 -101q86 -94 86 -240q0 -158 -96.5 -251t-245.5 -93q-112 0 -198 56l-50 -59h-94v9l85 100q-85 93 -85 238q0 158 96.5 251.5t245.5 93.5q110 0 196 -55l49 58h98zM149 330q0 -100 49 -166l332 388
q-58 38 -137 38q-109 0 -176.5 -69.5t-67.5 -190.5zM637 330q0 102 -49 168l-334 -388q61 -39 139 -39q108 0 176 69.5t68 189.5z" />
    <glyph glyph-name="oslashacute" unicode="&#x1ff;" horiz-adv-x="634" 
d="M432 677l-183 -115l-34 48l155 147l65 -68zM519 448q67 -72 67 -190q0 -123 -78 -197t-192 -74q-86 0 -149 39l-36 -43h-83v9l65 78q-65 71 -65 189q0 122 78 195.5t190 73.5q83 0 146 -36l33 40h88v-7zM145 259q0 -68 29 -114l231 279q-39 22 -89 22q-76 0 -123.5 -51
t-47.5 -136zM316 69q78 0 125.5 52t47.5 138q0 68 -31 116l-234 -281q41 -25 92 -25z" />
    <glyph glyph-name="Scommaaccent" unicode="&#x218;" horiz-adv-x="530" 
d="M243 -13q-110 0 -186 44v96l3 1q79 -56 174 -56q65 0 104 26.5t39 73.5q0 45 -29.5 73.5t-107.5 63.5q-80 35 -125 76t-45 108q0 87 61.5 134.5t153.5 47.5q98 0 164 -32v-89l-3 -1q-61 37 -151 37q-58 1 -94 -21t-36 -64q0 -25 17 -45.5t39.5 -33t62.5 -31.5
q13 -6 20 -9q84 -40 125 -85.5t41 -123.5q0 -87 -62.5 -138.5t-164.5 -51.5zM201 -230q18 59 18 133q0 15 -2 45l88 7l8 -11q0 -91 -47 -174h-65z" />
    <glyph glyph-name="scommaaccent" unicode="&#x219;" horiz-adv-x="481" 
d="M224 -13q-107 0 -178 38v91l3 1q72 -49 170 -49q128 0 128 67q0 33 -28 51.5t-104 38.5q-84 22 -123.5 55t-39.5 97q0 69 58.5 110t154.5 41q89 0 147 -25v-84l-3 -1q-61 29 -145 29q-54 0 -86.5 -16.5t-32.5 -46.5q0 -29 26 -44t95 -33q90 -23 131.5 -59t41.5 -103
q0 -76 -57.5 -117t-157.5 -41zM177 -230q18 59 18 133q0 15 -2 45l88 7l8 -11q0 -91 -47 -174h-65z" />
    <glyph glyph-name="uni021A" unicode="&#x21a;" horiz-adv-x="563" 
d="M548 661v-84h-217v-577h-94v577h-222v84h533zM231 -52l88 7l8 -11q0 -91 -47 -174h-65q18 59 18 133q0 15 -2 45z" />
    <glyph glyph-name="uni021B" unicode="&#x21b;" horiz-adv-x="394" 
d="M384 438h-176v-263q0 -96 87 -96q48 0 86 21l3 -1v-80q-43 -24 -115 -24q-75 0 -115.5 41.5t-40.5 119.5v282h-93v78h93v126l92 18l3 -2v-142h176v-78zM209 -52l88 7l8 -11q0 -91 -47 -174h-65q18 59 18 133q0 15 -2 45z" />
    <glyph glyph-name="uni0237" unicode="&#x237;" horiz-adv-x="272" 
d="M16 -169q-22 0 -55 5v82l3 1q15 -3 33 -3q54 0 77.5 31t23.5 91v478h94v-499q0 -186 -176 -186z" />
    <glyph glyph-name="circumflex" unicode="&#x2c6;" horiz-adv-x="351" 
d="M74 567l-41 40l119 137h44l123 -137l-42 -40l-104 89z" />
    <glyph glyph-name="caron" unicode="&#x2c7;" horiz-adv-x="351" 
d="M161 524l-124 144l31 33l109 -101l108 101l32 -33l-125 -144h-31z" />
    <glyph glyph-name="breve" unicode="&#x2d8;" horiz-adv-x="330" 
d="M164 576q-61 0 -101.5 39t-40.5 105l64 7l3 -2q2 -35 22.5 -56t53.5 -21q35 0 56.5 21t23.5 55l2 3l61 -7q0 -66 -41 -105t-103 -39z" />
    <glyph glyph-name="dotaccent" unicode="&#x2d9;" horiz-adv-x="280" 
d="M140 603q-26 0 -44.5 19t-18.5 45q0 25 18.5 43.5t44.5 18.5t44.5 -18.5t18.5 -43.5q0 -26 -18.5 -45t-44.5 -19z" />
    <glyph glyph-name="ring" unicode="&#x2da;" horiz-adv-x="328" 
d="M144 560q-44 0 -72.5 28.5t-28.5 70.5t28.5 70t72.5 28q46 0 74 -28t28 -70q0 -43 -28 -71t-74 -28zM145 611q21 0 34.5 14t13.5 34t-13.5 34t-34.5 14q-20 0 -34 -14t-14 -34t14 -34t34 -14z" />
    <glyph glyph-name="ogonek" unicode="&#x2db;" horiz-adv-x="197" 
d="M122 -226q-49 0 -79.5 22t-30.5 62q0 88 110 150l67 -3q-86 -59 -86 -124q0 -17 11 -28.5t35 -11.5q19 0 30 4l4 -2v-61q-24 -8 -61 -8z" />
    <glyph glyph-name="tilde" unicode="&#x2dc;" horiz-adv-x="363" 
d="M74 600l-61 14q0 44 25.5 74.5t67.5 30.5q31 0 77 -19t67 -19q18 0 29.5 11t11.5 29l3 2l61 -14q0 -49 -27.5 -77t-69.5 -28q-28 -1 -74.5 18.5t-67.5 19.5q-17 0 -28 -11t-11 -29z" />
    <glyph glyph-name="hungarumlaut" unicode="&#x2dd;" horiz-adv-x="373" 
d="M70 564l-48 24l83 165l73 -25l1 -14zM242 564l-48 24l82 165l73 -25l1 -14z" />
    <glyph glyph-name="gravecomb" unicode="&#x300;" 
d="M-46 562l-183 115l-3 12l65 68l155 -147z" />
    <glyph glyph-name="acutecomb" unicode="&#x301;" 
d="M-198 562l-34 48l155 147l65 -68l-3 -12z" />
    <glyph glyph-name="uni0302" unicode="&#x302;" 
d="M-277 567l-41 40l119 137h44l123 -137l-42 -40l-104 89z" />
    <glyph glyph-name="tildecomb" unicode="&#x303;" 
d="M-289 600l-61 14q0 44 25.5 74.5t67.5 30.5q31 0 77 -19t67 -19q18 0 29.5 11t11.5 29l3 2l61 -14q0 -49 -27.5 -77t-69.5 -28q-28 -1 -74.5 18.5t-67.5 19.5q-17 0 -28 -11t-11 -29z" />
    <glyph glyph-name="uni0304" unicode="&#x304;" 
d="M-318 618v70h296v-70h-296z" />
    <glyph glyph-name="uni0306" unicode="&#x306;" 
d="M-166 576q-61 0 -101.5 39t-40.5 105l64 7l3 -2q2 -35 22.5 -56t53.5 -21q35 0 56.5 21t23.5 55l2 3l61 -7q0 -66 -41 -105t-103 -39z" />
    <glyph glyph-name="uni0307" unicode="&#x307;" 
d="M-140 603q-26 0 -44.5 19t-18.5 45q0 25 18.5 43.5t44.5 18.5t44.5 -18.5t18.5 -43.5q0 -26 -18.5 -45t-44.5 -19z" />
    <glyph glyph-name="uni0308" unicode="&#x308;" 
d="M-264 606q-25 0 -42.5 17.5t-17.5 43.5q0 24 17.5 41.5t42.5 17.5q24 0 42 -18t18 -41q0 -25 -18 -43t-42 -18zM-62 606q-25 0 -42.5 17.5t-17.5 43.5q0 24 17.5 41.5t42.5 17.5q24 0 42 -18t18 -41q0 -25 -18 -43t-42 -18z" />
    <glyph glyph-name="uni030A" unicode="&#x30a;" 
d="M-145 560q-44 0 -72.5 28.5t-28.5 70.5t28.5 70t72.5 28q46 0 74 -28t28 -70q0 -43 -28 -71t-74 -28zM-144 611q21 0 34.5 14t13.5 34t-13.5 34t-34.5 14q-20 0 -34 -14t-14 -34t14 -34t34 -14z" />
    <glyph glyph-name="uni030B" unicode="&#x30b;" 
d="M-303 564l-48 24l83 165l73 -25l1 -14zM-131 564l-48 24l82 165l73 -25l1 -14z" />
    <glyph glyph-name="uni030C" unicode="&#x30c;" 
d="M-195 567l-123 137l42 40l104 -89l99 89l41 -40l-119 -137h-44z" />
    <glyph glyph-name="uni0326" unicode="&#x326;" 
d="M-150 -230q18 59 18 133q0 15 -2 45l88 7l8 -11q0 -91 -47 -174h-65z" />
    <glyph glyph-name="uni0327" unicode="&#x327;" 
d="M-132 -235q-33 0 -63 10v56l3 1q20 -8 47 -8q28 0 44 11.5t16 31.5q0 35 -44 35q-24 0 -43 -8l-1 3v45l36 58h62l-30 -48q6 2 15 2q37 0 63 -20t26 -65q0 -53 -37.5 -78.5t-93.5 -25.5z" />
    <glyph glyph-name="uni0328" unicode="&#x328;" 
d="M-86 -226q-49 0 -79.5 22t-30.5 62q0 88 110 150l67 -3q-86 -59 -86 -124q0 -17 11 -28.5t35 -11.5q19 0 30 4l4 -2v-61q-24 -8 -61 -8z" />
    <glyph glyph-name="uni0335" unicode="&#x335;" 
d="M-316 174v69h287v-69h-287z" />
    <glyph glyph-name="uni0336" unicode="&#x336;" 
d="M-579 325v72h554v-72h-554z" />
    <glyph glyph-name="uni0337" unicode="&#x337;" 
d="M-262 241v81l241 153h3v-81l-240 -153h-4z" />
    <glyph glyph-name="uni0338" unicode="&#x338;" 
d="M-572 -13v9l447 540h88v-7l-452 -542h-83z" />
    <glyph glyph-name="Wgrave" unicode="&#x1e80;" horiz-adv-x="964" 
d="M569 703l-208 82l-6 12l51 75l182 -116zM947 661l1 -3l-218 -668h-70l-169 493l-7 27l-7 -27l-169 -493h-71l-224 668l1 3h99l155 -498l8 -41l10 41l165 495h68l166 -487l10 -44l10 44l151 490h91z" />
    <glyph glyph-name="wgrave" unicode="&#x1e81;" horiz-adv-x="804" 
d="M466 569l-183 115l-3 12l65 68l155 -147zM784 516l1 -3l-173 -513h-69l-133 380l-5 21l-6 -21l-136 -380h-71l-174 513l1 3h96l113 -372l4 -23l5 23l130 372h78l128 -371l5 -23l4 24l115 370h87z" />
    <glyph glyph-name="Wacute" unicode="&#x1e82;" horiz-adv-x="964" 
d="M594 785l-208 -82l-20 52l183 117l51 -75zM947 661l1 -3l-218 -668h-70l-169 493l-7 27l-7 -27l-169 -493h-71l-224 668l1 3h99l155 -498l8 -41l10 41l165 495h68l166 -487l10 -44l10 44l151 490h91z" />
    <glyph glyph-name="wacute" unicode="&#x1e83;" horiz-adv-x="804" 
d="M518 684l-183 -115l-34 48l155 147l65 -68zM784 516l1 -3l-173 -513h-69l-133 380l-5 21l-6 -21l-136 -380h-71l-174 513l1 3h96l113 -372l4 -23l5 23l130 372h78l128 -371l5 -23l4 24l115 370h87z" />
    <glyph glyph-name="Wdieresis" unicode="&#x1e84;" horiz-adv-x="964" 
d="M378 728q-22 0 -38 16t-16 38t16 38t38 16t38 -16t16 -38t-16 -38t-38 -16zM589 728q-23 0 -38.5 16t-15.5 38t15.5 38t38.5 16t38.5 -16t15.5 -38t-15.5 -38t-38.5 -16zM947 661l1 -3l-218 -668h-70l-169 493l-7 27l-7 -27l-169 -493h-71l-224 668l1 3h99l155 -498
l8 -41l10 41l165 495h68l166 -487l10 -44l10 44l151 490h91z" />
    <glyph glyph-name="wdieresis" unicode="&#x1e85;" horiz-adv-x="804" 
d="M307 613q-25 0 -42.5 17.5t-17.5 43.5q0 24 17.5 41.5t42.5 17.5q24 0 42 -18t18 -41q0 -25 -18 -43t-42 -18zM509 613q-25 0 -42.5 17.5t-17.5 43.5q0 24 17.5 41.5t42.5 17.5q24 0 42 -18t18 -41q0 -25 -18 -43t-42 -18zM784 516l1 -3l-173 -513h-69l-133 380l-5 21
l-6 -21l-136 -380h-71l-174 513l1 3h96l113 -372l4 -23l5 23l130 372h78l128 -371l5 -23l4 24l115 370h87z" />
    <glyph glyph-name="Ygrave" unicode="&#x1ef2;" horiz-adv-x="596" 
d="M386 701l-208 82l-6 12l51 75l182 -116zM252 0v272l-241 386l1 3h100l189 -303l187 303h95l1 -3l-239 -387v-271h-93z" />
    <glyph glyph-name="ygrave" unicode="&#x1ef3;" horiz-adv-x="528" 
d="M333 562l-183 115l-3 12l65 68l155 -147zM513 516l1 -3l-219 -518l-66 -157h-98l-2 3l92 188l-205 484l1 3h101l151 -395l149 395h95z" />
    <glyph glyph-name="uni1EF8" unicode="&#x1ef8;" horiz-adv-x="596" 
d="M193 712l-63 18q2 46 30 75t71 29q29 0 71.5 -17.5t61.5 -17.5q16 0 28.5 11t12.5 30l2 2l63 -20q-2 -46 -30 -74t-71 -28q-23 0 -67 17.5t-65 17.5q-18 0 -30 -11.5t-12 -30.5zM252 0v272l-241 386l1 3h100l189 -303l187 303h95l1 -3l-239 -387v-271h-93z" />
    <glyph glyph-name="uni1EF9" unicode="&#x1ef9;" horiz-adv-x="528" 
d="M166 602l-3 -2l-61 14q0 44 25.5 74.5t67.5 30.5q31 0 77 -19t67 -19q18 0 29.5 11t11.5 29l3 2l61 -14q0 -49 -27.5 -77t-69.5 -28q-28 -1 -74.5 18.5t-67.5 19.5q-17 0 -28 -11t-11 -29zM513 516l1 -3l-219 -518l-66 -157h-98l-2 3l92 188l-205 484l1 3h101l151 -395
l149 395h95z" />
    <glyph glyph-name="endash" unicode="&#x2013;" horiz-adv-x="525" 
d="M70 240v78h384v-78h-384z" />
    <glyph glyph-name="emdash" unicode="&#x2014;" horiz-adv-x="865" 
d="M70 240v78h725v-78h-725z" />
    <glyph glyph-name="quoteleft" unicode="&#x2018;" horiz-adv-x="212" 
d="M168 695q-9 -62 -13 -148q-1 -31 2 -71l-85 -14l-12 14q1 99 49 219h59z" />
    <glyph glyph-name="quoteright" unicode="&#x2019;" horiz-adv-x="200" 
d="M48 463q9 62 13 148q1 31 -2 71l85 14l12 -14q-1 -99 -49 -219h-59z" />
    <glyph glyph-name="quotesinglbase" unicode="&#x201a;" horiz-adv-x="208" 
d="M37 -152q9 62 13 148q1 31 -2 71l85 14l12 -14q-1 -99 -49 -219h-59z" />
    <glyph glyph-name="quotedblleft" unicode="&#x201c;" horiz-adv-x="363" 
d="M168 695q-9 -62 -13 -148q-1 -31 2 -71l-85 -14l-12 14q1 99 49 219h59zM318 695q-9 -62 -13 -148q-1 -31 2 -71l-85 -14l-12 14q1 99 49 219h59z" />
    <glyph glyph-name="quotedblright" unicode="&#x201d;" horiz-adv-x="359" 
d="M48 463q9 62 13 148q1 31 -2 71l85 14l12 -14q-1 -99 -49 -219h-59zM198 463q9 62 13 148q1 31 -2 71l85 14l12 -14q-1 -99 -49 -219h-59z" />
    <glyph glyph-name="quotedblbase" unicode="&#x201e;" horiz-adv-x="356" 
d="M37 -152q9 62 13 148q1 31 -2 71l85 14l12 -14q-1 -99 -49 -219h-59zM187 -152q9 62 13 148q1 31 -2 71l85 14l12 -14q-1 -99 -49 -219h-59z" />
    <glyph glyph-name="dagger" unicode="&#x2020;" horiz-adv-x="535" 
d="M298 508l178 14v-88l-166 12l-11 -509h-64l-12 508l-164 -11v88l177 -15l-13 187h89z" />
    <glyph glyph-name="daggerdbl" unicode="&#x2021;" horiz-adv-x="535" 
d="M223 -61l13 180l-178 -12v88l167 -12l11 134l-12 133l-164 -12v89l176 -14l-13 181h89l-14 -180l178 13v-89l-166 12l-10 -133l11 -133l164 11v-88l-176 13l13 -181h-89z" />
    <glyph glyph-name="bullet" unicode="&#x2022;" horiz-adv-x="384" 
d="M192 159q-45 0 -76.5 31.5t-31.5 76.5q0 44 31.5 76t76.5 32t76.5 -32t31.5 -76q0 -45 -31.5 -76.5t-76.5 -31.5z" />
    <glyph glyph-name="ellipsis" unicode="&#x2026;" horiz-adv-x="599" 
d="M116 -7q-29 0 -45.5 17t-16.5 43q0 25 17 42.5t45 17.5q29 0 45.5 -17.5t16.5 -42.5q0 -26 -16.5 -43t-45.5 -17zM308 -7q-29 0 -45.5 17t-16.5 43q0 25 17 42.5t45 17.5q29 0 45.5 -17.5t16.5 -42.5q0 -26 -16.5 -43t-45.5 -17zM499 -7q-29 0 -45.5 17t-16.5 43
q0 25 17 42.5t45 17.5q29 0 45.5 -17.5t16.5 -42.5q0 -26 -16.5 -43t-45.5 -17z" />
    <glyph glyph-name="perthousand" unicode="&#x2030;" horiz-adv-x="1116" 
d="M203 334q-73 0 -118.5 42.5t-45.5 121.5t46 123t119 44q74 0 120 -43.5t46 -123.5q0 -79 -46 -121.5t-121 -42.5zM118 11l449 641h82l-450 -641h-81zM203 399q41 0 65 25.5t24 74.5q0 47 -24 73.5t-65 26.5q-40 0 -63 -26.5t-23 -73.5q0 -48 23 -74t63 -26zM562 -5
q-74 0 -119.5 42t-45.5 121q0 80 46 124t119 44q74 0 119.5 -44t45.5 -124q0 -79 -45.5 -121t-119.5 -42zM918 -5q-74 0 -119.5 42t-45.5 121q0 80 46 124t120 44t119.5 -44t45.5 -124q0 -79 -45.5 -121t-120.5 -42zM562 61q41 0 64 25t23 72q0 49 -23.5 75.5t-63.5 26.5
t-63.5 -26.5t-23.5 -75.5q0 -47 23 -72t64 -25zM919 61q41 0 64 25t23 72q0 49 -23.5 75.5t-63.5 26.5t-63.5 -26.5t-23.5 -75.5q0 -47 23 -72t64 -25z" />
    <glyph glyph-name="guilsinglleft" unicode="&#x2039;" horiz-adv-x="338" 
d="M191 97l-158 182l160 180h95v-9l-151 -169l151 -177v-7h-97z" />
    <glyph glyph-name="guilsinglright" unicode="&#x203a;" horiz-adv-x="338" 
d="M148 458l158 -182l-160 -180h-95v9l151 169l-151 177v7h97z" />
    <glyph glyph-name="fraction" unicode="&#x2044;" horiz-adv-x="108" 
d="M-182 -12l421 673h77l-422 -673h-76z" />
    <glyph glyph-name="Euro" unicode="&#x20ac;" horiz-adv-x="687" 
d="M624 112l3 -2l-15 -83q-67 -31 -148 -31q-117 0 -204.5 61.5t-117.5 168.5h-107l11 69h84q-2 24 -2 37q0 24 3 48h-69l12 69h71q33 105 119.5 165.5t199.5 60.5q89 0 162 -25l-16 -81l-3 -1q-57 24 -137 24q-83 0 -141.5 -37.5t-84.5 -105.5h249l-12 -69h-254
q-3 -21 -3 -44q0 -15 2 -41h239l-11 -69h-212q25 -71 84 -109.5t146 -38.5q80 0 152 34z" />
    <glyph glyph-name="trademark" unicode="&#x2122;" horiz-adv-x="824" 
d="M39 586v70h291v-70h-107v-243h-74v243h-110zM724 656l31 -313h-69l-20 189h-1l-88 -188h-42l-88 192h-1l-20 -193h-70l32 313h73l98 -212l95 212h70z" />
    <glyph glyph-name="minus" unicode="&#x2212;" horiz-adv-x="557" 
d="M71 256v74h415v-74h-415z" />
    <glyph glyph-name="approxequal" unicode="&#x2248;" horiz-adv-x="523" 
d="M133 325l-63 9q0 49 28.5 79t76.5 30q38 0 91 -19t81 -19q45 0 46 42l3 2l59 -11q0 -48 -28.5 -77.5t-76.5 -29.5q-32 0 -86 19.5t-81 19.5q-47 0 -49 -43zM133 129l-63 8q0 50 28.5 80.5t76.5 30.5q38 0 91 -19.5t81 -19.5q45 0 46 41l3 3l59 -11q0 -48 -28.5 -77.5
t-76.5 -29.5q-32 0 -86 19t-81 19q-47 0 -49 -42z" />
    <glyph glyph-name="notequal" unicode="&#x2260;" horiz-adv-x="573" 
d="M502 361h-126l-69 -145h195v-72h-229l-58 -124h-86l58 124h-116v72h150l69 145h-219v72h253l55 117h86l-55 -117h92v-72z" />
    <glyph glyph-name="uniF8FF" unicode="&#xf8ff;" horiz-adv-x="1451" 
d="M752 522q-26 0 -43.5 18t-17.5 43q0 26 17.5 44t43.5 18t44 -18t18 -44t-18 -43.5t-44 -17.5zM100 270q0 134 9 314h100q10 -200 10 -314h-119zM604 264q-82 0 -82 66q0 12 2 49t2 38h-22v79l119 30l1 -17h178q10 -64 10 -239h-118q0 92 3 147h-61l3 -65q4 -4 15 -4
q13 0 18 5v-74q-14 -15 -68 -15zM328 265q-92 0 -92 114q0 135 134 135q124 0 124 -117v-127h-83l-8 61q-6 -33 -23.5 -49.5t-51.5 -16.5zM834 270q0 175 10 239h80q6 -44 6 -76q2 15 6.5 30t24 33t49.5 18q42 0 58.5 -25t18.5 -81l3 -138h-114q0 26 1 56t1 37q0 29 -15 29
q-18 0 -18 -29q0 -7 1.5 -37t1.5 -56h-114zM1228 265q-122 0 -122 124q0 125 124 125q121 0 121 -123q0 -126 -123 -126zM366 345q24 0 24 30q0 26 -24 26q-22 0 -22 -26q0 -30 22 -30zM1228 345q23 0 23 30q0 26 -23 26q-21 0 -21 -26q0 -30 21 -30zM390 -50q-61 0 -88 17
v83q24 -16 70 -16q21 0 34 6t16.5 11.5t3.5 10.5q-16 -11 -49 -11q-90 0 -90 83v13h-55l3 -65q6 -4 15 -4q13 0 18 5v-73q-19 -15 -68 -15q-45 0 -63 17t-18 54q0 39 3 81h-18v80l117 29l-1 -18h177v-119q0 -16 3 -21.5t12 -5.5q16 0 16 27v119h104q10 -52 10 -138
q0 -81 -33.5 -115.5t-118.5 -34.5zM558 -44q0 142 10 282h78q7 -42 7 -76q17 81 80 81q37 0 58.5 -29t21.5 -84q0 -135 -137 -135q1 -15 1 -39h-119zM970 -5q-141 0 -141 122q0 59 32.5 92.5t92.5 33.5q55 0 85.5 -30t30.5 -86q0 -21 -3 -35h-124q11 -18 50 -18q34 0 55 12
v-75q-23 -16 -78 -16zM938 109h40q3 27 -17 27q-23 0 -23 -27zM670 72q5 0 12.5 2.5t16 11.5t8.5 23q0 23 -20 23q-22 0 -22 -31q0 -14 5 -29zM1098 -10q-24 0 -24 23t24 23t24 -23t-24 -23zM1098 -5q18 0 18 18t-18 18t-18 -18t18 -18zM1088 2v23h11q10 0 10 -7t-7 -7l6 -9
h-6l-4 9h-5v-9h-5zM1093 15h7q4 0 4 3t-4 3h-7v-6z" />
    <glyph glyph-name="i.loclTRK" horiz-adv-x="255" 
d="M127 603q-26 0 -44.5 19t-18.5 45q0 25 18.5 43.5t44.5 18.5t44.5 -18.5t18.5 -43.5q0 -26 -18.5 -45t-44.5 -19zM80 0v516h95v-516h-95z" />
    <glyph glyph-name="caroncomb.alt" 
d="M-116 495l8 219h75l9 -10l-31 -209h-61z" />
    <glyph glyph-name="uni0308.case" 
d="M-293 726q-23 0 -38.5 16t-15.5 38t15.5 38t38.5 16t38.5 -16t15.5 -38t-15.5 -38t-38.5 -16zM-82 726q-22 0 -38 16t-16 38t16 38t38 16t38 -16t16 -38t-16 -38t-38 -16z" />
    <glyph glyph-name="uni0307.case" 
d="M-127 727q-24 0 -41 17t-17 42q0 23 17 40.5t41 17.5t41 -17.5t17 -40.5q0 -25 -17 -42t-41 -17z" />
    <glyph glyph-name="gravecomb.case" 
d="M-50 701l-208 82l-6 12l51 75l182 -116z" />
    <glyph glyph-name="acutecomb.case" 
d="M-238 701l-20 52l183 117l51 -75l-6 -12z" />
    <glyph glyph-name="uni030B.case" 
d="M-306 709l-52 22l70 156l80 -17l2 -14zM-119 709l-53 22l71 156l79 -17l2 -14z" />
    <glyph glyph-name="uni0302.case" 
d="M-284 701l-34 46l121 113h43l125 -113l-35 -46l-113 78z" />
    <glyph glyph-name="uni030C.case" 
d="M-193 701l-125 113l35 46l113 -78l107 78l34 -46l-121 -113h-43z" />
    <glyph glyph-name="uni0306.case" 
d="M-166 708q-61 0 -101.5 37.5t-40.5 100.5l62 6q4 -34 25 -54.5t56 -20.5q37 0 59.5 20.5t24.5 54.5l60 -6q0 -63 -41.5 -100.5t-103.5 -37.5z" />
    <glyph glyph-name="uni030A.case" 
d="M-123 683q-44 0 -71.5 26.5t-27.5 66.5t27.5 66.5t71.5 26.5q43 0 70.5 -26.5t27.5 -66.5t-27.5 -66.5t-70.5 -26.5zM-123 734q18 0 30 12t12 30t-12 30t-30 12t-30 -12t-12 -30t12 -30t30 -12z" />
    <glyph glyph-name="tildecomb.case" 
d="M-291 712l-63 18q2 46 30 75t71 29q29 0 71.5 -17.5t61.5 -17.5q16 0 28.5 11t12.5 30l2 2l63 -20q-2 -46 -30 -74t-71 -28q-23 0 -67 17.5t-65 17.5q-18 0 -30 -11.5t-12 -30.5z" />
    <glyph glyph-name="uni0304.case" 
d="M-310 746v78h290v-78h-290z" />
    <glyph glyph-name="uni0337.case" 
d="M-268 209v83l241 151h4v-86l-241 -150z" />
    <glyph glyph-name="uni0338.case" 
d="M-710 -15v9l587 686h98v-7l-591 -688h-94z" />
    <glyph glyph-name="caron.alt" horiz-adv-x="148" 
d="M32 437l8 230h64l9 -10l-31 -220h-50z" />
    <glyph glyph-name="acute.case" horiz-adv-x="284" 
d="M46 701l-20 52l183 117l51 -75l-6 -12z" />
    <glyph glyph-name="breve.case" horiz-adv-x="330" 
d="M164 708q-61 0 -101.5 37.5t-40.5 100.5l62 6q4 -34 25 -54.5t56 -20.5q37 0 59.5 20.5t24.5 54.5l60 -6q0 -63 -41.5 -100.5t-103.5 -37.5z" />
    <glyph glyph-name="caron.case" horiz-adv-x="347" 
d="M154 701l-125 113l35 46l113 -78l107 78l34 -46l-121 -113h-43z" />
    <glyph glyph-name="circumflex.case" horiz-adv-x="347" 
d="M63 701l-34 46l121 113h43l125 -113l-35 -46l-113 78z" />
    <glyph glyph-name="dieresis.case" horiz-adv-x="377" 
d="M84 726q-22 0 -38 16t-16 38t16 38t38 16t38 -16t16 -38t-16 -38t-38 -16zM295 726q-23 0 -38.5 16t-15.5 38t15.5 38t38.5 16t38.5 -16t15.5 -38t-15.5 -38t-38.5 -16z" />
    <glyph glyph-name="dotaccent.case" horiz-adv-x="254" 
d="M127 727q-24 0 -41 17t-17 42q0 23 17 40.5t41 17.5t41 -17.5t17 -40.5q0 -25 -17 -42t-41 -17z" />
    <glyph glyph-name="grave.case" horiz-adv-x="284" 
d="M234 701l-208 82l-6 12l51 75l182 -116z" />
    <glyph glyph-name="hungarumlaut.case" horiz-adv-x="404" 
d="M98 709l-52 22l70 156l80 -17l2 -14zM285 709l-53 22l71 156l79 -17l2 -14z" />
    <glyph glyph-name="macron.case" horiz-adv-x="377" 
d="M20 746v78h290v-78h-290z" />
    <glyph glyph-name="ring.case" horiz-adv-x="247" 
d="M124 683q-44 0 -71.5 26.5t-27.5 66.5t27.5 66.5t71.5 26.5q43 0 70.5 -26.5t27.5 -66.5t-27.5 -66.5t-70.5 -26.5zM124 734q18 0 30 12t12 30t-12 30t-30 12t-30 -12t-12 -30t12 -30t30 -12z" />
    <glyph glyph-name="tilde.case" horiz-adv-x="369" 
d="M78 712l-63 18q2 46 30 75t71 29q29 0 71.5 -17.5t61.5 -17.5q16 0 28.5 11t12.5 30l2 2l63 -20q-2 -46 -30 -74t-71 -28q-24 0 -68 17.5t-64 17.5q-18 0 -30 -11.5t-12 -30.5z" />
    <glyph glyph-name="IJacute" horiz-adv-x="653" 
d="M69 695l-20 52l183 117l51 -75l-6 -12zM440 695l-20 52l183 117l51 -75l-6 -12zM95 0v661h94v-661h-94zM357 -3q-23 0 -53 3v80l3 1q16 -3 39 -3q126 0 126 152v431h95v-423q0 -241 -210 -241z" />
    <glyph glyph-name="ijacute" horiz-adv-x="510" 
d="M59 562l-34 48l155 147l65 -68l-3 -12zM344 562l-34 48l155 147l65 -68l-3 -12zM80 40v476h95v-476h-95zM234 -169q-55 0 -116 16v82l2 1q49 -14 110 -14q60 0 83 41.5t23 150.5v408h94v-429q0 -139 -50 -197.5t-146 -58.5z" />
    </font>
</defs>
</svg>
