<?xml version="1.0" standalone="no"?>
<!DOCTYPE svg PUBLIC "-//W3C//DTD SVG 1.1//EN" "http://www.w3.org/Graphics/SVG/1.1/DTD/svg11.dtd" >
<svg xmlns="http://www.w3.org/2000/svg" xmlns:xlink="http://www.w3.org/1999/xlink" version="1.1">
<metadata>
Created by FontForge 20170731 at Tue Mar  7 13:07:39 2017
 By Aleksey,,,
Copyright (c) 2017 by Alfonso Garci'a - Latinotype Team. All rights reserved.
</metadata>
<defs>
<font id="RawsonAlt-MediumIt" horiz-adv-x="0" >
  <font-face 
    font-family="Rawson Alt Medium It"
    font-weight="500"
    font-style="italic"
    font-stretch="normal"
    units-per-em="1100"
    panose-1="0 0 6 0 0 0 0 0 0 0"
    ascent="880"
    descent="-220"
    x-height="518"
    cap-height="661"
    bbox="-652 -236 1317 912"
    underline-thickness="50"
    underline-position="-200"
    slope="-7.5"
    unicode-range="U+0020-FB02"
  />
<missing-glyph horiz-adv-x="479" 
 />
    <glyph glyph-name="fi" unicode="fi" horiz-adv-x="554" 
d="M492 733q26 0 41.5 -15.5t15.5 -39.5q0 -30 -18.5 -47.5t-44.5 -17.5t-42 15.5t-16 40.5q0 29 19 46.5t45 17.5zM235 529l-1 -10h110l-11 -75h-110l-87 -610h-95l87 610h-67l11 75h67l1 10q13 92 67.5 140.5t130.5 48.5q34 0 61 -9l-12 -83l-2 -1q-17 9 -45 9
q-41 0 -69.5 -26t-35.5 -79zM345 0l74 518h94l-74 -518h-94z" />
    <glyph glyph-name="fl" unicode="fl" horiz-adv-x="495" 
d="M344 518l-11 -75h-110l-86 -609h-95l86 609h-67l11 75h66l2 11q13 92 67.5 140.5t130.5 48.5q38 0 61 -9l-12 -83l-2 -1q-22 9 -45 9q-41 0 -69.5 -26t-35.5 -79l-2 -11h111zM445 713h94l-101 -713h-94z" />
    <glyph glyph-name=".notdef" horiz-adv-x="479" 
 />
    <glyph glyph-name=".null" 
 />
    <glyph glyph-name="nonmarkingreturn" horiz-adv-x="366" 
 />
    <glyph glyph-name="space" unicode=" " horiz-adv-x="243" 
 />
    <glyph glyph-name="exclam" unicode="!" horiz-adv-x="258" 
d="M82 201l62 487h94l-76 -487h-80zM95 -11q-24 0 -37 13.5t-13 33.5q0 24 16 40.5t42 16.5q25 0 37.5 -14t12.5 -35q0 -23 -16 -39t-42 -16z" />
    <glyph glyph-name="quotedbl" unicode="&#x22;" horiz-adv-x="333" 
d="M97 433l29 232h77l8 -9l-55 -223h-59zM228 433l29 232h77l7 -9l-55 -223h-58z" />
    <glyph glyph-name="numbersign" unicode="#" horiz-adv-x="557" 
d="M518 365h-77l-42 -140h89l-9 -64h-100l-32 -106h-64l32 106h-139l-32 -106h-64l32 106h-71l10 64h81l42 140h-95l10 64h105l32 106h64l-32 -106h139l32 106h64l-32 -106h66zM335 225l42 140h-139l-42 -140h139z" />
    <glyph glyph-name="dollar" unicode="$" horiz-adv-x="471" 
d="M350 616q66 -6 104 -25l-12 -83l-1 -1q-56 29 -138 29q-120 0 -120 -78q0 -13 5.5 -23t12 -16.5t24 -14.5t28 -11.5t38.5 -12.5q129 -41 129 -138q0 -74 -44.5 -120t-121.5 -58l-13 -96h-88l13 93q-75 6 -137 38l12 83l2 1q68 -48 159 -48q131 0 131 89q0 31 -26 47.5
t-92 35.5q-66 20 -98.5 51t-32.5 84q0 72 48.5 116.5t127.5 55.5l14 97h89z" />
    <glyph glyph-name="percent" unicode="%" horiz-adv-x="744" 
d="M206 336q-62 0 -99 35.5t-37 101.5q0 90 52 143t130 53q63 0 101 -37.5t38 -104.5q0 -91 -52 -141t-133 -50zM83 11l520 645h80l-520 -645h-80zM215 401q45 0 71.5 31.5t26.5 88.5q0 39 -18 60.5t-51 21.5q-44 0 -70.5 -33t-26.5 -90q0 -79 68 -79zM510 -5
q-62 0 -98.5 35.5t-36.5 101.5q0 91 52 143.5t131 52.5q63 0 100 -37t37 -104q0 -91 -52 -141.5t-133 -50.5zM520 61q45 0 71.5 31t26.5 87q0 40 -18 61.5t-51 21.5q-44 0 -70.5 -33t-26.5 -90q0 -78 68 -78z" />
    <glyph glyph-name="ampersand" unicode="&#x26;" horiz-adv-x="640" 
d="M594 0h-105l-54 70q-88 -86 -209 -86q-87 0 -140.5 45t-53.5 124q0 148 168 226q-41 64 -41 126q0 78 58 130t141 52q75 0 125 -31l-11 -78h-2q-49 31 -111 31q-45 0 -78 -26t-33 -72q0 -30 18 -64t62 -92l113 -151q42 78 60 197h81q-26 -159 -92 -262zM240 64
q85 0 149 66l-134 173q-7 8 -14 19q-58 -28 -87.5 -64t-29.5 -89q0 -51 30 -78t86 -27z" />
    <glyph glyph-name="quotesingle" unicode="'" horiz-adv-x="204" 
d="M97 433l29 232h77l8 -9l-55 -223h-59z" />
    <glyph glyph-name="parenleft" unicode="(" horiz-adv-x="300" 
d="M178 -176q-54 24 -94.5 120t-40.5 242q0 119 27 224.5t69 175.5t86.5 115t85.5 61l24 -71q-73 -42 -137.5 -175t-64.5 -324q0 -115 26.5 -194.5t62.5 -102.5z" />
    <glyph glyph-name="parenright" unicode=")" horiz-adv-x="300" 
d="M134 767q54 -24 94.5 -120t40.5 -241q0 -119 -27 -224.5t-69 -175.5t-86.5 -115t-85.5 -62l-24 71q32 19 65.5 59.5t65 101.5t51.5 150t20 188q0 115 -26.5 194.5t-63.5 102.5z" />
    <glyph glyph-name="asterisk" unicode="*" horiz-adv-x="461" 
d="M268 576l-6 4l-40 139l4 8l60 16l8 -7l-6 -150l-5 -6zM310 566l-8 1l-8 10l1 9l103 124l8 1l35 -43l-2 -12zM238 550l-135 16l-2 6l22 59l18 4l116 -60l1 -7l-6 -14zM423 473l-123 61l-2 7l5 14l7 5l143 -18l4 -6l-23 -59zM152 400l-37 43l2 11l130 89l8 -1l9 -9l-1 -8
l-103 -124zM269 366l-8 6l7 151l7 6l13 4l6 -4l41 -141l-5 -7z" />
    <glyph glyph-name="plus" unicode="+" horiz-adv-x="490" 
d="M460 330l-11 -72h-167l-26 -186h-73l26 186h-167l11 72h167l26 187h73l-26 -187h167z" />
    <glyph glyph-name="comma" unicode="," horiz-adv-x="205" 
d="M-15 -146q36 95 44 167q2 24 4 57l87 8l10 -13q-16 -117 -88 -219h-57z" />
    <glyph glyph-name="hyphen" unicode="-" horiz-adv-x="404" 
d="M67 252l12 78h267l-11 -78h-268z" />
    <glyph glyph-name="period" unicode="." horiz-adv-x="227" 
d="M80 -7q-27 0 -42 15.5t-15 39.5q0 28 18.5 46.5t48.5 18.5q27 0 41.5 -16.5t14.5 -40.5q0 -27 -17.5 -45t-48.5 -18z" />
    <glyph glyph-name="slash" unicode="/" horiz-adv-x="448" 
d="M-20 -119l420 870h85l-420 -870h-85z" />
    <glyph glyph-name="zero" unicode="0" horiz-adv-x="612" 
d="M277 -14q-104 0 -161.5 66t-57.5 196q0 198 86.5 314t212.5 116q104 0 161.5 -67.5t57.5 -199.5q0 -199 -86 -312t-213 -113zM287 66q82 0 136 94t54 256q0 82 -33.5 131.5t-93.5 49.5q-83 0 -138 -97t-55 -259q0 -80 34 -127.5t96 -47.5z" />
    <glyph glyph-name="one" unicode="1" horiz-adv-x="369" 
d="M147 0l76 537l-164 -65l-3 1l13 84l247 119h19l-95 -676h-93z" />
    <glyph glyph-name="two" unicode="2" horiz-adv-x="524" 
d="M7 0q17 140 228 303q97 75 130.5 115t33.5 87q0 91 -113 91q-58 0 -108.5 -22t-79.5 -48l-2 1l11 88q80 64 193 64q85 0 139.5 -42t54.5 -117q0 -74 -39.5 -126t-153.5 -141q-149 -117 -165 -170h316l-12 -83h-433z" />
    <glyph glyph-name="three" unicode="3" horiz-adv-x="514" 
d="M368 355q88 -42 88 -143q0 -107 -67.5 -167t-190.5 -60q-106 0 -180 47l13 89l3 1q58 -58 162 -58q79 0 124.5 35.5t45.5 101.5q0 55 -33.5 80t-107.5 27l-59 1l11 80h59q67 0 106 30.5t39 88.5q0 42 -29 66.5t-82 24.5q-91 0 -158 -45l-3 1l11 81q73 44 169 44
q83 0 134 -38.5t51 -110.5q0 -126 -106 -176z" />
    <glyph glyph-name="four" unicode="4" horiz-adv-x="572" 
d="M534 224l-11 -84h-105l-20 -140h-86l20 140h-308l-15 40l412 494h73l-64 -450h104zM146 224h197l41 291z" />
    <glyph glyph-name="five" unicode="5" horiz-adv-x="522" 
d="M209 -15q-102 0 -185 41l13 90l3 1q83 -48 172 -48q76 0 119 39t43 110q0 56 -31.5 87.5t-95.5 31.5q-88 0 -167 -23l-3 2l71 351h356l-11 -81h-276l-36 -175q37 9 92 9q96 0 148 -47t52 -136q0 -65 -23.5 -115.5t-63 -79t-84.5 -43t-93 -14.5z" />
    <glyph glyph-name="six" unicode="6" horiz-adv-x="564" 
d="M329 421q80 0 132 -49t52 -142q0 -104 -69.5 -175t-181.5 -71q-95 0 -153 67t-58 182q0 205 98.5 325t257.5 120q73 0 115 -20l-11 -79l-3 -1q-42 19 -111 19q-103 0 -164 -72.5t-80 -184.5q65 81 176 81zM272 67q68 0 106.5 41t38.5 111q0 118 -108 118
q-60 0 -104 -36.5t-60 -94.5q6 -67 39 -103t88 -36z" />
    <glyph glyph-name="seven" unicode="7" horiz-adv-x="475" 
d="M77 0l313 579h-319l12 86h410l12 -45l-330 -620h-98z" />
    <glyph glyph-name="eight" unicode="8" horiz-adv-x="568" 
d="M408 349q51 -29 74 -64.5t23 -88.5q0 -91 -68.5 -151t-181.5 -60q-101 0 -156.5 44t-55.5 123q0 124 137 206q-69 52 -69 135q0 81 63.5 133.5t163.5 52.5q86 0 139.5 -40t53.5 -112q0 -57 -30.5 -98.5t-92.5 -79.5zM334 595q-59 0 -91.5 -27.5t-32.5 -70.5
q0 -34 28.5 -59t92.5 -52l7 -3q53 29 75.5 57.5t22.5 66.5t-27 63t-75 25zM265 68q65 0 104 32t39 80q0 44 -28 69t-97 55q-8 3 -22 9t-16 7q-103 -53 -103 -150q0 -49 33 -75.5t90 -26.5z" />
    <glyph glyph-name="nine" unicode="9" horiz-adv-x="561" 
d="M312 680q99 0 158 -65.5t59 -195.5q0 -198 -89 -314t-242 -116q-89 0 -145 25l12 84l3 2q58 -31 131 -31q57 0 100.5 22t69 60.5t39 77t20.5 84.5q-72 -77 -172 -77q-85 0 -136.5 52t-51.5 140q0 117 70 184.5t174 67.5zM276 320q48 0 89.5 25.5t69.5 67.5v3
q0 89 -33 135t-93 46q-61 0 -103.5 -39t-42.5 -115q0 -59 30.5 -91t82.5 -32z" />
    <glyph glyph-name="colon" unicode=":" horiz-adv-x="243" 
d="M141 390q-23 0 -35.5 13.5t-12.5 33.5q0 24 17 41.5t46 17.5q23 0 35.5 -13.5t12.5 -33.5q0 -25 -17 -42t-46 -17zM84 -7q-23 0 -35.5 12.5t-12.5 32.5q0 25 17 42.5t46 17.5q23 0 36 -13.5t13 -32.5q0 -25 -17 -42t-47 -17z" />
    <glyph glyph-name="semicolon" unicode=";" horiz-adv-x="256" 
d="M159 392q-27 0 -42 15.5t-15 39.5q0 28 18.5 46.5t48.5 18.5q27 0 41.5 -16.5t14.5 -40.5q0 -27 -17.5 -45t-48.5 -18zM10 -146q36 95 44 167q2 24 4 57l87 8l10 -13q-16 -117 -88 -219h-57z" />
    <glyph glyph-name="less" unicode="&#x3c;" horiz-adv-x="454" 
d="M131 297l15 -7l235 -158l-46 -67l-297 198l10 67l352 197l27 -66l-279 -157z" />
    <glyph glyph-name="equal" unicode="=" horiz-adv-x="551" 
d="M84 362l11 73h413l-11 -73h-413zM53 145l11 74h413l-11 -74h-413z" />
    <glyph glyph-name="greater" unicode="&#x3e;" horiz-adv-x="454" 
d="M131 527l297 -197l-10 -67l-352 -198l-28 66l279 158l17 7l-15 7l-234 157z" />
    <glyph glyph-name="question" unicode="?" horiz-adv-x="417" 
d="M117 195q9 65 33 105.5t79 81.5q47 35 68 64.5t21 78.5q0 40 -24 64t-69 24q-75 0 -134 -47l-2 1l12 82q59 45 145 45q73 0 120 -39.5t47 -108.5q0 -73 -30 -118t-96 -97q-76 -60 -87 -135zM135 -6q-24 0 -37 13.5t-13 33.5q0 24 16 40.5t42 16.5q25 0 37.5 -14t12.5 -35
q0 -23 -16 -39t-42 -16z" />
    <glyph glyph-name="at" unicode="@" horiz-adv-x="778" 
d="M558 73q-41 0 -61 19.5t-18 52.5q-46 -77 -131 -77q-56 0 -93 42t-37 107q0 102 57.5 164t141.5 62q65 0 102 -40l9 30h57l-24 -170l-11 -85q-6 -40 26 -40q41 0 66 52.5t25 140.5q0 99 -57 161t-168 62q-136 0 -227.5 -99.5t-91.5 -250.5q0 -115 65 -182.5t180 -67.5
q117 0 199 71h3l29 -51q-99 -88 -240 -88q-146 0 -230 84.5t-84 224.5q0 184 116 305t291 121q139 0 216.5 -80t77.5 -201q0 -70 -18.5 -128.5t-62.5 -98.5t-107 -40zM373 133q69 0 109 76l3 20l16 113q-29 40 -83 40q-53 0 -89 -42t-36 -108q0 -47 22 -73t58 -26z" />
    <glyph glyph-name="A" unicode="A" horiz-adv-x="610" 
d="M471 0l-39 155h-282l-83 -155h-93l368 673h40l187 -673h-98zM190 229h223l-65 256l-6 32l-15 -32z" />
    <glyph glyph-name="B" unicode="B" horiz-adv-x="564" 
d="M417 355q94 -35 94 -142q0 -94 -68 -153.5t-203 -59.5h-185l93 661q70 7 155 7q110 0 160.5 -42.5t50.5 -108.5q0 -120 -97 -162zM313 593q-50 0 -83 -3l-31 -216h81q69 0 106.5 33.5t37.5 93.5q0 92 -111 92zM242 71q177 0 177 138q0 46 -29 72.5t-88 26.5h-112
l-34 -237h86z" />
    <glyph glyph-name="C" unicode="C" horiz-adv-x="601" 
d="M369 -12q-144 0 -228.5 77.5t-84.5 220.5q0 174 102.5 282.5t265.5 108.5q104 0 178 -36l-12 -88l-3 -1q-77 42 -171 42q-118 0 -191 -85t-73 -208q0 -111 63 -171.5t166 -60.5q83 0 153 42l3 -1l-13 -87q-68 -35 -155 -35z" />
    <glyph glyph-name="D" unicode="D" horiz-adv-x="699" 
d="M359 671q150 0 228.5 -74.5t78.5 -205.5q0 -183 -108.5 -287.5t-300.5 -104.5q-157 0 -202 3l94 659q95 10 210 10zM279 82q140 0 214 80t74 221q0 96 -57 149t-165 53q-79 0 -114 -4l-71 -496q44 -3 119 -3z" />
    <glyph glyph-name="E" unicode="E" horiz-adv-x="532" 
d="M517 575h-287l-27 -192h269l-13 -86h-268l-29 -210h297l-12 -87h-392l93 661h381z" />
    <glyph glyph-name="F" unicode="F" horiz-adv-x="496" 
d="M512 576h-282l-30 -218h240l-12 -83h-240l-39 -275h-94l93 661h376z" />
    <glyph glyph-name="G" unicode="G" horiz-adv-x="662" 
d="M350 -10q-139 0 -216.5 75.5t-77.5 208.5q0 179 112 291t290 112q102 0 176 -36l-13 -91l-3 -1q-71 43 -176 43q-128 0 -207.5 -85t-79.5 -220q0 -98 55.5 -155t155.5 -57q69 0 130 28l27 187h88l-35 -245q-106 -55 -226 -55z" />
    <glyph glyph-name="H" unicode="H" horiz-adv-x="712" 
d="M584 661h94l-93 -661h-94l42 296h-342l-42 -296h-94l93 661h94l-39 -280h342z" />
    <glyph glyph-name="I" unicode="I" horiz-adv-x="276" 
d="M55 0l93 661h94l-93 -661h-94z" />
    <glyph glyph-name="J" unicode="J" horiz-adv-x="352" 
d="M30 -3q-22 0 -51 3l12 80l3 1q14 -3 35 -3q118 0 140 153l61 430h95l-59 -422q-34 -242 -236 -242z" />
    <glyph glyph-name="K" unicode="K" horiz-adv-x="605" 
d="M643 658l-363 -327l292 -328l-1 -3h-116l-265 295l-41 -295h-94l93 661h94l-41 -294l330 294h111z" />
    <glyph glyph-name="L" unicode="L" horiz-adv-x="482" 
d="M161 79h282l-11 -79h-377l94 661h94z" />
    <glyph glyph-name="M" unicode="M" horiz-adv-x="813" 
d="M692 665h55l-33 -665h-89l28 456h-3l-261 -451h-31l-138 449h-2l-103 -454h-88l157 665h56l159 -502z" />
    <glyph glyph-name="N" unicode="N" horiz-adv-x="706" 
d="M55 0l94 665h40l323 -478h3l67 474h90l-94 -664h-39l-324 479h-2l-68 -476h-90z" />
    <glyph glyph-name="O" unicode="O" horiz-adv-x="751" 
d="M367 -14q-138 0 -223 87t-85 224q0 168 97 274.5t251 106.5q138 0 223 -87t85 -224q0 -168 -96.5 -274.5t-251.5 -106.5zM378 69q111 0 176 84t65 204q0 110 -60 174t-163 64q-111 0 -176 -84t-65 -204q0 -111 59.5 -174.5t163.5 -63.5z" />
    <glyph glyph-name="P" unicode="P" horiz-adv-x="541" 
d="M320 667q107 0 163.5 -46.5t56.5 -132.5q0 -119 -75.5 -185t-201.5 -66q-38 0 -81 5l-34 -242h-93l93 661q96 6 172 6zM264 316q87 0 134 40.5t47 116.5q0 52 -33 82.5t-97 30.5q-52 0 -84 -2l-37 -262q38 -6 70 -6z" />
    <glyph glyph-name="Q" unicode="Q" horiz-adv-x="735" 
d="M761 -148l1 -3l-18 -74q-108 4 -191.5 27t-127.5 49t-102.5 58t-111.5 47l12 85q200 17 289 95t89 226q0 112 -59 172t-160 60q-96 0 -156.5 -65.5t-60.5 -164.5q0 -175 191 -174q21 0 45 6l3 -1l-6 -84q-30 -6 -61 -6q-130 1 -200.5 67t-70.5 183q0 143 91.5 233.5
t236.5 90.5q133 0 219 -80.5t86 -229.5q0 -157 -91 -261.5t-257 -131.5q44 -18 102.5 -46t90 -41t88.5 -24.5t129 -12.5z" />
    <glyph glyph-name="R" unicode="R" horiz-adv-x="570" 
d="M536 493q0 -91 -44 -148.5t-115 -81.5l120 -260l-1 -3h-98l-111 248h-2h-102l-35 -248h-93l93 661q76 7 174 7q99 0 156.5 -43t57.5 -132zM231 584l-37 -260h77q73 0 120.5 39.5t47.5 112.5q0 111 -121 111q-60 0 -87 -3z" />
    <glyph glyph-name="S" unicode="S" horiz-adv-x="534" 
d="M211 -13q-113 0 -184 44l13 96l3 1q71 -56 166 -56q72 0 115 29t43 82q0 40 -23.5 66t-96.5 60q-68 32 -107.5 71.5t-39.5 100.5q0 94 68 145.5t172 51.5q98 0 160 -31l-12 -90l-3 -1q-58 38 -146 38q-63 0 -102.5 -24t-39.5 -70q0 -20 6 -34t26.5 -28.5t35 -22.5
t56.5 -29q69 -35 104.5 -77.5t35.5 -108.5q0 -98 -68 -155.5t-182 -57.5z" />
    <glyph glyph-name="T" unicode="T" horiz-adv-x="542" 
d="M584 661l-12 -84h-205l-82 -577h-95l83 577h-210l12 84h509z" />
    <glyph glyph-name="U" unicode="U" horiz-adv-x="684" 
d="M308 -14q-107 0 -167.5 56t-60.5 147q0 47 3 68l57 404h93l-55 -392q-4 -25 -4 -52q0 -72 39 -110.5t104 -38.5q87 0 134 48t62 153l55 392h91l-57 -404q-39 -271 -294 -271z" />
    <glyph glyph-name="V" unicode="V" horiz-adv-x="601" 
d="M647 661l1 -3l-357 -670h-57l-164 670l1 3h99l110 -488l5 -41l15 41l255 488h92z" />
    <glyph glyph-name="W" unicode="W" horiz-adv-x="920" 
d="M961 661l1 -3l-302 -668h-70l-87 482l-3 26l-10 -26l-229 -482h-72l-117 668l1 3h99l72 -498l2 -41l16 41l227 495h65l87 -487l3 -44l16 44l210 490h91z" />
    <glyph glyph-name="X" unicode="X" horiz-adv-x="602" 
d="M624 658l-254 -317l179 -338l-1 -3h-109l-139 264l-207 -264h-112l-1 3l270 342l-166 313l1 3h110l126 -244l190 244h112z" />
    <glyph glyph-name="Y" unicode="Y" horiz-adv-x="572" 
d="M204 0l40 277l-171 381l1 3h100l130 -295l212 295h96l1 -3l-277 -382l-39 -276h-93z" />
    <glyph glyph-name="Z" unicode="Z" horiz-adv-x="563" 
d="M11 0l-6 33l436 551h-355l10 77h475l5 -32l-439 -551h366l-10 -78h-482z" />
    <glyph glyph-name="bracketleft" unicode="[" horiz-adv-x="305" 
d="M331 684h-105l-108 -774h104l-10 -69h-184l129 912h184z" />
    <glyph glyph-name="backslash" unicode="\" horiz-adv-x="447" 
d="M363 -119h-85l-175 870h85z" />
    <glyph glyph-name="bracketright" unicode="]" horiz-adv-x="305" 
d="M105 753h184l-129 -912h-184l10 69h103l110 774h-104z" />
    <glyph glyph-name="asciicircum" unicode="^" horiz-adv-x="486" 
d="M332 681l123 -335l-66 -28l-92 269l-4 15l-9 -15l-167 -269l-59 28l216 335h58z" />
    <glyph glyph-name="underscore" unicode="_" horiz-adv-x="471" 
d="M-7 -76l11 75h391l-10 -75h-392z" />
    <glyph glyph-name="grave" unicode="`" horiz-adv-x="240" 
d="M247 571l-174 102l-1 12l65 71l144 -129z" />
    <glyph glyph-name="a" unicode="a" horiz-adv-x="546" 
d="M499 92l3 -1l-12 -81q-30 -16 -69 -16q-80 0 -80 72v2q-72 -80 -172 -80q-67 0 -108 38.5t-41 103.5q0 89 64.5 132.5t156.5 43.5q75 0 124 -21l3 21q3 18 3 34q0 110 -126 110q-75 0 -146 -52l-3 1l11 85q23 18 67.5 32t96.5 14q196 0 196 -169q0 -27 -4 -51l-26 -179
q-1 -6 -1 -16q0 -34 30 -34q21 0 33 11zM197 66q86 0 149 85l9 62q-41 19 -104 19q-60 0 -97.5 -22.5t-37.5 -71.5q0 -34 22 -53t59 -19z" />
    <glyph glyph-name="b" unicode="b" horiz-adv-x="591" 
d="M349 530q93 0 147 -56t54 -157q0 -149 -80.5 -239t-213.5 -90q-128 0 -211 47l94 678h95l-34 -246q57 63 149 63zM264 71q84 0 136 62.5t52 168.5q0 71 -34 106.5t-91 35.5t-99 -37t-50 -96v1l-30 -216q46 -25 116 -25z" />
    <glyph glyph-name="c" unicode="c" horiz-adv-x="478" 
d="M270 -12q-100 0 -163.5 62t-63.5 170q0 140 80.5 225t208.5 85q80 0 137 -26l-13 -85l-3 -1q-63 29 -128 29q-84 0 -134 -60t-50 -151q0 -75 39.5 -120.5t109.5 -45.5q61 0 121 34l3 -1l-12 -87q-58 -28 -132 -28z" />
    <glyph glyph-name="d" unicode="d" horiz-adv-x="591" 
d="M484 713h95l-101 -713h-77v57q-60 -69 -164 -69q-86 0 -141 58t-55 158q0 146 84.5 236t206.5 90q73 0 122 -30zM267 71q47 0 88.5 32.5t53.5 84.5l32 224q-42 35 -110 35q-80 0 -136 -62.5t-56 -166.5q0 -72 33.5 -109.5t94.5 -37.5z" />
    <glyph glyph-name="e" unicode="e" horiz-adv-x="549" 
d="M311 530q93 0 147.5 -54.5t54.5 -139.5q0 -45 -12 -96h-360v-9q0 -76 41 -118t106 -42q91 0 165 50l3 -1l-13 -89q-65 -43 -165 -43q-104 0 -169.5 59.5t-65.5 175.5q0 137 77.5 222t190.5 85zM152 314h269v15q0 118 -119 118q-52 0 -92.5 -35.5t-57.5 -97.5z" />
    <glyph glyph-name="f" unicode="f" horiz-adv-x="333" 
d="M333 718q42 0 72 -10l-12 -82l-3 -1q-18 9 -50 9q-90 0 -105 -105l-2 -11h116l-11 -75h-115l-85 -608h-96l86 608h-67l11 75h67v1q14 100 66.5 149.5t127.5 49.5z" />
    <glyph glyph-name="g" unicode="g" horiz-adv-x="554" 
d="M560 518l-10 -70h-98q36 -36 36 -86q0 -81 -60 -131t-159 -50q-51 0 -93 16q-15 -12 -15 -31t28 -29.5t105 -18.5q98 -11 140 -39.5t42 -85.5q0 -79 -68.5 -122t-194.5 -43q-210 0 -210 113q0 79 101 135q-36 20 -36 58q0 52 57 93q-46 41 -46 107q0 85 61.5 134.5
t159.5 49.5h260zM277 256q58 0 89 27t31 76q0 39 -26.5 62t-74.5 23q-56 0 -89.5 -27t-33.5 -75q0 -40 27 -63t77 -23zM386 -24q0 29 -27 42t-99 21q-43 4 -87 13q-80 -35 -80 -90q0 -62 138 -62q77 0 116 17.5t39 58.5z" />
    <glyph glyph-name="h" unicode="h" horiz-adv-x="591" 
d="M357 530q79 0 127 -46.5t48 -124.5q0 -23 -3 -47l-44 -312h-94l43 304q1 8 1 23q0 117 -109 117q-46 0 -84.5 -27t-58.5 -85l-47 -332h-95l101 713h95l-35 -247q58 64 155 64z" />
    <glyph glyph-name="i" unicode="i" horiz-adv-x="249" 
d="M181 613q-26 0 -42 15.5t-16 40.5q0 29 19 46.5t45 17.5t41.5 -15.5t15.5 -39.5q0 -30 -18.5 -47.5t-44.5 -17.5zM41 0l74 518h95l-74 -518h-95z" />
    <glyph glyph-name="j" unicode="j" horiz-adv-x="265" 
d="M198 613q-26 0 -42 15.5t-16 40.5q0 29 19 46.5t45 17.5t41.5 -15.5t15.5 -39.5q0 -30 -18.5 -47.5t-44.5 -17.5zM-42 -170q-21 0 -53 5l12 82l3 1q14 -3 31 -3q51 0 77 31t35 92l69 480h93l-71 -501q-27 -187 -196 -187z" />
    <glyph glyph-name="k" unicode="k" horiz-adv-x="523" 
d="M531 515l-268 -245l225 -267l-1 -3h-118l-200 235l-33 -235h-95l101 713h95l-59 -414l238 219h114z" />
    <glyph glyph-name="l" unicode="l" horiz-adv-x="274" 
d="M163 -9q-60 0 -88.5 32t-19.5 98l85 592h93l-80 -566q-5 -38 4.5 -54.5t36.5 -16.5q20 0 38 10l3 -1l-12 -82q-30 -12 -60 -12z" />
    <glyph glyph-name="m" unicode="m" horiz-adv-x="902" 
d="M680 530q70 0 116 -43t46 -132q0 -27 -3 -49l-43 -306h-95l39 280q4 28 4 67q0 51 -27.5 73.5t-67.5 22.5q-55 0 -93 -37t-47 -100l-43 -306h-95l39 280q4 28 4 67q0 51 -27.5 73.5t-67.5 22.5q-52 0 -89.5 -34t-48.5 -92l-45 -317h-95l74 518h77v-63q55 75 158 75
q53 0 94 -25.5t58 -78.5q59 104 178 104z" />
    <glyph glyph-name="n" unicode="n" horiz-adv-x="592" 
d="M357 530q76 0 125.5 -44.5t49.5 -134.5q0 -23 -3 -45l-43 -306h-95l39 280q4 28 4 47q0 65 -31 91t-76 26q-54 0 -94.5 -34.5t-51.5 -92.5l-45 -317h-95l74 518h77l-1 -68q58 80 166 80z" />
    <glyph glyph-name="o" unicode="o" horiz-adv-x="604" 
d="M277 -12q-103 0 -168.5 62.5t-65.5 173.5q0 133 79.5 219.5t201.5 86.5q105 0 171 -62.5t66 -175.5q0 -131 -80.5 -217.5t-203.5 -86.5zM287 71q81 0 128.5 62t47.5 152q0 75 -39.5 118.5t-107.5 43.5q-80 0 -127.5 -63.5t-47.5 -150.5q0 -74 39.5 -118t106.5 -44z" />
    <glyph glyph-name="p" unicode="p" horiz-adv-x="592" 
d="M350 530q89 0 144.5 -54.5t55.5 -155.5q0 -152 -81 -242t-205 -90q-78 0 -127 27l-25 -180h-95l97 683h78v-49q58 61 158 61zM265 71q82 0 134.5 62.5t52.5 170.5q0 72 -34 107.5t-94 35.5q-43 0 -86.5 -30.5t-55.5 -83.5l-32 -231q43 -31 115 -31z" />
    <glyph glyph-name="q" unicode="q" horiz-adv-x="591" 
d="M475 518h78l-97 -683h-96l31 218q-65 -65 -166 -65q-83 0 -133 56.5t-50 158.5q0 145 86 236t202 91q91 0 136 -42zM406 157l36 253q-41 38 -112 38q-79 0 -134 -64t-55 -167q0 -72 32.5 -109t87.5 -37q43 0 82 23t63 63z" />
    <glyph glyph-name="r" unicode="r" horiz-adv-x="376" 
d="M339 529q32 0 53 -9l-12 -85l-3 -1q-20 9 -50 9q-24 0 -42.5 -5t-40 -19.5t-38.5 -47t-29 -82.5l-41 -289h-95l74 518h77l-1 -64q53 75 148 75z" />
    <glyph glyph-name="s" unicode="s" horiz-adv-x="462" 
d="M178 -13q-102 0 -165 38l13 91l3 1q63 -49 165 -49q119 0 119 73q0 30 -23.5 46.5t-87.5 38.5q-70 24 -102.5 56t-32.5 87q0 75 61 118t165 43q86 0 138 -25l-11 -83l-2 -1q-58 28 -135 28q-56 0 -88.5 -17t-32.5 -51q0 -25 22 -40.5t78 -34.5q74 -24 109.5 -55.5
t35.5 -85.5q0 -86 -62 -132t-167 -46z" />
    <glyph glyph-name="t" unicode="t" horiz-adv-x="373" 
d="M229 443l-37 -268q-2 -16 -2 -32q0 -29 21 -46.5t61 -17.5q31 0 66 14l2 -1l-12 -80q-34 -17 -84 -17q-69 0 -110 34t-41 92q0 20 2 40l41 282h-98l11 75h97l18 122l94 18l1 -2l-19 -138h153l-11 -75h-153z" />
    <glyph glyph-name="u" unicode="u" horiz-adv-x="580" 
d="M446 518h95l-74 -518h-77v59q-59 -71 -165 -71q-79 0 -122 42.5t-43 116.5q0 22 4 53l45 318h95l-44 -307q-3 -21 -3 -47q0 -47 26 -71t72 -24t84.5 27t57.5 77z" />
    <glyph glyph-name="v" unicode="v" horiz-adv-x="529" 
d="M551 518l1 -3l-291 -520h-69l-139 520l1 3h102l90 -400l207 400h98z" />
    <glyph glyph-name="w" unicode="w" horiz-adv-x="768" 
d="M787 518l1 -3l-236 -515h-86l-53 388l-2 19l-8 -19l-170 -388h-86l-92 515l1 3h95l53 -380v-22l9 22l164 380h99l52 -379l2 -21l7 22l162 378h88z" />
    <glyph glyph-name="x" unicode="x" horiz-adv-x="516" 
d="M524 515l-212 -250l143 -262l-1 -3h-99l-106 201l-163 -201h-105l-1 3l223 264l-139 248l1 3h101l99 -189l154 189h104z" />
    <glyph glyph-name="y" unicode="y" horiz-adv-x="514" 
d="M536 515l-255 -483l-11 -21q-51 -97 -100 -139t-119 -42q-33 0 -60 10l13 76l3 1q21 -8 55 -8q65 0 125 114l4 8l-138 484l1 3h101l96 -382l188 382h96z" />
    <glyph glyph-name="z" unicode="z" horiz-adv-x="496" 
d="M475 472l-339 -392h300l-11 -80h-413l-4 44l335 394h-273l10 80h391z" />
    <glyph glyph-name="braceleft" unicode="{" horiz-adv-x="323" 
d="M325 762h35l-11 -71h-21q-35 0 -52.5 -13.5t-23.5 -53.5l-31 -213q-7 -51 -42.5 -81t-67.5 -30l-1 -4q32 0 59 -30.5t20 -82.5l-30 -214q-6 -40 8 -53.5t49 -13.5h21l-9 -71h-35q-68 0 -98 32t-20 103l29 198q7 44 -17 69.5t-50 25.5l12 81q26 0 56.5 23.5t36.5 65.5
l28 200q10 70 48.5 101.5t106.5 31.5z" />
    <glyph glyph-name="bar" unicode="|" horiz-adv-x="258" 
d="M36 -101l117 830h86l-117 -830h-86z" />
    <glyph glyph-name="braceright" unicode="}" horiz-adv-x="324" 
d="M298 336l-11 -81q-26 0 -57 -24t-37 -68l-29 -199q-10 -70 -47.5 -101.5t-105.5 -31.5h-35l10 71h21q34 0 52 14t24 53l30 215q7 51 43.5 81.5t68.5 30.5l1 4q-32 0 -59.5 30t-20.5 81l31 214q6 39 -9 52.5t-50 13.5h-22l11 71h34q68 0 97.5 -31.5t19.5 -100.5l-27 -200
q-6 -44 17.5 -69t49.5 -25z" />
    <glyph glyph-name="asciitilde" unicode="~" horiz-adv-x="515" 
d="M125 233l-61 9q7 49 41 79.5t81 30.5q37 0 86.5 -19.5t76.5 -19.5q20 0 35 11t19 31l3 2l57 -12q-8 -47 -41 -76.5t-79 -29.5q-31 0 -83 19.5t-78 19.5q-21 0 -36.5 -11t-19.5 -31z" />
    <glyph glyph-name="exclamdown" unicode="&#xa1;" horiz-adv-x="244" 
d="M152 430q-24 0 -37 13.5t-13 33.5q0 24 16 40.5t42 16.5q25 0 37.5 -14t12.5 -35q0 -23 -16 -39t-42 -16zM15 -163l76 486h81l-64 -486h-93z" />
    <glyph glyph-name="cent" unicode="&#xa2;" horiz-adv-x="540" 
d="M403 609q67 -3 121 -28l-11 -79l-4 -3q-63 30 -130 30q-100 0 -162.5 -62.5t-62.5 -163.5q0 -76 43.5 -121.5t123.5 -45.5q77 0 147 36l3 -3l-11 -80q-62 -30 -137 -34l-13 -94h-89l13 99q-86 17 -133 76t-47 150q0 128 71 213.5t188 105.5l15 99h89z" />
    <glyph glyph-name="sterling" unicode="&#xa3;" horiz-adv-x="555" 
d="M396 677q90 0 147 -36l-13 -86l-3 -2q-56 39 -136 39q-64 0 -106 -36t-51 -104q-5 -34 -5 -79h195l-10 -77h-186q-2 -32 -4 -48q-13 -97 -55 -169h314l-11 -79h-438l-2 6q97 123 101 290h-88l11 77h77v12q0 146 76 219t187 73z" />
    <glyph glyph-name="currency" unicode="&#xa4;" horiz-adv-x="681" 
d="M580 486q26 -50 26 -117q0 -110 -66 -195l60 -72l-72 -62l-58 70q-66 -41 -147 -41q-87 0 -145 46l-84 -75l-54 62l85 75q-30 55 -30 126q0 109 66 194l-55 67l72 63l54 -66q64 42 147 42q91 0 150 -51l83 75l54 -63zM176 312q0 -76 42.5 -120t115.5 -44q89 0 140 63.5
t51 148.5q0 76 -42.5 119.5t-115.5 43.5q-89 0 -140 -63t-51 -148z" />
    <glyph glyph-name="yen" unicode="&#xa5;" horiz-adv-x="617" 
d="M644 671l-243 -335h122l-10 -73h-157l-11 -77h157l-10 -74h-157l-16 -112h-92l16 112h-153l10 74h154l11 77h-154l10 73h119l-150 335h104l132 -313l220 313h98z" />
    <glyph glyph-name="brokenbar" unicode="&#xa6;" horiz-adv-x="265" 
d="M114 423l43 306h86l-43 -306h-86zM40 -101l44 311h86l-44 -311h-86z" />
    <glyph glyph-name="section" unicode="&#xa7;" horiz-adv-x="511" 
d="M335 693q97 0 147 -33l-10 -80l-2 -1q-49 36 -137 36q-54 0 -93 -24.5t-39 -72.5q0 -33 27 -52.5t97 -52.5q69 -32 104.5 -67.5t35.5 -88.5q0 -82 -83 -143q29 -32 29 -77q0 -84 -67 -134.5t-165 -50.5q-101 0 -157 37l12 80l3 2q58 -42 150 -42q56 0 91.5 23.5
t35.5 72.5q0 16 -6.5 28.5t-24.5 25.5t-32.5 21t-48.5 25q-9 5 -14 7q-69 34 -102 67t-33 85q0 83 85 142q-32 37 -32 84q0 85 65.5 134t163.5 49zM262 346q-46 22 -85 47q-40 -37 -40 -85q0 -32 26 -57t88 -54q61 -28 92 -50q37 38 37 86q0 32 -26 56.5t-92 56.5z" />
    <glyph glyph-name="dieresis" unicode="&#xa8;" horiz-adv-x="329" 
d="M120 615q-25 0 -40.5 15t-15.5 39q0 29 18.5 45.5t43.5 16.5t40 -15t15 -38q0 -29 -18 -46t-43 -17zM316 615q-25 0 -40.5 15t-15.5 39q0 29 18.5 45.5t43.5 16.5t40 -15t15 -38q0 -29 -18 -46t-43 -17z" />
    <glyph glyph-name="copyright" unicode="&#xa9;" horiz-adv-x="663" 
d="M294 -13q-112 0 -178.5 71.5t-66.5 184.5q0 144 94.5 242t235.5 98q111 0 177 -71.5t66 -184.5q0 -144 -94.5 -242t-233.5 -98zM300 40q116 0 189 80t73 202q0 94 -52 151t-140 57q-111 0 -185 -80.5t-74 -201.5q0 -93 51 -150.5t138 -57.5zM329 131q-61 0 -98.5 34.5
t-37.5 93.5q0 79 51.5 127.5t128.5 48.5q46 0 75 -14l-8 -59l-3 -1q-28 14 -65 14q-48 0 -78 -29t-30 -75q0 -36 22.5 -58t60.5 -22t71 18l2 -1l-9 -59q-31 -18 -82 -18z" />
    <glyph glyph-name="ordfeminine" unicode="&#xaa;" horiz-adv-x="453" 
d="M428 418l2 -1l-8 -60q-21 -12 -41 -12q-60 0 -63 54q-59 -59 -132 -59q-50 0 -81.5 28t-31.5 74q0 67 48.5 99.5t115.5 32.5q61 0 97 -16l2 14q14 102 -91 102q-60 0 -108 -24l-2 2l9 57q37 26 112 26q173 0 148 -160l-18 -126q-6 -38 19 -38q15 0 23 7zM205 401
q31 0 63 16t52 41l6 43q-35 14 -82 14q-96 0 -96 -64q0 -23 15.5 -36.5t41.5 -13.5z" />
    <glyph glyph-name="guillemotleft" unicode="&#xab;" horiz-adv-x="534" 
d="M232 96l-122 190l175 175h94l-1 -9l-167 -170l112 -178l-1 -8h-90zM441 96l-122 190l175 175h94l-1 -9l-167 -170l112 -178l-1 -8h-90z" />
    <glyph glyph-name="registered" unicode="&#xae;" horiz-adv-x="614" 
d="M376 733q100 0 158.5 -63t58.5 -164q0 -129 -83.5 -216t-208.5 -87q-101 0 -160.5 63.5t-59.5 164.5q0 128 84.5 215t210.5 87zM306 253q102 0 165.5 70.5t63.5 177.5q0 81 -45 131.5t-123 50.5q-97 0 -162.5 -70.5t-65.5 -176.5q0 -81 45 -132t122 -51zM448 526
q0 -71 -59 -95l45 -86h-65l-40 76h-44l-11 -76h-57l35 255q52 2 99 2q97 0 97 -76zM303 549l-11 -77h40q55 0 55 45q0 33 -43 33q-33 0 -41 -1z" />
    <glyph glyph-name="macron" unicode="&#xaf;" horiz-adv-x="338" 
d="M75 621l10 70h282l-10 -70h-282z" />
    <glyph glyph-name="degree" unicode="&#xb0;" horiz-adv-x="348" 
d="M219 415q-56 0 -93.5 36.5t-37.5 91.5t37.5 91.5t93.5 36.5t92.5 -36.5t36.5 -91.5t-37 -91.5t-92 -36.5zM219 468q31 0 51 22t20 53q0 32 -20 54t-51 22q-32 0 -52.5 -22t-20.5 -54t20.5 -53.5t52.5 -21.5z" />
    <glyph glyph-name="plusminus" unicode="&#xb1;" horiz-adv-x="527" 
d="M469 269h-167l-21 -150h162l-11 -73h-396l11 73h161l22 150h-168l10 71h168l25 177h72l-25 -177h167z" />
    <glyph glyph-name="acute" unicode="&#xb4;" horiz-adv-x="239" 
d="M110 567l-37 55l137 136l69 -68l-1 -12z" />
    <glyph glyph-name="paragraph" unicode="&#xb6;" horiz-adv-x="566" 
d="M566 603l-12 -84h-60l-90 -630h-27l89 630h-63l-89 -630h-90l47 325q-121 0 -176 47t-40 149q14 92 82.5 142.5t185.5 50.5h243z" />
    <glyph glyph-name="periodcentered" unicode="&#xb7;" horiz-adv-x="236" 
d="M109 191q-23 0 -35.5 12t-12.5 32q0 25 17 43t46 18q23 0 35.5 -13t12.5 -33q0 -25 -16.5 -42t-46.5 -17z" />
    <glyph glyph-name="cedilla" unicode="&#xb8;" horiz-adv-x="202" 
d="M8 -236q-32 0 -59 10l8 56l2 1q20 -8 44 -8q28 0 46 12t18 34q0 32 -38 32q-22 0 -45 -7l-1 1l7 46l42 59h61l-35 -49q6 2 21 2q32 0 51.5 -18.5t19.5 -55.5q0 -59 -40.5 -87t-101.5 -28z" />
    <glyph glyph-name="ordmasculine" unicode="&#xba;" horiz-adv-x="481" 
d="M262 331q-81 0 -130 45.5t-49 133.5q0 106 62 171t159 65q76 0 126 -45.5t50 -132.5q0 -105 -64.5 -171t-153.5 -66zM271 400q55 0 90.5 46t35.5 117q0 56 -27 85t-74 29q-59 0 -95 -45t-36 -123q0 -51 27.5 -80t78.5 -29z" />
    <glyph glyph-name="guillemotright" unicode="&#xbb;" horiz-adv-x="533" 
d="M174 461l122 -190l-175 -175h-94l1 9l167 170l-112 178l1 8h90zM382 461l122 -190l-175 -175h-94l1 9l167 170l-112 178l1 8h90z" />
    <glyph glyph-name="onequarter" unicode="&#xbc;" horiz-adv-x="710" 
d="M111 302l39 270l-84 -30l11 80l153 54h9l-52 -374h-76zM539 665h71l-501 -677h-70zM661 119l-8 -51h-52l-10 -68h-70l10 68h-188l4 32l235 276h63l-37 -257h53zM435 119h104l23 159z" />
    <glyph glyph-name="onehalf" unicode="&#xbd;" horiz-adv-x="714" 
d="M123 302l39 270l-84 -30l11 80l153 54h9l-52 -374h-76zM18 -12l500 677h71l-501 -677h-70zM383 0q0 91 111 168q59 40 77.5 59.5t18.5 41.5q0 41 -62 41q-60 0 -109 -39l-1 1l10 65q46 39 123 39q51 0 85.5 -24.5t34.5 -68.5q0 -45 -25 -78.5t-81 -69.5q-75 -47 -84 -72
h173l-9 -63h-262z" />
    <glyph glyph-name="threequarters" unicode="&#xbe;" horiz-adv-x="742" 
d="M318 426q0 -61 -43 -96.5t-118 -35.5q-65 0 -110 26l10 62l1 1q33 -28 106 -28q38 0 61.5 18.5t23.5 50.5q0 44 -57 44h-62l8 53h45q72 0 72 52q0 43 -65 43q-58 0 -93 -21h-1l8 62q40 21 95 21q58 0 93.5 -23t35.5 -69q0 -57 -54 -87q44 -21 44 -73zM595 665h71
l-501 -677h-70zM692 119l-8 -51h-52l-10 -68h-70l10 68h-188l4 32l235 276h63l-37 -257h53zM466 119h104l23 159z" />
    <glyph glyph-name="questiondown" unicode="&#xbf;" horiz-adv-x="410" 
d="M352 531q24 0 37 -13.5t13 -33.5q0 -24 -16 -40.5t-42 -16.5q-25 0 -37.5 14t-12.5 35q0 23 16 39t42 16zM370 330q-9 -65 -33 -105.5t-79 -81.5q-47 -35 -68 -64.5t-21 -78.5q0 -40 24 -64t69 -24q75 0 134 47l2 -1l-12 -82q-59 -45 -145 -45q-73 0 -120 39.5t-47 108.5
q0 73 30 118t96 97q76 60 87 135z" />
    <glyph glyph-name="Agrave" unicode="&#xc0;" horiz-adv-x="610" 
d="M449 700l-188 83l-4 12l61 75l157 -117zM471 0l-39 155h-282l-83 -155h-93l368 673h40l187 -673h-98zM190 229h223l-65 256l-6 32l-15 -32z" />
    <glyph glyph-name="Aacute" unicode="&#xc1;" horiz-adv-x="610" 
d="M477 774l-194 -75l-24 54l167 111l55 -78zM471 0l-39 155h-282l-83 -155h-93l368 673h40l187 -673h-98zM190 229h223l-65 256l-6 32l-15 -32z" />
    <glyph glyph-name="Acircumflex" unicode="&#xc2;" horiz-adv-x="610" 
d="M375 779l-114 -78l-30 45l133 114h43l103 -114l-39 -45zM471 0l-39 155h-282l-83 -155h-93l368 673h40l187 -673h-98zM190 229h223l-65 256l-6 32l-15 -32z" />
    <glyph glyph-name="Atilde" unicode="&#xc3;" horiz-adv-x="610" 
d="M270 712l-2 -1l-60 18q8 46 39 75.5t73 29.5q28 0 65.5 -18t55.5 -18q15 0 28.5 11.5t16.5 30.5l2 2l59 -20q-8 -46 -38.5 -74.5t-72.5 -28.5q-22 0 -62 18t-59 18q-17 0 -30 -12t-15 -31zM471 0l-39 155h-282l-83 -155h-93l368 673h40l187 -673h-98zM190 229h223
l-65 256l-6 32l-15 -32z" />
    <glyph glyph-name="Adieresis" unicode="&#xc4;" horiz-adv-x="610" 
d="M274 727q-23 0 -37 13.5t-14 35.5q0 26 17 41.5t40 15.5t36.5 -14t13.5 -35q0 -26 -16.5 -41.5t-39.5 -15.5zM477 727q-23 0 -37 13.5t-14 35.5q0 26 17 41.5t40 15.5t36.5 -14t13.5 -35q0 -26 -16.5 -41.5t-39.5 -15.5zM471 0l-39 155h-282l-83 -155h-93l368 673h40
l187 -673h-98zM190 229h223l-65 256l-6 32l-15 -32z" />
    <glyph glyph-name="Aring" unicode="&#xc5;" horiz-adv-x="610" 
d="M364 681q-39 0 -65 24t-26 62q0 44 30 72.5t77 28.5q39 0 65 -23.5t26 -61.5q0 -44 -30 -73t-77 -29zM374 818q-20 0 -33.5 -13t-13.5 -34q0 -18 12 -29t31 -11q20 0 33.5 13t13.5 34q0 18 -12 29t-31 11zM471 0l-39 155h-282l-83 -155h-93l368 673h40l187 -673h-98z
M190 229h223l-65 256l-6 32l-15 -32z" />
    <glyph glyph-name="AE" unicode="&#xc6;" horiz-adv-x="790" 
d="M777 584h-250l-28 -202h232l-12 -77h-231l-31 -227h259l-10 -78h-356l27 190h-205l-136 -190h-96l477 661h371zM220 257h167l42 299l-65 -97z" />
    <glyph glyph-name="Ccedilla" unicode="&#xc7;" horiz-adv-x="601" 
d="M424 677q104 0 178 -36l-12 -88l-3 -1q-77 42 -171 42q-118 0 -191 -85t-73 -208q0 -111 63 -171.5t166 -60.5q83 0 153 42l3 -1l-13 -87q-67 -35 -153 -35l-26 -37q6 2 21 2q32 0 51.5 -18.5t19.5 -55.5q0 -59 -40.5 -87t-101.5 -28q-32 0 -59 10l8 56l2 1q20 -8 44 -8
q28 0 46 12t18 34q0 32 -38 32q-22 0 -45 -7l-1 1l7 46l36 50q-120 15 -188.5 90.5t-68.5 204.5q0 174 102.5 282.5t265.5 108.5z" />
    <glyph glyph-name="Egrave" unicode="&#xc8;" horiz-adv-x="532" 
d="M432 700l-188 83l-4 12l61 75l157 -117zM517 575h-287l-27 -192h269l-13 -86h-268l-29 -210h297l-12 -87h-392l93 661h381z" />
    <glyph glyph-name="Eacute" unicode="&#xc9;" horiz-adv-x="532" 
d="M460 774l-194 -75l-24 54l167 111l55 -78zM517 575h-287l-27 -192h269l-13 -86h-268l-29 -210h297l-12 -87h-392l93 661h381z" />
    <glyph glyph-name="Ecircumflex" unicode="&#xca;" horiz-adv-x="532" 
d="M358 779l-114 -78l-30 45l133 114h43l103 -114l-39 -45zM517 575h-287l-27 -192h269l-13 -86h-268l-29 -210h297l-12 -87h-392l93 661h381z" />
    <glyph glyph-name="Edieresis" unicode="&#xcb;" horiz-adv-x="532" 
d="M257 727q-23 0 -37 13.5t-14 35.5q0 26 17 41.5t40 15.5t36.5 -14t13.5 -35q0 -26 -16.5 -41.5t-39.5 -15.5zM460 727q-23 0 -37 13.5t-14 35.5q0 26 17 41.5t40 15.5t36.5 -14t13.5 -35q0 -26 -16.5 -41.5t-39.5 -15.5zM517 575h-287l-27 -192h269l-13 -86h-268
l-29 -210h297l-12 -87h-392l93 661h381z" />
    <glyph glyph-name="Igrave" unicode="&#xcc;" horiz-adv-x="276" 
d="M286 700l-188 83l-4 12l61 75l157 -117zM55 0l93 661h94l-93 -661h-94z" />
    <glyph glyph-name="Iacute" unicode="&#xcd;" horiz-adv-x="276" 
d="M120 699l-24 54l167 111l55 -78l-4 -12zM55 0l93 661h94l-93 -661h-94z" />
    <glyph glyph-name="Icircumflex" unicode="&#xce;" horiz-adv-x="276" 
d="M98 701l-30 45l133 114h43l103 -114l-39 -45l-96 78zM55 0l93 661h94l-93 -661h-94z" />
    <glyph glyph-name="Idieresis" unicode="&#xcf;" horiz-adv-x="276" 
d="M111 727q-23 0 -37 13.5t-14 35.5q0 26 17 41.5t40 15.5t36.5 -14t13.5 -35q0 -26 -16.5 -41.5t-39.5 -15.5zM314 727q-23 0 -37 13.5t-14 35.5q0 26 17 41.5t40 15.5t36.5 -14t13.5 -35q0 -26 -16.5 -41.5t-39.5 -15.5zM55 0l93 661h94l-93 -661h-94z" />
    <glyph glyph-name="Eth" unicode="&#xd0;" horiz-adv-x="699" 
d="M359 671q150 0 228.5 -74.5t78.5 -205.5q0 -183 -108.5 -287.5t-300.5 -104.5q-157 0 -202 3l42 291h-85l10 69h84l43 299q95 10 210 10zM279 82q140 0 214 80t74 221q0 96 -57 149t-165 53q-79 0 -114 -4l-31 -219h98l-10 -69h-98l-30 -208q44 -3 119 -3z" />
    <glyph glyph-name="Ntilde" unicode="&#xd1;" horiz-adv-x="706" 
d="M322 711l-60 18q8 46 39 75.5t73 29.5q28 0 65.5 -18t55.5 -18q15 0 28.5 11.5t16.5 30.5l2 2l59 -20q-8 -46 -38.5 -74.5t-72.5 -28.5q-22 0 -62 18t-59 18q-17 0 -30 -12t-15 -31zM55 0l94 665h40l323 -478h3l67 474h90l-94 -664h-39l-324 479h-2l-68 -476h-90z" />
    <glyph glyph-name="Ograve" unicode="&#xd2;" horiz-adv-x="751" 
d="M490 697l-188 83l-4 12l61 75l157 -117zM367 -14q-138 0 -223 87t-85 224q0 168 97 274.5t251 106.5q138 0 223 -87t85 -224q0 -168 -96.5 -274.5t-251.5 -106.5zM378 69q111 0 176 84t65 204q0 110 -60 174t-163 64q-111 0 -176 -84t-65 -204q0 -111 59.5 -174.5
t163.5 -63.5z" />
    <glyph glyph-name="Oacute" unicode="&#xd3;" horiz-adv-x="751" 
d="M324 696l-24 54l167 111l55 -78l-4 -12zM367 -14q-138 0 -223 87t-85 224q0 168 97 274.5t251 106.5q138 0 223 -87t85 -224q0 -168 -96.5 -274.5t-251.5 -106.5zM378 69q111 0 176 84t65 204q0 110 -60 174t-163 64q-111 0 -176 -84t-65 -204q0 -111 59.5 -174.5
t163.5 -63.5z" />
    <glyph glyph-name="Ocircumflex" unicode="&#xd4;" horiz-adv-x="751" 
d="M302 698l-30 45l133 114h43l103 -114l-39 -45l-96 78zM367 -14q-138 0 -223 87t-85 224q0 168 97 274.5t251 106.5q138 0 223 -87t85 -224q0 -168 -96.5 -274.5t-251.5 -106.5zM378 69q111 0 176 84t65 204q0 110 -60 174t-163 64q-111 0 -176 -84t-65 -204
q0 -111 59.5 -174.5t163.5 -63.5z" />
    <glyph glyph-name="Otilde" unicode="&#xd5;" horiz-adv-x="751" 
d="M309 708l-60 18q8 46 39 75.5t73 29.5q28 0 65.5 -18t55.5 -18q15 0 28.5 11.5t16.5 30.5l2 2l59 -20q-8 -46 -38.5 -74.5t-72.5 -28.5q-23 0 -62 18t-59 18q-17 0 -30 -12t-15 -31zM367 -14q-138 0 -223 87t-85 224q0 168 97 274.5t251 106.5q138 0 223 -87t85 -224
q0 -168 -96.5 -274.5t-251.5 -106.5zM378 69q111 0 176 84t65 204q0 110 -60 174t-163 64q-111 0 -176 -84t-65 -204q0 -111 59.5 -174.5t163.5 -63.5z" />
    <glyph glyph-name="Odieresis" unicode="&#xd6;" horiz-adv-x="751" 
d="M315 724q-23 0 -37 13.5t-14 35.5q0 26 17 41.5t40 15.5t36.5 -14t13.5 -35q0 -26 -16.5 -41.5t-39.5 -15.5zM518 724q-23 0 -37 13.5t-14 35.5q0 26 17 41.5t40 15.5t36.5 -14t13.5 -35q0 -26 -16.5 -41.5t-39.5 -15.5zM367 -14q-138 0 -223 87t-85 224q0 168 97 274.5
t251 106.5q138 0 223 -87t85 -224q0 -168 -96.5 -274.5t-251.5 -106.5zM378 69q111 0 176 84t65 204q0 110 -60 174t-163 64q-111 0 -176 -84t-65 -204q0 -111 59.5 -174.5t163.5 -63.5z" />
    <glyph glyph-name="multiply" unicode="&#xd7;" horiz-adv-x="496" 
d="M474 437l-166 -148l118 -145l-62 -50l-115 143l-163 -145l-53 60l165 147l-116 143l62 50l114 -140l163 145z" />
    <glyph glyph-name="Oslash" unicode="&#xd8;" horiz-adv-x="751" 
d="M626 595q89 -87 89 -228q0 -168 -96.5 -274.5t-251.5 -106.5q-88 0 -157 37l-56 -77h-81v9l80 110q-94 86 -94 232q0 168 97 274.5t251 106.5q91 0 162 -40l54 75h84v-7zM155 307q0 -102 52 -167l309 425q-50 30 -120 30q-111 0 -176 -84t-65 -204zM378 69q111 0 176 84
t65 204q0 100 -49 161l-307 -423q49 -26 115 -26z" />
    <glyph glyph-name="Ugrave" unicode="&#xd9;" horiz-adv-x="684" 
d="M484 700l-188 83l-4 12l61 75l157 -117zM308 -14q-107 0 -167.5 56t-60.5 147q0 47 3 68l57 404h93l-55 -392q-4 -25 -4 -52q0 -72 39 -110.5t104 -38.5q87 0 134 48t62 153l55 392h91l-57 -404q-39 -271 -294 -271z" />
    <glyph glyph-name="Uacute" unicode="&#xda;" horiz-adv-x="684" 
d="M318 699l-24 54l167 111l55 -78l-4 -12zM308 -14q-107 0 -167.5 56t-60.5 147q0 47 3 68l57 404h93l-55 -392q-4 -25 -4 -52q0 -72 39 -110.5t104 -38.5q87 0 134 48t62 153l55 392h91l-57 -404q-39 -271 -294 -271z" />
    <glyph glyph-name="Ucircumflex" unicode="&#xdb;" horiz-adv-x="684" 
d="M296 701l-30 45l133 114h43l103 -114l-39 -45l-96 78zM308 -14q-107 0 -167.5 56t-60.5 147q0 47 3 68l57 404h93l-55 -392q-4 -25 -4 -52q0 -72 39 -110.5t104 -38.5q87 0 134 48t62 153l55 392h91l-57 -404q-39 -271 -294 -271z" />
    <glyph glyph-name="Udieresis" unicode="&#xdc;" horiz-adv-x="684" 
d="M309 727q-23 0 -37 13.5t-14 35.5q0 26 17 41.5t40 15.5t36.5 -14t13.5 -35q0 -26 -16.5 -41.5t-39.5 -15.5zM512 727q-23 0 -37 13.5t-14 35.5q0 26 17 41.5t40 15.5t36.5 -14t13.5 -35q0 -26 -16.5 -41.5t-39.5 -15.5zM308 -14q-107 0 -167.5 56t-60.5 147q0 47 3 68
l57 404h93l-55 -392q-4 -25 -4 -52q0 -72 39 -110.5t104 -38.5q87 0 134 48t62 153l55 392h91l-57 -404q-39 -271 -294 -271z" />
    <glyph glyph-name="Yacute" unicode="&#xdd;" horiz-adv-x="572" 
d="M269 699l-24 54l167 111l55 -78l-4 -12zM204 0l40 277l-171 381l1 3h100l130 -295l212 295h96l1 -3l-277 -382l-39 -276h-93z" />
    <glyph glyph-name="Thorn" unicode="&#xde;" horiz-adv-x="547" 
d="M310 548q95 0 151 -44t56 -130q0 -119 -74.5 -186t-201.5 -67q-43 0 -75 4l-18 -125h-93l93 661h93l-17 -117q48 4 86 4zM241 199q88 0 134 40.5t46 116.5q0 52 -33.5 81.5t-99.5 29.5q-39 0 -75 -4l-37 -261q38 -3 65 -3z" />
    <glyph glyph-name="germandbls" unicode="&#xdf;" horiz-adv-x="599" 
d="M381 -13q-80 0 -131 35l13 89l2 1q37 -44 107 -44q42 0 65.5 18.5t23.5 53.5q0 23 -14.5 41t-52.5 46q-40 29 -58.5 53t-18.5 60q0 31 11.5 58t22.5 39.5t33 33.5q18 17 27 27.5t17.5 28.5t8.5 37q0 34 -24.5 52t-66.5 18q-121 0 -141 -147l-69 -487h-95l71 497
q15 106 80.5 163.5t161.5 57.5q76 0 127 -35.5t51 -104.5q0 -35 -13.5 -65.5t-25 -43.5t-35.5 -37q-39 -39 -39 -64q0 -22 14 -38t50 -45q37 -30 54.5 -58.5t17.5 -75.5q0 -74 -52 -119t-122 -45z" />
    <glyph glyph-name="agrave" unicode="&#xe0;" horiz-adv-x="546" 
d="M363 571l-174 102l-1 12l65 71l144 -129zM499 92l3 -1l-12 -81q-30 -16 -69 -16q-80 0 -80 72v2q-72 -80 -172 -80q-67 0 -108 38.5t-41 103.5q0 89 64.5 132.5t156.5 43.5q75 0 124 -21l3 21q3 18 3 34q0 110 -126 110q-75 0 -146 -52l-3 1l11 85q23 18 67.5 32t96.5 14
q196 0 196 -169q0 -27 -4 -51l-26 -179q-1 -6 -1 -16q0 -34 30 -34q21 0 33 11zM197 66q86 0 149 85l9 62q-41 19 -104 19q-60 0 -97.5 -22.5t-37.5 -71.5q0 -34 22 -53t59 -19z" />
    <glyph glyph-name="aacute" unicode="&#xe1;" horiz-adv-x="546" 
d="M414 678l-168 -111l-37 55l137 136l69 -68zM499 92l3 -1l-12 -81q-30 -16 -69 -16q-80 0 -80 72v2q-72 -80 -172 -80q-67 0 -108 38.5t-41 103.5q0 89 64.5 132.5t156.5 43.5q75 0 124 -21l3 21q3 18 3 34q0 110 -126 110q-75 0 -146 -52l-3 1l11 85q23 18 67.5 32
t96.5 14q196 0 196 -169q0 -27 -4 -51l-26 -179q-1 -6 -1 -16q0 -34 30 -34q21 0 33 11zM197 66q86 0 149 85l9 62q-41 19 -104 19q-60 0 -97.5 -22.5t-37.5 -71.5q0 -34 22 -53t59 -19z" />
    <glyph glyph-name="acircumflex" unicode="&#xe2;" horiz-adv-x="546" 
d="M309 660l-111 -90l-36 40l135 137h44l97 -137l-47 -40zM499 92l3 -1l-12 -81q-30 -16 -69 -16q-80 0 -80 72v2q-72 -80 -172 -80q-67 0 -108 38.5t-41 103.5q0 89 64.5 132.5t156.5 43.5q75 0 124 -21l3 21q3 18 3 34q0 110 -126 110q-75 0 -146 -52l-3 1l11 85
q23 18 67.5 32t96.5 14q196 0 196 -169q0 -27 -4 -51l-26 -179q-1 -6 -1 -16q0 -34 30 -34q21 0 33 11zM197 66q86 0 149 85l9 62q-41 19 -104 19q-60 0 -97.5 -22.5t-37.5 -71.5q0 -34 22 -53t59 -19z" />
    <glyph glyph-name="atilde" unicode="&#xe3;" horiz-adv-x="546" 
d="M201 605l-3 -2l-58 14q6 46 34 76t67 30q29 0 65 -19t55 -19q37 0 43 41l3 2l64 -14q-8 -52 -38 -79t-70 -27q-28 0 -65.5 19t-55.5 19q-15 0 -26.5 -11t-14.5 -30zM499 92l3 -1l-12 -81q-30 -16 -69 -16q-80 0 -80 72v2q-72 -80 -172 -80q-67 0 -108 38.5t-41 103.5
q0 89 64.5 132.5t156.5 43.5q75 0 124 -21l3 21q3 18 3 34q0 110 -126 110q-75 0 -146 -52l-3 1l11 85q23 18 67.5 32t96.5 14q196 0 196 -169q0 -27 -4 -51l-26 -179q-1 -6 -1 -16q0 -34 30 -34q21 0 33 11zM197 66q86 0 149 85l9 62q-41 19 -104 19q-60 0 -97.5 -22.5
t-37.5 -71.5q0 -34 22 -53t59 -19z" />
    <glyph glyph-name="adieresis" unicode="&#xe4;" horiz-adv-x="546" 
d="M205 615q-25 0 -40.5 15t-15.5 39q0 29 18.5 45.5t43.5 16.5t40 -15t15 -38q0 -29 -18 -46t-43 -17zM401 615q-25 0 -40.5 15t-15.5 39q0 29 18.5 45.5t43.5 16.5t40 -15t15 -38q0 -29 -18 -46t-43 -17zM499 92l3 -1l-12 -81q-30 -16 -69 -16q-80 0 -80 72v2
q-72 -80 -172 -80q-67 0 -108 38.5t-41 103.5q0 89 64.5 132.5t156.5 43.5q75 0 124 -21l3 21q3 18 3 34q0 110 -126 110q-75 0 -146 -52l-3 1l11 85q23 18 67.5 32t96.5 14q196 0 196 -169q0 -27 -4 -51l-26 -179q-1 -6 -1 -16q0 -34 30 -34q21 0 33 11zM197 66
q86 0 149 85l9 62q-41 19 -104 19q-60 0 -97.5 -22.5t-37.5 -71.5q0 -34 22 -53t59 -19z" />
    <glyph glyph-name="aring" unicode="&#xe5;" horiz-adv-x="546" 
d="M292 563q-40 0 -66 25t-26 65q0 47 30 77t78 30q39 0 65.5 -25t26.5 -64q0 -47 -30 -77.5t-78 -30.5zM302 710q-21 0 -34.5 -14.5t-13.5 -38.5q0 -20 12.5 -32t31.5 -12q21 0 34.5 14.5t13.5 38.5q0 20 -12.5 32t-31.5 12zM499 92l3 -1l-12 -81q-30 -16 -69 -16
q-80 0 -80 72v2q-72 -80 -172 -80q-67 0 -108 38.5t-41 103.5q0 89 64.5 132.5t156.5 43.5q75 0 124 -21l3 21q3 18 3 34q0 110 -126 110q-75 0 -146 -52l-3 1l11 85q23 18 67.5 32t96.5 14q196 0 196 -169q0 -27 -4 -51l-26 -179q-1 -6 -1 -16q0 -34 30 -34q21 0 33 11z
M197 66q86 0 149 85l9 62q-41 19 -104 19q-60 0 -97.5 -22.5t-37.5 -71.5q0 -34 22 -53t59 -19z" />
    <glyph glyph-name="ae" unicode="&#xe6;" horiz-adv-x="912" 
d="M674 530q93 0 147.5 -54.5t54.5 -139.5q0 -45 -12 -96h-360v-9q0 -76 41.5 -118t104.5 -42q92 0 166 50l3 -2l-13 -88q-65 -43 -165 -43q-75 0 -132 32t-83 95q-64 -127 -194 -127q-91 0 -146 56.5t-55 154.5q0 151 80.5 241t200.5 90q67 0 110 -16t79 -52q71 68 173 68z
M254 71q49 0 94 50t60 141q7 76 41 134q-48 51 -133 51q-80 0 -133.5 -62t-53.5 -173q0 -68 34 -104.5t91 -36.5zM515 314h269v15q0 118 -119 118q-52 0 -92.5 -35.5t-57.5 -97.5z" />
    <glyph glyph-name="ccedilla" unicode="&#xe7;" horiz-adv-x="478" 
d="M332 530q80 0 137 -26l-13 -85l-3 -1q-63 29 -128 29q-84 0 -134 -60t-50 -151q0 -75 39.5 -120.5t109.5 -45.5q61 0 121 34l3 -1l-12 -87q-52 -25 -113 -28l-27 -37q6 2 21 2q32 0 51.5 -18.5t19.5 -55.5q0 -59 -40.5 -87t-101.5 -28q-32 0 -59 10l8 56l2 1q20 -8 44 -8
q28 0 46 12t18 34q0 32 -38 32q-22 0 -45 -7l-1 1l7 46l35 50q-84 12 -135 72t-51 157q0 140 80.5 225t208.5 85z" />
    <glyph glyph-name="egrave" unicode="&#xe8;" horiz-adv-x="549" 
d="M384 571l-174 102l-1 12l65 71l144 -129zM311 530q93 0 147.5 -54.5t54.5 -139.5q0 -45 -12 -96h-360v-9q0 -76 41 -118t106 -42q91 0 165 50l3 -1l-13 -89q-65 -43 -165 -43q-104 0 -169.5 59.5t-65.5 175.5q0 137 77.5 222t190.5 85zM152 314h269v15q0 118 -119 118
q-52 0 -92.5 -35.5t-57.5 -97.5z" />
    <glyph glyph-name="eacute" unicode="&#xe9;" horiz-adv-x="549" 
d="M435 678l-168 -111l-37 55l137 136l69 -68zM311 530q93 0 147.5 -54.5t54.5 -139.5q0 -45 -12 -96h-360v-9q0 -76 41 -118t106 -42q91 0 165 50l3 -1l-13 -89q-65 -43 -165 -43q-104 0 -169.5 59.5t-65.5 175.5q0 137 77.5 222t190.5 85zM152 314h269v15q0 118 -119 118
q-52 0 -92.5 -35.5t-57.5 -97.5z" />
    <glyph glyph-name="ecircumflex" unicode="&#xea;" horiz-adv-x="549" 
d="M330 660l-111 -90l-36 40l135 137h44l97 -137l-47 -40zM311 530q93 0 147.5 -54.5t54.5 -139.5q0 -45 -12 -96h-360v-9q0 -76 41 -118t106 -42q91 0 165 50l3 -1l-13 -89q-65 -43 -165 -43q-104 0 -169.5 59.5t-65.5 175.5q0 137 77.5 222t190.5 85zM152 314h269v15
q0 118 -119 118q-52 0 -92.5 -35.5t-57.5 -97.5z" />
    <glyph glyph-name="edieresis" unicode="&#xeb;" horiz-adv-x="549" 
d="M226 615q-25 0 -40.5 15t-15.5 39q0 29 18.5 45.5t43.5 16.5t40 -15t15 -38q0 -29 -18 -46t-43 -17zM422 615q-25 0 -40.5 15t-15.5 39q0 29 18.5 45.5t43.5 16.5t40 -15t15 -38q0 -29 -18 -46t-43 -17zM311 530q93 0 147.5 -54.5t54.5 -139.5q0 -45 -12 -96h-360v-9
q0 -76 41 -118t106 -42q91 0 165 50l3 -1l-13 -89q-65 -43 -165 -43q-104 0 -169.5 59.5t-65.5 175.5q0 137 77.5 222t190.5 85zM152 314h269v15q0 118 -119 118q-52 0 -92.5 -35.5t-57.5 -97.5z" />
    <glyph glyph-name="igrave" unicode="&#xec;" horiz-adv-x="249" 
d="M232 560l-160 116l-1 12l74 67l127 -147zM41 0l73 518h95l-73 -518h-95z" />
    <glyph glyph-name="iacute" unicode="&#xed;" horiz-adv-x="249" 
d="M110 567l-37 55l137 136l69 -68l-1 -12zM41 0l74 518h95l-74 -518h-95z" />
    <glyph glyph-name="icircumflex" unicode="&#xee;" horiz-adv-x="249" 
d="M79 565l-35 40l133 138h44l97 -138l-46 -40l-86 90zM41 0l74 518h95l-74 -518h-95z" />
    <glyph glyph-name="idieresis" unicode="&#xef;" horiz-adv-x="249" 
d="M97 615q-25 0 -40.5 15t-15.5 39q0 29 18.5 45.5t43.5 16.5t40 -15t15 -38q0 -29 -18 -46t-43 -17zM253 615q-25 0 -40.5 15t-15.5 39q0 29 18.5 45.5t43.5 16.5t40 -15t15 -38q0 -29 -18 -46t-43 -17zM41 0l74 518h95l-74 -518h-95z" />
    <glyph glyph-name="eth" unicode="&#xf0;" horiz-adv-x="615" 
d="M484 668q91 -81 91 -262q0 -197 -86.5 -308t-232.5 -111q-98 0 -156 55t-58 155q0 127 82.5 208.5t193.5 81.5q110 0 162 -66q-5 129 -66 182l-78 -71l-35 41l63 58q-25 9 -60 9q-75 0 -134 -23l-2 3l11 81q56 22 140 22q66 0 119 -25l96 89l36 -41zM271 69
q77 0 129.5 54.5t71.5 157.5q-5 44 -44 84t-106 40q-80 0 -131 -55t-51 -138q0 -64 35.5 -103.5t95.5 -39.5z" />
    <glyph glyph-name="ntilde" unicode="&#xf1;" horiz-adv-x="592" 
d="M243 605l-3 -2l-58 14q6 46 34 76t67 30q29 0 65 -19t55 -19q37 0 43 41l3 2l64 -14q-8 -52 -38 -79t-70 -27q-28 0 -65.5 19t-55.5 19q-15 0 -26.5 -11t-14.5 -30zM357 530q76 0 125.5 -44.5t49.5 -134.5q0 -23 -3 -45l-43 -306h-95l39 280q4 28 4 47q0 65 -31 91
t-76 26q-54 0 -94.5 -34.5t-51.5 -92.5l-45 -317h-95l74 518h77l-1 -68q58 80 166 80z" />
    <glyph glyph-name="ograve" unicode="&#xf2;" horiz-adv-x="604" 
d="M405 566l-174 102l-1 12l65 71l144 -129zM277 -12q-103 0 -168.5 62.5t-65.5 173.5q0 133 79.5 219.5t201.5 86.5q105 0 171 -62.5t66 -175.5q0 -131 -80.5 -217.5t-203.5 -86.5zM287 71q81 0 128.5 62t47.5 152q0 75 -39.5 118.5t-107.5 43.5q-80 0 -127.5 -63.5
t-47.5 -150.5q0 -74 39.5 -118t106.5 -44z" />
    <glyph glyph-name="oacute" unicode="&#xf3;" horiz-adv-x="604" 
d="M288 562l-37 55l137 136l69 -68l-1 -12zM277 -12q-103 0 -168.5 62.5t-65.5 173.5q0 133 79.5 219.5t201.5 86.5q105 0 171 -62.5t66 -175.5q0 -131 -80.5 -217.5t-203.5 -86.5zM287 71q81 0 128.5 62t47.5 152q0 75 -39.5 118.5t-107.5 43.5q-80 0 -127.5 -63.5
t-47.5 -150.5q0 -74 39.5 -118t106.5 -44z" />
    <glyph glyph-name="ocircumflex" unicode="&#xf4;" horiz-adv-x="604" 
d="M240 565l-36 40l135 137h44l97 -137l-47 -40l-82 90zM277 -12q-103 0 -168.5 62.5t-65.5 173.5q0 133 79.5 219.5t201.5 86.5q105 0 171 -62.5t66 -175.5q0 -131 -80.5 -217.5t-203.5 -86.5zM287 71q81 0 128.5 62t47.5 152q0 75 -39.5 118.5t-107.5 43.5
q-80 0 -127.5 -63.5t-47.5 -150.5q0 -74 39.5 -118t106.5 -44z" />
    <glyph glyph-name="otilde" unicode="&#xf5;" horiz-adv-x="604" 
d="M240 598l-58 14q6 46 34 76t67 30q29 0 65 -19t55 -19q37 0 43 41l3 2l64 -14q-8 -52 -38 -79t-70 -27q-28 0 -65.5 19t-55.5 19q-15 0 -26.5 -11t-14.5 -30zM277 -12q-103 0 -168.5 62.5t-65.5 173.5q0 133 79.5 219.5t201.5 86.5q105 0 171 -62.5t66 -175.5
q0 -131 -80.5 -217.5t-203.5 -86.5zM287 71q81 0 128.5 62t47.5 152q0 75 -39.5 118.5t-107.5 43.5q-80 0 -127.5 -63.5t-47.5 -150.5q0 -74 39.5 -118t106.5 -44z" />
    <glyph glyph-name="odieresis" unicode="&#xf6;" horiz-adv-x="604" 
d="M247 610q-25 0 -40.5 15t-15.5 39q0 28 18.5 45t43.5 17t40 -15t15 -38q0 -29 -18 -46t-43 -17zM443 610q-25 0 -40.5 15t-15.5 39q0 28 18.5 45t43.5 17t40 -15t15 -38q0 -29 -18 -46t-43 -17zM277 -12q-103 0 -168.5 62.5t-65.5 173.5q0 133 79.5 219.5t201.5 86.5
q105 0 171 -62.5t66 -175.5q0 -131 -80.5 -217.5t-203.5 -86.5zM287 71q81 0 128.5 62t47.5 152q0 75 -39.5 118.5t-107.5 43.5q-80 0 -127.5 -63.5t-47.5 -150.5q0 -74 39.5 -118t106.5 -44z" />
    <glyph glyph-name="divide" unicode="&#xf7;" horiz-adv-x="518" 
d="M279 403q-26 0 -39.5 14t-13.5 36q0 28 19 48t52 20q26 0 40 -14t14 -37q0 -28 -19 -47.5t-53 -19.5zM54 263l10 73h413l-10 -73h-413zM233 72q-26 0 -39.5 14t-13.5 36q0 28 19 48.5t50 20.5q26 0 40.5 -15t14.5 -37q0 -28 -19 -47.5t-52 -19.5z" />
    <glyph glyph-name="oslash" unicode="&#xf8;" horiz-adv-x="604" 
d="M482 479q79 -64 79 -187q0 -131 -80.5 -217.5t-203.5 -86.5q-54 0 -99 18l-41 -64l-70 1v9l55 86q-79 64 -79 186q0 133 79.5 219.5t201.5 86.5q55 0 100 -18l36 56h75v-7zM141 233q0 -69 34 -112l201 315q-28 11 -60 11q-80 0 -127.5 -63.5t-47.5 -150.5zM287 71
q81 0 128.5 62t47.5 152q0 69 -34 112l-202 -315q28 -11 60 -11z" />
    <glyph glyph-name="ugrave" unicode="&#xf9;" horiz-adv-x="580" 
d="M405 571l-174 102l-1 12l65 71l144 -129zM446 518h95l-74 -518h-77v59q-59 -71 -165 -71q-79 0 -122 42.5t-43 116.5q0 22 4 53l45 318h95l-44 -307q-3 -21 -3 -47q0 -47 26 -71t72 -24t84.5 27t57.5 77z" />
    <glyph glyph-name="uacute" unicode="&#xfa;" horiz-adv-x="580" 
d="M456 678l-168 -111l-37 55l137 136l69 -68zM446 518h95l-74 -518h-77v59q-59 -71 -165 -71q-79 0 -122 42.5t-43 116.5q0 22 4 53l45 318h95l-44 -307q-3 -21 -3 -47q0 -47 26 -71t72 -24t84.5 27t57.5 77z" />
    <glyph glyph-name="ucircumflex" unicode="&#xfb;" horiz-adv-x="580" 
d="M351 660l-111 -90l-36 40l135 137h44l97 -137l-47 -40zM446 518h95l-74 -518h-77v59q-59 -71 -165 -71q-79 0 -122 42.5t-43 116.5q0 22 4 53l45 318h95l-44 -307q-3 -21 -3 -47q0 -47 26 -71t72 -24t84.5 27t57.5 77z" />
    <glyph glyph-name="udieresis" unicode="&#xfc;" horiz-adv-x="580" 
d="M247 615q-25 0 -40.5 15t-15.5 39q0 29 18.5 45.5t43.5 16.5t40 -15t15 -38q0 -29 -18 -46t-43 -17zM443 615q-25 0 -40.5 15t-15.5 39q0 29 18.5 45.5t43.5 16.5t40 -15t15 -38q0 -29 -18 -46t-43 -17zM446 518h95l-74 -518h-77v59q-59 -71 -165 -71q-79 0 -122 42.5
t-43 116.5q0 22 4 53l45 318h95l-44 -307q-3 -21 -3 -47q0 -47 26 -71t72 -24t84.5 27t57.5 77z" />
    <glyph glyph-name="yacute" unicode="&#xfd;" horiz-adv-x="514" 
d="M430 678l-168 -111l-37 55l137 136l69 -68zM536 515l-255 -483l-11 -21q-51 -97 -100 -139t-119 -42q-33 0 -60 10l13 76l3 1q21 -8 55 -8q65 0 125 114l4 8l-138 484l1 3h101l96 -382l188 382h96z" />
    <glyph glyph-name="thorn" unicode="&#xfe;" horiz-adv-x="592" 
d="M342 530q98 0 152.5 -56t54.5 -157q0 -150 -82.5 -239.5t-204.5 -89.5q-80 0 -126 27l-25 -180h-95l124 878h94l-33 -238q53 55 141 55zM263 71q81 0 134.5 61.5t53.5 167.5q0 75 -33 111t-91 36q-47 0 -88.5 -28.5t-57.5 -86.5l-33 -230q45 -31 115 -31z" />
    <glyph glyph-name="ydieresis" unicode="&#xff;" horiz-adv-x="514" 
d="M221 615q-25 0 -40.5 15t-15.5 39q0 29 18.5 45.5t43.5 16.5t40 -15t15 -38q0 -29 -18 -46t-43 -17zM417 615q-25 0 -40.5 15t-15.5 39q0 29 18.5 45.5t43.5 16.5t40 -15t15 -38q0 -29 -18 -46t-43 -17zM536 515l-255 -483l-11 -21q-51 -97 -100 -139t-119 -42
q-33 0 -60 10l13 76l3 1q21 -8 55 -8q65 0 125 114l4 8l-138 484l1 3h101l96 -382l188 382h96z" />
    <glyph glyph-name="Amacron" unicode="&#x100;" horiz-adv-x="610" 
d="M522 824l-12 -78h-278l12 78h278zM471 0l-39 155h-282l-83 -155h-93l368 673h40l187 -673h-98zM190 229h223l-65 256l-6 32l-15 -32z" />
    <glyph glyph-name="amacron" unicode="&#x101;" horiz-adv-x="546" 
d="M451 691l-10 -70h-282l10 70h282zM499 92l3 -1l-12 -81q-30 -16 -69 -16q-80 0 -80 72v2q-72 -80 -172 -80q-67 0 -108 38.5t-41 103.5q0 89 64.5 132.5t156.5 43.5q75 0 124 -21l3 21q3 18 3 34q0 110 -126 110q-75 0 -146 -52l-3 1l11 85q23 18 67.5 32t96.5 14
q196 0 196 -169q0 -27 -4 -51l-26 -179q-1 -6 -1 -16q0 -34 30 -34q21 0 33 11zM197 66q86 0 149 85l9 62q-41 19 -104 19q-60 0 -97.5 -22.5t-37.5 -71.5q0 -34 22 -53t59 -19z" />
    <glyph glyph-name="Abreve" unicode="&#x102;" horiz-adv-x="610" 
d="M371 707q-62 0 -97.5 37.5t-25.5 101.5l63 6q-2 -35 15 -55.5t50 -20.5q35 0 59.5 21t30.5 55l58 -6q-8 -63 -52.5 -101t-100.5 -38zM471 0l-39 155h-282l-83 -155h-93l368 673h40l187 -673h-98zM190 229h223l-65 256l-6 32l-15 -32z" />
    <glyph glyph-name="abreve" unicode="&#x103;" horiz-adv-x="546" 
d="M299 579q-59 0 -94 39t-26 106l64 7l2 -2q-3 -36 13.5 -57t47.5 -21q33 0 55.5 21t30.5 56l3 3l59 -7q-10 -67 -53 -106t-102 -39zM499 92l3 -1l-12 -81q-30 -16 -69 -16q-80 0 -80 72v2q-72 -80 -172 -80q-67 0 -108 38.5t-41 103.5q0 89 64.5 132.5t156.5 43.5
q75 0 124 -21l3 21q3 18 3 34q0 110 -126 110q-75 0 -146 -52l-3 1l11 85q23 18 67.5 32t96.5 14q196 0 196 -169q0 -27 -4 -51l-26 -179q-1 -6 -1 -16q0 -34 30 -34q21 0 33 11zM197 66q86 0 149 85l9 62q-41 19 -104 19q-60 0 -97.5 -22.5t-37.5 -71.5q0 -34 22 -53
t59 -19z" />
    <glyph glyph-name="Aogonek" unicode="&#x104;" horiz-adv-x="610" 
d="M549 0q-100 -66 -100 -131q0 -34 38 -34q18 0 29 4l3 -2l-8 -61q-26 -8 -60 -8q-43 0 -69 19t-26 55q0 45 33 86t88 72h-6l-39 155h-282l-83 -155h-93l368 673h40l187 -673h-20zM190 229h223l-65 256l-6 32l-15 -32z" />
    <glyph glyph-name="aogonek" unicode="&#x105;" horiz-adv-x="546" 
d="M479 5q-100 -66 -100 -131q0 -34 38 -34q18 0 29 4l3 -2l-8 -61q-26 -8 -60 -8q-43 0 -69 19t-26 55q0 83 107 150q-52 11 -52 69v2q-72 -80 -172 -80q-67 0 -108 38.5t-41 103.5q0 89 64.5 132.5t156.5 43.5q75 0 124 -21l3 21q3 18 3 34q0 110 -126 110q-75 0 -146 -52
l-3 1l11 85q23 18 67.5 32t96.5 14q196 0 196 -169q0 -27 -4 -51l-26 -179q-1 -6 -1 -16q0 -34 30 -34q21 0 33 11l3 -1l-12 -81q-9 -4 -11 -5zM197 66q86 0 149 85l9 62q-41 19 -104 19q-60 0 -97.5 -22.5t-37.5 -71.5q0 -34 22 -53t59 -19z" />
    <glyph glyph-name="Cacute" unicode="&#x106;" horiz-adv-x="601" 
d="M342 699l-24 54l167 111l55 -78l-4 -12zM369 -12q-144 0 -228.5 77.5t-84.5 220.5q0 174 102.5 282.5t265.5 108.5q104 0 178 -36l-12 -88l-3 -1q-77 42 -171 42q-118 0 -191 -85t-73 -208q0 -111 63 -171.5t166 -60.5q83 0 153 42l3 -1l-13 -87q-68 -35 -155 -35z" />
    <glyph glyph-name="cacute" unicode="&#x107;" horiz-adv-x="478" 
d="M280 573l-37 55l137 136l69 -68l-1 -12zM270 -12q-100 0 -163.5 62t-63.5 170q0 140 80.5 225t208.5 85q80 0 137 -26l-13 -85l-3 -1q-63 29 -128 29q-84 0 -134 -60t-50 -151q0 -75 39.5 -120.5t109.5 -45.5q61 0 121 34l3 -1l-12 -87q-58 -28 -132 -28z" />
    <glyph glyph-name="Cdotaccent" unicode="&#x10a;" horiz-adv-x="601" 
d="M436 727q-26 0 -42 15.5t-16 40.5q0 29 19 46.5t45 17.5t41.5 -15.5t15.5 -39.5q0 -30 -18.5 -47.5t-44.5 -17.5zM369 -12q-144 0 -228.5 77.5t-84.5 220.5q0 174 102.5 282.5t265.5 108.5q104 0 178 -36l-12 -88l-3 -1q-77 42 -171 42q-118 0 -191 -85t-73 -208
q0 -111 63 -171.5t166 -60.5q83 0 153 42l3 -1l-13 -87q-68 -35 -155 -35z" />
    <glyph glyph-name="cdotaccent" unicode="&#x10b;" horiz-adv-x="478" 
d="M340 619q-26 0 -42 15.5t-16 40.5q0 29 19 46.5t45 17.5t41.5 -15.5t15.5 -39.5q0 -30 -18.5 -47.5t-44.5 -17.5zM270 -12q-100 0 -163.5 62t-63.5 170q0 140 80.5 225t208.5 85q80 0 137 -26l-13 -85l-3 -1q-63 29 -128 29q-84 0 -134 -60t-50 -151q0 -75 39.5 -120.5
t109.5 -45.5q61 0 121 34l3 -1l-12 -87q-58 -28 -132 -28z" />
    <glyph glyph-name="Ccaron" unicode="&#x10c;" horiz-adv-x="601" 
d="M409 701l-108 113l42 46l96 -79l107 79l33 -45l-127 -114h-43zM369 -12q-144 0 -228.5 77.5t-84.5 220.5q0 174 102.5 282.5t265.5 108.5q104 0 178 -36l-12 -88l-3 -1q-77 42 -171 42q-118 0 -191 -85t-73 -208q0 -111 63 -171.5t166 -60.5q83 0 153 42l3 -1l-13 -87
q-68 -35 -155 -35z" />
    <glyph glyph-name="ccaron" unicode="&#x10d;" horiz-adv-x="478" 
d="M308 576l-97 138l46 39l84 -89l110 89l34 -39l-133 -138h-44zM270 -12q-100 0 -163.5 62t-63.5 170q0 140 80.5 225t208.5 85q80 0 137 -26l-13 -85l-3 -1q-63 29 -128 29q-84 0 -134 -60t-50 -151q0 -75 39.5 -120.5t109.5 -45.5q61 0 121 34l3 -1l-12 -87
q-58 -28 -132 -28z" />
    <glyph glyph-name="Dcaron" unicode="&#x10e;" horiz-adv-x="699" 
d="M408 705h-43l-108 113l42 46l96 -79l107 79l33 -45zM359 671q150 0 228.5 -74.5t78.5 -205.5q0 -183 -108.5 -287.5t-300.5 -104.5q-157 0 -202 3l94 659q95 10 210 10zM279 82q140 0 214 80t74 221q0 96 -57 149t-165 53q-79 0 -114 -4l-71 -496q44 -3 119 -3z" />
    <glyph glyph-name="dcaron" unicode="&#x10f;" horiz-adv-x="625" 
d="M454 500l30 213h95l-101 -713h-77v57q-60 -69 -164 -69q-86 0 -141 58t-55 158q0 146 84.5 236t206.5 90q73 0 122 -30zM709 712l8 -10l-60 -210h-60l39 220h73zM267 71q47 0 88.5 32.5t53.5 84.5l32 224q-42 35 -110 35q-80 0 -136 -62.5t-56 -166.5q0 -72 33.5 -109.5
t94.5 -37.5z" />
    <glyph glyph-name="Dcroat" unicode="&#x110;" horiz-adv-x="699" 
d="M359 671q150 0 228.5 -74.5t78.5 -205.5q0 -183 -108.5 -287.5t-300.5 -104.5q-157 0 -202 3l42 291h-85l10 69h84l43 299q95 10 210 10zM279 82q140 0 214 80t74 221q0 96 -57 149t-165 53q-79 0 -114 -4l-31 -219h98l-10 -69h-98l-30 -208q44 -3 119 -3z" />
    <glyph glyph-name="dcroat" unicode="&#x111;" horiz-adv-x="591" 
d="M649 657l-10 -69h-78l-83 -588h-77v57q-60 -69 -164 -69q-86 0 -141 58t-55 158q0 146 84.5 236t206.5 90q73 0 122 -30l12 88h-103l10 69h103l8 56h95l-8 -56h78zM267 71q47 0 88.5 32.5t53.5 84.5l32 224q-42 35 -110 35q-80 0 -136 -62.5t-56 -166.5
q0 -72 33.5 -109.5t94.5 -37.5z" />
    <glyph glyph-name="Emacron" unicode="&#x112;" horiz-adv-x="532" 
d="M505 824l-12 -78h-278l12 78h278zM517 575h-287l-27 -192h269l-13 -86h-268l-29 -210h297l-12 -87h-392l93 661h381z" />
    <glyph glyph-name="emacron" unicode="&#x113;" horiz-adv-x="549" 
d="M472 691l-10 -70h-282l10 70h282zM311 530q93 0 147.5 -54.5t54.5 -139.5q0 -45 -12 -96h-360v-9q0 -76 41 -118t106 -42q91 0 165 50l3 -1l-13 -89q-65 -43 -165 -43q-104 0 -169.5 59.5t-65.5 175.5q0 137 77.5 222t190.5 85zM152 314h269v15q0 118 -119 118
q-52 0 -92.5 -35.5t-57.5 -97.5z" />
    <glyph glyph-name="Edotaccent" unicode="&#x116;" horiz-adv-x="532" 
d="M360 727q-26 0 -42 15.5t-16 40.5q0 29 19 46.5t45 17.5t41.5 -15.5t15.5 -39.5q0 -30 -18.5 -47.5t-44.5 -17.5zM517 575h-287l-27 -192h269l-13 -86h-268l-29 -210h297l-12 -87h-392l93 661h381z" />
    <glyph glyph-name="edotaccent" unicode="&#x117;" horiz-adv-x="549" 
d="M327 613q-26 0 -42 15.5t-16 40.5q0 29 19 46.5t45 17.5t41.5 -15.5t15.5 -39.5q0 -30 -18.5 -47.5t-44.5 -17.5zM311 530q93 0 147.5 -54.5t54.5 -139.5q0 -45 -12 -96h-360v-9q0 -76 41 -118t106 -42q91 0 165 50l3 -1l-13 -89q-65 -43 -165 -43q-104 0 -169.5 59.5
t-65.5 175.5q0 137 77.5 222t190.5 85zM152 314h269v15q0 118 -119 118q-52 0 -92.5 -35.5t-57.5 -97.5z" />
    <glyph glyph-name="Eogonek" unicode="&#x118;" horiz-adv-x="532" 
d="M517 575h-287l-27 -192h269l-13 -86h-268l-29 -210h297l-12 -87q-100 -66 -100 -131q0 -34 38 -34q18 0 29 4l3 -2l-8 -61q-26 -8 -60 -8q-43 0 -69 19t-26 55q0 45 33 86t88 72h-320l93 661h381z" />
    <glyph glyph-name="eogonek" unicode="&#x119;" horiz-adv-x="549" 
d="M311 530q93 0 147.5 -54.5t54.5 -139.5q0 -45 -12 -96h-360v-9q0 -76 41 -118t106 -42q91 0 165 50l3 -1l-13 -89q-23 -15 -53 -27q-99 -65 -99 -130q0 -34 38 -34q18 0 29 4l3 -2l-8 -61q-26 -8 -60 -8q-43 0 -69 19t-26 55q0 79 94 141h-14q-104 0 -169.5 59.5
t-65.5 175.5q0 137 77.5 222t190.5 85zM152 314h269v15q0 118 -119 118q-52 0 -92.5 -35.5t-57.5 -97.5z" />
    <glyph glyph-name="Ecaron" unicode="&#x11a;" horiz-adv-x="532" 
d="M376 701h-43l-108 113l42 46l96 -79l107 79l33 -45zM517 575h-287l-27 -192h269l-13 -86h-268l-29 -210h297l-12 -87h-392l93 661h381z" />
    <glyph glyph-name="ecaron" unicode="&#x11b;" horiz-adv-x="549" 
d="M339 570h-44l-97 138l46 39l84 -89l110 89l34 -39zM311 530q93 0 147.5 -54.5t54.5 -139.5q0 -45 -12 -96h-360v-9q0 -76 41 -118t106 -42q91 0 165 50l3 -1l-13 -89q-65 -43 -165 -43q-104 0 -169.5 59.5t-65.5 175.5q0 137 77.5 222t190.5 85zM152 314h269v15
q0 118 -119 118q-52 0 -92.5 -35.5t-57.5 -97.5z" />
    <glyph glyph-name="Gbreve" unicode="&#x11e;" horiz-adv-x="662" 
d="M441 711q-62 0 -97.5 37.5t-25.5 101.5l63 6q-2 -35 15 -55.5t50 -20.5q35 0 59.5 21t30.5 55l58 -6q-8 -63 -52.5 -101t-100.5 -38zM350 -10q-139 0 -216.5 75.5t-77.5 208.5q0 179 112 291t290 112q102 0 176 -36l-13 -91l-3 -1q-71 43 -176 43q-128 0 -207.5 -85
t-79.5 -220q0 -98 55.5 -155t155.5 -57q69 0 130 28l27 187h88l-35 -245q-106 -55 -226 -55z" />
    <glyph glyph-name="gbreve" unicode="&#x11f;" horiz-adv-x="554" 
d="M308 585q-59 0 -94 39t-26 106l64 7l2 -2q-3 -36 13.5 -57t47.5 -21q33 0 55.5 21t30.5 56l3 3l59 -7q-10 -67 -53 -106t-102 -39zM560 518l-10 -70h-98q36 -36 36 -86q0 -81 -60 -131t-159 -50q-51 0 -93 16q-15 -12 -15 -31t28 -29.5t105 -18.5q98 -11 140 -39.5
t42 -85.5q0 -79 -68.5 -122t-194.5 -43q-210 0 -210 113q0 79 101 135q-36 20 -36 58q0 52 57 93q-46 41 -46 107q0 85 61.5 134.5t159.5 49.5h260zM277 256q58 0 89 27t31 76q0 39 -26.5 62t-74.5 23q-56 0 -89.5 -27t-33.5 -75q0 -40 27 -63t77 -23zM386 -24q0 29 -27 42
t-99 21q-43 4 -87 13q-80 -35 -80 -90q0 -62 138 -62q77 0 116 17.5t39 58.5z" />
    <glyph glyph-name="Gdotaccent" unicode="&#x120;" horiz-adv-x="662" 
d="M447 731q-26 0 -42 15.5t-16 40.5q0 29 19 46.5t45 17.5t41.5 -15.5t15.5 -39.5q0 -30 -18.5 -47.5t-44.5 -17.5zM350 -10q-139 0 -216.5 75.5t-77.5 208.5q0 179 112 291t290 112q102 0 176 -36l-13 -91l-3 -1q-71 43 -176 43q-128 0 -207.5 -85t-79.5 -220
q0 -98 55.5 -155t155.5 -57q69 0 130 28l27 187h88l-35 -245q-106 -55 -226 -55z" />
    <glyph glyph-name="gdotaccent" unicode="&#x121;" horiz-adv-x="554" 
d="M315 619q-26 0 -42 15.5t-16 40.5q0 29 19 46.5t45 17.5t41.5 -15.5t15.5 -39.5q0 -30 -18.5 -47.5t-44.5 -17.5zM560 518l-10 -70h-98q36 -36 36 -86q0 -81 -60 -131t-159 -50q-51 0 -93 16q-15 -12 -15 -31t28 -29.5t105 -18.5q98 -11 140 -39.5t42 -85.5
q0 -79 -68.5 -122t-194.5 -43q-210 0 -210 113q0 79 101 135q-36 20 -36 58q0 52 57 93q-46 41 -46 107q0 85 61.5 134.5t159.5 49.5h260zM277 256q58 0 89 27t31 76q0 39 -26.5 62t-74.5 23q-56 0 -89.5 -27t-33.5 -75q0 -40 27 -63t77 -23zM386 -24q0 29 -27 42t-99 21
q-43 4 -87 13q-80 -35 -80 -90q0 -62 138 -62q77 0 116 17.5t39 58.5z" />
    <glyph glyph-name="Gcommaaccent" unicode="&#x122;" horiz-adv-x="662" 
d="M350 -10q-139 0 -216.5 75.5t-77.5 208.5q0 179 112 291t290 112q102 0 176 -36l-13 -91l-3 -1q-71 43 -176 43q-128 0 -207.5 -85t-79.5 -220q0 -98 55.5 -155t155.5 -57q69 0 130 28l27 187h88l-35 -245q-106 -55 -226 -55zM242 -231q24 55 36 136q1 7 2.5 21t2.5 21
l87 7l6 -11q-13 -90 -70 -174h-64z" />
    <glyph glyph-name="gcommaaccent" unicode="&#x123;" horiz-adv-x="554" 
d="M356 577l-87 -7l-6 11q13 90 70 174h64q-24 -55 -36 -136q-1 -7 -2.5 -21t-2.5 -21zM560 518l-10 -70h-98q36 -36 36 -86q0 -81 -60 -131t-159 -50q-51 0 -93 16q-15 -12 -15 -31t28 -29.5t105 -18.5q98 -11 140 -39.5t42 -85.5q0 -79 -68.5 -122t-194.5 -43
q-210 0 -210 113q0 79 101 135q-36 20 -36 58q0 52 57 93q-46 41 -46 107q0 85 61.5 134.5t159.5 49.5h260zM277 256q58 0 89 27t31 76q0 39 -26.5 62t-74.5 23q-56 0 -89.5 -27t-33.5 -75q0 -40 27 -63t77 -23zM386 -24q0 29 -27 42t-99 21q-43 4 -87 13q-80 -35 -80 -90
q0 -62 138 -62q77 0 116 17.5t39 58.5z" />
    <glyph glyph-name="Hbar" unicode="&#x126;" horiz-adv-x="712" 
d="M723 551l-11 -72h-60l-67 -479h-94l42 296h-342l-42 -296h-94l67 479h-61l11 72h61l15 110h94l-15 -110h342l15 110h94l-15 -110h60zM545 381l13 98h-342l-13 -98h342z" />
    <glyph glyph-name="hbar" unicode="&#x127;" horiz-adv-x="590" 
d="M357 530q79 0 127 -46.5t48 -124.5q0 -23 -3 -47l-44 -312h-94l41 290q3 23 3 37q0 117 -109 117q-46 0 -84.5 -27t-58.5 -85l-47 -332h-95l81 575h-73l10 69h73l10 69h95l-10 -69h108l-10 -69h-108l-15 -109q58 64 155 64z" />
    <glyph glyph-name="Itilde" unicode="&#x128;" horiz-adv-x="276" 
d="M105 711l-60 18q8 46 39 75.5t73 29.5q28 0 65.5 -18t55.5 -18q15 0 28.5 11.5t16.5 30.5l2 2l59 -20q-8 -46 -38.5 -74.5t-72.5 -28.5q-23 0 -62 18t-59 18q-17 0 -30 -12t-15 -31zM55 0l93 661h94l-93 -661h-94z" />
    <glyph glyph-name="itilde" unicode="&#x129;" horiz-adv-x="249" 
d="M79 598l-58 14q6 44 35 75t70 31q30 0 70.5 -19.5t60.5 -19.5q17 0 29.5 11t14.5 30l3 2l59 -14q-7 -49 -37.5 -77.5t-71.5 -28.5q-26 0 -67.5 19.5t-60.5 19.5q-16 0 -28 -11t-16 -30zM41 0l74 518h95l-74 -518h-95z" />
    <glyph glyph-name="Imacron" unicode="&#x12a;" horiz-adv-x="276" 
d="M69 746l12 78h278l-12 -78h-278zM55 0l93 661h94l-93 -661h-94z" />
    <glyph glyph-name="imacron" unicode="&#x12b;" horiz-adv-x="249" 
d="M53 616l11 70h254l-11 -70h-254zM41 0l74 518h95l-74 -518h-95z" />
    <glyph glyph-name="Iogonek" unicode="&#x12e;" horiz-adv-x="276" 
d="M138 0q-93 -63 -93 -126q0 -34 38 -34q18 0 29 4l3 -2l-8 -61q-26 -8 -60 -8q-43 0 -69 19t-26 55q0 86 113 153h-10l93 661h94l-93 -661h-11z" />
    <glyph glyph-name="iogonek" unicode="&#x12f;" horiz-adv-x="249" 
d="M187 733q26 0 41.5 -15.5t15.5 -39.5q0 -30 -18.5 -47.5t-44.5 -17.5t-42 15.5t-16 40.5q0 29 19 46.5t45 17.5zM40 0l74 518h95l-73 -518h-3q-100 -66 -100 -131q0 -34 38 -34q18 0 30 4l2 -2l-8 -61q-24 -8 -60 -8q-42 0 -68 19t-26 55q0 91 120 158h-21z" />
    <glyph glyph-name="Idotaccent" unicode="&#x130;" horiz-adv-x="276" 
d="M214 727q-26 0 -42 15.5t-16 40.5q0 29 19 46.5t45 17.5t41.5 -15.5t15.5 -39.5q0 -30 -18.5 -47.5t-44.5 -17.5zM55 0l93 661h94l-93 -661h-94z" />
    <glyph glyph-name="dotlessi" unicode="&#x131;" horiz-adv-x="249" 
d="M41 0l74 518h95l-74 -518h-95z" />
    <glyph glyph-name="IJ" unicode="&#x132;" horiz-adv-x="628" 
d="M55 0l93 661h94l-93 -661h-94zM306 -3q-22 0 -51 3l12 80l3 1q14 -3 35 -3q118 0 140 153l61 430h95l-59 -422q-34 -242 -236 -242z" />
    <glyph glyph-name="ij" unicode="&#x133;" horiz-adv-x="514" 
d="M181 613q-26 0 -42 15.5t-16 40.5q0 29 19 46.5t45 17.5t41.5 -15.5t15.5 -39.5q0 -30 -18.5 -47.5t-44.5 -17.5zM447 613q-26 0 -42 15.5t-16 40.5q0 29 19 46.5t45 17.5t41.5 -15.5t15.5 -39.5q0 -30 -18.5 -47.5t-44.5 -17.5zM41 0l74 518h95l-74 -518h-95zM207 -170
q-21 0 -53 5l12 82l3 1q13 -3 31 -3q51 0 77 31t35 92l69 480h93l-71 -501q-27 -187 -196 -187z" />
    <glyph glyph-name="Kcommaaccent" unicode="&#x136;" horiz-adv-x="605" 
d="M643 658l-363 -327l292 -328l-1 -3h-116l-265 295l-41 -295h-94l93 661h94l-41 -294l330 294h111zM219 -53l87 7l6 -11q-13 -90 -70 -174h-64q24 55 36 136q1 7 2.5 21t2.5 21z" />
    <glyph glyph-name="kcommaaccent" unicode="&#x137;" horiz-adv-x="523" 
d="M531 515l-268 -245l225 -267l-1 -3h-118l-200 235l-33 -235h-95l101 713h95l-59 -414l238 219h114zM178 -53l87 7l6 -11q-13 -90 -70 -174h-64q24 55 36 136q1 7 2.5 21t2.5 21z" />
    <glyph glyph-name="kgreenlandic" unicode="&#x138;" horiz-adv-x="523" 
d="M541 518l-277 -250l217 -268h-122l-190 234l-33 -234h-95l73 518h95l-31 -221l249 221h114z" />
    <glyph glyph-name="Lacute" unicode="&#x139;" horiz-adv-x="482" 
d="M322 774l-194 -75l-24 54l167 111l55 -78zM161 79h282l-11 -79h-377l94 661h94z" />
    <glyph glyph-name="lacute" unicode="&#x13a;" horiz-adv-x="274" 
d="M109 747l-24 54l167 111l55 -78l-4 -12zM163 -9q-60 0 -88.5 32t-19.5 98l85 592h93l-80 -566q-5 -38 4.5 -54.5t36.5 -16.5q20 0 38 10l3 -1l-12 -82q-30 -12 -60 -12z" />
    <glyph glyph-name="Lcommaaccent" unicode="&#x13b;" horiz-adv-x="482" 
d="M161 79h282l-11 -79h-377l94 661h94zM192 -53l87 7l6 -11q-13 -90 -70 -174h-64q24 55 36 136q1 7 2.5 21t2.5 21z" />
    <glyph glyph-name="lcommaaccent" unicode="&#x13c;" horiz-adv-x="274" 
d="M163 -9q-60 0 -88.5 32t-19.5 98l85 592h93l-80 -566q-5 -38 4.5 -54.5t36.5 -16.5q20 0 38 10l3 -1l-12 -82q-30 -12 -60 -12zM36 -231q24 55 36 136q1 7 2.5 21t2.5 21l87 7l6 -11q-13 -90 -70 -174h-64z" />
    <glyph glyph-name="Lcaron" unicode="&#x13d;" horiz-adv-x="485" 
d="M475 668l-59 -210h-60l39 220h74zM242 661l-81 -582h282l-11 -79h-377l93 661h94z" />
    <glyph glyph-name="lcaron" unicode="&#x13e;" horiz-adv-x="282" 
d="M263 497l39 220h73l8 -10l-60 -210h-60zM163 -9q-60 0 -88.5 32t-19.5 98l85 592h93l-80 -566q-5 -38 4.5 -54.5t36.5 -16.5q20 0 38 10l3 -1l-12 -82q-30 -12 -60 -12z" />
    <glyph glyph-name="Ldot" unicode="&#x13f;" horiz-adv-x="496" 
d="M243 661l-82 -582h282l-11 -79h-377l94 661h94zM389 332q-23 0 -35.5 12t-12.5 32q0 25 17 43t46 18q47 0 47 -46q0 -25 -16.5 -42t-45.5 -17z" />
    <glyph glyph-name="ldot" unicode="&#x140;" horiz-adv-x="329" 
d="M163 -9q-60 0 -88.5 32t-19.5 98l85 592h93l-80 -566q-5 -38 4.5 -54.5t36.5 -16.5q20 0 38 10l3 -1l-12 -82q-30 -12 -60 -12zM294 308q-23 0 -35.5 12t-12.5 32q0 25 17 43t46 18q23 0 35.5 -13t12.5 -33q0 -25 -16.5 -42t-46.5 -17z" />
    <glyph glyph-name="Lslash" unicode="&#x141;" horiz-adv-x="482" 
d="M161 79h282l-11 -79h-377l37 258l-73 -43l-4 2l12 83l77 46l45 315h94l-36 -254l74 44h4l-12 -86l-78 -46z" />
    <glyph glyph-name="lslash" unicode="&#x142;" horiz-adv-x="318" 
d="M208 353l-29 -206q-5 -38 4.5 -54.5t36.5 -16.5q20 0 38 10l3 -1l-12 -82q-30 -12 -60 -12q-60 0 -88.5 32t-19.5 98l24 169l-72 -44h-4l12 81l76 46l49 340h93l-39 -278l75 46h3l-12 -81z" />
    <glyph glyph-name="Nacute" unicode="&#x143;" horiz-adv-x="706" 
d="M337 699l-24 54l167 111l55 -78l-4 -12zM55 0l94 665h40l323 -478h3l67 474h90l-94 -664h-39l-324 479h-2l-68 -476h-90z" />
    <glyph glyph-name="nacute" unicode="&#x144;" horiz-adv-x="592" 
d="M456 678l-168 -111l-37 55l137 136l69 -68zM357 530q76 0 125.5 -44.5t49.5 -134.5q0 -23 -3 -45l-43 -306h-95l39 280q4 28 4 47q0 65 -31 91t-76 26q-54 0 -94.5 -34.5t-51.5 -92.5l-45 -317h-95l74 518h77l-1 -68q58 80 166 80z" />
    <glyph glyph-name="Ncommaaccent" unicode="&#x145;" horiz-adv-x="706" 
d="M55 0l94 665h40l323 -478h3l67 474h90l-94 -664h-39l-324 479h-2l-68 -476h-90zM225 -231q24 55 36 136q1 7 2.5 21t2.5 21l87 7l6 -11q-13 -90 -70 -174h-64z" />
    <glyph glyph-name="ncommaaccent" unicode="&#x146;" horiz-adv-x="592" 
d="M357 530q76 0 125.5 -44.5t49.5 -134.5q0 -23 -3 -45l-43 -306h-95l39 280q4 28 4 47q0 65 -31 91t-76 26q-54 0 -94.5 -34.5t-51.5 -92.5l-45 -317h-95l74 518h77l-1 -68q58 80 166 80zM220 -53l87 7l6 -11q-13 -90 -70 -174h-64q24 55 36 136q1 7 2.5 21t2.5 21z" />
    <glyph glyph-name="Ncaron" unicode="&#x147;" horiz-adv-x="706" 
d="M404 701l-108 113l42 46l96 -79l107 79l33 -45l-127 -114h-43zM55 0l94 665h40l323 -478h3l67 474h90l-94 -664h-39l-324 479h-2l-68 -476h-90z" />
    <glyph glyph-name="ncaron" unicode="&#x148;" horiz-adv-x="592" 
d="M360 570h-44l-97 138l46 39l84 -89l110 89l34 -39zM357 530q76 0 125.5 -44.5t49.5 -134.5q0 -23 -3 -45l-43 -306h-95l39 280q4 28 4 47q0 65 -31 91t-76 26q-54 0 -94.5 -34.5t-51.5 -92.5l-45 -317h-95l74 518h77l-1 -68q58 80 166 80z" />
    <glyph glyph-name="Eng" unicode="&#x14a;" horiz-adv-x="705" 
d="M582 661h90l-84 -601q-35 -255 -237 -255q-27 0 -50 4l11 77l1 1q18 -3 38 -3q122 0 144 157l3 20l-283 415h-2l-68 -476h-90l94 665h40l324 -475h3z" />
    <glyph glyph-name="eng" unicode="&#x14b;" horiz-adv-x="592" 
d="M357 530q76 0 125.5 -44.5t49.5 -134.5q0 -23 -3 -45l-49 -340q-13 -90 -61.5 -132.5t-123.5 -42.5q-8 0 -32 2l11 77l2 2q5 -1 10 -1q45 0 69 25t33 88l42 296q4 28 4 47q0 65 -31 91t-76 26q-54 0 -94.5 -34.5t-51.5 -92.5l-45 -317h-95l74 518h77l-1 -68q58 80 166 80
z" />
    <glyph glyph-name="Omacron" unicode="&#x14c;" horiz-adv-x="751" 
d="M273 743l12 78h278l-12 -78h-278zM367 -14q-138 0 -223 87t-85 224q0 168 97 274.5t251 106.5q138 0 223 -87t85 -224q0 -168 -96.5 -274.5t-251.5 -106.5zM378 69q111 0 176 84t65 204q0 110 -60 174t-163 64q-111 0 -176 -84t-65 -204q0 -111 59.5 -174.5t163.5 -63.5z
" />
    <glyph glyph-name="omacron" unicode="&#x14d;" horiz-adv-x="604" 
d="M201 616l10 70h282l-10 -70h-282zM277 -12q-103 0 -168.5 62.5t-65.5 173.5q0 133 79.5 219.5t201.5 86.5q105 0 171 -62.5t66 -175.5q0 -131 -80.5 -217.5t-203.5 -86.5zM287 71q81 0 128.5 62t47.5 152q0 75 -39.5 118.5t-107.5 43.5q-80 0 -127.5 -63.5t-47.5 -150.5
q0 -74 39.5 -118t106.5 -44z" />
    <glyph glyph-name="Ohungarumlaut" unicode="&#x150;" horiz-adv-x="751" 
d="M308 705l-48 22l74 158l80 -18v-14zM487 705l-48 22l75 158l79 -18v-14zM367 -14q-138 0 -223 87t-85 224q0 168 97 274.5t251 106.5q138 0 223 -87t85 -224q0 -168 -96.5 -274.5t-251.5 -106.5zM378 69q111 0 176 84t65 204q0 110 -60 174t-163 64q-111 0 -176 -84
t-65 -204q0 -111 59.5 -174.5t163.5 -63.5z" />
    <glyph glyph-name="ohungarumlaut" unicode="&#x151;" horiz-adv-x="604" 
d="M252 562l-44 24l91 165l68 -24l-1 -14zM416 562l-43 24l90 165l68 -24l-1 -14zM277 -12q-103 0 -168.5 62.5t-65.5 173.5q0 133 79.5 219.5t201.5 86.5q105 0 171 -62.5t66 -175.5q0 -131 -80.5 -217.5t-203.5 -86.5zM287 71q81 0 128.5 62t47.5 152q0 75 -39.5 118.5
t-107.5 43.5q-80 0 -127.5 -63.5t-47.5 -150.5q0 -74 39.5 -118t106.5 -44z" />
    <glyph glyph-name="OE" unicode="&#x152;" horiz-adv-x="888" 
d="M874 579h-233q67 -76 73 -188h116l-12 -85h-107q-15 -132 -97 -219h201l-12 -87h-333q-50 -14 -103 -14q-138 0 -223 87t-85 224q0 168 97 274.5t251 106.5q49 0 96 -13h383zM155 307q0 -110 58.5 -173t160.5 -65l73 521q-27 5 -51 5q-111 0 -176 -84t-65 -204zM513 391
h104q-9 105 -81 161zM470 87q60 26 98 85t48 134h-115z" />
    <glyph glyph-name="oe" unicode="&#x153;" horiz-adv-x="935" 
d="M697 530q93 0 147.5 -54t54.5 -150q0 -40 -13 -86h-350v-18q0 -73 37.5 -112t102.5 -39q51 0 84 11t80 39l2 -2l-13 -89q-72 -43 -167 -43q-135 0 -184 104q-69 -104 -211 -104q-101 0 -163 63.5t-62 165.5q0 142 78 228t198 86q139 0 189 -108q34 52 83.5 80t106.5 28z
M279 68q76 0 122 58.5t46 158.5q0 74 -34 118.5t-104 44.5q-71 0 -120.5 -60t-49.5 -163q0 -68 37 -112.5t103 -44.5zM547 313h260v19q0 116 -118 115q-48 -1 -86.5 -36.5t-55.5 -97.5z" />
    <glyph glyph-name="Racute" unicode="&#x154;" horiz-adv-x="570" 
d="M450 774l-194 -75l-24 54l167 111l55 -78zM536 493q0 -91 -44 -148.5t-115 -81.5l120 -260l-1 -3h-98l-111 248h-2h-102l-35 -248h-93l93 661q76 7 174 7q99 0 156.5 -43t57.5 -132zM231 584l-37 -260h77q73 0 120.5 39.5t47.5 112.5q0 111 -121 111q-60 0 -87 -3z" />
    <glyph glyph-name="racute" unicode="&#x155;" horiz-adv-x="376" 
d="M382 678l-168 -111l-37 55l137 136l69 -68zM339 529q32 0 53 -9l-12 -85l-3 -1q-20 9 -50 9q-24 0 -42.5 -5t-40 -19.5t-38.5 -47t-29 -82.5l-41 -289h-95l74 518h77l-1 -64q53 75 148 75z" />
    <glyph glyph-name="Rcommaaccent" unicode="&#x156;" horiz-adv-x="570" 
d="M536 493q0 -91 -44 -148.5t-115 -81.5l120 -260l-1 -3h-98l-111 248h-2h-102l-35 -248h-93l93 661q76 7 174 7q99 0 156.5 -43t57.5 -132zM231 584l-37 -260h77q73 0 120.5 39.5t47.5 112.5q0 111 -121 111q-60 0 -87 -3zM196 -53l87 7l6 -11q-13 -90 -70 -174h-64
q24 55 36 136q1 7 2.5 21t2.5 21z" />
    <glyph glyph-name="rcommaaccent" unicode="&#x157;" horiz-adv-x="376" 
d="M339 529q32 0 53 -9l-12 -85l-3 -1q-20 9 -50 9q-24 0 -42.5 -5t-40 -19.5t-38.5 -47t-29 -82.5l-41 -289h-95l74 518h77l-1 -64q53 75 148 75zM35 -53l87 7l6 -11q-13 -90 -70 -174h-64q24 55 36 136q1 7 2.5 21t2.5 21z" />
    <glyph glyph-name="Rcaron" unicode="&#x158;" horiz-adv-x="570" 
d="M366 701h-43l-108 113l42 46l96 -79l107 79l33 -45zM536 493q0 -91 -44 -148.5t-115 -81.5l120 -260l-1 -3h-98l-111 248h-2h-102l-35 -248h-93l93 661q76 7 174 7q99 0 156.5 -43t57.5 -132zM231 584l-37 -260h77q73 0 120.5 39.5t47.5 112.5q0 111 -121 111
q-60 0 -87 -3z" />
    <glyph glyph-name="rcaron" unicode="&#x159;" horiz-adv-x="376" 
d="M286 570h-44l-97 138l46 39l84 -89l110 89l34 -39zM191 454q53 75 148 75q32 0 53 -9l-12 -85l-3 -1q-20 9 -50 9q-24 0 -42.5 -5t-40 -19.5t-38.5 -47t-29 -82.5l-41 -289h-95l74 518h77z" />
    <glyph glyph-name="Sacute" unicode="&#x15a;" horiz-adv-x="534" 
d="M262 699l-24 54l167 111l55 -78l-4 -12zM211 -13q-113 0 -184 44l13 96l3 1q71 -56 166 -56q72 0 115 29t43 82q0 40 -23.5 66t-96.5 60q-68 32 -107.5 71.5t-39.5 100.5q0 94 68 145.5t172 51.5q98 0 160 -31l-12 -90l-3 -1q-58 38 -146 38q-63 0 -102.5 -24t-39.5 -70
q0 -20 6 -34t26.5 -28.5t35 -22.5t56.5 -29q69 -35 104.5 -77.5t35.5 -108.5q0 -98 -68 -155.5t-182 -57.5z" />
    <glyph glyph-name="sacute" unicode="&#x15b;" horiz-adv-x="462" 
d="M229 573l-37 55l137 136l69 -68l-1 -12zM178 -13q-102 0 -165 38l13 91l3 1q63 -49 165 -49q119 0 119 73q0 30 -23.5 46.5t-87.5 38.5q-70 24 -102.5 56t-32.5 87q0 75 61 118t165 43q86 0 138 -25l-11 -83l-2 -1q-58 28 -135 28q-56 0 -88.5 -17t-32.5 -51
q0 -25 22 -40.5t78 -34.5q74 -24 109.5 -55.5t35.5 -85.5q0 -86 -62 -132t-167 -46z" />
    <glyph glyph-name="Scedilla" unicode="&#x15e;" horiz-adv-x="534" 
d="M340 678q98 0 160 -31l-12 -90l-3 -1q-58 38 -146 38q-63 0 -102.5 -24t-39.5 -70q0 -20 6 -34t26.5 -28.5t35 -22.5t56.5 -29q69 -35 104.5 -77.5t35.5 -108.5q0 -87 -54 -142.5t-146 -67.5l-28 -39q6 2 21 2q32 0 51.5 -18.5t19.5 -55.5q0 -59 -40.5 -87t-101.5 -28
q-32 0 -59 10l8 56l2 1q20 -8 44 -8q28 0 46 12t18 34q0 32 -38 32q-22 0 -45 -7l-1 1l7 46l33 46q-105 2 -171 44l13 96l3 1q71 -56 166 -56q72 0 115 29t43 82q0 40 -23.5 66t-96.5 60q-68 32 -107.5 71.5t-39.5 100.5q0 94 68 145.5t172 51.5z" />
    <glyph glyph-name="scedilla" unicode="&#x15f;" horiz-adv-x="462" 
d="M293 530q86 0 138 -25l-11 -83l-2 -1q-58 28 -135 28q-56 0 -88.5 -17t-32.5 -51q0 -25 22 -40.5t78 -34.5q74 -24 109.5 -55.5t35.5 -85.5q0 -76 -48 -120.5t-133 -54.5l-28 -39q6 2 21 2q32 0 51.5 -18.5t19.5 -55.5q0 -59 -40.5 -87t-101.5 -28q-32 0 -59 10l8 56l2 1
q20 -8 44 -8q28 0 46 12t18 34q0 32 -38 32q-22 0 -45 -7l-1 1l7 46l33 46q-92 3 -150 38l13 91l3 1q63 -49 165 -49q119 0 119 73q0 30 -23.5 46.5t-87.5 38.5q-70 24 -102.5 56t-32.5 87q0 75 61 118t165 43z" />
    <glyph glyph-name="Scaron" unicode="&#x160;" horiz-adv-x="534" 
d="M329 701l-108 113l42 46l96 -79l107 79l33 -45l-127 -114h-43zM211 -13q-113 0 -184 44l13 96l3 1q71 -56 166 -56q72 0 115 29t43 82q0 40 -23.5 66t-96.5 60q-68 32 -107.5 71.5t-39.5 100.5q0 94 68 145.5t172 51.5q98 0 160 -31l-12 -90l-3 -1q-58 38 -146 38
q-63 0 -102.5 -24t-39.5 -70q0 -20 6 -34t26.5 -28.5t35 -22.5t56.5 -29q69 -35 104.5 -77.5t35.5 -108.5q0 -98 -68 -155.5t-182 -57.5z" />
    <glyph glyph-name="scaron" unicode="&#x161;" horiz-adv-x="462" 
d="M257 576l-97 138l46 39l84 -89l110 89l34 -39l-133 -138h-44zM178 -13q-102 0 -165 38l13 91l3 1q63 -49 165 -49q119 0 119 73q0 30 -23.5 46.5t-87.5 38.5q-70 24 -102.5 56t-32.5 87q0 75 61 118t165 43q86 0 138 -25l-11 -83l-2 -1q-58 28 -135 28q-56 0 -88.5 -17
t-32.5 -51q0 -25 22 -40.5t78 -34.5q74 -24 109.5 -55.5t35.5 -85.5q0 -86 -62 -132t-167 -46z" />
    <glyph glyph-name="uni0162" unicode="&#x162;" horiz-adv-x="542" 
d="M285 0h-16l-35 -49q6 2 21 2q32 0 51.5 -18.5t19.5 -55.5q0 -59 -40.5 -87t-101.5 -28q-32 0 -59 10l8 56l2 1q20 -8 44 -8q28 0 46 12t18 34q0 32 -38 32q-22 0 -45 -7l-1 1l7 46l42 59h-18l83 577h-210l12 84h509l-12 -84h-205z" />
    <glyph glyph-name="uni0163" unicode="&#x163;" horiz-adv-x="373" 
d="M229 443l-37 -268q-2 -16 -2 -32q0 -29 21 -46.5t61 -17.5q31 0 66 14l2 -1l-12 -80q-34 -17 -84 -17l-31 -44q6 2 21 2q32 0 51.5 -18.5t19.5 -55.5q0 -59 -40.5 -87t-101.5 -28q-32 0 -59 10l8 56l2 1q20 -8 44 -8q28 0 46 12t18 34q0 32 -38 32q-22 0 -45 -7l-1 1
l7 46l42 59h9q-48 11 -75.5 42.5t-27.5 78.5q0 20 2 40l41 282h-98l11 75h97l18 122l94 18l1 -2l-19 -138h153l-11 -75h-153z" />
    <glyph glyph-name="Tcaron" unicode="&#x164;" horiz-adv-x="542" 
d="M363 701h-43l-108 113l42 46l96 -79l107 79l33 -45zM584 661l-12 -84h-205l-82 -577h-95l83 577h-210l12 84h509z" />
    <glyph glyph-name="tcaron" unicode="&#x165;" horiz-adv-x="373" 
d="M436 791l-60 -210h-60l39 220h73zM259 656l-19 -138h153l-11 -75h-153l-37 -268q-2 -16 -2 -32q0 -29 21 -46.5t61 -17.5q31 0 66 14l2 -1l-12 -80q-34 -17 -84 -17q-69 0 -110 34t-41 92q0 20 2 40l41 282h-98l11 75h97l18 122l94 18z" />
    <glyph glyph-name="Tbar" unicode="&#x166;" horiz-adv-x="545" 
d="M573 577h-205l-34 -237h94l-10 -69h-94l-38 -271h-95l39 271h-88l9 69h89l34 237h-210l12 84h509z" />
    <glyph glyph-name="tbar" unicode="&#x167;" horiz-adv-x="373" 
d="M382 443h-153l-18 -129h97l-10 -69h-96l-10 -70q-2 -16 -2 -32q0 -29 21 -46.5t61 -17.5q31 0 66 14l2 -1l-12 -80q-34 -17 -84 -17q-69 0 -110 34t-41 92q0 20 2 40l12 84h-85l10 69h85l19 129h-98l11 75h97l18 122l94 18l1 -2l-19 -138h153z" />
    <glyph glyph-name="Utilde" unicode="&#x168;" horiz-adv-x="684" 
d="M303 711l-60 18q8 46 39 75.5t73 29.5q28 0 65.5 -18t55.5 -18q15 0 28.5 11.5t16.5 30.5l2 2l59 -20q-8 -46 -38.5 -74.5t-72.5 -28.5q-23 0 -62 18t-59 18q-17 0 -30 -12t-15 -31zM308 -14q-107 0 -167.5 56t-60.5 147q0 47 3 68l57 404h93l-55 -392q-4 -25 -4 -52
q0 -72 39 -110.5t104 -38.5q87 0 134 48t62 153l55 392h91l-57 -404q-39 -271 -294 -271z" />
    <glyph glyph-name="utilde" unicode="&#x169;" horiz-adv-x="580" 
d="M243 605l-3 -2l-58 14q6 46 34 76t67 30q29 0 65 -19t55 -19q37 0 43 41l3 2l64 -14q-8 -52 -38 -79t-70 -27q-28 0 -65.5 19t-55.5 19q-15 0 -26.5 -11t-14.5 -30zM446 518h95l-74 -518h-77v59q-59 -71 -165 -71q-79 0 -122 42.5t-43 116.5q0 22 4 53l45 318h95
l-44 -307q-3 -21 -3 -47q0 -47 26 -71t72 -24t84.5 27t57.5 77z" />
    <glyph glyph-name="Umacron" unicode="&#x16a;" horiz-adv-x="684" 
d="M267 746l12 78h278l-12 -78h-278zM308 -14q-107 0 -167.5 56t-60.5 147q0 47 3 68l57 404h93l-55 -392q-4 -25 -4 -52q0 -72 39 -110.5t104 -38.5q87 0 134 48t62 153l55 392h91l-57 -404q-39 -271 -294 -271z" />
    <glyph glyph-name="umacron" unicode="&#x16b;" horiz-adv-x="580" 
d="M493 691l-10 -70h-282l10 70h282zM446 518h95l-74 -518h-77v59q-59 -71 -165 -71q-79 0 -122 42.5t-43 116.5q0 22 4 53l45 318h95l-44 -307q-3 -21 -3 -47q0 -47 26 -71t72 -24t84.5 27t57.5 77z" />
    <glyph glyph-name="Uring" unicode="&#x16e;" horiz-adv-x="684" 
d="M399 681q-39 0 -65 24t-26 62q0 44 30 72.5t77 28.5q39 0 65 -23.5t26 -61.5q0 -44 -30 -73t-77 -29zM405 731q20 0 33.5 13t13.5 34q0 18 -12 29t-31 11q-20 0 -33.5 -13t-13.5 -34q0 -18 12 -29t31 -11zM308 -14q-107 0 -167.5 56t-60.5 147q0 47 3 68l57 404h93
l-55 -392q-4 -25 -4 -52q0 -72 39 -110.5t104 -38.5q87 0 134 48t62 153l55 392h91l-57 -404q-39 -271 -294 -271z" />
    <glyph glyph-name="uring" unicode="&#x16f;" horiz-adv-x="580" 
d="M334 563q-40 0 -66 25t-26 65q0 47 30 77t78 30q39 0 65.5 -25t26.5 -64q0 -47 -30 -77.5t-78 -30.5zM344 710q-21 0 -34.5 -14.5t-13.5 -38.5q0 -20 12.5 -32t31.5 -12q21 0 34.5 14.5t13.5 38.5q0 20 -12.5 32t-31.5 12zM446 518h95l-74 -518h-77v59q-59 -71 -165 -71
q-79 0 -122 42.5t-43 116.5q0 22 4 53l45 318h95l-44 -307q-3 -21 -3 -47q0 -47 26 -71t72 -24t84.5 27t57.5 77z" />
    <glyph glyph-name="Uhungarumlaut" unicode="&#x170;" horiz-adv-x="684" 
d="M302 708l-48 22l74 158l80 -18v-14zM481 708l-48 22l75 158l79 -18v-14zM308 -14q-107 0 -167.5 56t-60.5 147q0 47 3 68l57 404h93l-55 -392q-4 -25 -4 -52q0 -72 39 -110.5t104 -38.5q87 0 134 48t62 153l55 392h91l-57 -404q-39 -271 -294 -271z" />
    <glyph glyph-name="uhungarumlaut" unicode="&#x171;" horiz-adv-x="580" 
d="M366 718l-114 -151l-44 24l91 165l68 -24zM530 718l-114 -151l-43 24l90 165l68 -24zM446 518h95l-74 -518h-77v59q-59 -71 -165 -71q-79 0 -122 42.5t-43 116.5q0 22 4 53l45 318h95l-44 -307q-3 -21 -3 -47q0 -47 26 -71t72 -24t84.5 27t57.5 77z" />
    <glyph glyph-name="Uogonek" unicode="&#x172;" horiz-adv-x="684" 
d="M568 661h91l-57 -404q-31 -217 -203 -261q-87 -61 -87 -122q0 -34 38 -34q18 0 29 4l3 -2l-8 -61q-26 -8 -60 -8q-43 0 -69 19t-26 55q0 77 91 139h-2q-107 0 -167.5 56t-60.5 147q0 47 3 68l57 404h93l-55 -392q-4 -25 -4 -52q0 -72 39 -110.5t104 -38.5q87 0 134 48
t62 153z" />
    <glyph glyph-name="uogonek" unicode="&#x173;" horiz-adv-x="580" 
d="M465 0q-98 -66 -98 -130q0 -34 38 -34q18 0 29 4l3 -2l-8 -61q-26 -8 -60 -8q-43 0 -69 19t-26 55q0 90 120 157h-4v59q-59 -71 -165 -71q-79 0 -122 42.5t-43 116.5q0 22 4 53l45 318h95l-44 -307q-3 -21 -3 -47q0 -47 26 -71t72 -24t84.5 27t57.5 77l49 345h95
l-74 -518h-2z" />
    <glyph glyph-name="Wcircumflex" unicode="&#x174;" horiz-adv-x="920" 
d="M535 779l-114 -78l-30 45l133 114h43l103 -114l-39 -45zM961 661l1 -3l-302 -668h-70l-87 482l-3 26l-10 -26l-229 -482h-72l-117 668l1 3h99l72 -498l2 -41l16 41l227 495h65l87 -487l3 -44l16 44l210 490h91z" />
    <glyph glyph-name="wcircumflex" unicode="&#x175;" horiz-adv-x="768" 
d="M446 667l-111 -90l-36 40l135 137h44l97 -137l-47 -40zM787 518l1 -3l-236 -515h-86l-53 388l-2 19l-8 -19l-170 -388h-86l-92 515l1 3h95l53 -380v-22l9 22l164 380h99l52 -379l2 -21l7 22l162 378h88z" />
    <glyph glyph-name="Ycircumflex" unicode="&#x176;" horiz-adv-x="572" 
d="M247 701l-30 45l133 114h43l103 -114l-39 -45l-96 78zM204 0l40 277l-171 381l1 3h100l130 -295l212 295h96l1 -3l-277 -382l-39 -276h-93z" />
    <glyph glyph-name="ycircumflex" unicode="&#x177;" horiz-adv-x="514" 
d="M325 660l-111 -90l-36 40l135 137h44l97 -137l-47 -40zM536 515l-255 -483l-11 -21q-51 -97 -100 -139t-119 -42q-33 0 -60 10l13 76l3 1q21 -8 55 -8q65 0 125 114l4 8l-138 484l1 3h101l96 -382l188 382h96z" />
    <glyph glyph-name="Ydieresis" unicode="&#x178;" horiz-adv-x="572" 
d="M260 727q-23 0 -37 13.5t-14 35.5q0 26 17 41.5t40 15.5t36.5 -14t13.5 -35q0 -26 -16.5 -41.5t-39.5 -15.5zM463 727q-23 0 -37 13.5t-14 35.5q0 26 17 41.5t40 15.5t36.5 -14t13.5 -35q0 -26 -16.5 -41.5t-39.5 -15.5zM204 0l40 277l-171 381l1 3h100l130 -295l212 295
h96l1 -3l-277 -382l-39 -276h-93z" />
    <glyph glyph-name="Zacute" unicode="&#x179;" horiz-adv-x="563" 
d="M261 705l-24 54l167 111l55 -78l-4 -12zM11 0l-6 33l436 551h-355l10 77h475l5 -32l-439 -551h366l-10 -78h-482z" />
    <glyph glyph-name="zacute" unicode="&#x17a;" horiz-adv-x="496" 
d="M410 678l-168 -111l-37 55l137 136l69 -68zM475 472l-339 -392h300l-11 -80h-413l-4 44l335 394h-273l10 80h391z" />
    <glyph glyph-name="Zdotaccent" unicode="&#x17b;" horiz-adv-x="563" 
d="M355 733q-26 0 -42 15.5t-16 40.5q0 29 19 46.5t45 17.5t41.5 -15.5t15.5 -39.5q0 -30 -18.5 -47.5t-44.5 -17.5zM11 0l-6 33l436 551h-355l10 77h475l5 -32l-439 -551h366l-10 -78h-482z" />
    <glyph glyph-name="zdotaccent" unicode="&#x17c;" horiz-adv-x="496" 
d="M302 613q-26 0 -42 15.5t-16 40.5q0 29 19 46.5t45 17.5t41.5 -15.5t15.5 -39.5q0 -30 -18.5 -47.5t-44.5 -17.5zM475 472l-339 -392h300l-11 -80h-413l-4 44l335 394h-273l10 80h391z" />
    <glyph glyph-name="Zcaron" unicode="&#x17d;" horiz-adv-x="563" 
d="M328 707l-108 113l42 46l96 -79l107 79l33 -45l-127 -114h-43zM11 0l-6 33l436 551h-355l10 77h475l5 -32l-439 -551h366l-10 -78h-482z" />
    <glyph glyph-name="zcaron" unicode="&#x17e;" horiz-adv-x="496" 
d="M314 570h-44l-97 138l46 39l84 -89l110 89l34 -39zM475 472l-339 -392h300l-11 -80h-413l-4 44l335 394h-273l10 80h391z" />
    <glyph glyph-name="uni01EA" unicode="&#x1ea;" horiz-adv-x="751" 
d="M460 -3q-89 -61 -89 -123q0 -34 38 -34q18 0 29 4l3 -2l-8 -61q-26 -8 -60 -8q-43 0 -69 19t-26 55q0 77 91 139h-2q-138 0 -223 87t-85 224q0 168 97 274.5t251 106.5q138 0 223 -87t85 -224q0 -141 -69 -240.5t-186 -129.5zM155 307q0 -111 59.5 -174.5t163.5 -63.5
q111 0 176 84t65 204q0 110 -60 174t-163 64q-111 0 -176 -84t-65 -204z" />
    <glyph glyph-name="uni01EB" unicode="&#x1eb;" horiz-adv-x="604" 
d="M359 -1q-92 -63 -92 -125q0 -34 38 -34q18 0 29 4l3 -2l-8 -61q-26 -8 -60 -8q-43 0 -69 19t-26 55q0 79 94 141q-99 3 -162 65.5t-63 170.5q0 133 79.5 219.5t201.5 86.5q105 0 171 -62.5t66 -175.5q0 -107 -55.5 -186.5t-146.5 -106.5zM141 233q0 -74 39.5 -118
t106.5 -44q81 0 128.5 62t47.5 152q0 75 -39.5 118.5t-107.5 43.5q-80 0 -127.5 -63.5t-47.5 -150.5z" />
    <glyph glyph-name="AEacute" unicode="&#x1fc;" horiz-adv-x="790" 
d="M652 774l-194 -75l-24 54l167 111l55 -78zM777 584h-250l-28 -202h232l-12 -77h-231l-31 -227h259l-10 -78h-356l27 190h-205l-136 -190h-96l477 661h371zM220 257h167l42 299l-65 -97z" />
    <glyph glyph-name="aeacute" unicode="&#x1fd;" horiz-adv-x="912" 
d="M626 678l-168 -111l-37 55l137 136l69 -68zM674 530q93 0 147.5 -54.5t54.5 -139.5q0 -45 -12 -96h-360v-9q0 -76 41.5 -118t104.5 -42q92 0 166 50l3 -2l-13 -88q-65 -43 -165 -43q-75 0 -132 32t-83 95q-64 -127 -194 -127q-91 0 -146 56.5t-55 154.5q0 151 80.5 241
t200.5 90q67 0 110 -16t79 -52q71 68 173 68zM254 71q49 0 94 50t60 141q7 76 41 134q-48 51 -133 51q-80 0 -133.5 -62t-53.5 -173q0 -68 34 -104.5t91 -36.5zM515 314h269v15q0 118 -119 118q-52 0 -92.5 -35.5t-57.5 -97.5z" />
    <glyph glyph-name="Oslashacute" unicode="&#x1fe;" horiz-adv-x="751" 
d="M546 774l-194 -75l-24 54l167 111l55 -78zM626 595q89 -87 89 -228q0 -168 -96.5 -274.5t-251.5 -106.5q-88 0 -157 37l-56 -77h-81v9l80 110q-94 86 -94 232q0 168 97 274.5t251 106.5q91 0 162 -40l54 75h84v-7zM155 307q0 -102 52 -167l309 425q-50 30 -120 30
q-111 0 -176 -84t-65 -204zM378 69q111 0 176 84t65 204q0 100 -49 161l-307 -423q49 -26 115 -26z" />
    <glyph glyph-name="oslashacute" unicode="&#x1ff;" horiz-adv-x="604" 
d="M461 678l-168 -111l-37 55l137 136l69 -68zM482 479q79 -64 79 -187q0 -131 -80.5 -217.5t-203.5 -86.5q-54 0 -99 18l-41 -64l-70 1v9l55 86q-79 64 -79 186q0 133 79.5 219.5t201.5 86.5q55 0 100 -18l36 56h75v-7zM141 233q0 -69 34 -112l201 315q-28 11 -60 11
q-80 0 -127.5 -63.5t-47.5 -150.5zM287 71q81 0 128.5 62t47.5 152q0 69 -34 112l-202 -315q28 -11 60 -11z" />
    <glyph glyph-name="Scommaaccent" unicode="&#x218;" horiz-adv-x="534" 
d="M211 -13q-113 0 -184 44l13 96l3 1q71 -56 166 -56q72 0 115 29t43 82q0 40 -23.5 66t-96.5 60q-68 32 -107.5 71.5t-39.5 100.5q0 94 68 145.5t172 51.5q98 0 160 -31l-12 -90l-3 -1q-58 38 -146 38q-63 0 -102.5 -24t-39.5 -70q0 -20 6 -34t26.5 -28.5t35 -22.5
t56.5 -29q69 -35 104.5 -77.5t35.5 -108.5q0 -98 -68 -155.5t-182 -57.5zM136 -231q24 55 36 136q1 7 2.5 21t2.5 21l87 7l6 -11q-13 -90 -70 -174h-64z" />
    <glyph glyph-name="scommaaccent" unicode="&#x219;" horiz-adv-x="462" 
d="M178 -13q-102 0 -165 38l13 91l3 1q63 -49 165 -49q119 0 119 73q0 30 -23.5 46.5t-87.5 38.5q-70 24 -102.5 56t-32.5 87q0 75 61 118t165 43q86 0 138 -25l-11 -83l-2 -1q-58 28 -135 28q-56 0 -88.5 -17t-32.5 -51q0 -25 22 -40.5t78 -34.5q74 -24 109.5 -55.5
t35.5 -85.5q0 -86 -62 -132t-167 -46zM101 -231q24 55 36 136q1 7 2.5 21t2.5 21l87 7l6 -11q-13 -90 -70 -174h-64z" />
    <glyph glyph-name="uni021A" unicode="&#x21a;" horiz-adv-x="542" 
d="M584 661l-12 -84h-205l-82 -577h-95l83 577h-210l12 84h509zM178 -53l87 7l6 -11q-13 -90 -70 -174h-64q24 55 36 136q1 7 2.5 21t2.5 21z" />
    <glyph glyph-name="uni021B" unicode="&#x21b;" horiz-adv-x="373" 
d="M229 443l-37 -268q-2 -16 -2 -32q0 -29 21 -46.5t61 -17.5q31 0 66 14l2 -1l-12 -80q-34 -17 -84 -17q-69 0 -110 34t-41 92q0 20 2 40l41 282h-98l11 75h97l18 122l94 18l1 -2l-19 -138h153l-11 -75h-153zM157 -53l87 7l6 -11q-13 -90 -70 -174h-64q24 55 36 136
q1 7 2.5 21t2.5 21z" />
    <glyph glyph-name="uni0237" unicode="&#x237;" horiz-adv-x="265" 
d="M-42 -170q-21 0 -53 5l12 82l3 1q14 -3 31 -3q51 0 77 31t35 92l69 480h93l-71 -501q-27 -187 -196 -187z" />
    <glyph glyph-name="circumflex" unicode="&#x2c6;" horiz-adv-x="342" 
d="M119 570l-36 40l135 137h44l97 -137l-47 -40l-82 90z" />
    <glyph glyph-name="caron" unicode="&#x2c7;" horiz-adv-x="342" 
d="M196 570l-97 138l46 39l84 -89l110 89l34 -39l-133 -138h-44z" />
    <glyph glyph-name="breve" unicode="&#x2d8;" horiz-adv-x="320" 
d="M210 579q-59 0 -94 39t-26 106l64 7l2 -2q-3 -36 13.5 -57t47.5 -21q33 0 55.5 21t30.5 56l3 3l59 -7q-10 -67 -53 -106t-102 -39z" />
    <glyph glyph-name="dotaccent" unicode="&#x2d9;" horiz-adv-x="272" 
d="M193 613q-26 0 -42 15.5t-16 40.5q0 29 19 46.5t45 17.5t41.5 -15.5t15.5 -39.5q0 -30 -18.5 -47.5t-44.5 -17.5z" />
    <glyph glyph-name="ring" unicode="&#x2da;" horiz-adv-x="315" 
d="M182 563q-40 0 -66 25t-26 65q0 47 30 77t78 30q39 0 65.5 -25t26.5 -64q0 -47 -30 -77.5t-78 -30.5zM188 613q21 0 34.5 14.5t13.5 38.5q0 20 -12.5 32t-31.5 12q-21 0 -34.5 -14.5t-13.5 -38.5q0 -20 12.5 -32t31.5 -12z" />
    <glyph glyph-name="ogonek" unicode="&#x2db;" horiz-adv-x="194" 
d="M52 -227q-43 0 -69 19t-26 55q0 47 34.5 88.5t92.5 72.5l66 -3q-100 -66 -100 -131q0 -34 38 -34q18 0 29 4l3 -2l-8 -61q-26 -8 -60 -8z" />
    <glyph glyph-name="tilde" unicode="&#x2dc;" horiz-adv-x="352" 
d="M124 603l-58 14q6 46 34 76t67 30q29 0 64.5 -19t55.5 -19q37 0 43 41l3 2l64 -14q-8 -52 -38 -79t-70 -27q-28 0 -65.5 19t-55.5 19q-15 0 -26.5 -11t-14.5 -30z" />
    <glyph glyph-name="hungarumlaut" unicode="&#x2dd;" horiz-adv-x="363" 
d="M117 567l-44 24l91 165l68 -24l-1 -14zM281 567l-43 24l90 165l68 -24l-1 -14z" />
    <glyph glyph-name="gravecomb" unicode="&#x300;" 
d="M7 571l-174 102l-1 12l65 71l144 -129z" />
    <glyph glyph-name="acutecomb" unicode="&#x301;" 
d="M-129 567l-37 55l137 136l69 -68l-1 -12z" />
    <glyph glyph-name="uni0302" unicode="&#x302;" 
d="M-222 570l-36 40l135 137h44l97 -137l-47 -40l-82 90z" />
    <glyph glyph-name="tildecomb" unicode="&#x303;" 
d="M-228 603l-58 14q6 46 34 76t67 30q29 0 65 -19t55 -19q37 0 43 41l3 2l64 -14q-8 -52 -38 -79t-70 -27q-28 0 -65.5 19t-55.5 19q-15 0 -26.5 -11t-14.5 -30z" />
    <glyph glyph-name="uni0304" unicode="&#x304;" 
d="M-254 621l10 70h282l-10 -70h-282z" />
    <glyph glyph-name="uni0306" unicode="&#x306;" 
d="M-111 579q-59 0 -94 39t-26 106l64 7l2 -2q-3 -36 13.5 -57t47.5 -21q33 0 55.5 21t30.5 56l3 3l59 -7q-10 -67 -53 -106t-102 -39z" />
    <glyph glyph-name="uni0307" unicode="&#x307;" 
d="M-79 613q-26 0 -42 15.5t-16 40.5q0 29 19 46.5t45 17.5t41.5 -15.5t15.5 -39.5q0 -30 -18.5 -47.5t-44.5 -17.5z" />
    <glyph glyph-name="uni0308" unicode="&#x308;" 
d="M-209 615q-25 0 -40.5 15t-15.5 39q0 29 18.5 45.5t43.5 16.5t40 -15t15 -38q0 -29 -18 -46t-43 -17zM-13 615q-25 0 -40.5 15t-15.5 39q0 29 18.5 45.5t43.5 16.5t40 -15t15 -38q0 -29 -18 -46t-43 -17z" />
    <glyph glyph-name="uni030A" unicode="&#x30a;" 
d="M-97 563q-40 0 -66 25t-26 65q0 47 30 77t78 30q39 0 65.5 -25t26.5 -64q0 -47 -30 -77.5t-78 -30.5zM-91 613q21 0 34.5 14.5t13.5 38.5q0 20 -12.5 32t-31.5 12q-21 0 -34.5 -14.5t-13.5 -38.5q0 -20 12.5 -32t31.5 -12z" />
    <glyph glyph-name="uni030B" unicode="&#x30b;" 
d="M-246 567l-44 24l91 165l68 -24l-1 -14zM-82 567l-43 24l90 165l68 -24l-1 -14z" />
    <glyph glyph-name="uni030C" unicode="&#x30c;" 
d="M-146 570l-97 138l46 39l84 -89l110 89l34 -39l-133 -138h-44z" />
    <glyph glyph-name="uni0326" unicode="&#x326;" 
d="M-216 -231q24 55 36 136q1 7 2.5 21t2.5 21l87 7l6 -11q-13 -90 -70 -174h-64z" />
    <glyph glyph-name="uni0327" unicode="&#x327;" 
d="M-194 -236q-32 0 -59 10l8 56l2 1q20 -8 44 -8q28 0 46 12t18 34q0 32 -38 32q-22 0 -45 -7l-1 1l7 46l42 59h61l-35 -49q6 2 21 2q32 0 51.5 -18.5t19.5 -55.5q0 -59 -40.5 -87t-101.5 -28z" />
    <glyph glyph-name="uni0328" unicode="&#x328;" 
d="M-153 -227q-43 0 -69 19t-26 55q0 47 34.5 88.5t92.5 72.5l66 -3q-100 -66 -100 -131q0 -34 38 -34q18 0 29 4l3 -2l-8 -61q-26 -8 -60 -8z" />
    <glyph glyph-name="uni0335" unicode="&#x335;" 
d="M-318 176l10 69h276l-10 -69h-276z" />
    <glyph glyph-name="uni0336" unicode="&#x336;" 
d="M-607 326l11 72h651l-11 -72h-651z" />
    <glyph glyph-name="uni0337" unicode="&#x337;" 
d="M-256 242l12 81l254 154h3l-12 -81l-253 -154h-4z" />
    <glyph glyph-name="uni0338" unicode="&#x338;" 
d="M-523 -50v9l393 616h75v-7l-398 -619z" />
    <glyph glyph-name="Wgrave" unicode="&#x1e80;" horiz-adv-x="920" 
d="M609 700l-188 83l-4 12l61 75l157 -117zM961 661l1 -3l-302 -668h-70l-87 482l-3 26l-10 -26l-229 -482h-72l-117 668l1 3h99l72 -498l2 -41l16 41l227 495h65l87 -487l3 -44l16 44l210 490h91z" />
    <glyph glyph-name="wgrave" unicode="&#x1e81;" horiz-adv-x="768" 
d="M500 578l-174 102l-1 12l65 71l144 -129zM787 518l1 -3l-236 -515h-86l-53 388l-2 19l-8 -19l-170 -388h-86l-92 515l1 3h95l53 -380v-22l9 22l164 380h99l52 -379l2 -21l7 22l162 378h88z" />
    <glyph glyph-name="Wacute" unicode="&#x1e82;" horiz-adv-x="920" 
d="M637 774l-194 -75l-24 54l167 111l55 -78zM961 661l1 -3l-302 -668h-70l-87 482l-3 26l-10 -26l-229 -482h-72l-117 668l1 3h99l72 -498l2 -41l16 41l227 495h65l87 -487l3 -44l16 44l210 490h91z" />
    <glyph glyph-name="wacute" unicode="&#x1e83;" horiz-adv-x="768" 
d="M551 685l-168 -111l-37 55l137 136l69 -68zM787 518l1 -3l-236 -515h-86l-53 388l-2 19l-8 -19l-170 -388h-86l-92 515l1 3h95l53 -380v-22l9 22l164 380h99l52 -379l2 -21l7 22l162 378h88z" />
    <glyph glyph-name="Wdieresis" unicode="&#x1e84;" horiz-adv-x="920" 
d="M434 727q-23 0 -37 13.5t-14 35.5q0 26 17 41.5t40 15.5t36.5 -14t13.5 -35q0 -26 -16.5 -41.5t-39.5 -15.5zM637 727q-23 0 -37 13.5t-14 35.5q0 26 17 41.5t40 15.5t36.5 -14t13.5 -35q0 -26 -16.5 -41.5t-39.5 -15.5zM961 661l1 -3l-302 -668h-70l-87 482l-3 26
l-10 -26l-229 -482h-72l-117 668l1 3h99l72 -498l2 -41l16 41l227 495h65l87 -487l3 -44l16 44l210 490h91z" />
    <glyph glyph-name="wdieresis" unicode="&#x1e85;" horiz-adv-x="768" 
d="M342 622q-25 0 -40.5 15t-15.5 39q0 28 18.5 45t43.5 17t40 -15t15 -38q0 -29 -18 -46t-43 -17zM538 622q-25 0 -40.5 15t-15.5 39q0 28 18.5 45t43.5 17t40 -15t15 -38q0 -29 -18 -46t-43 -17zM787 518l1 -3l-236 -515h-86l-53 388l-2 19l-8 -19l-170 -388h-86l-92 515
l1 3h95l53 -380v-22l9 22l164 380h99l52 -379l2 -21l7 22l162 378h88z" />
    <glyph glyph-name="Ygrave" unicode="&#x1ef2;" horiz-adv-x="572" 
d="M435 700l-188 83l-4 12l61 75l157 -117zM204 0l40 277l-171 381l1 3h100l130 -295l212 295h96l1 -3l-277 -382l-39 -276h-93z" />
    <glyph glyph-name="ygrave" unicode="&#x1ef3;" horiz-adv-x="514" 
d="M379 571l-174 102l-1 12l65 71l144 -129zM536 515l-255 -483l-11 -21q-51 -97 -100 -139t-119 -42q-33 0 -60 10l13 76l3 1q21 -8 55 -8q65 0 125 114l4 8l-138 484l1 3h101l96 -382l188 382h96z" />
    <glyph glyph-name="uni1EF8" unicode="&#x1ef8;" horiz-adv-x="572" 
d="M254 711l-60 18q8 46 39 75.5t73 29.5q28 0 65.5 -18t55.5 -18q15 0 28.5 11.5t16.5 30.5l2 2l59 -20q-8 -46 -38.5 -74.5t-72.5 -28.5q-22 0 -62 18t-59 18q-17 0 -30 -12t-15 -31zM204 0l40 277l-171 381l1 3h100l130 -295l212 295h96l1 -3l-277 -382l-39 -276h-93z
" />
    <glyph glyph-name="uni1EF9" unicode="&#x1ef9;" horiz-adv-x="514" 
d="M217 605l-3 -2l-58 14q6 46 34 76t67 30q29 0 65 -19t55 -19q37 0 43 41l3 2l64 -14q-8 -52 -38 -79t-70 -27q-28 0 -65.5 19t-55.5 19q-15 0 -26.5 -11t-14.5 -30zM536 515l-255 -483l-11 -21q-51 -97 -100 -139t-119 -42q-33 0 -60 10l13 76l3 1q21 -8 55 -8
q65 0 125 114l4 8l-138 484l1 3h101l96 -382l188 382h96z" />
    <glyph glyph-name="endash" unicode="&#x2013;" horiz-adv-x="505" 
d="M66 242l11 78h368l-11 -78h-368z" />
    <glyph glyph-name="emdash" unicode="&#x2014;" horiz-adv-x="827" 
d="M66 242l11 78h691l-10 -78h-692z" />
    <glyph glyph-name="quoteleft" unicode="&#x2018;" horiz-adv-x="208" 
d="M227 699q-22 -79 -34 -150q-4 -23 -8 -71l-85 -14l-10 14q15 98 79 221h58z" />
    <glyph glyph-name="quoteright" unicode="&#x2019;" horiz-adv-x="197" 
d="M78 465q19 69 33 150q6 31 9 71l85 14l10 -14q-15 -98 -79 -221h-58z" />
    <glyph glyph-name="quotesinglbase" unicode="&#x201a;" horiz-adv-x="205" 
d="M-20 -152q6 20 33 148q5 23 9 71l85 14l10 -14q-16 -101 -79 -219h-58z" />
    <glyph glyph-name="quotedblleft" unicode="&#x201c;" horiz-adv-x="354" 
d="M227 699q-22 -79 -34 -150q-4 -23 -8 -71l-85 -14l-10 14q15 98 79 221h58zM372 699q-22 -79 -34 -150q-7 -38 -8 -71l-85 -14l-10 14q15 98 79 221h58z" />
    <glyph glyph-name="quotedblright" unicode="&#x201d;" horiz-adv-x="350" 
d="M78 465q19 69 33 150q6 31 9 71l85 14l10 -14q-15 -98 -79 -221h-58zM223 465q19 69 33 150q7 36 8 71l86 14l10 -14q-15 -92 -79 -221h-58z" />
    <glyph glyph-name="quotedblbase" unicode="&#x201e;" horiz-adv-x="348" 
d="M-20 -152q6 20 33 148q5 23 9 71l85 14l10 -14q-16 -101 -79 -219h-58zM125 -152q14 48 33 148q6 32 8 71l86 14l10 -14q-15 -96 -79 -219h-58z" />
    <glyph glyph-name="dagger" unicode="&#x2020;" horiz-adv-x="517" 
d="M326 510l171 14l-11 -86l-158 7l-82 -502h-64l59 504l-157 -11l12 88l167 -13l14 185l89 -1z" />
    <glyph glyph-name="daggerdbl" unicode="&#x2021;" horiz-adv-x="518" 
d="M170 -61l39 180l-173 -12l13 88l157 -12l30 135l8 134l-159 -12l13 89l167 -14l13 183h89l-39 -184l171 15l-13 -89l-156 12l-30 -134l-8 -134l158 11l-12 -88l-167 13l-12 -181h-89z" />
    <glyph glyph-name="bullet" unicode="&#x2022;" horiz-adv-x="371" 
d="M172 160q-39 0 -65 27.5t-26 68.5q0 48 37 84.5t85 36.5q39 0 65 -28t26 -68q0 -48 -37 -84.5t-85 -36.5z" />
    <glyph glyph-name="ellipsis" unicode="&#x2026;" horiz-adv-x="581" 
d="M80 -7q-27 0 -42 15.5t-15 39.5q0 28 18.5 46.5t48.5 18.5q27 0 41.5 -16.5t14.5 -40.5q0 -27 -17.5 -45t-48.5 -18zM266 -7q-27 0 -42 15.5t-15 39.5q0 28 18.5 46.5t48.5 18.5q27 0 41.5 -16.5t14.5 -40.5q0 -27 -17.5 -45t-48.5 -18zM450 -7q-27 0 -42 15.5t-15 39.5
q0 28 18.5 46.5t48.5 18.5q27 0 41.5 -16.5t14.5 -40.5q0 -27 -17.5 -45t-48.5 -18z" />
    <glyph glyph-name="perthousand" unicode="&#x2030;" horiz-adv-x="1069" 
d="M206 336q-62 0 -98.5 35.5t-36.5 102.5q0 90 52.5 142.5t130.5 52.5q63 0 100.5 -37t37.5 -104q0 -91 -52.5 -141.5t-133.5 -50.5zM79 11l519 645h81l-520 -645h-80zM216 401q45 0 72 32t27 88q0 39 -18.5 60.5t-51.5 21.5q-43 0 -69.5 -33t-26.5 -88q0 -39 17.5 -60
t49.5 -21zM501 -5q-62 0 -99 35.5t-37 101.5q0 91 52 143.5t131 52.5q64 0 101 -36.5t37 -104.5q0 -91 -52 -141.5t-133 -50.5zM841 -5q-62 0 -99 35.5t-37 101.5q0 91 52.5 143.5t132.5 52.5q62 0 99 -36.5t37 -104.5q0 -91 -51.5 -141.5t-133.5 -50.5zM511 61
q44 0 70.5 31t26.5 87q0 40 -18 61.5t-50 21.5q-44 0 -71 -33t-27 -90q0 -38 18 -58t51 -20zM852 61q44 0 70.5 31t26.5 87q0 40 -18 61.5t-50 21.5q-44 0 -71 -33t-27 -90q0 -38 18 -58t51 -20z" />
    <glyph glyph-name="guilsinglleft" unicode="&#x2039;" horiz-adv-x="327" 
d="M232 96l-122 190l175 175h94l-1 -9l-167 -170l112 -178l-1 -8h-90z" />
    <glyph glyph-name="guilsinglright" unicode="&#x203a;" horiz-adv-x="326" 
d="M175 461l122 -190l-175 -175h-94l1 9l167 170l-112 178l1 8h90z" />
    <glyph glyph-name="fraction" unicode="&#x2044;" horiz-adv-x="129" 
d="M-207 -12l500 677h71l-501 -677h-70z" />
    <glyph glyph-name="Euro" unicode="&#x20ac;" horiz-adv-x="655" 
d="M497 677q89 0 155 -25l-12 -87l-3 -1q-58 30 -140 30q-79 0 -140.5 -37.5t-94.5 -105.5h227l-22 -69h-229q-10 -43 -10 -85h212l-21 -69h-184q17 -72 70.5 -113t131.5 -41q68 0 137 31l1 -2l-10 -83q-68 -31 -135 -31q-122 0 -200.5 64t-93.5 175h-115l21 69h90
q2 47 10 85h-73l22 69h71q41 107 130 166.5t205 59.5z" />
    <glyph glyph-name="trademark" unicode="&#x2122;" horiz-adv-x="790" 
d="M366 589h-102l-34 -244h-73l33 244h-103l10 70h279zM681 659h71l-15 -314h-69l9 190h-1l-109 -189h-42l-54 193h-1l-45 -194h-70l74 314h73l61 -213z" />
    <glyph glyph-name="minus" unicode="&#x2212;" horiz-adv-x="535" 
d="M69 258l11 73h397l-11 -73h-397z" />
    <glyph glyph-name="approxequal" unicode="&#x2248;" horiz-adv-x="502" 
d="M140 326l-61 9q7 50 39 80t78 30q36 0 84 -19t74 -19q42 0 48 42l4 2l56 -11q-6 -48 -38 -78t-78 -30q-30 0 -78.5 20t-74.5 20q-44 0 -52 -44zM112 130l-61 8q8 50 40 80.5t77 30.5q37 0 84.5 -19.5t73.5 -19.5q41 0 48 41l4 3l56 -11q-6 -48 -38 -77.5t-78 -29.5
q-30 0 -78.5 19t-73.5 19q-46 0 -52 -42z" />
    <glyph glyph-name="notequal" unicode="&#x2260;" horiz-adv-x="551" 
d="M497 363h-120l-85 -146h185l-11 -72h-217l-73 -125h-85l73 125h-111l11 72h143l85 146h-208l11 72h240l69 118h85l-69 -118h88z" />
    <glyph glyph-name="uniF8FF" unicode="&#xf8ff;" horiz-adv-x="1455" 
d="M718 519q-26 0 -43.5 17.5t-17.5 43.5t17.5 44t43.5 18t44 -18t18 -44t-18 -43.5t-44 -17.5zM66 269q0 132 9 312h100q10 -200 10 -312h-119zM570 263q-82 0 -82 65q0 12 2 49t2 38h-22v79l119 29l1 -17h178q10 -63 10 -237h-118q0 91 3 146h-61l3 -65q4 -4 15 -4
q13 0 18 5v-73q-14 -15 -68 -15zM294 264q-92 0 -92 113q0 134 134 134q124 0 124 -116v-126h-83l-8 60q-13 -65 -75 -65zM800 269q0 174 10 237h80q6 -42 6 -75q2 15 6.5 29.5t24 32.5t49.5 18q43 0 59 -24.5t18 -80.5l3 -137h-114q0 26 1 55.5t1 36.5q0 29 -15 29
q-18 0 -18 -29q0 -7 1.5 -36.5t1.5 -55.5h-114zM1194 264q-122 0 -122 123q0 124 124 124q121 0 121 -122q0 -125 -123 -125zM332 343q24 0 24 30q0 26 -24 26q-22 0 -22 -26q0 -30 22 -30zM1194 343q23 0 23 30q0 26 -23 26q-21 0 -21 -26q0 -30 21 -30zM356 -50
q-61 0 -88 17v83q24 -16 70 -16q21 0 34 6t16.5 11.5t3.5 10.5q-16 -11 -49 -11q-90 0 -90 82v13h-55l3 -64q6 -4 15 -4q13 0 18 5v-73q-19 -15 -68 -15q-45 0 -63 17t-18 54q0 38 3 80h-18v80l117 29l-1 -18h177v-119q0 -16 3 -21t12 -5q16 0 16 26v119h104q10 -53 10 -138
q0 -80 -33.5 -114.5t-118.5 -34.5zM524 -44q0 141 10 281h78q7 -42 7 -76q17 81 80 81q37 0 58.5 -29t21.5 -84q0 -134 -137 -134q1 -15 1 -39h-119zM936 -5q-141 0 -141 122q0 58 33 91.5t92 33.5q55 0 85.5 -30t30.5 -86q0 -22 -3 -34h-124q11 -18 50 -18q34 0 55 12v-75
q-23 -16 -78 -16zM904 108h40q3 27 -17 27q-23 0 -23 -27zM636 72q5 0 12.5 2.5t16 11t8.5 22.5q0 23 -20 23q-22 0 -22 -30q0 -14 5 -29zM1064 -10q-24 0 -24 23t24 23t24 -23t-24 -23zM1064 -5q18 0 18 18t-18 18t-18 -18t18 -18zM1054 2v23h11q10 0 10 -7t-7 -7l6 -9h-6
l-4 9h-5v-9h-5zM1059 15h7q4 0 4 3t-4 3h-7v-6z" />
    <glyph glyph-name="i.loclTRK" horiz-adv-x="249" 
d="M181 613q-26 0 -42 15.5t-16 40.5q0 29 19 46.5t45 17.5t41.5 -15.5t15.5 -39.5q0 -30 -18.5 -47.5t-44.5 -17.5zM41 0l74 518h95l-74 -518h-95z" />
    <glyph glyph-name="caroncomb.alt" 
d="M-81 497l39 220h73l8 -10l-60 -210h-60z" />
    <glyph glyph-name="uni0308.case" 
d="M-214 731q-23 0 -37 13.5t-14 35.5q0 26 17 41.5t40 15.5t36.5 -14t13.5 -35q0 -26 -16.5 -41.5t-39.5 -15.5zM-11 731q-23 0 -37 13.5t-14 35.5q0 26 17 41.5t40 15.5t36.5 -14t13.5 -35q0 -26 -16.5 -41.5t-39.5 -15.5z" />
    <glyph glyph-name="uni0307.case" 
d="M-49 731q-26 0 -42 15.5t-16 40.5q0 29 19 46.5t45 17.5t41.5 -15.5t15.5 -39.5q0 -30 -18.5 -47.5t-44.5 -17.5z" />
    <glyph glyph-name="gravecomb.case" 
d="M12 704l-188 83l-4 12l61 75l157 -117z" />
    <glyph glyph-name="acutecomb.case" 
d="M-148 703l-24 54l167 111l55 -78l-4 -12z" />
    <glyph glyph-name="uni030B.case" 
d="M-230 712l-48 22l74 158l80 -18v-14zM-51 712l-48 22l75 158l79 -18v-14z" />
    <glyph glyph-name="uni0302.case" 
d="M-208 705l-30 45l133 114h43l103 -114l-39 -45l-96 78z" />
    <glyph glyph-name="uni030C.case" 
d="M-121 705l-108 113l42 46l96 -79l107 79l33 -45l-127 -114h-43z" />
    <glyph glyph-name="uni0306.case" 
d="M-92 711q-62 0 -97.5 37.5t-25.5 101.5l63 6q-2 -35 15 -55.5t50 -20.5q35 0 59.5 21t30.5 55l58 -6q-8 -63 -52.5 -101t-100.5 -38z" />
    <glyph glyph-name="uni030A.case" 
d="M-59 685q-39 0 -65 24t-26 62q0 44 30 72.5t77 28.5q39 0 65 -23.5t26 -61.5q0 -44 -30 -73t-77 -29zM-53 735q20 0 33.5 13t13.5 34q0 18 -12 29t-31 11q-20 0 -33.5 -13t-13.5 -34q0 -18 12 -29t31 -11z" />
    <glyph glyph-name="tildecomb.case" 
d="M-214 715l-60 18q8 46 39 75.5t73 29.5q28 0 65.5 -18t55.5 -18q15 0 28.5 11.5t16.5 30.5l2 2l59 -20q-8 -46 -38.5 -74.5t-72.5 -28.5q-22 0 -62 18t-59 18q-17 0 -30 -12t-15 -31z" />
    <glyph glyph-name="uni0304.case" 
d="M-229 750l12 78h278l-12 -78h-278z" />
    <glyph glyph-name="uni0337.case" 
d="M-266 211l12 83l254 151h4l-12 -86l-254 -150z" />
    <glyph glyph-name="uni0338.case" 
d="M-652 -48v9l550 758h84v-7l-553 -760h-81z" />
    <glyph glyph-name="caron.alt" horiz-adv-x="148" 
d="M67 497l39 220h73l8 -10l-60 -210h-60z" />
    <glyph glyph-name="acute.case" horiz-adv-x="277" 
d="M129 703l-24 54l167 111l55 -78l-4 -12z" />
    <glyph glyph-name="breve.case" horiz-adv-x="321" 
d="M229 711q-62 0 -97.5 37.5t-25.5 101.5l63 6q-2 -35 15 -55.5t50 -20.5q35 0 59.5 21t30.5 55l58 -6q-8 -63 -52.5 -101t-100.5 -38z" />
    <glyph glyph-name="caron.case" horiz-adv-x="337" 
d="M216 705l-108 113l42 46l96 -79l107 79l33 -45l-127 -114h-43z" />
    <glyph glyph-name="circumflex.case" horiz-adv-x="336" 
d="M128 705l-30 45l133 114h43l103 -114l-39 -45l-96 78z" />
    <glyph glyph-name="dieresis.case" horiz-adv-x="369" 
d="M155 731q-23 0 -37 13.5t-14 35.5q0 26 17 41.5t40 15.5t36.5 -14t13.5 -35q0 -26 -16.5 -41.5t-39.5 -15.5zM358 731q-23 0 -37 13.5t-14 35.5q0 26 17 41.5t40 15.5t36.5 -14t13.5 -35q0 -26 -16.5 -41.5t-39.5 -15.5z" />
    <glyph glyph-name="dotaccent.case" horiz-adv-x="246" 
d="M197 731q-26 0 -42 15.5t-16 40.5q0 29 19 46.5t45 17.5t41.5 -15.5t15.5 -39.5q0 -30 -18.5 -47.5t-44.5 -17.5z" />
    <glyph glyph-name="grave.case" horiz-adv-x="277" 
d="M289 704l-188 83l-4 12l61 75l157 -117z" />
    <glyph glyph-name="hungarumlaut.case" horiz-adv-x="393" 
d="M163 712l-48 22l74 158l80 -18v-14zM342 712l-48 22l75 158l79 -18v-14z" />
    <glyph glyph-name="macron.case" horiz-adv-x="363" 
d="M91 750l12 78h278l-12 -78h-278z" />
    <glyph glyph-name="ring.case" horiz-adv-x="242" 
d="M183 685q-39 0 -65 24t-26 62q0 44 30 72.5t77 28.5q39 0 65 -23.5t26 -61.5q0 -44 -30 -73t-77 -29zM189 735q20 0 33.5 13t13.5 34q0 18 -12 29t-31 11q-20 0 -33.5 -13t-13.5 -34q0 -18 12 -29t31 -11z" />
    <glyph glyph-name="tilde.case" horiz-adv-x="359" 
d="M145 715l-60 18q8 46 39 75.5t73 29.5q28 0 65.5 -18t55.5 -18q15 0 28.5 11.5t16.5 30.5l2 2l59 -20q-8 -46 -38.5 -74.5t-72.5 -28.5q-23 0 -62 18t-59 18q-17 0 -30 -12t-15 -31z" />
    <glyph glyph-name="IJacute" horiz-adv-x="624" 
d="M130 707l-24 54l167 111l55 -78l-4 -12zM484 707l-24 54l167 111l55 -78l-4 -12zM55 0l93 661h94l-93 -661h-94zM306 -3q-22 0 -51 3l12 80l3 1q14 -3 35 -3q118 0 140 153l61 430h95l-59 -422q-34 -242 -236 -242z" />
    <glyph glyph-name="ijacute" horiz-adv-x="510" 
d="M121 567l-39 50l136 143l72 -70l-1 -12zM383 567l-39 50l136 143l72 -70l-1 -12zM41 0l74 518h95l-74 -518h-95zM203 -170q-21 0 -53 5l12 82l2 1q15 -3 32 -3q51 0 77 31t35 92l69 480h93l-71 -501q-27 -187 -196 -187z" />
    </font>
</defs>
</svg>
