<?xml version="1.0" standalone="no"?>
<!DOCTYPE svg PUBLIC "-//W3C//DTD SVG 1.1//EN" "http://www.w3.org/Graphics/SVG/1.1/DTD/svg11.dtd" >
<svg xmlns="http://www.w3.org/2000/svg" xmlns:xlink="http://www.w3.org/1999/xlink" version="1.1">
<metadata>
Created by FontForge 20170731 at Thu Mar  2 15:41:41 2017
 By Aleksey,,,
Copyright (c) 2017 by Alfonso Garci'a - Latinotype Team. All rights reserved.
</metadata>
<defs>
<font id="RawsonAlt-Regular" horiz-adv-x="0" >
  <font-face 
    font-family="Rawson Alt"
    font-weight="400"
    font-stretch="normal"
    units-per-em="1100"
    panose-1="0 0 5 0 0 0 0 0 0 0"
    ascent="880"
    descent="-220"
    x-height="516"
    cap-height="661"
    bbox="-705 -230 1351 899"
    underline-thickness="50"
    underline-position="-200"
    unicode-range="U+0020-FB02"
  />
<missing-glyph horiz-adv-x="500" 
 />
    <glyph glyph-name="fi" unicode="fi" horiz-adv-x="548" 
d="M426 620q-20 0 -35 14.5t-15 35.5q0 20 15 34.5t35 14.5t35 -14.5t15 -34.5q0 -21 -15 -35.5t-35 -14.5zM107 536q0 86 46.5 132t119.5 46q39 0 64 -11v-65l-3 -1q-17 10 -50 10q-46 0 -74 -28t-28 -83v-19h125v-61h-125v-456h-75v456h-72v61h72v19zM389 0v516h74v-516
h-74z" />
    <glyph glyph-name="fl" unicode="fl" horiz-adv-x="547" 
d="M107 536q0 86 46.5 132t119.5 46q42 0 64 -11v-66l-3 -1q-19 11 -50 11q-46 0 -74 -28t-28 -83v-20h125v-60h-125v-456h-75v456h-72v60h72v20zM387 710h75v-710h-75v710z" />
    <glyph glyph-name=".notdef" horiz-adv-x="500" 
 />
    <glyph glyph-name=".null" 
 />
    <glyph glyph-name="nonmarkingreturn" horiz-adv-x="366" 
 />
    <glyph glyph-name="space" unicode=" " horiz-adv-x="263" 
 />
    <glyph glyph-name="exclam" unicode="!" horiz-adv-x="256" 
d="M96 191l-5 490h75l-6 -490h-64zM127 -11q-22 0 -34 12.5t-12 32.5q0 18 12 30.5t34 12.5t34.5 -12.5t12.5 -30.5q0 -19 -12.5 -32t-34.5 -13z" />
    <glyph glyph-name="quotedbl" unicode="&#x22;" horiz-adv-x="326" 
d="M76 438l-3 223h63l8 -8l-20 -215h-48zM202 438l-3 223h63l8 -8l-20 -215h-48z" />
    <glyph glyph-name="numbersign" unicode="#" horiz-adv-x="567" 
d="M509 368h-80l-25 -151h92v-52h-101l-18 -105h-52l18 105h-158l-18 -105h-52l18 105h-75v52h84l25 151h-97v52h106l18 104h52l-18 -104h158l18 104h52l-18 -104h71v-52zM352 217l25 151h-158l-25 -151h158z" />
    <glyph glyph-name="dollar" unicode="$" horiz-adv-x="484" 
d="M433 217q0 -67 -40.5 -106.5t-112.5 -48.5v-94h-71v92q-89 4 -156 39v67l2 1q74 -47 173 -47q137 0 137 91q0 42 -33.5 62.5t-110.5 40.5q-82 22 -121 55.5t-39 97.5q0 63 45 100t120 44v96h71v-95q70 -3 119 -25v-66l-2 -1q-63 28 -147 28q-129 0 -129 -78q0 -18 7 -32
t15.5 -22.5t30 -17t35.5 -12.5t47 -13q77 -22 118.5 -58t41.5 -98z" />
    <glyph glyph-name="percent" unicode="%" horiz-adv-x="752" 
d="M200 342q-72 0 -116 41.5t-44 118.5q0 76 44.5 119.5t115.5 43.5q72 0 116.5 -43t44.5 -120t-44.5 -118.5t-116.5 -41.5zM119 11l447 641h65l-447 -641h-65zM200 394q45 0 71 28t26 80t-26 81t-71 29t-71 -29t-26 -81t26 -80t71 -28zM552 -5q-71 0 -115 41.5t-44 117.5
q0 78 44 121t115 43q72 0 116 -43t44 -121q0 -76 -44 -117.5t-116 -41.5zM552 48q45 0 71.5 27.5t26.5 78.5q0 53 -26.5 82t-71.5 29t-70.5 -29t-25.5 -82q0 -51 25.5 -78.5t70.5 -27.5z" />
    <glyph glyph-name="ampersand" unicode="&#x26;" horiz-adv-x="659" 
d="M657 345h-83q-10 -123 -57 -209l130 -136h-84l-82 83q-82 -99 -218 -99q-94 0 -153.5 48.5t-59.5 138.5q0 135 144 207q-63 76 -63 150q0 67 51 110.5t125 43.5q80 0 134 -31v-63h-2q-59 32 -123 32q-46 0 -80 -26.5t-34 -70.5q0 -39 25 -75t86 -100l156 -162
q31 70 38 159h-90v56h240v-56zM273 49q100 0 163 81l-175 177l-14 14t-13 14q-56 -27 -84 -62.5t-28 -90.5q0 -63 40.5 -98t110.5 -35z" />
    <glyph glyph-name="quotesingle" unicode="'" horiz-adv-x="201" 
d="M76 438l-3 223h63l8 -8l-20 -215h-48z" />
    <glyph glyph-name="parenleft" unicode="(" horiz-adv-x="296" 
d="M242 -173q-72 30 -131 152t-59 311q0 187 59 309t131 154l28 -56q-57 -34 -102 -140.5t-45 -265.5q0 -160 45.5 -269t101.5 -138z" />
    <glyph glyph-name="parenright" unicode=")" horiz-adv-x="296" 
d="M54 757q72 -30 131 -152t59 -311q0 -187 -59 -309t-131 -154l-28 56q57 34 102 140.5t45 265.5q0 160 -45.5 269t-101.5 138z" />
    <glyph glyph-name="asterisk" unicode="*" horiz-adv-x="470" 
d="M231 576l-6 3l-58 140l3 6l47 13l8 -5l20 -149l-3 -5zM266 568l-7 1l-7 8l94 126l8 -1l32 -33l-27 -33zM215 554l-150 20l-5 5l12 48l10 4l138 -56l3 -6l-3 -12zM401 485l-139 56l-2 6l2 11l5 4l151 -21l4 -5l-12 -48zM132 412l-35 35l1 9l118 92l7 -1l8 -7v-7l-92 -120z
M265 378l-7 5l-21 149l5 5l10 3l6 -4l58 -140l-3 -6z" />
    <glyph glyph-name="plus" unicode="+" horiz-adv-x="495" 
d="M450 322v-59h-172v-185h-60v185h-173v59h173v185h60v-185h172z" />
    <glyph glyph-name="comma" unicode="," horiz-adv-x="195" 
d="M42 -146q23 83 23 159q0 22 -3 52l69 7l10 -11q0 -107 -53 -207h-46z" />
    <glyph glyph-name="hyphen" unicode="-" horiz-adv-x="420" 
d="M73 258v62h273v-62h-273z" />
    <glyph glyph-name="period" unicode="." horiz-adv-x="217" 
d="M108 -5q-24 0 -37.5 14t-13.5 36q0 20 14 34.5t37 14.5q24 0 38 -14.5t14 -34.5q0 -22 -14 -36t-38 -14z" />
    <glyph glyph-name="slash" unicode="/" horiz-adv-x="450" 
d="M35 -118l313 866h68l-313 -866h-68z" />
    <glyph glyph-name="zero" unicode="0" horiz-adv-x="630" 
d="M315 -14q-116 0 -186.5 89.5t-70.5 250.5q0 164 71 255.5t186 91.5q116 0 186.5 -91.5t70.5 -255.5q0 -161 -70.5 -250.5t-186.5 -89.5zM315 51q82 0 130.5 72.5t48.5 202.5q0 132 -48.5 207t-130.5 75t-130 -75t-48 -207q0 -130 48 -202.5t130 -72.5z" />
    <glyph glyph-name="one" unicode="1" horiz-adv-x="372" 
d="M197 0v561l-168 -83h-4v75l230 119h16v-672h-74z" />
    <glyph glyph-name="two" unicode="2" horiz-adv-x="536" 
d="M46 0q-3 134 191 292q86 70 120 112t34 86q0 55 -37 86.5t-107 31.5q-62 0 -110.5 -22.5t-74.5 -50.5l-2 1l-1 66q72 72 197 72q91 0 150 -48t59 -130q0 -63 -37 -113.5t-131 -130.5q-72 -58 -113.5 -107t-45.5 -79h350v-66h-442z" />
    <glyph glyph-name="three" unicode="3" horiz-adv-x="531" 
d="M475 187q2 -90 -62 -146t-166 -56q-118 0 -196 50v73l2 1q73 -61 185 -61q72 0 119 37.5t47 103.5q0 124 -191 126l-54 1v64h54q75 1 118.5 30.5t43.5 86.5q0 51 -38 82t-103 31q-99 0 -162 -49l-1 1v64q75 49 173 49q90 0 147 -44t57 -123q0 -101 -94 -151
q118 -38 121 -170z" />
    <glyph glyph-name="four" unicode="4" horiz-adv-x="590" 
d="M557 213v-67h-117v-146h-69v146h-351v31l362 494h58v-458h117zM121 213h250v342z" />
    <glyph glyph-name="five" unicode="5" horiz-adv-x="538" 
d="M256 -15q-105 0 -197 44v73h2q95 -50 188 -50q75 0 118.5 39.5t43.5 111.5q0 61 -42.5 101.5t-123.5 40.5q-91 0 -170 -23l-2 2l23 338h363v-65h-299l-13 -196q43 11 108 11q110 0 171.5 -55t61.5 -149q0 -110 -67.5 -166.5t-164.5 -56.5z" />
    <glyph glyph-name="six" unicode="6" horiz-adv-x="579" 
d="M322 413q94 0 150 -56.5t56 -146.5q0 -97 -64.5 -161.5t-167.5 -64.5q-114 0 -176 77t-62 227q0 176 82 280.5t215 104.5q75 0 124 -20v-63l-2 -1q-49 19 -121 19q-106 0 -163 -83t-62 -219q27 49 77 78t114 29zM298 51q69 0 112.5 42.5t43.5 110.5q0 61 -39 101t-110 40
q-66 0 -112.5 -42t-53.5 -104q16 -73 57 -110.5t102 -37.5z" />
    <glyph glyph-name="seven" unicode="7" horiz-adv-x="484" 
d="M127 0l250 592h-353v69h440v-35l-259 -626h-78z" />
    <glyph glyph-name="eight" unicode="8" horiz-adv-x="587" 
d="M530 173q1 -82 -62.5 -135t-169.5 -53q-115 0 -178 47t-63 134q-1 118 122 195q-94 55 -94 146q0 75 59 121t154 46q94 0 152 -41t58 -119q0 -99 -111 -167q69 -33 100.5 -72.5t32.5 -101.5zM298 607q-65 0 -100 -27t-35 -72q0 -43 37.5 -72t116.5 -55l25 -10
q91 57 91 136q0 48 -35.5 74t-99.5 26zM299 51q72 0 114 34t40 88q-1 51 -40 80.5t-131 60.5q-4 2 -48 19q-101 -63 -100 -159q1 -60 44.5 -91.5t120.5 -31.5z" />
    <glyph glyph-name="nine" unicode="9" horiz-adv-x="576" 
d="M276 675q112 0 176.5 -80t64.5 -236q0 -179 -72.5 -274t-207.5 -95q-86 0 -145 24v67l2 1q66 -28 136 -28q106 -1 156 71t56 203q-63 -86 -182 -86q-97 0 -155.5 58t-58.5 153q0 98 66 160t164 62zM272 309q58 0 102.5 31t65.5 81q-11 94 -54.5 141t-109.5 47
q-67 0 -111.5 -41t-44.5 -112q0 -65 41.5 -106t110.5 -41z" />
    <glyph glyph-name="colon" unicode=":" horiz-adv-x="236" 
d="M118 397q-22 0 -34 12.5t-12 31.5q0 18 12.5 31t33.5 13q22 0 34.5 -13t12.5 -31q0 -19 -12.5 -31.5t-34.5 -12.5zM118 -5q-22 0 -34 12.5t-12 31.5q0 18 12.5 31t33.5 13q22 0 34.5 -13t12.5 -31q0 -19 -12.5 -31.5t-34.5 -12.5z" />
    <glyph glyph-name="semicolon" unicode=";" horiz-adv-x="257" 
d="M137 398q-24 0 -37.5 14t-13.5 36q0 20 14 34.5t37 14.5q24 0 38 -14.5t14 -34.5q0 -22 -14 -36t-38 -14zM73 -146q23 83 23 159q0 22 -3 52l69 7l10 -11q0 -107 -53 -207h-46z" />
    <glyph glyph-name="less" unicode="&#x3c;" horiz-adv-x="463" 
d="M112 293l14 -6l273 -157l-30 -54l-329 190v54l329 190l30 -54l-274 -157z" />
    <glyph glyph-name="equal" unicode="=" horiz-adv-x="559" 
d="M75 365v59h409v-59h-409zM75 153v60h409v-60h-409z" />
    <glyph glyph-name="greater" unicode="&#x3e;" horiz-adv-x="463" 
d="M94 510l329 -190v-54l-329 -190l-30 54l274 157l13 6l-14 6l-273 157z" />
    <glyph glyph-name="question" unicode="?" horiz-adv-x="429" 
d="M140 188q0 66 18 107t69 79q41 31 60.5 60t19.5 79q0 48 -32.5 79t-89.5 31q-84 0 -138 -50l-2 1v66q53 48 149 48q82 0 134.5 -45t52.5 -123q0 -65 -26.5 -104.5t-82.5 -85.5q-66 -49 -66 -141zM174 -5q-22 0 -34 13t-12 32t12 31.5t34 12.5t34 -12.5t12 -31.5t-12 -32
t-34 -13z" />
    <glyph glyph-name="at" unicode="@" horiz-adv-x="805" 
d="M611 73q-41 0 -63 22t-22 58v1q-41 -86 -137 -86q-69 0 -113.5 47.5t-44.5 133.5t50 138.5t126 52.5q72 0 120 -45l5 35h47v-259q0 -46 39 -46q79 0 79 167q0 112 -73 190t-201 78q-135 0 -220.5 -86.5t-85.5 -224.5t85 -221t226 -83q128 0 209 75h3l28 -40
q-92 -90 -240 -90q-170 0 -271.5 98.5t-101.5 260.5q0 161 103 263t265 102q153 0 245 -94t92 -224q0 -104 -37 -163.5t-112 -59.5zM401 120q84 0 120 89v135q-41 47 -108 47q-54 0 -88.5 -38t-34.5 -101q0 -62 31.5 -97t79.5 -35z" />
    <glyph glyph-name="A" unicode="A" horiz-adv-x="633" 
d="M547 0l-76 175h-311l-73 -175h-74l286 671h30l296 -671h-78zM184 234h261l-123 284l-10 29l-10 -29z" />
    <glyph glyph-name="B" unicode="B" horiz-adv-x="582" 
d="M400 354q61 -18 96.5 -61t35.5 -103q0 -190 -256 -190h-176v661q77 7 163 7q117 0 171 -45.5t54 -121.5q0 -106 -88 -147zM271 607q-62 0 -99 -3v-234h109q63 0 100 32t37 89q0 116 -147 116zM270 57q103 0 145.5 34.5t42.5 97.5q0 54 -40.5 89t-112.5 35h-133v-256h98z
" />
    <glyph glyph-name="C" unicode="C" horiz-adv-x="636" 
d="M402 -12q-157 1 -252.5 92.5t-95.5 244.5q0 157 96.5 252t252.5 95q104 0 190 -38v-70l-3 -1q-79 41 -178 41q-128 0 -204.5 -75t-76.5 -201q0 -124 74.5 -197.5t206.5 -73.5q96 0 178 41l3 -1v-67q-84 -42 -191 -42z" />
    <glyph glyph-name="D" unicode="D" horiz-adv-x="732" 
d="M307 669q182 0 276.5 -89t94.5 -244q0 -161 -97.5 -249t-276.5 -88q-153 0 -204 3v659q109 8 207 8zM312 65q142 1 215 70.5t73 199.5q0 125 -75.5 195.5t-219.5 70.5q-61 0 -131 -5v-528q46 -3 138 -3z" />
    <glyph glyph-name="E" unicode="E" horiz-adv-x="550" 
d="M175 69h326v-69h-401v661h388v-69h-313v-217h294v-69h-294v-237z" />
    <glyph glyph-name="F" unicode="F" horiz-adv-x="512" 
d="M484 593h-309v-240h263v-66h-263v-287h-75v661h384v-68z" />
    <glyph glyph-name="G" unicode="G" horiz-adv-x="697" 
d="M393 -10q-161 0 -250 90.5t-89 248.5q0 153 98 248t260 95q110 0 196 -37l-1 -73l-3 -1q-86 43 -194 43q-127 0 -202.5 -76t-75.5 -199q0 -125 68.5 -198t196.5 -73q100 0 171 36v210h68v-257q-104 -57 -243 -57z" />
    <glyph glyph-name="H" unicode="H" horiz-adv-x="744" 
d="M569 661h75v-661h-75v302h-394v-302h-75v661h75v-292h394v292z" />
    <glyph glyph-name="I" unicode="I" horiz-adv-x="274" 
d="M100 0v661h75v-661h-75z" />
    <glyph glyph-name="J" unicode="J" horiz-adv-x="356" 
d="M65 -3q-23 0 -51 3v64l3 1q17 -3 40 -3q132 0 132 157v442h75v-436q0 -228 -199 -228z" />
    <glyph glyph-name="K" unicode="K" horiz-adv-x="616" 
d="M242 337l375 -334l-1 -3h-97l-344 304v-304h-75v661h75v-302l333 302h89l1 -3z" />
    <glyph glyph-name="L" unicode="L" horiz-adv-x="500" 
d="M175 63h313v-63h-388v661h75v-598z" />
    <glyph glyph-name="M" unicode="M" horiz-adv-x="854" 
d="M719 661l66 -661h-71l-47 493h-2l-224 -488h-25l-226 487h-2l-49 -492h-70l67 661h47l249 -528l242 528h45z" />
    <glyph glyph-name="N" unicode="N" horiz-adv-x="739" 
d="M100 0v663h31l433 -511h3v509h72v-664h-30l-435 513h-2v-510h-72z" />
    <glyph glyph-name="O" unicode="O" horiz-adv-x="788" 
d="M394 -14q-145 0 -242.5 92t-97.5 252q0 158 96.5 251t243.5 93q145 0 242.5 -92t97.5 -252q0 -157 -96.5 -250.5t-243.5 -93.5zM394 53q116 0 189 74.5t73 202.5t-73 202.5t-189 74.5t-189 -74.5t-73 -202.5t73 -202.5t189 -74.5z" />
    <glyph glyph-name="P" unicode="P" horiz-adv-x="552" 
d="M517 464q1 -102 -65.5 -157t-186.5 -55q-43 0 -91 5v-257h-74v661q86 6 167 6q123 0 186 -53t64 -150zM256 315q91 0 138.5 37t47.5 109q0 64 -42 102.5t-128 38.5q-47 0 -98 -3v-278q44 -6 82 -6z" />
    <glyph glyph-name="Q" unicode="Q" horiz-adv-x="788" 
d="M734 330q0 -141 -78.5 -231.5t-204.5 -108.5q20 -56 59 -85.5t107 -41.5l1 -2l-26 -56q-86 16 -135.5 60t-75.5 121q-140 5 -233.5 96t-93.5 248q0 158 96.5 251t243.5 93q145 0 242.5 -92t97.5 -252zM394 53q116 0 189 74.5t73 202.5t-73 202.5t-189 74.5t-189 -74.5
t-73 -202.5t73 -202.5t189 -74.5z" />
    <glyph glyph-name="R" unicode="R" horiz-adv-x="581" 
d="M370 273l172 -270l-1 -3h-81l-163 260h-14h-109v-260h-74v661q98 6 169 6q113 0 177 -49.5t64 -151.5q0 -76 -38.5 -124.5t-101.5 -68.5zM174 320h89q75 0 123 36.5t48 103.5q0 68 -39.5 105t-118.5 37q-64 0 -102 -4v-278z" />
    <glyph glyph-name="S" unicode="S" horiz-adv-x="509" 
d="M242 -14q-109 0 -187 46v76l3 2q77 -58 176 -58q66 0 105.5 30.5t39.5 80.5q0 55 -34.5 87.5t-110.5 67.5q-79 36 -124 78t-45 108q0 84 59.5 129.5t147.5 45.5q96 0 165 -32v-71l-3 -1q-60 37 -155 39q-61 0 -99.5 -25.5t-38.5 -73.5q0 -25 10 -44.5t33.5 -36.5
t42.5 -27t58 -28q38 -18 63.5 -33.5t52 -40t39.5 -57.5t13 -74q0 -86 -58.5 -137t-152.5 -51z" />
    <glyph glyph-name="T" unicode="T" horiz-adv-x="554" 
d="M538 661v-67h-222v-594h-74v594h-227v67h523z" />
    <glyph glyph-name="U" unicode="U" horiz-adv-x="713" 
d="M357 -14q-128 0 -197 69.5t-69 197.5v408h74v-398q0 -104 50 -158t143 -54q92 0 142 54.5t50 157.5v398h73v-408q0 -127 -70 -197t-196 -70z" />
    <glyph glyph-name="V" unicode="V" horiz-adv-x="624" 
d="M610 661l1 -3l-278 -672h-42l-278 672l1 3h78l215 -533l8 -30l9 30l212 533h74z" />
    <glyph glyph-name="W" unicode="W" horiz-adv-x="964" 
d="M943 661l1 -3l-219 -670h-55l-180 527l-6 24l-7 -24l-180 -527h-56l-224 670l1 3h79l167 -530l8 -37l9 37l176 527h54l178 -521l9 -38l8 38l165 524h72z" />
    <glyph glyph-name="X" unicode="X" horiz-adv-x="614" 
d="M356 345l245 -342l-1 -3h-87l-210 293l-205 -293h-80l-1 3l239 340l-226 315l1 3h88l191 -269l186 269h82l1 -3z" />
    <glyph glyph-name="Y" unicode="Y" horiz-adv-x="589" 
d="M258 0v276l-243 382l1 3h79l202 -316l200 316h75l1 -3l-241 -383v-275h-74z" />
    <glyph glyph-name="Z" unicode="Z" horiz-adv-x="582" 
d="M36 0v26l402 573h-399v62h503v-26l-406 -573h411v-62h-511z" />
    <glyph glyph-name="bracketleft" unicode="[" horiz-adv-x="302" 
d="M268 691h-110v-794h110v-55h-174v905h174v-56z" />
    <glyph glyph-name="backslash" unicode="\" horiz-adv-x="450" 
d="M416 -118h-68l-313 866h68z" />
    <glyph glyph-name="bracketright" unicode="]" horiz-adv-x="302" 
d="M34 747h174v-905h-174v55h109v794h-109v56z" />
    <glyph glyph-name="asciicircum" unicode="^" horiz-adv-x="492" 
d="M270 673l174 -324l-50 -23l-142 270l-5 13l-6 -13l-141 -270l-50 23l173 324h47z" />
    <glyph glyph-name="underscore" unicode="_" horiz-adv-x="474" 
d="M37 -61v60h400v-60h-400z" />
    <glyph glyph-name="grave" unicode="`" horiz-adv-x="238" 
d="M195 563l-176 117l-2 11l52 54l153 -143z" />
    <glyph glyph-name="a" unicode="a" horiz-adv-x="630" 
d="M603 74l3 -1v-64q-26 -16 -62 -16q-80 0 -85 79q-62 -84 -182 -84q-101 0 -163.5 68t-62.5 191q0 126 73.5 203.5t191.5 77.5q86 0 145 -46l5 34h61v-400q0 -29 10 -41.5t31 -12.5q20 0 35 12zM297 55q52 0 92.5 25t62.5 69v267q-55 46 -135 46q-83 0 -135.5 -58
t-52.5 -153q0 -97 46.5 -146.5t121.5 -49.5z" />
    <glyph glyph-name="b" unicode="b" horiz-adv-x="612" 
d="M330 528q101 0 165.5 -67.5t64.5 -190.5q0 -131 -75 -206.5t-190 -75.5q-129 0 -213 47v675h76v-260q60 78 172 78zM296 54q82 0 134.5 54.5t52.5 155.5q0 95 -47 146t-121 51q-49 0 -92.5 -26t-64.5 -70v-282q56 -29 138 -29z" />
    <glyph glyph-name="c" unicode="c" horiz-adv-x="500" 
d="M322 -12q-121 0 -196.5 73.5t-75.5 196.5t76.5 197t195.5 74q74 0 134 -23v-63l-3 -2q-58 23 -124 23q-90 0 -146 -56t-56 -147q0 -94 54.5 -150.5t147.5 -57.5q65 0 126 33l4 -2v-64q-58 -32 -137 -32z" />
    <glyph glyph-name="d" unicode="d" horiz-adv-x="635" 
d="M604 77l3 -1l-1 -65q-24 -18 -62 -18q-80 0 -85 78q-59 -83 -179 -83q-100 0 -164.5 68.5t-64.5 194.5q0 121 73.5 199t186.5 78q86 0 142 -39v221h76v-594q0 -30 9.5 -42t31.5 -12q18 0 34 15zM297 55q51 0 92 25t64 68v269q-56 45 -135 45q-83 0 -136 -57.5t-53 -151.5
q0 -97 47.5 -147.5t120.5 -50.5z" />
    <glyph glyph-name="e" unicode="e" horiz-adv-x="571" 
d="M297 528q107 0 167 -66t61 -184q0 -23 -1 -35h-397q5 -91 62.5 -140.5t144.5 -49.5q82 0 159 41l3 -1v-63q-73 -43 -175 -43q-114 0 -192.5 69t-78.5 203q0 120 70.5 194.5t176.5 74.5zM297 464q-65 0 -110.5 -42t-56.5 -117h321q-7 75 -47 117t-107 42z" />
    <glyph glyph-name="f" unicode="f" horiz-adv-x="332" 
d="M273 714q45 0 69 -11v-66l-3 -1q-21 11 -55 11q-47 0 -74.5 -27t-27.5 -84v-20h128v-60h-128v-456h-75v456h-72v60h72v12q0 92 46.5 139t119.5 47z" />
    <glyph glyph-name="g" unicode="g" horiz-adv-x="611" 
d="M475 521h53v-466q0 -109 -68 -166.5t-191 -57.5q-107 0 -183 43v75l3 1q75 -52 177 -52q186 0 186 156v37q-62 -76 -175 -76q-100 0 -163 65t-63 184q0 120 75 192t181 72q101 0 158 -49zM452 175v242q-54 45 -137 45q-82 0 -134.5 -52t-52.5 -142q0 -89 47 -138t120 -49
q106 0 157 94z" />
    <glyph glyph-name="h" unicode="h" horiz-adv-x="613" 
d="M333 528q91 0 147 -57.5t56 -165.5v-305h-75v288q0 87 -40.5 127t-106.5 40q-53 0 -94 -28t-60 -78v-349h-76v710h76v-266q57 84 173 84z" />
    <glyph glyph-name="i" unicode="i" horiz-adv-x="244" 
d="M122 614q-21 0 -36.5 15.5t-15.5 37.5q0 21 15.5 36t36.5 15t36.5 -15t15.5 -36q0 -22 -15.5 -37.5t-36.5 -15.5zM84 0v516h76v-516h-76z" />
    <glyph glyph-name="j" unicode="j" horiz-adv-x="261" 
d="M139 614q-21 0 -36.5 15.5t-15.5 37.5q0 21 15.5 36t36.5 15t36.5 -15t15.5 -36q0 -22 -15.5 -37.5t-36.5 -15.5zM10 -169q-19 0 -49 5v65l3 1q15 -3 32 -3q106 0 106 129v488h75v-504q0 -181 -167 -181z" />
    <glyph glyph-name="k" unicode="k" horiz-adv-x="526" 
d="M232 269l283 -266l-1 -3h-94l-260 242v-242h-76v710h76v-422l252 228h89l1 -3z" />
    <glyph glyph-name="l" unicode="l" horiz-adv-x="271" 
d="M197 -9q-115 0 -115 116v603h74v-580q0 -38 13.5 -54.5t42.5 -16.5q20 0 39 12l3 -1v-66q-28 -13 -57 -13z" />
    <glyph glyph-name="m" unicode="m" horiz-adv-x="938" 
d="M669 528q82 0 137 -55t55 -160v-313h-74v293q0 83 -37 122.5t-97 39.5q-47 0 -85 -26.5t-59 -75.5q2 -26 2 -40v-313h-76v293q0 83 -36.5 122.5t-96.5 39.5q-48 0 -87 -28.5t-55 -77.5v-349h-76v516h62l8 -76q22 37 65 62.5t102 25.5q54 0 98 -25.5t68 -74.5
q24 43 70 71.5t112 28.5z" />
    <glyph glyph-name="n" unicode="n" horiz-adv-x="614" 
d="M333 528q90 0 147 -57.5t57 -170.5v-300h-75v281q0 90 -41.5 132t-107.5 42q-53 0 -94 -29t-59 -79v-347h-76v516h62l9 -78q58 90 178 90z" />
    <glyph glyph-name="o" unicode="o" horiz-adv-x="631" 
d="M314 -13q-114 0 -189 72t-75 200q0 122 76.5 195.5t187.5 73.5q116 0 191.5 -71.5t75.5 -198.5q0 -123 -77 -197t-190 -74zM314 53q84 0 136.5 56t52.5 150q0 93 -52.5 148t-136.5 55q-83 0 -135 -55t-52 -148q0 -94 52 -150t135 -56z" />
    <glyph glyph-name="p" unicode="p" horiz-adv-x="613" 
d="M334 528q102 0 165 -69.5t63 -188.5q0 -130 -71.5 -206t-187.5 -76q-85 0 -143 36v-188h-76v680h62l8 -72q59 84 180 84zM299 54q86 0 136 55.5t50 156.5q0 92 -45.5 143.5t-122.5 51.5q-50 0 -93.5 -27t-63.5 -69v-271q55 -40 139 -40z" />
    <glyph glyph-name="q" unicode="q" horiz-adv-x="612" 
d="M467 516h62v-680h-76v228q-58 -76 -174 -76q-101 0 -164.5 69t-63.5 193q0 125 74 201.5t183 76.5q98 0 154 -47zM297 55q52 0 93 25.5t63 69.5v267q-53 45 -136 45t-135.5 -57t-52.5 -151q0 -98 46 -148.5t122 -50.5z" />
    <glyph glyph-name="r" unicode="r" horiz-adv-x="380" 
d="M301 527q33 0 60 -10v-68l-3 -1q-22 10 -57 10q-118 0 -141 -139v-319h-76v516h62l8 -75q43 86 147 86z" />
    <glyph glyph-name="s" unicode="s" horiz-adv-x="477" 
d="M221 -13q-105 0 -174 39v73l3 1q72 -48 167 -48q142 0 142 82q0 39 -30 58.5t-109 40.5q-83 22 -124 54t-41 94q0 67 57 107t149 40q87 0 145 -26v-67l-3 -1q-63 29 -143 29q-59 0 -95 -20.5t-36 -56.5q0 -33 30 -51t101 -36q91 -23 132 -58t41 -100q0 -74 -57.5 -114
t-154.5 -40z" />
    <glyph glyph-name="t" unicode="t" horiz-adv-x="390" 
d="M379 85l3 -1v-64q-42 -25 -111 -25q-72 0 -110.5 39t-38.5 115v304h-99v63h99v127l73 14l3 -2v-139h182v-63h-182v-290q0 -101 93 -101q48 0 88 23z" />
    <glyph glyph-name="u" unicode="u" horiz-adv-x="600" 
d="M440 516h76v-516h-62l-8 70q-54 -82 -175 -82q-92 0 -142.5 52.5t-50.5 156.5v319h76v-306q0 -157 137 -157q50 0 91 27t58 78v358z" />
    <glyph glyph-name="v" unicode="v" horiz-adv-x="546" 
d="M528 516l1 -3l-228 -519h-54l-230 519l1 3h82l176 -425l174 425h78z" />
    <glyph glyph-name="w" unicode="w" horiz-adv-x="802" 
d="M778 516l1 -3l-172 -513h-56l-142 403l-6 21l-5 -21l-146 -403h-57l-173 513l1 3h76l124 -398l4 -22l5 22l141 398h62l139 -397l5 -22l4 23l126 396h69z" />
    <glyph glyph-name="x" unicode="x" horiz-adv-x="527" 
d="M312 265l196 -262l-1 -3h-85l-159 214l-161 -214h-80l-1 3l197 260l-189 250l1 3h86l151 -204l152 204h78l1 -3z" />
    <glyph glyph-name="y" unicode="y" horiz-adv-x="522" 
d="M504 516l1 -3l-220 -518l-66 -157h-78l-2 3l88 181l-208 491l1 3h81l164 -420l164 420h75z" />
    <glyph glyph-name="z" unicode="z" horiz-adv-x="511" 
d="M141 65h335v-65h-438v34l326 417h-324v65h428v-36z" />
    <glyph glyph-name="braceleft" unicode="{" horiz-adv-x="318" 
d="M189 403q0 -49 -32.5 -78t-64.5 -29v-4q32 0 64.5 -29t32.5 -78v-221q0 -44 18 -58.5t59 -14.5h17v-57h-29q-67 0 -99 29t-32 97v209q0 43 -28.5 68t-56.5 25v66q28 0 56.5 24t28.5 66v209q0 68 32 97t99 29h29v-57h-17q-41 0 -59 -14.5t-18 -57.5v-221z" />
    <glyph glyph-name="bar" unicode="|" horiz-adv-x="256" 
d="M94 -101v827h69v-827h-69z" />
    <glyph glyph-name="braceright" unicode="}" horiz-adv-x="318" 
d="M194 418q0 -43 28.5 -68t57.5 -25v-66q-29 0 -57.5 -24t-28.5 -66v-209q0 -68 -32 -97t-98 -29h-29v57h18q40 0 58 14.5t18 58.5v221q0 49 32.5 78t64.5 29v4q-32 0 -64.5 29t-32.5 78v221q0 43 -18 57.5t-58 14.5h-18v57h29q66 0 98 -29t32 -97v-209z" />
    <glyph glyph-name="asciitilde" unicode="~" horiz-adv-x="528" 
d="M123 237l-51 7q0 45 29 72.5t74 27.5q38 0 94 -21t83 -21q23 0 38.5 11t16.5 34l2 2l48 -10q0 -43 -29 -70t-73 -27q-33 0 -90 21t-85 21q-23 0 -39 -12t-17 -33z" />
    <glyph glyph-name="exclamdown" unicode="&#xa1;" horiz-adv-x="239" 
d="M120 445q-22 0 -34 12t-12 31t12 32t34 13t34.5 -13t12.5 -32t-12.5 -31t-34.5 -12zM82 -159l5 489h65l5 -489h-75z" />
    <glyph glyph-name="cent" unicode="&#xa2;" horiz-adv-x="573" 
d="M514 159v-66q-70 -37 -154 -39v-92h-71v95q-111 15 -174.5 86.5t-63.5 182.5q0 114 65 188.5t175 89.5v97h71v-94q74 -2 145 -31v-65l-4 -3q-74 32 -154 32q-99 0 -159 -57.5t-60 -151.5t58 -151.5t159 -57.5q94 0 163 40z" />
    <glyph glyph-name="sterling" unicode="&#xa3;" horiz-adv-x="577" 
d="M178 63h351v-63h-454l-3 6q70 91 70 226q0 30 -7 72h-96v62h85q-9 50 -9 86q0 106 66 163t163 57t161 -37v-69l-2 -2q-69 42 -155 42q-73 0 -115.5 -38.5t-42.5 -111.5q0 -38 9 -90h222v-62h-211q7 -44 7 -72q0 -101 -39 -169z" />
    <glyph glyph-name="currency" unicode="&#xa4;" horiz-adv-x="711" 
d="M622 334q0 -90 -55 -163l77 -77l-50 -49l-77 76q-73 -55 -163 -55t-159 52l-74 -73l-50 49l73 73q-58 74 -58 167q0 91 56 163l-71 69l50 51l71 -71q71 55 162 55q94 0 166 -58l74 74l50 -51l-74 -74q52 -69 52 -158zM152 334q0 -85 59 -145t143 -60t143 60t59 145
q0 84 -59 143.5t-143 59.5t-143 -59.5t-59 -143.5z" />
    <glyph glyph-name="yen" unicode="&#xa5;" horiz-adv-x="629" 
d="M596 667l-213 -339h145v-59h-176v-91h176v-59h-176v-119h-73v119h-173v59h173v91h-173v59h142l-215 339h82l202 -323l201 323h78z" />
    <glyph glyph-name="brokenbar" unicode="&#xa6;" horiz-adv-x="264" 
d="M98 421v305h69v-305h-69zM98 -101v310h69v-310h-69z" />
    <glyph glyph-name="section" unicode="&#xa7;" horiz-adv-x="524" 
d="M412 108q42 -37 42 -93q0 -76 -59.5 -119.5t-150.5 -43.5q-102 0 -168 38v65l3 1q70 -42 162 -42q61 0 98.5 24.5t37.5 73.5q0 27 -19.5 48t-41.5 32.5t-78 36.5q-13 6 -20 9q-87 40 -127 76t-40 95q0 71 67 120q-45 42 -45 100q0 74 58 116t148 42q99 0 160 -34v-65h-2
q-59 36 -151 36q-59 0 -99 -24t-40 -73q0 -39 30.5 -61.5t104.5 -54.5q15 -7 23 -10q86 -37 128.5 -75t42.5 -96q0 -70 -64 -122zM262 191q82 -35 114 -56q34 33 34 80q0 40 -33 68t-115 65q-81 38 -109 55q-36 -35 -36 -82q0 -39 33 -67t112 -63z" />
    <glyph glyph-name="dieresis" unicode="&#xa8;" horiz-adv-x="310" 
d="M63 616q-21 0 -35.5 14.5t-14.5 35.5q0 20 14.5 34.5t35.5 14.5q20 0 35 -14.5t15 -34.5q0 -21 -15 -35.5t-35 -14.5zM255 616q-21 0 -35.5 14.5t-14.5 35.5q0 20 14.5 34.5t35.5 14.5q20 0 35 -15t15 -34q0 -21 -15 -35.5t-35 -14.5z" />
    <glyph glyph-name="copyright" unicode="&#xa9;" horiz-adv-x="695" 
d="M348 -12q-129 0 -212 83.5t-83 212.5t83 212t212 83t211.5 -83t82.5 -212t-82.5 -212.5t-211.5 -83.5zM347 32q110 0 178 70t68 182q0 111 -69 181t-177 70q-107 0 -175.5 -70t-68.5 -181t68.5 -181.5t175.5 -70.5zM362 131q-72 0 -116.5 40t-44.5 108q0 70 45 112
t116 42q46 0 84 -15v-49l-3 -1q-33 16 -75 16q-50 0 -80 -28t-30 -74t30 -73.5t81 -27.5q44 0 78 18l2 -1v-48q-36 -19 -87 -19z" />
    <glyph glyph-name="ordfeminine" unicode="&#xaa;" horiz-adv-x="472" 
d="M424 405l2 -1v-48q-16 -11 -50 -11q-53 0 -58 58q-55 -63 -146 -63q-51 0 -84.5 30t-33.5 79q0 61 42.5 89.5t104.5 28.5q74 0 113 -17v23q0 54 -32 80.5t-88 26.5q-66 0 -108 -26l-2 2v49q37 27 119 27t125.5 -40t43.5 -117v-137q0 -41 27 -41q16 0 25 8zM188 390
q36 0 72 17.5t54 45.5v49q-43 16 -102 16q-97 0 -97 -65q0 -31 20 -47t53 -16z" />
    <glyph glyph-name="guillemotleft" unicode="&#xab;" horiz-adv-x="545" 
d="M202 94l-166 183l167 181h77v-8l-159 -172l159 -178v-6h-78zM412 94l-166 183l167 181h77v-8l-159 -172l159 -178v-6h-78z" />
    <glyph glyph-name="registered" unicode="&#xae;" horiz-adv-x="637" 
d="M320 726q114 0 186 -73t72 -187t-72 -187t-186 -73q-115 0 -188.5 73t-73.5 187t73.5 187t188.5 73zM318 247q96 0 154 61t58 158q0 96 -59 157.5t-153 61.5q-93 0 -152.5 -61.5t-59.5 -157.5t59.5 -157.5t152.5 -61.5zM421 512q0 -58 -49 -79l63 -88h-55l-57 80h-1h-57
v-80h-48v251q42 2 98 2q106 0 106 -86zM265 554v-88h54q52 0 52 45q0 44 -56 44q-42 0 -50 -1z" />
    <glyph glyph-name="macron" unicode="&#xaf;" horiz-adv-x="348" 
d="M24 621v57h287v-57h-287z" />
    <glyph glyph-name="degree" unicode="&#xb0;" horiz-adv-x="354" 
d="M178 426q-54 0 -89.5 35t-35.5 87q0 53 35.5 88t89.5 35q53 0 88 -35t35 -88q0 -52 -35 -87t-88 -35zM178 469q33 0 54.5 23t21.5 56q0 34 -21.5 57t-54.5 23q-34 0 -55.5 -23t-21.5 -57q0 -33 21.5 -56t55.5 -23z" />
    <glyph glyph-name="plusminus" unicode="&#xb1;" horiz-adv-x="539" 
d="M472 272h-173v-154h169v-59h-397v59h169v154h-173v58h174v177h58v-177h173v-58z" />
    <glyph glyph-name="acute" unicode="&#xb4;" horiz-adv-x="238" 
d="M44 563l-27 39l153 143l52 -54l-3 -11z" />
    <glyph glyph-name="paragraph" unicode="&#xb6;" horiz-adv-x="577" 
d="M527 600v-67h-64v-644h-24v644h-70v-644h-71v330q-134 0 -199 45.5t-65 147.5q1 89 63.5 138.5t189.5 49.5h240z" />
    <glyph glyph-name="periodcentered" unicode="&#xb7;" horiz-adv-x="232" 
d="M116 199q-46 0 -46 43q0 19 12 31.5t34 12.5t34 -12.5t12 -31.5t-12 -31t-34 -12z" />
    <glyph glyph-name="cedilla" unicode="&#xb8;" horiz-adv-x="203" 
d="M73 -230q-33 0 -61 10v45l2 1q21 -8 49 -8q31 0 48.5 12.5t17.5 36.5q0 41 -48 41q-25 0 -46 -8l-1 2v37l37 61h50l-31 -52q8 3 21 3q36 0 60.5 -19.5t24.5 -62.5q0 -50 -34.5 -74.5t-88.5 -24.5z" />
    <glyph glyph-name="ordmasculine" unicode="&#xba;" horiz-adv-x="502" 
d="M251 331q-86 0 -144 55t-58 150q0 94 57 150.5t145 56.5q86 0 144 -55t58 -151q0 -94 -57 -150t-145 -56zM251 386q61 0 99 41t38 110q0 68 -38 109t-99 41q-60 0 -98 -41t-38 -109q0 -69 37.5 -110t98.5 -41z" />
    <glyph glyph-name="guillemotright" unicode="&#xbb;" horiz-adv-x="545" 
d="M133 457l166 -183l-167 -181h-77v8l159 172l-159 178v6h78zM343 457l166 -183l-167 -181h-77v8l159 172l-159 178v6h78z" />
    <glyph glyph-name="onequarter" unicode="&#xbc;" horiz-adv-x="739" 
d="M110 300v288l-86 -34v65l140 53h8v-372h-62zM515 661h62l-430 -673h-62zM708 115v-41h-62v-74h-58v74h-202v25l210 276h50v-260h62zM452 115h136v179z" />
    <glyph glyph-name="onehalf" unicode="&#xbd;" horiz-adv-x="740" 
d="M124 300v288l-86 -34v65l140 53h8v-372h-62zM57 -12l429 673h63l-430 -673h-62zM428 0q-1 39 26.5 81.5t79.5 80.5q53 40 72 60.5t19 42.5q0 24 -19.5 40t-52.5 16q-69 0 -116 -41l-1 1v53q53 40 123 40q57 0 94 -26.5t37 -74.5q0 -38 -23 -68t-74 -67q-75 -53 -80 -88
h193v-50h-278z" />
    <glyph glyph-name="threequarters" unicode="&#xbe;" horiz-adv-x="776" 
d="M300 408q0 -53 -39.5 -84.5t-103.5 -31.5q-72 0 -118 28v50l1 1q42 -30 110 -30q41 0 67 18t26 50q0 31 -21 46.5t-55 15.5h-57v43h51q29 0 47.5 14.5t18.5 39.5q0 56 -81 56q-60 0 -95 -24h-1v51q44 23 104 23q59 0 95.5 -23.5t36.5 -71.5q0 -52 -51 -82q65 -24 65 -89z
M574 661h63l-430 -673h-62zM743 115v-41h-61v-74h-58v74h-203v25l211 276h50v-260h61zM488 115h136v179z" />
    <glyph glyph-name="questiondown" unicode="&#xbf;" horiz-adv-x="422" 
d="M250 528q22 0 34 -13t12 -32t-12 -31.5t-34 -12.5t-34 12.5t-12 31.5t12 32t34 13zM284 335q0 -66 -18 -107t-69 -79q-41 -31 -60.5 -60t-19.5 -79q0 -48 32.5 -79t89.5 -31q84 0 138 50l2 -1v-66q-53 -48 -149 -48q-82 0 -134.5 45t-52.5 123q0 65 26.5 104.5t82.5 85.5
q66 49 66 141z" />
    <glyph glyph-name="Agrave" unicode="&#xc0;" horiz-adv-x="633" 
d="M398 701l-200 85l-5 11l40 59l180 -112zM547 0l-76 175h-311l-73 -175h-74l286 671h30l296 -671h-78zM184 234h261l-123 284l-10 29l-10 -29z" />
    <glyph glyph-name="Aacute" unicode="&#xc1;" horiz-adv-x="633" 
d="M419 786l-199 -85l-16 42l180 113l40 -59zM547 0l-76 175h-311l-73 -175h-74l286 671h30l296 -671h-78zM184 234h261l-123 284l-10 29l-10 -29z" />
    <glyph glyph-name="Acircumflex" unicode="&#xc2;" horiz-adv-x="633" 
d="M309 784l-108 -83l-28 37l120 111h35l124 -111l-29 -37zM547 0l-76 175h-311l-73 -175h-74l286 671h30l296 -671h-78zM184 234h261l-123 284l-10 29l-10 -29z" />
    <glyph glyph-name="Atilde" unicode="&#xc3;" horiz-adv-x="633" 
d="M207 716l-2 -1l-51 14q2 41 27.5 67.5t63.5 26.5q28 0 71.5 -18.5t62.5 -18.5q17 0 29.5 11.5t12.5 31.5l2 2l51 -16q-2 -42 -27 -67.5t-64 -25.5q-23 0 -67.5 19t-65.5 19q-18 0 -30.5 -12t-12.5 -32zM547 0l-76 175h-311l-73 -175h-74l286 671h30l296 -671h-78z
M184 234h261l-123 284l-10 29l-10 -29z" />
    <glyph glyph-name="Adieresis" unicode="&#xc4;" horiz-adv-x="633" 
d="M213 731q-19 0 -32 13t-13 32t13 32t32 13t32 -13t13 -32t-13 -32t-32 -13zM416 731q-19 0 -32 13t-13 32t13 32t32 13t32 -13t13 -32t-13 -32t-32 -13zM547 0l-76 175h-311l-73 -175h-74l286 671h30l296 -671h-78zM184 234h261l-123 284l-10 29l-10 -29z" />
    <glyph glyph-name="Aring" unicode="&#xc5;" horiz-adv-x="633" 
d="M313 682q-41 0 -66.5 24.5t-25.5 62.5t25.5 62.5t66.5 24.5q40 0 65.5 -24.5t25.5 -62.5t-25.5 -62.5t-65.5 -24.5zM313 815q-20 0 -33 -13.5t-13 -32.5t13 -32.5t33 -13.5t33 13.5t13 32.5t-13 32.5t-33 13.5zM547 0l-76 175h-311l-73 -175h-74l286 671h30l296 -671h-78
zM184 234h261l-123 284l-10 29l-10 -29z" />
    <glyph glyph-name="AE" unicode="&#xc6;" horiz-adv-x="819" 
d="M485 63h284v-63h-359v202h-229l-126 -202h-77l412 661h366v-62h-271v-225h252v-62h-252v-249zM215 256h195v322l-47 -85z" />
    <glyph glyph-name="Ccedilla" unicode="&#xc7;" horiz-adv-x="636" 
d="M412 604q-128 0 -204.5 -75t-76.5 -201q0 -124 74.5 -197.5t206.5 -73.5q96 0 178 41l3 -1v-67q-76 -38 -168 -42l-24 -40q7 3 21 3q36 0 60.5 -19.5t24.5 -62.5q0 -50 -34.5 -74.5t-88.5 -24.5q-33 0 -61 10v45l2 1q21 -8 49 -8q31 0 48.5 12.5t17.5 36.5q0 41 -48 41
q-25 0 -46 -8l-1 2v37l30 50q-146 9 -233.5 99.5t-87.5 236.5q0 157 96.5 252t252.5 95q104 0 190 -38v-70l-3 -1q-79 41 -178 41z" />
    <glyph glyph-name="Egrave" unicode="&#xc8;" horiz-adv-x="550" 
d="M392 701l-200 85l-5 11l40 59l180 -112zM175 69h326v-69h-401v661h388v-69h-313v-217h294v-69h-294v-237z" />
    <glyph glyph-name="Eacute" unicode="&#xc9;" horiz-adv-x="550" 
d="M413 786l-199 -85l-16 42l180 113l40 -59zM175 69h326v-69h-401v661h388v-69h-313v-217h294v-69h-294v-237z" />
    <glyph glyph-name="Ecircumflex" unicode="&#xca;" horiz-adv-x="550" 
d="M303 784l-108 -83l-28 37l120 111h35l124 -111l-29 -37zM175 69h326v-69h-401v661h388v-69h-313v-217h294v-69h-294v-237z" />
    <glyph glyph-name="Edieresis" unicode="&#xcb;" horiz-adv-x="550" 
d="M207 731q-19 0 -32 13t-13 32t13 32t32 13t32 -13t13 -32t-13 -32t-32 -13zM410 731q-19 0 -32 13t-13 32t13 32t32 13t32 -13t13 -32t-13 -32t-32 -13zM175 69h326v-69h-401v661h388v-69h-313v-217h294v-69h-294v-237z" />
    <glyph glyph-name="Igrave" unicode="&#xcc;" horiz-adv-x="274" 
d="M223 701l-200 85l-5 11l40 59l180 -112zM100 0v661h75v-661h-75z" />
    <glyph glyph-name="Iacute" unicode="&#xcd;" horiz-adv-x="274" 
d="M45 701l-16 42l180 113l40 -59l-5 -11zM100 0v661h75v-661h-75z" />
    <glyph glyph-name="Icircumflex" unicode="&#xce;" horiz-adv-x="274" 
d="M26 701l-28 37l120 111h35l124 -111l-29 -37l-114 83zM100 0v661h75v-661h-75z" />
    <glyph glyph-name="Idieresis" unicode="&#xcf;" horiz-adv-x="274" 
d="M38 731q-19 0 -32 13t-13 32t13 32t32 13t32 -13t13 -32t-13 -32t-32 -13zM241 731q-19 0 -32 13t-13 32t13 32t32 13t32 -13t13 -32t-13 -32t-32 -13zM100 0v661h75v-661h-75z" />
    <glyph glyph-name="Eth" unicode="&#xd0;" horiz-adv-x="740" 
d="M315 669q182 0 276.5 -89t94.5 -244q0 -161 -97.5 -249t-276.5 -88q-153 0 -204 3v298h-90v55h90v306q109 8 207 8zM320 65q142 1 215 70.5t73 199.5q0 125 -75.5 195.5t-219.5 70.5q-61 0 -131 -5v-241h108v-55h-108v-232q47 -3 138 -3z" />
    <glyph glyph-name="Ntilde" unicode="&#xd1;" horiz-adv-x="739" 
d="M265 715l-51 14q2 41 27.5 67.5t63.5 26.5q28 0 71.5 -18.5t62.5 -18.5q17 0 29.5 11.5t12.5 31.5l2 2l51 -16q-2 -42 -27 -67.5t-64 -25.5q-23 0 -67.5 19t-65.5 19q-18 0 -30.5 -12t-12.5 -32zM100 0v663h31l433 -511h3v509h72v-664h-30l-435 513h-2v-510h-72z" />
    <glyph glyph-name="Ograve" unicode="&#xd2;" horiz-adv-x="788" 
d="M479 701l-200 85l-5 11l40 59l180 -112zM394 -14q-145 0 -242.5 92t-97.5 252q0 158 96.5 251t243.5 93q145 0 242.5 -92t97.5 -252q0 -157 -96.5 -250.5t-243.5 -93.5zM394 53q116 0 189 74.5t73 202.5t-73 202.5t-189 74.5t-189 -74.5t-73 -202.5t73 -202.5t189 -74.5z
" />
    <glyph glyph-name="Oacute" unicode="&#xd3;" horiz-adv-x="788" 
d="M301 701l-16 42l180 113l40 -59l-5 -11zM394 -14q-145 0 -242.5 92t-97.5 252q0 158 96.5 251t243.5 93q145 0 242.5 -92t97.5 -252q0 -157 -96.5 -250.5t-243.5 -93.5zM394 53q116 0 189 74.5t73 202.5t-73 202.5t-189 74.5t-189 -74.5t-73 -202.5t73 -202.5t189 -74.5z
" />
    <glyph glyph-name="Ocircumflex" unicode="&#xd4;" horiz-adv-x="788" 
d="M282 701l-28 37l120 111h35l124 -111l-29 -37l-114 83zM394 -14q-145 0 -242.5 92t-97.5 252q0 158 96.5 251t243.5 93q145 0 242.5 -92t97.5 -252q0 -157 -96.5 -250.5t-243.5 -93.5zM394 53q116 0 189 74.5t73 202.5t-73 202.5t-189 74.5t-189 -74.5t-73 -202.5
t73 -202.5t189 -74.5z" />
    <glyph glyph-name="Otilde" unicode="&#xd5;" horiz-adv-x="788" 
d="M286 715l-51 14q2 41 27.5 67.5t63.5 26.5q28 0 71.5 -18.5t62.5 -18.5q17 0 29.5 11.5t12.5 31.5l2 2l51 -16q-2 -42 -27 -67.5t-64 -25.5q-23 0 -67.5 19t-65.5 19q-18 0 -30.5 -12t-12.5 -32zM394 -14q-145 0 -242.5 92t-97.5 252q0 158 96.5 251t243.5 93
q145 0 242.5 -92t97.5 -252q0 -157 -96.5 -250.5t-243.5 -93.5zM394 53q116 0 189 74.5t73 202.5t-73 202.5t-189 74.5t-189 -74.5t-73 -202.5t73 -202.5t189 -74.5z" />
    <glyph glyph-name="Odieresis" unicode="&#xd6;" horiz-adv-x="788" 
d="M294 731q-19 0 -32 13t-13 32t13 32t32 13t32 -13t13 -32t-13 -32t-32 -13zM497 731q-19 0 -32 13t-13 32t13 32t32 13t32 -13t13 -32t-13 -32t-32 -13zM394 -14q-145 0 -242.5 92t-97.5 252q0 158 96.5 251t243.5 93q145 0 242.5 -92t97.5 -252q0 -157 -96.5 -250.5
t-243.5 -93.5zM394 53q116 0 189 74.5t73 202.5t-73 202.5t-189 74.5t-189 -74.5t-73 -202.5t73 -202.5t189 -74.5z" />
    <glyph glyph-name="multiply" unicode="&#xd7;" horiz-adv-x="511" 
d="M447 441l-149 -149l149 -150l-42 -42l-149 150l-150 -150l-42 42l150 150l-150 149l42 42l150 -149l149 149z" />
    <glyph glyph-name="Oslash" unicode="&#xd8;" horiz-adv-x="788" 
d="M734 678v-6l-88 -100q88 -95 88 -242q0 -157 -96.5 -250.5t-243.5 -93.5q-120 0 -207 63l-58 -66h-75v8l86 98q-86 94 -86 241q0 158 96.5 251t243.5 93q118 0 206 -61l57 65h77zM132 330q0 -111 58 -185l362 414q-67 48 -158 48q-116 0 -189 -74.5t-73 -202.5zM656 330
q0 113 -59 186l-363 -414q66 -49 160 -49q116 0 189 74.5t73 202.5z" />
    <glyph glyph-name="Ugrave" unicode="&#xd9;" horiz-adv-x="713" 
d="M442 701l-200 85l-5 11l40 59l180 -112zM357 -14q-128 0 -197 69.5t-69 197.5v408h74v-398q0 -104 50 -158t143 -54q92 0 142 54.5t50 157.5v398h73v-408q0 -127 -70 -197t-196 -70z" />
    <glyph glyph-name="Uacute" unicode="&#xda;" horiz-adv-x="713" 
d="M264 701l-16 42l180 113l40 -59l-5 -11zM357 -14q-128 0 -197 69.5t-69 197.5v408h74v-398q0 -104 50 -158t143 -54q92 0 142 54.5t50 157.5v398h73v-408q0 -127 -70 -197t-196 -70z" />
    <glyph glyph-name="Ucircumflex" unicode="&#xdb;" horiz-adv-x="713" 
d="M245 701l-28 37l120 111h35l124 -111l-29 -37l-114 83zM357 -14q-128 0 -197 69.5t-69 197.5v408h74v-398q0 -104 50 -158t143 -54q92 0 142 54.5t50 157.5v398h73v-408q0 -127 -70 -197t-196 -70z" />
    <glyph glyph-name="Udieresis" unicode="&#xdc;" horiz-adv-x="713" 
d="M257 731q-19 0 -32 13t-13 32t13 32t32 13t32 -13t13 -32t-13 -32t-32 -13zM460 731q-19 0 -32 13t-13 32t13 32t32 13t32 -13t13 -32t-13 -32t-32 -13zM357 -14q-128 0 -197 69.5t-69 197.5v408h74v-398q0 -104 50 -158t143 -54q92 0 142 54.5t50 157.5v398h73v-408
q0 -127 -70 -197t-196 -70z" />
    <glyph glyph-name="Yacute" unicode="&#xdd;" horiz-adv-x="589" 
d="M202 701l-16 42l180 113l40 -59l-5 -11zM258 0v276l-243 382l1 3h79l202 -316l200 316h75l1 -3l-241 -383v-275h-74z" />
    <glyph glyph-name="Thorn" unicode="&#xde;" horiz-adv-x="560" 
d="M511 342q1 -103 -65 -159t-186 -56q-46 0 -86 3v-130h-74v661h74v-125q48 4 94 4q114 0 178 -51t65 -147zM252 189q184 0 184 146q0 65 -43.5 102.5t-132.5 37.5q-46 0 -86 -4v-278q37 -4 78 -4z" />
    <glyph glyph-name="germandbls" unicode="&#xdf;" horiz-adv-x="616" 
d="M484 278q54 -35 77 -65t23 -84q0 -66 -47.5 -104t-115.5 -38q-80 0 -132 34v71l3 1q53 -41 122 -41q44 0 70.5 18t26.5 53q0 36 -19 57t-71 50q-37 22 -54 34.5t-32 36.5t-15 55q0 34 16 62t34.5 44.5t34.5 41t16 52.5q0 43 -33.5 67t-86.5 24q-67 0 -104 -38t-37 -115
v-494h-76v502q0 103 58.5 157.5t155.5 54.5q85 0 141 -38t56 -118q0 -36 -15 -66t-33 -46t-33 -36t-15 -40q0 -27 19.5 -45.5t65.5 -46.5z" />
    <glyph glyph-name="agrave" unicode="&#xe0;" horiz-adv-x="630" 
d="M373 563l-176 117l-2 11l52 54l153 -143zM603 74l3 -1v-64q-26 -16 -62 -16q-80 0 -85 79q-62 -84 -182 -84q-101 0 -163.5 68t-62.5 191q0 126 73.5 203.5t191.5 77.5q86 0 145 -46l5 34h61v-400q0 -29 10 -41.5t31 -12.5q20 0 35 12zM297 55q52 0 92.5 25t62.5 69v267
q-55 46 -135 46q-83 0 -135.5 -58t-52.5 -153q0 -97 46.5 -146.5t121.5 -49.5z" />
    <glyph glyph-name="aacute" unicode="&#xe1;" horiz-adv-x="630" 
d="M419 680l-175 -117l-27 39l153 143l52 -54zM603 74l3 -1v-64q-26 -16 -62 -16q-80 0 -85 79q-62 -84 -182 -84q-101 0 -163.5 68t-62.5 191q0 126 73.5 203.5t191.5 77.5q86 0 145 -46l5 34h61v-400q0 -29 10 -41.5t31 -12.5q20 0 35 12zM297 55q52 0 92.5 25t62.5 69
v267q-55 46 -135 46q-83 0 -135.5 -58t-52.5 -153q0 -97 46.5 -146.5t121.5 -49.5z" />
    <glyph glyph-name="acircumflex" unicode="&#xe2;" horiz-adv-x="630" 
d="M309 663l-100 -96l-33 33l117 134h35l120 -134l-33 -33zM603 74l3 -1v-64q-26 -16 -62 -16q-80 0 -85 79q-62 -84 -182 -84q-101 0 -163.5 68t-62.5 191q0 126 73.5 203.5t191.5 77.5q86 0 145 -46l5 34h61v-400q0 -29 10 -41.5t31 -12.5q20 0 35 12zM297 55
q52 0 92.5 25t62.5 69v267q-55 46 -135 46q-83 0 -135.5 -58t-52.5 -153q0 -97 46.5 -146.5t121.5 -49.5z" />
    <glyph glyph-name="atilde" unicode="&#xe3;" horiz-adv-x="630" 
d="M202 604l-2 -2l-50 11q0 40 24 67.5t61 27.5q31 0 78 -19.5t69 -19.5q18 0 30 11t12 31l3 2l49 -11q0 -44 -25 -69.5t-63 -25.5q-28 -1 -75.5 19.5t-69.5 20.5q-18 0 -29.5 -11.5t-11.5 -31.5zM603 74l3 -1v-64q-26 -16 -62 -16q-80 0 -85 79q-62 -84 -182 -84
q-101 0 -163.5 68t-62.5 191q0 126 73.5 203.5t191.5 77.5q86 0 145 -46l5 34h61v-400q0 -29 10 -41.5t31 -12.5q20 0 35 12zM297 55q52 0 92.5 25t62.5 69v267q-55 46 -135 46q-83 0 -135.5 -58t-52.5 -153q0 -97 46.5 -146.5t121.5 -49.5z" />
    <glyph glyph-name="adieresis" unicode="&#xe4;" horiz-adv-x="630" 
d="M219 616q-21 0 -35.5 14.5t-14.5 35.5q0 20 14.5 34.5t35.5 14.5q20 0 35 -14.5t15 -34.5q0 -21 -15 -35.5t-35 -14.5zM411 616q-21 0 -35.5 14.5t-14.5 35.5q0 20 14.5 34.5t35.5 14.5q20 0 35 -15t15 -34q0 -21 -15 -35.5t-35 -14.5zM603 74l3 -1v-64q-26 -16 -62 -16
q-80 0 -85 79q-62 -84 -182 -84q-101 0 -163.5 68t-62.5 191q0 126 73.5 203.5t191.5 77.5q86 0 145 -46l5 34h61v-400q0 -29 10 -41.5t31 -12.5q20 0 35 12zM297 55q52 0 92.5 25t62.5 69v267q-55 46 -135 46q-83 0 -135.5 -58t-52.5 -153q0 -97 46.5 -146.5t121.5 -49.5z
" />
    <glyph glyph-name="aring" unicode="&#xe5;" horiz-adv-x="630" 
d="M311 562q-41 0 -67.5 26.5t-26.5 65.5t26.5 65t67.5 26q42 0 68 -25.5t26 -65.5t-26 -66t-68 -26zM311 704q-21 0 -35.5 -14.5t-14.5 -35.5t14.5 -35.5t35.5 -14.5q22 0 36.5 14.5t14.5 35.5t-14.5 35.5t-36.5 14.5zM603 74l3 -1v-64q-26 -16 -62 -16q-80 0 -85 79
q-62 -84 -182 -84q-101 0 -163.5 68t-62.5 191q0 126 73.5 203.5t191.5 77.5q86 0 145 -46l5 34h61v-400q0 -29 10 -41.5t31 -12.5q20 0 35 12zM297 55q52 0 92.5 25t62.5 69v267q-55 46 -135 46q-83 0 -135.5 -58t-52.5 -153q0 -97 46.5 -146.5t121.5 -49.5z" />
    <glyph glyph-name="ae" unicode="&#xe6;" horiz-adv-x="899" 
d="M618 528q105 0 165 -66.5t61 -185.5v-35h-385q5 -89 58 -138t130 -49q92 0 165 45l3 -2v-66q-75 -44 -174 -44q-69 0 -126.5 28.5t-90.5 85.5q-83 -113 -222 -113q-74 0 -118.5 37.5t-44.5 107.5q0 50 25.5 83.5t75.5 50.5t107 24t136 8v11q0 76 -40.5 115t-113.5 39
q-91 0 -144 -35l-3 2v60q49 37 159 37q142 0 189 -105q32 49 81 77t107 28zM460 299h310q-5 81 -44 124.5t-108 43.5q-62 0 -105 -44.5t-53 -123.5zM212 52q61 0 110 27.5t77 76.5q-11 40 -14 85q-63 0 -106.5 -4t-84 -14.5t-61 -32t-20.5 -54.5q0 -40 28.5 -62t70.5 -22z
" />
    <glyph glyph-name="ccedilla" unicode="&#xe7;" horiz-adv-x="500" 
d="M459 20q-54 -29 -121 -32l-24 -40q8 3 21 3q36 0 60.5 -19.5t24.5 -62.5q0 -50 -34.5 -74.5t-88.5 -24.5q-33 0 -61 10v45l2 1q21 -8 49 -8q31 0 48.5 12.5t17.5 36.5q0 41 -48 41q-25 0 -46 -8l-1 2v37l31 51q-108 10 -173.5 82t-65.5 186q0 123 76.5 197t195.5 74
q74 0 134 -23v-63l-3 -2q-58 23 -124 23q-90 0 -146 -56t-56 -147q0 -94 54.5 -150.5t147.5 -57.5q65 0 126 33l4 -2v-64z" />
    <glyph glyph-name="egrave" unicode="&#xe8;" horiz-adv-x="571" 
d="M356 563l-176 117l-2 11l52 54l153 -143zM297 528q107 0 167 -66t61 -184q0 -23 -1 -35h-397q5 -91 62.5 -140.5t144.5 -49.5q82 0 159 41l3 -1v-63q-73 -43 -175 -43q-114 0 -192.5 69t-78.5 203q0 120 70.5 194.5t176.5 74.5zM297 464q-65 0 -110.5 -42t-56.5 -117h321
q-7 75 -47 117t-107 42z" />
    <glyph glyph-name="eacute" unicode="&#xe9;" horiz-adv-x="571" 
d="M402 680l-175 -117l-27 39l153 143l52 -54zM297 528q107 0 167 -66t61 -184q0 -23 -1 -35h-397q5 -91 62.5 -140.5t144.5 -49.5q82 0 159 41l3 -1v-63q-73 -43 -175 -43q-114 0 -192.5 69t-78.5 203q0 120 70.5 194.5t176.5 74.5zM297 464q-65 0 -110.5 -42t-56.5 -117
h321q-7 75 -47 117t-107 42z" />
    <glyph glyph-name="ecircumflex" unicode="&#xea;" horiz-adv-x="571" 
d="M292 663l-100 -96l-33 33l117 134h35l120 -134l-33 -33zM297 528q107 0 167 -66t61 -184q0 -23 -1 -35h-397q5 -91 62.5 -140.5t144.5 -49.5q82 0 159 41l3 -1v-63q-73 -43 -175 -43q-114 0 -192.5 69t-78.5 203q0 120 70.5 194.5t176.5 74.5zM297 464q-65 0 -110.5 -42
t-56.5 -117h321q-7 75 -47 117t-107 42z" />
    <glyph glyph-name="edieresis" unicode="&#xeb;" horiz-adv-x="571" 
d="M202 616q-21 0 -35.5 14.5t-14.5 35.5q0 20 14.5 34.5t35.5 14.5q20 0 35 -14.5t15 -34.5q0 -21 -15 -35.5t-35 -14.5zM394 616q-21 0 -35.5 14.5t-14.5 35.5q0 20 14.5 34.5t35.5 14.5q20 0 35 -15t15 -34q0 -21 -15 -35.5t-35 -14.5zM297 528q107 0 167 -66t61 -184
q0 -23 -1 -35h-397q5 -91 62.5 -140.5t144.5 -49.5q82 0 159 41l3 -1v-63q-73 -43 -175 -43q-114 0 -192.5 69t-78.5 203q0 120 70.5 194.5t176.5 74.5zM297 464q-65 0 -110.5 -42t-56.5 -117h321q-7 75 -47 117t-107 42z" />
    <glyph glyph-name="igrave" unicode="&#xec;" horiz-adv-x="244" 
d="M184 563l-176 117l-2 11l52 54l153 -143zM84 0v516h76v-516h-76z" />
    <glyph glyph-name="iacute" unicode="&#xed;" horiz-adv-x="244" 
d="M55 563l-27 39l153 143l52 -54l-3 -11zM84 0v516h76v-516h-76z" />
    <glyph glyph-name="icircumflex" unicode="&#xee;" horiz-adv-x="244" 
d="M20 567l-33 33l117 134h35l120 -134l-33 -33l-106 96zM84 0v516h76v-516h-76z" />
    <glyph glyph-name="idieresis" unicode="&#xef;" horiz-adv-x="244" 
d="M41 616q-21 0 -35 14.5t-14 36.5q0 19 14 33.5t35 14.5q20 0 35 -14.5t15 -33.5q0 -21 -14.5 -36t-35.5 -15zM203 616q-21 0 -35 14.5t-14 36.5q0 19 14 33.5t35 14.5q20 0 35 -14.5t15 -33.5q0 -21 -14.5 -36t-35.5 -15zM84 0v516h76v-516h-76z" />
    <glyph glyph-name="eth" unicode="&#xf0;" horiz-adv-x="641" 
d="M416 685q162 -91 162 -373q0 -154 -72 -239.5t-200 -85.5q-113 0 -183.5 66.5t-70.5 183.5q0 110 71.5 179t177.5 69q123 0 192 -76q-24 173 -129 224l-84 -84l-40 40l62 62q-18 3 -38 3q-81 0 -140 -26l-3 3v64q57 25 145 25q51 0 93 -12l84 84l40 -40zM308 53
q91 0 141.5 62.5t50.5 184.5v3q-16 44 -65.5 80t-122.5 36q-83 0 -133 -50t-50 -130q0 -83 50 -134.5t129 -51.5z" />
    <glyph glyph-name="ntilde" unicode="&#xf1;" horiz-adv-x="614" 
d="M193 604l-2 -2l-50 11q0 40 24 67.5t61 27.5q30 0 78 -19.5t69 -19.5q18 0 30 11t12 31l3 2l49 -11q0 -44 -25 -69.5t-63 -25.5q-28 -1 -75.5 19.5t-69.5 20.5q-18 0 -29.5 -11.5t-11.5 -31.5zM333 528q90 0 147 -57.5t57 -170.5v-300h-75v281q0 90 -41.5 132t-107.5 42
q-53 0 -94 -29t-59 -79v-347h-76v516h62l9 -78q58 90 178 90z" />
    <glyph glyph-name="ograve" unicode="&#xf2;" horiz-adv-x="631" 
d="M378 563l-176 117l-2 11l52 54l153 -143zM314 -13q-114 0 -189 72t-75 200q0 122 76.5 195.5t187.5 73.5q116 0 191.5 -71.5t75.5 -198.5q0 -123 -77 -197t-190 -74zM314 53q84 0 136.5 56t52.5 150q0 93 -52.5 148t-136.5 55q-83 0 -135 -55t-52 -148q0 -94 52 -150
t135 -56z" />
    <glyph glyph-name="oacute" unicode="&#xf3;" horiz-adv-x="631" 
d="M249 563l-27 39l153 143l52 -54l-3 -11zM314 -13q-114 0 -189 72t-75 200q0 122 76.5 195.5t187.5 73.5q116 0 191.5 -71.5t75.5 -198.5q0 -123 -77 -197t-190 -74zM314 53q84 0 136.5 56t52.5 150q0 93 -52.5 148t-136.5 55q-83 0 -135 -55t-52 -148q0 -94 52 -150
t135 -56z" />
    <glyph glyph-name="ocircumflex" unicode="&#xf4;" horiz-adv-x="631" 
d="M214 567l-33 33l117 134h35l120 -134l-33 -33l-106 96zM314 -13q-114 0 -189 72t-75 200q0 122 76.5 195.5t187.5 73.5q116 0 191.5 -71.5t75.5 -198.5q0 -123 -77 -197t-190 -74zM314 53q84 0 136.5 56t52.5 150q0 93 -52.5 148t-136.5 55q-83 0 -135 -55t-52 -148
q0 -94 52 -150t135 -56z" />
    <glyph glyph-name="otilde" unicode="&#xf5;" horiz-adv-x="631" 
d="M205 602l-50 11q0 40 24 67.5t61 27.5q30 0 78 -19.5t69 -19.5q18 0 30 11t12 31l3 2l49 -11q0 -44 -25 -69.5t-63 -25.5q-28 -1 -75.5 19.5t-69.5 20.5q-18 0 -29.5 -11.5t-11.5 -31.5zM314 -13q-114 0 -189 72t-75 200q0 122 76.5 195.5t187.5 73.5q116 0 191.5 -71.5
t75.5 -198.5q0 -123 -77 -197t-190 -74zM314 53q84 0 136.5 56t52.5 150q0 93 -52.5 148t-136.5 55q-83 0 -135 -55t-52 -148q0 -94 52 -150t135 -56z" />
    <glyph glyph-name="odieresis" unicode="&#xf6;" horiz-adv-x="631" 
d="M224 616q-21 0 -35.5 14.5t-14.5 35.5q0 20 14.5 34.5t35.5 14.5q20 0 35 -14.5t15 -34.5q0 -21 -15 -35.5t-35 -14.5zM416 616q-21 0 -35.5 14.5t-14.5 35.5q0 20 14.5 34.5t35.5 14.5q20 0 35 -15t15 -34q0 -21 -15 -35.5t-35 -14.5zM314 -13q-114 0 -189 72t-75 200
q0 122 76.5 195.5t187.5 73.5q116 0 191.5 -71.5t75.5 -198.5q0 -123 -77 -197t-190 -74zM314 53q84 0 136.5 56t52.5 150q0 93 -52.5 148t-136.5 55q-83 0 -135 -55t-52 -148q0 -94 52 -150t135 -56z" />
    <glyph glyph-name="divide" unicode="&#xf7;" horiz-adv-x="533" 
d="M267 404q-25 0 -38.5 14t-13.5 35t14 35.5t38 14.5t38 -14.5t14 -35.5t-13.5 -35t-38.5 -14zM62 267v60h410v-60h-410zM267 85q-25 0 -38.5 14t-13.5 35t14 35.5t38 14.5t38 -14.5t14 -35.5t-13.5 -35t-38.5 -14z" />
    <glyph glyph-name="oslash" unicode="&#xf8;" horiz-adv-x="633" 
d="M513 450q69 -74 69 -192q0 -123 -77 -197t-190 -74q-89 0 -154 44l-40 -47h-67v8l64 76q-67 72 -67 191q0 122 76.5 195.5t187.5 73.5q88 0 154 -42l37 45h71v-6zM128 259q0 -79 38 -133l257 306q-47 30 -108 30q-83 0 -135 -55t-52 -148zM315 53q84 0 136.5 56t52.5 150
q0 80 -39 133l-258 -306q45 -33 108 -33z" />
    <glyph glyph-name="ugrave" unicode="&#xf9;" horiz-adv-x="600" 
d="M363 563l-176 117l-2 11l52 54l153 -143zM440 516h76v-516h-62l-8 70q-54 -82 -175 -82q-92 0 -142.5 52.5t-50.5 156.5v319h76v-306q0 -157 137 -157q50 0 91 27t58 78v358z" />
    <glyph glyph-name="uacute" unicode="&#xfa;" horiz-adv-x="600" 
d="M409 680l-175 -117l-27 39l153 143l52 -54zM440 516h76v-516h-62l-8 70q-54 -82 -175 -82q-92 0 -142.5 52.5t-50.5 156.5v319h76v-306q0 -157 137 -157q50 0 91 27t58 78v358z" />
    <glyph glyph-name="ucircumflex" unicode="&#xfb;" horiz-adv-x="600" 
d="M299 663l-100 -96l-33 33l117 134h35l120 -134l-33 -33zM440 516h76v-516h-62l-8 70q-54 -82 -175 -82q-92 0 -142.5 52.5t-50.5 156.5v319h76v-306q0 -157 137 -157q50 0 91 27t58 78v358z" />
    <glyph glyph-name="udieresis" unicode="&#xfc;" horiz-adv-x="600" 
d="M209 616q-21 0 -35.5 14.5t-14.5 35.5q0 20 14.5 34.5t35.5 14.5q20 0 35 -14.5t15 -34.5q0 -21 -15 -35.5t-35 -14.5zM401 616q-21 0 -35.5 14.5t-14.5 35.5q0 20 14.5 34.5t35.5 14.5q20 0 35 -15t15 -34q0 -21 -15 -35.5t-35 -14.5zM440 516h76v-516h-62l-8 70
q-54 -82 -175 -82q-92 0 -142.5 52.5t-50.5 156.5v319h76v-306q0 -157 137 -157q50 0 91 27t58 78v358z" />
    <glyph glyph-name="yacute" unicode="&#xfd;" horiz-adv-x="522" 
d="M375 680l-175 -117l-27 39l153 143l52 -54zM504 516l1 -3l-220 -518l-66 -157h-78l-2 3l88 181l-208 491l1 3h81l164 -420l164 420h75z" />
    <glyph glyph-name="thorn" unicode="&#xfe;" horiz-adv-x="613" 
d="M338 528q100 0 162 -69.5t62 -189.5q0 -130 -72.5 -205.5t-182.5 -75.5q-88 0 -147 36v-188h-76v874h76v-258q62 76 178 76zM304 54q81 0 131 55t50 156q0 95 -46.5 145.5t-119.5 50.5q-53 0 -95 -26.5t-64 -69.5v-271q56 -40 144 -40z" />
    <glyph glyph-name="ydieresis" unicode="&#xff;" horiz-adv-x="522" 
d="M175 616q-21 0 -35.5 14.5t-14.5 35.5q0 20 14.5 34.5t35.5 14.5q20 0 35 -14.5t15 -34.5q0 -21 -15 -35.5t-35 -14.5zM367 616q-21 0 -35.5 14.5t-14.5 35.5q0 20 14.5 34.5t35.5 14.5q20 0 35 -15t15 -34q0 -21 -15 -35.5t-35 -14.5zM504 516l1 -3l-220 -518l-66 -157
h-78l-2 3l88 181l-208 491l1 3h81l164 -420l164 420h75z" />
    <glyph glyph-name="Amacron" unicode="&#x100;" horiz-adv-x="633" 
d="M452 811v-63h-280v63h280zM547 0l-76 175h-311l-73 -175h-74l286 671h30l296 -671h-78zM184 234h261l-123 284l-10 29l-10 -29z" />
    <glyph glyph-name="amacron" unicode="&#x101;" horiz-adv-x="630" 
d="M454 678v-57h-287v57h287zM603 74l3 -1v-64q-26 -16 -62 -16q-80 0 -85 79q-62 -84 -182 -84q-101 0 -163.5 68t-62.5 191q0 126 73.5 203.5t191.5 77.5q86 0 145 -46l5 34h61v-400q0 -29 10 -41.5t31 -12.5q20 0 35 12zM297 55q52 0 92.5 25t62.5 69v267q-55 46 -135 46
q-83 0 -135.5 -58t-52.5 -153q0 -97 46.5 -146.5t121.5 -49.5z" />
    <glyph glyph-name="Abreve" unicode="&#x102;" horiz-adv-x="633" 
d="M312 707q-59 0 -97 35.5t-38 95.5l49 5q4 -37 27 -58.5t60 -21.5q39 0 63.5 22t25.5 58l47 -5q0 -60 -39 -95.5t-98 -35.5zM547 0l-76 175h-311l-73 -175h-74l286 671h30l296 -671h-78zM184 234h261l-123 284l-10 29l-10 -29z" />
    <glyph glyph-name="abreve" unicode="&#x103;" horiz-adv-x="630" 
d="M310 577q-59 0 -97 37t-38 101l51 6l2 -2q2 -38 25 -61t58 -23q37 0 60.5 23t24.5 60l2 3l49 -6q0 -63 -39 -100.5t-98 -37.5zM603 74l3 -1v-64q-26 -16 -62 -16q-80 0 -85 79q-62 -84 -182 -84q-101 0 -163.5 68t-62.5 191q0 126 73.5 203.5t191.5 77.5q86 0 145 -46
l5 34h61v-400q0 -29 10 -41.5t31 -12.5q20 0 35 12zM297 55q52 0 92.5 25t62.5 69v267q-55 46 -135 46q-83 0 -135.5 -58t-52.5 -153q0 -97 46.5 -146.5t121.5 -49.5z" />
    <glyph glyph-name="Aogonek" unicode="&#x104;" horiz-adv-x="633" 
d="M610 0q-91 -61 -91 -128q0 -19 12.5 -32t38.5 -13q19 0 30 4l4 -2v-49q-20 -7 -54 -7q-47 0 -75.5 21t-28.5 60q0 83 103 146h-2l-76 175h-311l-73 -175h-74l286 671h30l296 -671h-15zM184 234h261l-123 284l-10 29l-10 -29z" />
    <glyph glyph-name="aogonek" unicode="&#x105;" horiz-adv-x="630" 
d="M592 2q-88 -61 -88 -126q0 -19 12.5 -32t38.5 -13q19 0 30 4l4 -2v-49q-20 -7 -54 -7q-47 0 -75.5 21t-28.5 60q0 76 89 137q-56 11 -61 77q-62 -84 -182 -84q-101 0 -163.5 68t-62.5 191q0 126 73.5 203.5t191.5 77.5q86 0 145 -46l5 34h61v-400q0 -29 10 -41.5
t31 -12.5q20 0 35 12l3 -1v-64q-4 -3 -14 -7zM297 55q52 0 92.5 25t62.5 69v267q-55 46 -135 46q-83 0 -135.5 -58t-52.5 -153q0 -97 46.5 -146.5t121.5 -49.5z" />
    <glyph glyph-name="Cacute" unicode="&#x106;" horiz-adv-x="636" 
d="M287 701l-16 42l180 113l40 -59l-5 -11zM402 -12q-157 1 -252.5 92.5t-95.5 244.5q0 157 96.5 252t252.5 95q104 0 190 -38v-70l-3 -1q-79 41 -178 41q-128 0 -204.5 -75t-76.5 -201q0 -124 74.5 -197.5t206.5 -73.5q96 0 178 41l3 -1v-67q-84 -42 -191 -42z" />
    <glyph glyph-name="cacute" unicode="&#x107;" horiz-adv-x="500" 
d="M232 568l-27 39l153 143l52 -54l-3 -11zM322 -12q-121 0 -196.5 73.5t-75.5 196.5t76.5 197t195.5 74q74 0 134 -23v-63l-3 -2q-58 23 -124 23q-90 0 -146 -56t-56 -147q0 -94 54.5 -150.5t147.5 -57.5q65 0 126 33l4 -2v-64q-58 -32 -137 -32z" />
    <glyph glyph-name="Cdotaccent" unicode="&#x10a;" horiz-adv-x="636" 
d="M379 732q-20 0 -34 14t-14 35q0 19 14.5 33.5t33.5 14.5q20 0 34.5 -14t14.5 -34q0 -21 -14.5 -35t-34.5 -14zM402 -12q-157 1 -252.5 92.5t-95.5 244.5q0 157 96.5 252t252.5 95q104 0 190 -38v-70l-3 -1q-79 41 -178 41q-128 0 -204.5 -75t-76.5 -201
q0 -124 74.5 -197.5t206.5 -73.5q96 0 178 41l3 -1v-67q-84 -42 -191 -42z" />
    <glyph glyph-name="cdotaccent" unicode="&#x10b;" horiz-adv-x="500" 
d="M299 619q-21 0 -36.5 15.5t-15.5 37.5q0 21 15.5 36t36.5 15t36.5 -15t15.5 -36q0 -22 -15.5 -37.5t-36.5 -15.5zM322 -12q-121 0 -196.5 73.5t-75.5 196.5t76.5 197t195.5 74q74 0 134 -23v-63l-3 -2q-58 23 -124 23q-90 0 -146 -56t-56 -147q0 -94 54.5 -150.5
t147.5 -57.5q65 0 126 33l4 -2v-64q-58 -32 -137 -32z" />
    <glyph glyph-name="Ccaron" unicode="&#x10c;" horiz-adv-x="636" 
d="M364 701l-124 112l28 36l115 -83l108 83l28 -36l-121 -112h-34zM402 -12q-157 1 -252.5 92.5t-95.5 244.5q0 157 96.5 252t252.5 95q104 0 190 -38v-70l-3 -1q-79 41 -178 41q-128 0 -204.5 -75t-76.5 -201q0 -124 74.5 -197.5t206.5 -73.5q96 0 178 41l3 -1v-67
q-84 -42 -191 -42z" />
    <glyph glyph-name="ccaron" unicode="&#x10d;" horiz-adv-x="500" 
d="M284 573l-120 135l33 31l106 -95l100 95l33 -31l-117 -135h-35zM322 -12q-121 0 -196.5 73.5t-75.5 196.5t76.5 197t195.5 74q74 0 134 -23v-63l-3 -2q-58 23 -124 23q-90 0 -146 -56t-56 -147q0 -94 54.5 -150.5t147.5 -57.5q65 0 126 33l4 -2v-64q-58 -32 -137 -32z
" />
    <glyph glyph-name="Dcaron" unicode="&#x10e;" horiz-adv-x="732" 
d="M348 701h-34l-124 112l28 36l115 -83l108 83l28 -36zM307 669q182 0 276.5 -89t94.5 -244q0 -161 -97.5 -249t-276.5 -88q-153 0 -204 3v659q109 8 207 8zM312 65q142 1 215 70.5t73 199.5q0 125 -75.5 195.5t-219.5 70.5q-61 0 -131 -5v-528q46 -3 138 -3z" />
    <glyph glyph-name="dcaron" unicode="&#x10f;" horiz-adv-x="654" 
d="M667 714l8 -9l-27 -203h-49l9 212h59zM570 62q18 0 35 15l2 -1l-1 -65q-24 -18 -62 -18q-80 0 -85 78q-59 -83 -179 -83q-100 0 -164.5 68.5t-64.5 194.5q0 121 73.5 199t186.5 78q86 0 142 -39v221h76v-594q0 -30 9.5 -42t31.5 -12zM297 55q51 0 92 25t64 68v269
q-56 45 -135 45q-83 0 -136 -57.5t-53 -151.5q0 -97 47.5 -147.5t120.5 -50.5z" />
    <glyph glyph-name="Dcroat" unicode="&#x110;" horiz-adv-x="740" 
d="M315 669q182 0 276.5 -89t94.5 -244q0 -161 -97.5 -249t-276.5 -88q-153 0 -204 3v298h-90v55h90v306q109 8 207 8zM320 65q142 1 215 70.5t73 199.5q0 125 -75.5 195.5t-219.5 70.5q-61 0 -131 -5v-241h108v-55h-108v-232q47 -3 138 -3z" />
    <glyph glyph-name="dcroat" unicode="&#x111;" horiz-adv-x="635" 
d="M529 582v-466q0 -30 9.5 -42t31.5 -12q18 0 34 15l3 -1l-1 -65q-24 -18 -62 -18q-80 0 -85 78q-59 -83 -179 -83q-100 0 -164.5 68.5t-64.5 194.5q0 121 73.5 199t186.5 78q86 0 142 -39v93h-108v55h108v73h76v-73h88v-55h-88zM453 148v269q-56 45 -135 45
q-83 0 -136 -57.5t-53 -151.5q0 -97 47.5 -147.5t120.5 -50.5q51 0 92 25t64 68z" />
    <glyph glyph-name="Emacron" unicode="&#x112;" horiz-adv-x="550" 
d="M446 811v-63h-280v63h280zM175 69h326v-69h-401v661h388v-69h-313v-217h294v-69h-294v-237z" />
    <glyph glyph-name="emacron" unicode="&#x113;" horiz-adv-x="571" 
d="M437 678v-57h-287v57h287zM297 528q107 0 167 -66t61 -184q0 -23 -1 -35h-397q5 -91 62.5 -140.5t144.5 -49.5q82 0 159 41l3 -1v-63q-73 -43 -175 -43q-114 0 -192.5 69t-78.5 203q0 120 70.5 194.5t176.5 74.5zM297 464q-65 0 -110.5 -42t-56.5 -117h321q-7 75 -47 117
t-107 42z" />
    <glyph glyph-name="Edotaccent" unicode="&#x116;" horiz-adv-x="550" 
d="M306 732q-20 0 -34 14t-14 35q0 19 14 33.5t34 14.5t34.5 -14t14.5 -34q0 -21 -14.5 -35t-34.5 -14zM175 69h326v-69h-401v661h388v-69h-313v-217h294v-69h-294v-237z" />
    <glyph glyph-name="edotaccent" unicode="&#x117;" horiz-adv-x="571" 
d="M294 614q-21 0 -36.5 15.5t-15.5 37.5q0 21 15.5 36t36.5 15t36.5 -15t15.5 -36q0 -22 -15.5 -37.5t-36.5 -15.5zM297 528q107 0 167 -66t61 -184q0 -23 -1 -35h-397q5 -91 62.5 -140.5t144.5 -49.5q82 0 159 41l3 -1v-63q-73 -43 -175 -43q-114 0 -192.5 69t-78.5 203
q0 120 70.5 194.5t176.5 74.5zM297 464q-65 0 -110.5 -42t-56.5 -117h321q-7 75 -47 117t-107 42z" />
    <glyph glyph-name="Eogonek" unicode="&#x118;" horiz-adv-x="550" 
d="M501 0q-91 -61 -91 -128q0 -19 12.5 -32t38.5 -13q19 0 30 4l4 -2v-49q-20 -7 -54 -7q-47 0 -75.5 21t-28.5 60q0 83 103 146h-340v661h388v-69h-313v-217h294v-69h-294v-237h326v-69z" />
    <glyph glyph-name="eogonek" unicode="&#x119;" horiz-adv-x="571" 
d="M297 528q107 0 167 -66t61 -184q0 -23 -1 -35h-397q5 -91 62.5 -140.5t144.5 -49.5q82 0 159 41l3 -1v-63q-30 -18 -57 -26q-91 -61 -91 -128q0 -19 12.5 -32t38.5 -13q19 0 30 4l4 -2v-49q-20 -7 -54 -7q-47 0 -75.5 21t-28.5 60q0 73 80 130q-12 -1 -34 -1
q-114 0 -192.5 69t-78.5 203q0 120 70.5 194.5t176.5 74.5zM297 464q-65 0 -110.5 -42t-56.5 -117h321q-7 75 -47 117t-107 42z" />
    <glyph glyph-name="Ecaron" unicode="&#x11a;" horiz-adv-x="550" 
d="M325 701h-34l-124 112l28 36l115 -83l108 83l28 -36zM175 69h326v-69h-401v661h388v-69h-313v-217h294v-69h-294v-237z" />
    <glyph glyph-name="ecaron" unicode="&#x11b;" horiz-adv-x="571" 
d="M314 568h-35l-120 135l33 31l106 -95l100 95l33 -31zM297 528q107 0 167 -66t61 -184q0 -23 -1 -35h-397q5 -91 62.5 -140.5t144.5 -49.5q82 0 159 41l3 -1v-63q-73 -43 -175 -43q-114 0 -192.5 69t-78.5 203q0 120 70.5 194.5t176.5 74.5zM297 464q-65 0 -110.5 -42
t-56.5 -117h321q-7 75 -47 117t-107 42z" />
    <glyph glyph-name="Gbreve" unicode="&#x11e;" horiz-adv-x="697" 
d="M386 707q-59 0 -97 35.5t-38 95.5l49 5q4 -37 27 -58.5t60 -21.5q39 0 63.5 22t25.5 58l47 -5q0 -60 -39 -95.5t-98 -35.5zM393 -10q-161 0 -250 90.5t-89 248.5q0 153 98 248t260 95q110 0 196 -37l-1 -73l-3 -1q-86 43 -194 43q-127 0 -202.5 -76t-75.5 -199
q0 -125 68.5 -198t196.5 -73q100 0 171 36v210h68v-257q-104 -57 -243 -57z" />
    <glyph glyph-name="gbreve" unicode="&#x11f;" horiz-adv-x="611" 
d="M305 577q-59 0 -97 37t-38 101l51 6l2 -2q2 -38 25 -61t58 -23q37 0 60.5 23t24.5 60l2 3l49 -6q0 -63 -39 -100.5t-98 -37.5zM475 521h53v-466q0 -109 -68 -166.5t-191 -57.5q-107 0 -183 43v75l3 1q75 -52 177 -52q186 0 186 156v37q-62 -76 -175 -76q-100 0 -163 65
t-63 184q0 120 75 192t181 72q101 0 158 -49zM452 175v242q-54 45 -137 45q-82 0 -134.5 -52t-52.5 -142q0 -89 47 -138t120 -49q106 0 157 94z" />
    <glyph glyph-name="Gdotaccent" unicode="&#x120;" horiz-adv-x="697" 
d="M386 732q-20 0 -34 14t-14 35q0 19 14 33.5t34 14.5t34.5 -14t14.5 -34q0 -21 -14.5 -35t-34.5 -14zM393 -10q-161 0 -250 90.5t-89 248.5q0 153 98 248t260 95q110 0 196 -37l-1 -73l-3 -1q-86 43 -194 43q-127 0 -202.5 -76t-75.5 -199q0 -125 68.5 -198t196.5 -73
q100 0 171 36v210h68v-257q-104 -57 -243 -57z" />
    <glyph glyph-name="gdotaccent" unicode="&#x121;" horiz-adv-x="611" 
d="M306 614q-21 0 -36.5 15.5t-15.5 37.5q0 21 15.5 36t36.5 15t36.5 -15t15.5 -36q0 -22 -15.5 -37.5t-36.5 -15.5zM475 521h53v-466q0 -109 -68 -166.5t-191 -57.5q-107 0 -183 43v75l3 1q75 -52 177 -52q186 0 186 156v37q-62 -76 -175 -76q-100 0 -163 65t-63 184
q0 120 75 192t181 72q101 0 158 -49zM452 175v242q-54 45 -137 45q-82 0 -134.5 -52t-52.5 -142q0 -89 47 -138t120 -49q106 0 157 94z" />
    <glyph glyph-name="Gcommaaccent" unicode="&#x122;" horiz-adv-x="697" 
d="M393 -10q-161 0 -250 90.5t-89 248.5q0 153 98 248t260 95q110 0 196 -37l-1 -73l-3 -1q-86 43 -194 43q-127 0 -202.5 -76t-75.5 -199q0 -125 68.5 -198t196.5 -73q100 0 171 36v210h68v-257q-104 -57 -243 -57zM336 -224q18 60 18 132q0 6 -0.5 20t-0.5 20l70 6l7 -9
q0 -89 -43 -169h-51z" />
    <glyph glyph-name="gcommaaccent" unicode="&#x123;" horiz-adv-x="611" 
d="M350 568l-70 -6l-7 9q0 89 43 169h51q-18 -60 -18 -132q0 -6 0.5 -20t0.5 -20zM475 521h53v-466q0 -109 -68 -166.5t-191 -57.5q-107 0 -183 43v75l3 1q75 -52 177 -52q186 0 186 156v37q-62 -76 -175 -76q-100 0 -163 65t-63 184q0 120 75 192t181 72q101 0 158 -49z
M452 175v242q-54 45 -137 45q-82 0 -134.5 -52t-52.5 -142q0 -89 47 -138t120 -49q106 0 157 94z" />
    <glyph glyph-name="Hbar" unicode="&#x126;" horiz-adv-x="771" 
d="M739 535v-58h-82v-477h-74v302h-395v-302h-75v477h-81v58h81v126h75v-126h395v126h74v-126h82zM583 369v108h-395v-108h395z" />
    <glyph glyph-name="hbar" unicode="&#x127;" horiz-adv-x="613" 
d="M333 528q91 0 147 -57.5t56 -165.5v-305h-75v288q0 87 -40.5 127t-106.5 40q-53 0 -94 -28t-60 -78v-349h-76v582h-84v55h84v73h76v-73h112v-55h-112v-138q57 84 173 84z" />
    <glyph glyph-name="Itilde" unicode="&#x128;" horiz-adv-x="274" 
d="M30 715l-51 14q2 41 27.5 67.5t63.5 26.5q28 0 71.5 -18.5t62.5 -18.5q17 0 29.5 11.5t12.5 31.5l2 2l51 -16q-2 -42 -27 -67.5t-64 -25.5q-23 0 -67.5 19t-65.5 19q-18 0 -30.5 -12t-12.5 -32zM100 0v661h75v-661h-75z" />
    <glyph glyph-name="itilde" unicode="&#x129;" horiz-adv-x="244" 
d="M11 602l-50 11q0 40 24 67.5t61 27.5q30 0 78 -19.5t69 -19.5q18 0 30 11t12 31l3 2l49 -11q0 -44 -25 -69.5t-63 -25.5q-28 -1 -75.5 19.5t-69.5 20.5q-18 0 -29.5 -11.5t-11.5 -31.5zM84 0v516h76v-516h-76z" />
    <glyph glyph-name="Imacron" unicode="&#x12a;" horiz-adv-x="274" 
d="M25 749v64h224v-64h-224zM100 0v661h75v-661h-75z" />
    <glyph glyph-name="imacron" unicode="&#x12b;" horiz-adv-x="244" 
d="M-3 621v57h250v-57h-250zM84 0v516h76v-516h-76z" />
    <glyph glyph-name="Iogonek" unicode="&#x12e;" horiz-adv-x="274" 
d="M165 0q-85 -60 -85 -124q0 -19 12.5 -32t38.5 -13q19 0 30 4l4 -2v-49q-20 -7 -54 -7q-47 0 -75.5 21t-28.5 60q0 79 97 142h-4v661h75v-661h-10z" />
    <glyph glyph-name="iogonek" unicode="&#x12f;" horiz-adv-x="244" 
d="M122 614q-21 0 -36.5 15.5t-15.5 37.5q0 21 15.5 36t36.5 15t36.5 -15t15.5 -36q0 -22 -15.5 -37.5t-36.5 -15.5zM84 0v516h76v-516h-7q-91 -61 -91 -128q0 -19 12.5 -32t38.5 -13q19 0 30 4l4 -2v-49q-20 -7 -54 -7q-47 0 -75.5 21t-28.5 60q0 83 103 146h-8z" />
    <glyph glyph-name="Idotaccent" unicode="&#x130;" horiz-adv-x="274" 
d="M137 732q-20 0 -34 14t-14 35q0 19 14.5 33.5t33.5 14.5q20 0 34.5 -14t14.5 -34q0 -21 -14.5 -35t-34.5 -14zM100 0v661h75v-661h-75z" />
    <glyph glyph-name="dotlessi" unicode="&#x131;" horiz-adv-x="244" 
d="M84 0v516h76v-516h-76z" />
    <glyph glyph-name="IJ" unicode="&#x132;" horiz-adv-x="630" 
d="M100 0v661h75v-661h-75zM339 -3q-23 0 -51 3v64l3 1q17 -3 40 -3q132 0 132 157v442h75v-436q0 -228 -199 -228z" />
    <glyph glyph-name="ij" unicode="&#x133;" horiz-adv-x="492" 
d="M122 614q-21 0 -36.5 15.5t-15.5 37.5q0 21 15.5 36t36.5 15t36.5 -15t15.5 -36q0 -22 -15.5 -37.5t-36.5 -15.5zM370 614q-20 0 -35.5 15.5t-15.5 37.5q0 21 15.5 36t35.5 15q22 0 37.5 -15t15.5 -36q0 -22 -15.5 -37.5t-37.5 -15.5zM84 30v486h76v-486h-76zM224 -169
q-52 0 -107 16v65l2 1q47 -14 102 -14q63 0 87.5 42t24.5 148v427h75v-443q0 -130 -46 -186t-138 -56z" />
    <glyph glyph-name="Kcommaaccent" unicode="&#x136;" horiz-adv-x="616" 
d="M242 337l375 -334l-1 -3h-97l-344 304v-304h-75v661h75v-302l333 302h89l1 -3zM279 -52l70 6l7 -9q0 -89 -43 -169h-51q18 60 18 132q0 6 -0.5 20t-0.5 20z" />
    <glyph glyph-name="kcommaaccent" unicode="&#x137;" horiz-adv-x="526" 
d="M232 269l283 -266l-1 -3h-94l-260 242v-242h-76v710h76v-422l252 228h89l1 -3zM236 -52l70 6l7 -9q0 -89 -43 -169h-51q18 60 18 132q0 6 -0.5 20t-0.5 20z" />
    <glyph glyph-name="kgreenlandic" unicode="&#x138;" horiz-adv-x="526" 
d="M232 269l283 -266l-1 -3h-94l-260 242v-242h-76v516h76v-229l255 229h89l1 -3z" />
    <glyph glyph-name="Lacute" unicode="&#x139;" horiz-adv-x="500" 
d="M260 797l-5 -11l-199 -85l-16 42l180 113zM175 63h313v-63h-388v661h75v-598z" />
    <glyph glyph-name="lacute" unicode="&#x13a;" horiz-adv-x="271" 
d="M26 744l-16 42l180 113l40 -59l-5 -11zM197 -9q-115 0 -115 116v603h74v-580q0 -38 13.5 -54.5t42.5 -16.5q20 0 39 12l3 -1v-66q-28 -13 -57 -13z" />
    <glyph glyph-name="Lcommaaccent" unicode="&#x13b;" horiz-adv-x="500" 
d="M175 63h313v-63h-388v661h75v-598zM261 -52l70 6l7 -9q0 -89 -43 -169h-51q18 60 18 132q0 6 -0.5 20t-0.5 20z" />
    <glyph glyph-name="lcommaaccent" unicode="&#x13c;" horiz-adv-x="271" 
d="M197 -9q-115 0 -115 116v603h74v-580q0 -38 13.5 -54.5t42.5 -16.5q20 0 39 12l3 -1v-66q-28 -13 -57 -13zM114 -224q18 60 18 132q0 6 -0.5 20t-0.5 20l70 6l7 -9q0 -89 -43 -169h-51z" />
    <glyph glyph-name="Lcaron" unicode="&#x13d;" horiz-adv-x="504" 
d="M416 671l-27 -202h-48l8 211h59zM175 63h313v-63h-388v661h75v-598z" />
    <glyph glyph-name="lcaron" unicode="&#x13e;" horiz-adv-x="280" 
d="M216 502l8 212h60l8 -9l-27 -203h-49zM197 -9q-115 0 -115 116v603h74v-580q0 -38 13.5 -54.5t42.5 -16.5q21 0 40 12l2 -1v-66q-28 -13 -57 -13z" />
    <glyph glyph-name="Ldot" unicode="&#x13f;" horiz-adv-x="511" 
d="M175 63h313v-63h-388v661h75v-598zM387 334q-22 0 -34 12t-12 31t12 31.5t34 12.5t34 -12.5t12 -31.5q0 -43 -46 -43z" />
    <glyph glyph-name="ldot" unicode="&#x140;" horiz-adv-x="315" 
d="M197 -9q-115 0 -115 116v603h74v-580q0 -38 13.5 -54.5t42.5 -16.5q21 0 40 12l2 -1v-66q-28 -13 -57 -13zM277 314q-22 0 -34 12t-12 31q0 20 12 32.5t34 12.5t34 -12.5t12 -32.5q0 -19 -12 -31t-34 -12z" />
    <glyph glyph-name="Lslash" unicode="&#x141;" horiz-adv-x="507" 
d="M182 63h313v-63h-388v273l-73 -45l-3 2v66l76 47v318h75v-271l74 46h3v-69l-77 -48v-256z" />
    <glyph glyph-name="lslash" unicode="&#x142;" horiz-adv-x="318" 
d="M282 71l2 -1v-66q-28 -13 -57 -13q-115 0 -115 116v198l-73 -46h-3v64l76 48v339h74v-292l75 47h3v-65l-78 -49v-221q0 -38 13.5 -54.5t42.5 -16.5q21 0 40 12z" />
    <glyph glyph-name="Nacute" unicode="&#x143;" horiz-adv-x="739" 
d="M280 701l-16 42l180 113l40 -59l-5 -11zM100 0v663h31l433 -511h3v509h72v-664h-30l-435 513h-2v-510h-72z" />
    <glyph glyph-name="nacute" unicode="&#x144;" horiz-adv-x="614" 
d="M410 680l-175 -117l-27 39l153 143l52 -54zM333 528q90 0 147 -57.5t57 -170.5v-300h-75v281q0 90 -41.5 132t-107.5 42q-53 0 -94 -29t-59 -79v-347h-76v516h62l9 -78q58 90 178 90z" />
    <glyph glyph-name="Ncommaaccent" unicode="&#x145;" horiz-adv-x="739" 
d="M100 0v663h31l433 -511h3v509h72v-664h-30l-435 513h-2v-510h-72zM318 -224q18 60 18 132q0 6 -0.5 20t-0.5 20l70 6l7 -9q0 -89 -43 -169h-51z" />
    <glyph glyph-name="ncommaaccent" unicode="&#x146;" horiz-adv-x="614" 
d="M333 528q90 0 147 -57.5t57 -170.5v-300h-75v281q0 90 -41.5 132t-107.5 42q-53 0 -94 -29t-59 -79v-347h-76v516h62l9 -78q58 90 178 90zM260 -52l70 6l7 -9q0 -89 -43 -169h-51q18 60 18 132q0 6 -0.5 20t-0.5 20z" />
    <glyph glyph-name="Ncaron" unicode="&#x147;" horiz-adv-x="739" 
d="M357 701l-124 112l28 36l115 -83l108 83l28 -36l-121 -112h-34zM100 0v663h31l433 -511h3v509h72v-664h-30l-435 513h-2v-510h-72z" />
    <glyph glyph-name="ncaron" unicode="&#x148;" horiz-adv-x="614" 
d="M322 568h-35l-120 135l33 31l106 -95l100 95l33 -31zM333 528q90 0 147 -57.5t57 -170.5v-300h-75v281q0 90 -41.5 132t-107.5 42q-53 0 -94 -29t-59 -79v-347h-76v516h62l9 -78q58 90 178 90z" />
    <glyph glyph-name="Eng" unicode="&#x14a;" horiz-adv-x="738" 
d="M567 661h72v-625q0 -229 -198 -229q-28 0 -51 4v62l1 1q18 -3 41 -3q68 0 101.5 42.5t33.5 117.5v16l-393 462h-2v-509h-72v663h31l433 -512h3v510z" />
    <glyph glyph-name="eng" unicode="&#x14b;" horiz-adv-x="608" 
d="M334 528q89 0 143 -55.5t54 -164.5v-333q0 -173 -158 -173q-8 0 -32 2v62l2 1q6 -1 14 -1q52 0 75.5 28t23.5 93v301q0 85 -40.5 126t-106.5 41q-51 0 -91 -28.5t-58 -77.5v-349h-76v516h62l10 -89q25 44 71 72.5t107 28.5z" />
    <glyph glyph-name="Omacron" unicode="&#x14c;" horiz-adv-x="788" 
d="M253 748v63h280v-63h-280zM394 -14q-145 0 -242.5 92t-97.5 252q0 158 96.5 251t243.5 93q145 0 242.5 -92t97.5 -252q0 -157 -96.5 -250.5t-243.5 -93.5zM394 53q116 0 189 74.5t73 202.5t-73 202.5t-189 74.5t-189 -74.5t-73 -202.5t73 -202.5t189 -74.5z" />
    <glyph glyph-name="omacron" unicode="&#x14d;" horiz-adv-x="631" 
d="M172 621v57h287v-57h-287zM314 -13q-114 0 -189 72t-75 200q0 122 76.5 195.5t187.5 73.5q116 0 191.5 -71.5t75.5 -198.5q0 -123 -77 -197t-190 -74zM314 53q84 0 136.5 56t52.5 150q0 93 -52.5 148t-136.5 55q-83 0 -135 -55t-52 -148q0 -94 52 -150t135 -56z" />
    <glyph glyph-name="Ohungarumlaut" unicode="&#x150;" horiz-adv-x="788" 
d="M307 711l-42 18l70 149l63 -15l2 -12zM487 711l-42 19l71 148l62 -15l2 -12zM394 -14q-145 0 -242.5 92t-97.5 252q0 158 96.5 251t243.5 93q145 0 242.5 -92t97.5 -252q0 -157 -96.5 -250.5t-243.5 -93.5zM394 53q116 0 189 74.5t73 202.5t-73 202.5t-189 74.5
t-189 -74.5t-73 -202.5t73 -202.5t189 -74.5z" />
    <glyph glyph-name="ohungarumlaut" unicode="&#x151;" horiz-adv-x="631" 
d="M234 565l-38 20l86 158l58 -21l1 -11zM400 565l-38 20l86 158l57 -21l1 -11zM314 -13q-114 0 -189 72t-75 200q0 122 76.5 195.5t187.5 73.5q116 0 191.5 -71.5t75.5 -198.5q0 -123 -77 -197t-190 -74zM314 53q84 0 136.5 56t52.5 150q0 93 -52.5 148t-136.5 55
q-83 0 -135 -55t-52 -148q0 -94 52 -150t135 -56z" />
    <glyph glyph-name="OE" unicode="&#x152;" horiz-adv-x="921" 
d="M871 69v-69h-376q-50 -14 -103 -14q-143 0 -240.5 92.5t-97.5 252.5q0 158 96 251.5t242 93.5q52 0 102 -14h364v-68h-238q89 -80 104 -214h115v-68h-112q-7 -154 -106 -243h250zM132 331q0 -128 72.5 -203t187.5 -75q14 0 38 2v552q-24 2 -38 2q-115 0 -187.5 -74.5
t-72.5 -203.5zM646 380q-10 74 -47 127t-95 79v-206h142zM504 76q64 29 102.5 90t42.5 146h-145v-236z" />
    <glyph glyph-name="oe" unicode="&#x153;" horiz-adv-x="989" 
d="M722 528q103 0 161.5 -66.5t58.5 -185.5v-34h-382q5 -92 58.5 -140.5t139.5 -48.5q79 0 154 41l2 -1v-63q-72 -43 -165 -43q-74 0 -134 33t-92 97q-30 -62 -87 -96t-132 -34q-112 0 -183 72.5t-71 197.5q0 119 73 195t181 76q73 0 130.5 -33t88.5 -95q29 61 81.5 94.5
t117.5 33.5zM563 303h309q-5 78 -44 121t-106 43q-62 0 -105.5 -43t-53.5 -121zM305 52q81 0 130 56t49 151q0 94 -49 149t-130 55q-76 0 -126.5 -56.5t-50.5 -149.5q0 -94 50 -149.5t127 -55.5z" />
    <glyph glyph-name="Racute" unicode="&#x154;" horiz-adv-x="581" 
d="M389 786l-199 -85l-16 42l180 113l40 -59zM370 273l172 -270l-1 -3h-81l-163 260h-14h-109v-260h-74v661q98 6 169 6q113 0 177 -49.5t64 -151.5q0 -76 -38.5 -124.5t-101.5 -68.5zM174 320h89q75 0 123 36.5t48 103.5q0 68 -39.5 105t-118.5 37q-64 0 -102 -4v-278z" />
    <glyph glyph-name="racute" unicode="&#x155;" horiz-adv-x="380" 
d="M329 680l-175 -117l-27 39l153 143l52 -54zM301 527q33 0 60 -10v-68l-3 -1q-22 10 -57 10q-118 0 -141 -139v-319h-76v516h62l8 -75q43 86 147 86z" />
    <glyph glyph-name="Rcommaaccent" unicode="&#x156;" horiz-adv-x="581" 
d="M370 273l172 -270l-1 -3h-81l-163 260h-14h-109v-260h-74v661q98 6 169 6q113 0 177 -49.5t64 -151.5q0 -76 -38.5 -124.5t-101.5 -68.5zM174 320h89q75 0 123 36.5t48 103.5q0 68 -39.5 105t-118.5 37q-64 0 -102 -4v-278zM259 -52l70 6l7 -9q0 -89 -43 -169h-51
q18 60 18 132q0 6 -0.5 20t-0.5 20z" />
    <glyph glyph-name="rcommaaccent" unicode="&#x157;" horiz-adv-x="380" 
d="M301 527q33 0 60 -10v-68l-3 -1q-22 10 -57 10q-118 0 -141 -139v-319h-76v516h62l8 -75q43 86 147 86zM85 -52l70 6l7 -9q0 -89 -43 -169h-51q18 60 18 132q0 6 -0.5 20t-0.5 20z" />
    <glyph glyph-name="Rcaron" unicode="&#x158;" horiz-adv-x="581" 
d="M301 701h-34l-124 112l28 36l115 -83l108 83l28 -36zM370 273l172 -270l-1 -3h-81l-163 260h-14h-109v-260h-74v661q98 6 169 6q113 0 177 -49.5t64 -151.5q0 -76 -38.5 -124.5t-101.5 -68.5zM174 320h89q75 0 123 36.5t48 103.5q0 68 -39.5 105t-118.5 37q-64 0 -102 -4
v-278z" />
    <glyph glyph-name="rcaron" unicode="&#x159;" horiz-adv-x="380" 
d="M241 568h-35l-120 135l33 31l106 -95l100 95l33 -31zM301 527q33 0 60 -10v-68l-3 -1q-22 10 -57 10q-118 0 -141 -139v-319h-76v516h62l8 -75q43 86 147 86z" />
    <glyph glyph-name="Sacute" unicode="&#x15a;" horiz-adv-x="509" 
d="M169 706l-16 42l180 113l40 -59l-5 -11zM242 -14q-109 0 -187 46v76l3 2q77 -58 176 -58q66 0 105.5 30.5t39.5 80.5q0 55 -34.5 87.5t-110.5 67.5q-79 36 -124 78t-45 108q0 84 59.5 129.5t147.5 45.5q96 0 165 -32v-71l-3 -1q-60 37 -155 39q-61 0 -99.5 -25.5
t-38.5 -73.5q0 -25 10 -44.5t33.5 -36.5t42.5 -27t58 -28q38 -18 63.5 -33.5t52 -40t39.5 -57.5t13 -74q0 -86 -58.5 -137t-152.5 -51z" />
    <glyph glyph-name="sacute" unicode="&#x15b;" horiz-adv-x="477" 
d="M172 568l-27 39l153 143l52 -54l-3 -11zM221 -13q-105 0 -174 39v73l3 1q72 -48 167 -48q142 0 142 82q0 39 -30 58.5t-109 40.5q-83 22 -124 54t-41 94q0 67 57 107t149 40q87 0 145 -26v-67l-3 -1q-63 29 -143 29q-59 0 -95 -20.5t-36 -56.5q0 -33 30 -51t101 -36
q91 -23 132 -58t41 -100q0 -74 -57.5 -114t-154.5 -40z" />
    <glyph glyph-name="Scedilla" unicode="&#x15e;" horiz-adv-x="509" 
d="M453 174q0 -77 -47.5 -126.5t-126.5 -59.5l-24 -40q7 3 21 3q36 0 60.5 -19.5t24.5 -62.5q0 -50 -34.5 -74.5t-88.5 -24.5q-33 0 -61 10v45l2 1q21 -8 49 -8q31 0 48.5 12.5t17.5 36.5q0 41 -48 41q-25 0 -46 -8l-1 2v37l29 47q-100 2 -173 46v76l3 2q77 -58 176 -58
q66 0 105.5 30.5t39.5 80.5q0 55 -34.5 87.5t-110.5 67.5q-79 36 -124 78t-45 108q0 84 59.5 129.5t147.5 45.5q96 0 165 -32v-71l-3 -1q-60 37 -155 39q-61 0 -99.5 -25.5t-38.5 -73.5q0 -25 10 -44.5t33.5 -36.5t42.5 -27t58 -28q38 -18 63.5 -33.5t52 -40t39.5 -57.5
t13 -74z" />
    <glyph glyph-name="scedilla" unicode="&#x15f;" horiz-adv-x="477" 
d="M433 141q0 -65 -45 -104.5t-124 -47.5l-25 -41q8 3 21 3q36 0 60.5 -19.5t24.5 -62.5q0 -50 -34.5 -74.5t-88.5 -24.5q-33 0 -61 10v45l2 1q21 -8 49 -8q31 0 48.5 12.5t17.5 36.5q0 41 -48 41q-25 0 -46 -8l-1 2v37l29 48q-97 1 -165 39v73l3 1q72 -48 167 -48
q142 0 142 82q0 39 -30 58.5t-109 40.5q-83 22 -124 54t-41 94q0 67 57 107t149 40q87 0 145 -26v-67l-3 -1q-63 29 -143 29q-59 0 -95 -20.5t-36 -56.5q0 -33 30 -51t101 -36q91 -23 132 -58t41 -100z" />
    <glyph glyph-name="Scaron" unicode="&#x160;" horiz-adv-x="509" 
d="M246 706l-124 112l28 36l115 -83l108 83l28 -36l-121 -112h-34zM242 -14q-109 0 -187 46v76l3 2q77 -58 176 -58q66 0 105.5 30.5t39.5 80.5q0 55 -34.5 87.5t-110.5 67.5q-79 36 -124 78t-45 108q0 84 59.5 129.5t147.5 45.5q96 0 165 -32v-71l-3 -1q-60 37 -155 39
q-61 0 -99.5 -25.5t-38.5 -73.5q0 -25 10 -44.5t33.5 -36.5t42.5 -27t58 -28q38 -18 63.5 -33.5t52 -40t39.5 -57.5t13 -74q0 -86 -58.5 -137t-152.5 -51z" />
    <glyph glyph-name="scaron" unicode="&#x161;" horiz-adv-x="477" 
d="M224 573l-120 135l33 31l106 -95l100 95l33 -31l-117 -135h-35zM221 -13q-105 0 -174 39v73l3 1q72 -48 167 -48q142 0 142 82q0 39 -30 58.5t-109 40.5q-83 22 -124 54t-41 94q0 67 57 107t149 40q87 0 145 -26v-67l-3 -1q-63 29 -143 29q-59 0 -95 -20.5t-36 -56.5
q0 -33 30 -51t101 -36q91 -23 132 -58t41 -100q0 -74 -57.5 -114t-154.5 -40z" />
    <glyph glyph-name="uni0162" unicode="&#x162;" horiz-adv-x="554" 
d="M316 0h-11l-31 -52q8 3 21 3q36 0 60.5 -19.5t24.5 -62.5q0 -50 -34.5 -74.5t-88.5 -24.5q-33 0 -61 10v45l2 1q21 -8 49 -8q31 0 48.5 12.5t17.5 36.5q0 41 -48 41q-25 0 -46 -8l-1 2v37l37 61h-13v594h-227v67h523v-67h-222v-594z" />
    <glyph glyph-name="uni0163" unicode="&#x163;" horiz-adv-x="390" 
d="M382 20q-35 -21 -97 -25l-28 -47q7 3 21 3q36 0 60.5 -19.5t24.5 -62.5q0 -50 -34.5 -74.5t-88.5 -24.5q-33 0 -61 10v45l2 1q21 -8 49 -8q31 0 48.5 12.5t17.5 36.5q0 41 -48 41q-25 0 -46 -8l-1 2v37l36 59q-115 17 -115 151v304h-99v63h99v127l73 14l3 -2v-139h182
v-63h-182v-290q0 -101 93 -101q48 0 88 23l3 -1v-64z" />
    <glyph glyph-name="Tcaron" unicode="&#x164;" horiz-adv-x="554" 
d="M295 701h-34l-124 112l28 36l115 -83l108 83l28 -36zM538 661v-67h-222v-594h-74v594h-227v67h523z" />
    <glyph glyph-name="tcaron" unicode="&#x165;" horiz-adv-x="374" 
d="M352 780l-28 -174h-40l8 183h52zM379 85l3 -1v-64q-42 -25 -111 -25q-72 0 -110.5 39t-38.5 115v304h-99v63h99v127l73 14l3 -2v-139h182v-63h-182v-290q0 -101 93 -101q48 0 88 23z" />
    <glyph glyph-name="Tbar" unicode="&#x166;" horiz-adv-x="561" 
d="M542 594h-222v-253h96v-56h-96v-285h-74v285h-102v56h102v253h-227v67h523v-67z" />
    <glyph glyph-name="tbar" unicode="&#x167;" horiz-adv-x="390" 
d="M379 85l3 -1v-64q-42 -25 -111 -25q-72 0 -110.5 39t-38.5 115v107h-91v55h91v142h-99v63h99v127l73 14l3 -2v-139h182v-63h-182v-142h105v-55h-105v-93q0 -101 93 -101q48 0 88 23z" />
    <glyph glyph-name="Utilde" unicode="&#x168;" horiz-adv-x="713" 
d="M249 715l-51 14q2 41 27.5 67.5t63.5 26.5q28 0 71.5 -18.5t62.5 -18.5q17 0 29.5 11.5t12.5 31.5l2 2l51 -16q-2 -42 -27 -67.5t-64 -25.5q-23 0 -67.5 19t-65.5 19q-18 0 -30.5 -12t-12.5 -32zM357 -14q-128 0 -197 69.5t-69 197.5v408h74v-398q0 -104 50 -158t143 -54
q92 0 142 54.5t50 157.5v398h73v-408q0 -127 -70 -197t-196 -70z" />
    <glyph glyph-name="utilde" unicode="&#x169;" horiz-adv-x="600" 
d="M192 604l-2 -2l-50 11q0 40 24 67.5t61 27.5q31 0 78.5 -19.5t68.5 -19.5q18 0 30 11t12 31l3 2l49 -11q0 -44 -25 -69.5t-63 -25.5q-28 -1 -75.5 19.5t-69.5 20.5q-18 0 -29.5 -11.5t-11.5 -31.5zM440 516h76v-516h-62l-8 70q-54 -82 -175 -82q-92 0 -142.5 52.5
t-50.5 156.5v319h76v-306q0 -157 137 -157q50 0 91 27t58 78v358z" />
    <glyph glyph-name="Umacron" unicode="&#x16a;" horiz-adv-x="713" 
d="M216 748v63h280v-63h-280zM357 -14q-128 0 -197 69.5t-69 197.5v408h74v-398q0 -104 50 -158t143 -54q92 0 142 54.5t50 157.5v398h73v-408q0 -127 -70 -197t-196 -70z" />
    <glyph glyph-name="umacron" unicode="&#x16b;" horiz-adv-x="600" 
d="M444 678v-57h-287v57h287zM440 516h76v-516h-62l-8 70q-54 -82 -175 -82q-92 0 -142.5 52.5t-50.5 156.5v319h76v-306q0 -157 137 -157q50 0 91 27t58 78v358z" />
    <glyph glyph-name="Uring" unicode="&#x16e;" horiz-adv-x="713" 
d="M357 682q-41 0 -66.5 24.5t-25.5 62.5t25.5 62.5t66.5 24.5q40 0 65.5 -24.5t25.5 -62.5t-25.5 -62.5t-65.5 -24.5zM357 723q20 0 33 13.5t13 32.5t-13 32.5t-33 13.5t-33 -13.5t-13 -32.5t13 -32.5t33 -13.5zM357 -14q-128 0 -197 69.5t-69 197.5v408h74v-398
q0 -104 50 -158t143 -54q92 0 142 54.5t50 157.5v398h73v-408q0 -127 -70 -197t-196 -70z" />
    <glyph glyph-name="uring" unicode="&#x16f;" horiz-adv-x="600" 
d="M301 562q-41 0 -67.5 26.5t-26.5 65.5t26.5 65t67.5 26q42 0 68 -25.5t26 -65.5t-26 -66t-68 -26zM301 704q-21 0 -35.5 -14.5t-14.5 -35.5t14.5 -35.5t35.5 -14.5q22 0 36.5 14.5t14.5 35.5t-14.5 35.5t-36.5 14.5zM440 516h76v-516h-62l-8 70q-54 -82 -175 -82
q-92 0 -142.5 52.5t-50.5 156.5v319h76v-306q0 -157 137 -157q50 0 91 27t58 78v358z" />
    <glyph glyph-name="Uhungarumlaut" unicode="&#x170;" horiz-adv-x="713" 
d="M270 711l-42 18l70 149l63 -15l2 -12zM450 711l-42 19l71 148l62 -15l2 -12zM357 -14q-128 0 -197 69.5t-69 197.5v408h74v-398q0 -104 50 -158t143 -54q92 0 142 54.5t50 157.5v398h73v-408q0 -127 -70 -197t-196 -70z" />
    <glyph glyph-name="uhungarumlaut" unicode="&#x171;" horiz-adv-x="600" 
d="M326 711l-107 -146l-38 20l86 158l58 -21zM491 711l-106 -146l-38 20l86 158l57 -21zM440 516h76v-516h-62l-8 70q-54 -82 -175 -82q-92 0 -142.5 52.5t-50.5 156.5v319h76v-306q0 -157 137 -157q50 0 91 27t58 78v358z" />
    <glyph glyph-name="Uogonek" unicode="&#x172;" horiz-adv-x="713" 
d="M550 661h73v-408q0 -100 -44 -165.5t-126 -88.5q-83 -60 -83 -123q0 -19 12.5 -32t38.5 -13q19 0 30 4l4 -2v-49q-20 -7 -54 -7q-47 0 -75.5 21t-28.5 60q0 70 77 128h-17q-128 0 -197 69.5t-69 197.5v408h74v-398q0 -104 50 -158t143 -54q92 0 142 54.5t50 157.5v398z
" />
    <glyph glyph-name="uogonek" unicode="&#x173;" horiz-adv-x="600" 
d="M440 516h76v-516h-1q-90 -61 -90 -127q0 -19 12.5 -32t38.5 -13q19 0 30 4l4 -2v-49q-20 -7 -54 -7q-47 0 -75.5 21t-28.5 60q0 81 102 145l-8 70q-54 -82 -175 -82q-92 0 -142.5 52.5t-50.5 156.5v319h76v-306q0 -157 137 -157q50 0 91 27t58 78v358z" />
    <glyph glyph-name="Wcircumflex" unicode="&#x174;" horiz-adv-x="964" 
d="M478 785l-108 -83l-28 37l120 111h35l124 -111l-29 -37zM943 661l1 -3l-219 -670h-55l-180 527l-6 24l-7 -24l-180 -527h-56l-224 670l1 3h79l167 -530l8 -37l9 37l176 527h54l178 -521l9 -38l8 38l165 524h72z" />
    <glyph glyph-name="wcircumflex" unicode="&#x175;" horiz-adv-x="802" 
d="M400 668l-100 -96l-33 33l117 134h35l120 -134l-33 -33zM778 516l1 -3l-172 -513h-56l-142 403l-6 21l-5 -21l-146 -403h-57l-173 513l1 3h76l124 -398l4 -22l5 22l141 398h62l139 -397l5 -22l4 23l126 396h69z" />
    <glyph glyph-name="Ycircumflex" unicode="&#x176;" horiz-adv-x="589" 
d="M183 701l-28 37l120 111h35l124 -111l-29 -37l-114 83zM258 0v276l-243 382l1 3h79l202 -316l200 316h75l1 -3l-241 -383v-275h-74z" />
    <glyph glyph-name="ycircumflex" unicode="&#x177;" horiz-adv-x="522" 
d="M265 663l-100 -96l-33 33l117 134h35l120 -134l-33 -33zM504 516l1 -3l-220 -518l-66 -157h-78l-2 3l88 181l-208 491l1 3h81l164 -420l164 420h75z" />
    <glyph glyph-name="Ydieresis" unicode="&#x178;" horiz-adv-x="589" 
d="M195 731q-19 0 -32 13t-13 32t13 32t32 13t32 -13t13 -32t-13 -32t-32 -13zM398 731q-19 0 -32 13t-13 32t13 32t32 13t32 -13t13 -32t-13 -32t-32 -13zM258 0v276l-243 382l1 3h79l202 -316l200 316h75l1 -3l-241 -383v-275h-74z" />
    <glyph glyph-name="Zacute" unicode="&#x179;" horiz-adv-x="582" 
d="M197 701l-16 42l180 113l40 -59l-5 -11zM36 0v26l402 573h-399v62h503v-26l-406 -573h411v-62h-511z" />
    <glyph glyph-name="zacute" unicode="&#x17a;" horiz-adv-x="511" 
d="M362 680l-175 -117l-27 39l153 143l52 -54zM141 65h335v-65h-438v34l326 417h-324v65h428v-36z" />
    <glyph glyph-name="Zdotaccent" unicode="&#x17b;" horiz-adv-x="582" 
d="M289 732q-20 0 -34 14t-14 35q0 19 14.5 33.5t33.5 14.5q20 0 34.5 -14t14.5 -34q0 -21 -14.5 -35t-34.5 -14zM36 0v26l402 573h-399v62h503v-26l-406 -573h411v-62h-511z" />
    <glyph glyph-name="zdotaccent" unicode="&#x17c;" horiz-adv-x="511" 
d="M254 614q-21 0 -36.5 15.5t-15.5 37.5q0 21 15.5 36t36.5 15t36.5 -15t15.5 -36q0 -22 -15.5 -37.5t-36.5 -15.5zM141 65h335v-65h-438v34l326 417h-324v65h428v-36z" />
    <glyph glyph-name="Zcaron" unicode="&#x17d;" horiz-adv-x="582" 
d="M274 701l-124 112l28 36l115 -83l108 83l28 -36l-121 -112h-34zM36 0v26l402 573h-399v62h503v-26l-406 -573h411v-62h-511z" />
    <glyph glyph-name="zcaron" unicode="&#x17e;" horiz-adv-x="511" 
d="M274 568h-35l-120 135l33 31l106 -95l100 95l33 -31zM141 65h335v-65h-438v34l326 417h-324v65h428v-36z" />
    <glyph glyph-name="uni01EA" unicode="&#x1ea;" horiz-adv-x="788" 
d="M479 -5q-87 -60 -87 -125q0 -19 12.5 -32t38.5 -13q19 0 30 4l4 -2v-49q-20 -7 -54 -7q-47 0 -75.5 21t-28.5 60q0 74 85 134h-10q-145 0 -242.5 92t-97.5 252q0 158 96.5 251t243.5 93q145 0 242.5 -92t97.5 -252q0 -133 -70 -221t-185 -114zM132 330q0 -128 73 -202.5
t189 -74.5t189 74.5t73 202.5t-73 202.5t-189 74.5t-189 -74.5t-73 -202.5z" />
    <glyph glyph-name="uni01EB" unicode="&#x1eb;" horiz-adv-x="631" 
d="M399 -1q-84 -59 -84 -123q0 -19 12.5 -32t38.5 -13q19 0 30 4l4 -2v-49q-20 -7 -54 -7q-47 0 -75.5 21t-28.5 60q0 72 78 129h-6q-114 0 -189 72t-75 200q0 122 76.5 195.5t187.5 73.5q116 0 191.5 -71.5t75.5 -198.5q0 -98 -50 -166t-132 -93zM127 259q0 -94 52 -150
t135 -56q84 0 136.5 56t52.5 150q0 93 -52.5 148t-136.5 55q-83 0 -135 -55t-52 -148z" />
    <glyph glyph-name="AEacute" unicode="&#x1fc;" horiz-adv-x="819" 
d="M604 790l-199 -85l-16 42l180 113l40 -59zM485 63h284v-63h-359v202h-229l-126 -202h-77l412 661h366v-62h-271v-225h252v-62h-252v-249zM215 256h195v322l-47 -85z" />
    <glyph glyph-name="aeacute" unicode="&#x1fd;" horiz-adv-x="899" 
d="M551 680l-175 -117l-27 39l153 143l52 -54zM618 528q105 0 165 -66.5t61 -185.5v-35h-385q5 -89 58 -138t130 -49q92 0 165 45l3 -2v-66q-75 -44 -174 -44q-69 0 -126.5 28.5t-90.5 85.5q-83 -113 -222 -113q-74 0 -118.5 37.5t-44.5 107.5q0 50 25.5 83.5t75.5 50.5
t107 24t136 8v11q0 76 -40.5 115t-113.5 39q-91 0 -144 -35l-3 2v60q49 37 159 37q142 0 189 -105q32 49 81 77t107 28zM460 299h310q-5 81 -44 124.5t-108 43.5q-62 0 -105 -44.5t-53 -123.5zM212 52q61 0 110 27.5t77 76.5q-11 40 -14 85q-63 0 -106.5 -4t-84 -14.5
t-61 -32t-20.5 -54.5q0 -40 28.5 -62t70.5 -22z" />
    <glyph glyph-name="Oslashacute" unicode="&#x1fe;" horiz-adv-x="788" 
d="M503 786l-199 -85l-16 42l180 113l40 -59zM734 678v-6l-88 -100q88 -95 88 -242q0 -157 -96.5 -250.5t-243.5 -93.5q-120 0 -207 63l-58 -66h-75v8l86 98q-86 94 -86 241q0 158 96.5 251t243.5 93q118 0 206 -61l57 65h77zM132 330q0 -111 58 -185l362 414
q-67 48 -158 48q-116 0 -189 -74.5t-73 -202.5zM656 330q0 113 -59 186l-363 -414q66 -49 160 -49q116 0 189 74.5t73 202.5z" />
    <glyph glyph-name="oslashacute" unicode="&#x1ff;" horiz-adv-x="633" 
d="M425 680l-175 -117l-27 39l153 143l52 -54zM513 450q69 -74 69 -192q0 -123 -77 -197t-190 -74q-89 0 -154 44l-40 -47h-67v8l64 76q-67 72 -67 191q0 122 76.5 195.5t187.5 73.5q88 0 154 -42l37 45h71v-6zM128 259q0 -79 38 -133l257 306q-47 30 -108 30
q-83 0 -135 -55t-52 -148zM315 53q84 0 136.5 56t52.5 150q0 80 -39 133l-258 -306q45 -33 108 -33z" />
    <glyph glyph-name="Scommaaccent" unicode="&#x218;" horiz-adv-x="509" 
d="M242 -14q-109 0 -187 46v76l3 2q77 -58 176 -58q66 0 105.5 30.5t39.5 80.5q0 55 -34.5 87.5t-110.5 67.5q-79 36 -124 78t-45 108q0 84 59.5 129.5t147.5 45.5q96 0 165 -32v-71l-3 -1q-60 37 -155 39q-61 0 -99.5 -25.5t-38.5 -73.5q0 -25 10 -44.5t33.5 -36.5
t42.5 -27t58 -28q38 -18 63.5 -33.5t52 -40t39.5 -57.5t13 -74q0 -86 -58.5 -137t-152.5 -51zM201 -224q18 60 18 132q0 6 -0.5 20t-0.5 20l70 6l7 -9q0 -89 -43 -169h-51z" />
    <glyph glyph-name="scommaaccent" unicode="&#x219;" horiz-adv-x="477" 
d="M221 -13q-105 0 -174 39v73l3 1q72 -48 167 -48q142 0 142 82q0 39 -30 58.5t-109 40.5q-83 22 -124 54t-41 94q0 67 57 107t149 40q87 0 145 -26v-67l-3 -1q-63 29 -143 29q-59 0 -95 -20.5t-36 -56.5q0 -33 30 -51t101 -36q91 -23 132 -58t41 -100q0 -74 -57.5 -114
t-154.5 -40zM185 -224q18 60 18 132q0 6 -0.5 20t-0.5 20l70 6l7 -9q0 -89 -43 -169h-51z" />
    <glyph glyph-name="uni021A" unicode="&#x21a;" horiz-adv-x="554" 
d="M538 661v-67h-222v-594h-74v594h-227v67h523zM237 -52l70 6l7 -9q0 -89 -43 -169h-51q18 60 18 132q0 6 -0.5 20t-0.5 20z" />
    <glyph glyph-name="uni021B" unicode="&#x21b;" horiz-adv-x="390" 
d="M379 85l3 -1v-64q-42 -25 -111 -25q-72 0 -110.5 39t-38.5 115v304h-99v63h99v127l73 14l3 -2v-139h182v-63h-182v-290q0 -101 93 -101q48 0 88 23zM220 -52l70 6l7 -9q0 -89 -43 -169h-51q18 60 18 132q0 6 -0.5 20t-0.5 20z" />
    <glyph glyph-name="uni0237" unicode="&#x237;" horiz-adv-x="261" 
d="M10 -169q-19 0 -49 5v65l3 1q15 -3 32 -3q106 0 106 129v488h75v-504q0 -181 -167 -181z" />
    <glyph glyph-name="circumflex" unicode="&#x2c6;" horiz-adv-x="333" 
d="M64 567l-33 33l117 134h35l120 -134l-33 -33l-106 96z" />
    <glyph glyph-name="caron" unicode="&#x2c7;" horiz-adv-x="333" 
d="M155 526l-121 140l25 26l109 -104l108 104l25 -26l-121 -140h-25z" />
    <glyph glyph-name="breve" unicode="&#x2d8;" horiz-adv-x="317" 
d="M158 577q-59 0 -97 37t-38 101l51 6l2 -2q2 -38 25 -61t58 -23q37 0 60.5 23t24.5 60l2 3l49 -6q0 -63 -39 -100.5t-98 -37.5z" />
    <glyph glyph-name="dotaccent" unicode="&#x2d9;" horiz-adv-x="273" 
d="M136 614q-21 0 -36.5 15.5t-15.5 37.5q0 21 15.5 36t36.5 15t36.5 -15t15.5 -36q0 -22 -15.5 -37.5t-36.5 -15.5z" />
    <glyph glyph-name="ring" unicode="&#x2da;" horiz-adv-x="328" 
d="M142 562q-41 0 -67.5 26.5t-26.5 65.5t26.5 65t67.5 26q42 0 68 -25.5t26 -65.5t-26 -66t-68 -26zM142 604q22 0 36.5 14.5t14.5 35.5t-14.5 35.5t-36.5 14.5q-21 0 -35.5 -14.5t-14.5 -35.5t14.5 -35.5t35.5 -14.5z" />
    <glyph glyph-name="ogonek" unicode="&#x2db;" horiz-adv-x="189" 
d="M118 -223q-47 0 -75.5 21t-28.5 60q0 86 110 150l54 -4q-91 -61 -91 -128q0 -19 12.5 -32t38.5 -13q19 0 30 4l4 -2v-49q-20 -7 -54 -7z" />
    <glyph glyph-name="tilde" unicode="&#x2dc;" horiz-adv-x="349" 
d="M63 602l-50 11q0 40 24 67.5t61 27.5q30 0 78 -19.5t69 -19.5q18 0 30 11t12 31l3 2l49 -11q0 -44 -25 -69.5t-63 -25.5q-28 -1 -75.5 19.5t-69.5 20.5q-18 0 -29.5 -11.5t-11.5 -31.5z" />
    <glyph glyph-name="hungarumlaut" unicode="&#x2dd;" horiz-adv-x="354" 
d="M60 565l-38 20l86 158l58 -21l1 -11zM226 565l-38 20l86 158l57 -21l1 -11z" />
    <glyph glyph-name="gravecomb" unicode="&#x300;" 
d="M-43 563l-176 117l-2 11l52 54l153 -143z" />
    <glyph glyph-name="acutecomb" unicode="&#x301;" 
d="M-194 563l-27 39l153 143l52 -54l-3 -11z" />
    <glyph glyph-name="uni0302" unicode="&#x302;" 
d="M-269 567l-33 33l117 134h35l120 -134l-33 -33l-106 96z" />
    <glyph glyph-name="tildecomb" unicode="&#x303;" 
d="M-286 602l-50 11q0 40 24 67.5t61 27.5q30 0 77.5 -19.5t69.5 -19.5q18 0 30 11t12 31l3 2l49 -11q0 -44 -25 -69.5t-63 -25.5q-28 -1 -75.5 19.5t-69.5 20.5q-18 0 -29.5 -11.5t-11.5 -31.5z" />
    <glyph glyph-name="uni0304" unicode="&#x304;" 
d="M-310 621v57h287v-57h-287z" />
    <glyph glyph-name="uni0306" unicode="&#x306;" 
d="M-159 577q-59 0 -97 37t-38 101l51 6l2 -2q2 -38 25 -61t58 -23q37 0 60.5 23t24.5 60l2 3l49 -6q0 -63 -39 -100.5t-98 -37.5z" />
    <glyph glyph-name="uni0307" unicode="&#x307;" 
d="M-137 614q-21 0 -36.5 15.5t-15.5 37.5q0 21 15.5 36t36.5 15t36.5 -15t15.5 -36q0 -22 -15.5 -37.5t-36.5 -15.5z" />
    <glyph glyph-name="uni0308" unicode="&#x308;" 
d="M-247 616q-21 0 -35.5 14.5t-14.5 35.5q0 20 14.5 34.5t35.5 14.5q20 0 35 -14.5t15 -34.5q0 -21 -15 -35.5t-35 -14.5zM-55 616q-21 0 -35.5 14.5t-14.5 35.5q0 20 14.5 34.5t35.5 14.5q20 0 35 -15t15 -34q0 -21 -15 -35.5t-35 -14.5z" />
    <glyph glyph-name="uni030A" unicode="&#x30a;" 
d="M-142 562q-41 0 -67.5 26.5t-26.5 65.5t26.5 65t67.5 26q42 0 68 -25.5t26 -65.5t-26 -66t-68 -26zM-142 604q22 0 36.5 14.5t14.5 35.5t-14.5 35.5t-36.5 14.5q-21 0 -35.5 -14.5t-14.5 -35.5t14.5 -35.5t35.5 -14.5z" />
    <glyph glyph-name="uni030B" unicode="&#x30b;" 
d="M-294 565l-38 20l86 158l58 -21l1 -11zM-128 565l-38 20l86 158l57 -21l1 -11z" />
    <glyph glyph-name="uni030C" unicode="&#x30c;" 
d="M-182 568l-120 135l33 31l106 -95l100 95l33 -31l-117 -135h-35z" />
    <glyph glyph-name="uni0326" unicode="&#x326;" 
d="M-137 -224q18 60 18 132q0 6 -0.5 20t-0.5 20l70 6l7 -9q0 -89 -43 -169h-51z" />
    <glyph glyph-name="uni0327" unicode="&#x327;" 
d="M-130 -230q-33 0 -61 10v45l2 1q21 -8 49 -8q31 0 48.5 12.5t17.5 36.5q0 41 -48 41q-25 0 -46 -8l-1 2v37l37 61h50l-31 -52q7 3 21 3q36 0 60.5 -19.5t24.5 -62.5q0 -50 -34.5 -74.5t-88.5 -24.5z" />
    <glyph glyph-name="uni0328" unicode="&#x328;" 
d="M-79 -223q-47 0 -75.5 21t-28.5 60q0 86 110 150l54 -4q-91 -61 -91 -128q0 -19 12.5 -32t38.5 -13q19 0 30 4l4 -2v-49q-20 -7 -54 -7z" />
    <glyph glyph-name="uni0335" unicode="&#x335;" 
d="M-300 190v55h272v-55h-272z" />
    <glyph glyph-name="uni0336" unicode="&#x336;" 
d="M-569 326v58h544v-58h-544z" />
    <glyph glyph-name="uni0337" unicode="&#x337;" 
d="M-248 255v65l225 141h3v-64l-224 -142h-4z" />
    <glyph glyph-name="uni0338" unicode="&#x338;" 
d="M-564 -13v8l452 538h70v-6l-456 -540h-66z" />
    <glyph glyph-name="Wgrave" unicode="&#x1e80;" horiz-adv-x="964" 
d="M567 702l-200 85l-5 11l40 59l180 -112zM943 661l1 -3l-219 -670h-55l-180 527l-6 24l-7 -24l-180 -527h-56l-224 670l1 3h79l167 -530l8 -37l9 37l176 527h54l178 -521l9 -38l8 38l165 524h72z" />
    <glyph glyph-name="wgrave" unicode="&#x1e81;" horiz-adv-x="802" 
d="M464 568l-176 117l-2 11l52 54l153 -143zM778 516l1 -3l-172 -513h-56l-142 403l-6 21l-5 -21l-146 -403h-57l-173 513l1 3h76l124 -398l4 -22l5 22l141 398h62l139 -397l5 -22l4 23l126 396h69z" />
    <glyph glyph-name="Wacute" unicode="&#x1e82;" horiz-adv-x="964" 
d="M588 787l-199 -85l-16 42l180 113l40 -59zM943 661l1 -3l-219 -670h-55l-180 527l-6 24l-7 -24l-180 -527h-56l-224 670l1 3h79l167 -530l8 -37l9 37l176 527h54l178 -521l9 -38l8 38l165 524h72z" />
    <glyph glyph-name="wacute" unicode="&#x1e83;" horiz-adv-x="802" 
d="M510 685l-175 -117l-27 39l153 143l52 -54zM778 516l1 -3l-172 -513h-56l-142 403l-6 21l-5 -21l-146 -403h-57l-173 513l1 3h76l124 -398l4 -22l5 22l141 398h62l139 -397l5 -22l4 23l126 396h69z" />
    <glyph glyph-name="Wdieresis" unicode="&#x1e84;" horiz-adv-x="964" 
d="M382 732q-19 0 -32 13t-13 32t13 32t32 13t32 -13t13 -32t-13 -32t-32 -13zM585 732q-19 0 -32 13t-13 32t13 32t32 13t32 -13t13 -32t-13 -32t-32 -13zM943 661l1 -3l-219 -670h-55l-180 527l-6 24l-7 -24l-180 -527h-56l-224 670l1 3h79l167 -530l8 -37l9 37l176 527
h54l178 -521l9 -38l8 38l165 524h72z" />
    <glyph glyph-name="wdieresis" unicode="&#x1e85;" horiz-adv-x="802" 
d="M310 621q-21 0 -35.5 14.5t-14.5 35.5q0 20 14.5 34.5t35.5 14.5q20 0 35 -14.5t15 -34.5q0 -21 -15 -35.5t-35 -14.5zM502 621q-21 0 -35.5 14.5t-14.5 35.5q0 20 14.5 34.5t35.5 14.5q20 0 35 -15t15 -34q0 -21 -15 -35.5t-35 -14.5zM778 516l1 -3l-172 -513h-56
l-142 403l-6 21l-5 -21l-146 -403h-57l-173 513l1 3h76l124 -398l4 -22l5 22l141 398h62l139 -397l5 -22l4 23l126 396h69z" />
    <glyph glyph-name="Ygrave" unicode="&#x1ef2;" horiz-adv-x="589" 
d="M380 701l-200 85l-5 11l40 59l180 -112zM258 0v276l-243 382l1 3h79l202 -316l200 316h75l1 -3l-241 -383v-275h-74z" />
    <glyph glyph-name="ygrave" unicode="&#x1ef3;" horiz-adv-x="522" 
d="M329 563l-176 117l-2 11l52 54l153 -143zM504 516l1 -3l-220 -518l-66 -157h-78l-2 3l88 181l-208 491l1 3h81l164 -420l164 420h75z" />
    <glyph glyph-name="uni1EF8" unicode="&#x1ef8;" horiz-adv-x="589" 
d="M187 715l-51 14q2 41 27.5 67.5t63.5 26.5q28 0 71.5 -18.5t62.5 -18.5q17 0 29.5 11.5t12.5 31.5l2 2l51 -16q-2 -42 -27 -67.5t-64 -25.5q-23 0 -67.5 19t-65.5 19q-18 0 -30.5 -12t-12.5 -32zM258 0v276l-243 382l1 3h79l202 -316l200 316h75l1 -3l-241 -383v-275h-74
z" />
    <glyph glyph-name="uni1EF9" unicode="&#x1ef9;" horiz-adv-x="522" 
d="M158 604l-2 -2l-50 11q0 40 24 67.5t61 27.5q31 0 78 -19.5t69 -19.5q18 0 30 11t12 31l3 2l49 -11q0 -44 -25 -69.5t-63 -25.5q-28 -1 -75.5 19.5t-69.5 20.5q-18 0 -29.5 -11.5t-11.5 -31.5zM504 516l1 -3l-220 -518l-66 -157h-78l-2 3l88 181l-208 491l1 3h81
l164 -420l164 420h75z" />
    <glyph glyph-name="endash" unicode="&#x2013;" horiz-adv-x="517" 
d="M73 248v62h370v-62h-370z" />
    <glyph glyph-name="emdash" unicode="&#x2014;" horiz-adv-x="859" 
d="M73 248v62h714v-62h-714z" />
    <glyph glyph-name="quoteleft" unicode="&#x2018;" horiz-adv-x="203" 
d="M156 693q-9 -62 -13 -149q-1 -26 2 -58l-68 -12l-10 12q1 92 42 207h47z" />
    <glyph glyph-name="quoteright" unicode="&#x2019;" horiz-adv-x="190" 
d="M51 475q9 62 13 149q1 26 -2 58l68 12l10 -12q-1 -92 -42 -207h-47z" />
    <glyph glyph-name="quotesinglbase" unicode="&#x201a;" horiz-adv-x="197" 
d="M40 -145q9 62 13 149q1 26 -2 58l68 12l10 -12q-1 -92 -42 -207h-47z" />
    <glyph glyph-name="quotedblleft" unicode="&#x201c;" horiz-adv-x="345" 
d="M156 693q-9 -62 -13 -149q-1 -26 2 -58l-68 -12l-10 12q1 92 42 207h47zM297 693q-9 -62 -13 -149q-1 -26 2 -58l-68 -12l-10 12q1 92 42 207h47z" />
    <glyph glyph-name="quotedblright" unicode="&#x201d;" horiz-adv-x="341" 
d="M51 475q9 62 13 149q1 26 -2 58l68 12l10 -12q-1 -92 -42 -207h-47zM192 475q9 62 13 149q1 26 -2 58l68 12l10 -12q-1 -92 -42 -207h-47z" />
    <glyph glyph-name="quotedblbase" unicode="&#x201e;" horiz-adv-x="336" 
d="M40 -145q9 62 13 149q1 26 -2 58l68 12l10 -12q-1 -92 -42 -207h-47zM181 -145q9 62 13 149q1 26 -2 58l68 12l10 -12q-1 -92 -42 -207h-47z" />
    <glyph glyph-name="dagger" unicode="&#x2020;" horiz-adv-x="516" 
d="M282 507l173 11v-70l-163 9l-9 -514h-51l-10 514l-162 -9v70l172 -11l-10 181h71z" />
    <glyph glyph-name="daggerdbl" unicode="&#x2021;" horiz-adv-x="516" 
d="M222 -55l10 177l-172 -10v71l164 -10l9 144l-10 143l-162 -9v71l171 -11l-10 177h71l-11 -176l173 10v-71l-163 9l-8 -143l8 -143l163 9v-71l-172 11l10 -178h-71z" />
    <glyph glyph-name="bullet" unicode="&#x2022;" horiz-adv-x="376" 
d="M188 173q-41 0 -70 29t-29 70t29 70t70 29t70 -29t29 -70t-29 -70t-70 -29z" />
    <glyph glyph-name="ellipsis" unicode="&#x2026;" horiz-adv-x="567" 
d="M108 -5q-24 0 -37.5 14t-13.5 36q0 20 14 34.5t37 14.5q24 0 38 -14.5t14 -34.5q0 -22 -14 -36t-38 -14zM290 -5q-24 0 -37.5 14t-13.5 36q0 20 14 34.5t37 14.5q24 0 38 -14.5t14 -34.5q0 -22 -14 -36t-38 -14zM471 -5q-24 0 -37.5 14t-13.5 36q0 20 14 34.5t37 14.5
q24 0 38 -14.5t14 -34.5q0 -22 -14 -36t-38 -14z" />
    <glyph glyph-name="perthousand" unicode="&#x2030;" horiz-adv-x="1086" 
d="M200 342q-71 0 -115 41.5t-44 118.5t44 120t116 43t116.5 -43t44.5 -120t-44.5 -118.5t-117.5 -41.5zM116 11l446 641h66l-447 -641h-65zM200 394q45 0 72 28.5t27 80.5q0 51 -27 80t-72 29q-44 0 -70 -29t-26 -80q0 -52 26 -80.5t70 -28.5zM545 -5q-71 0 -115.5 41.5
t-44.5 117.5q0 77 44.5 120.5t115.5 43.5q72 0 116 -43t44 -121q0 -76 -44 -117.5t-116 -41.5zM892 -5q-72 0 -116 41.5t-44 117.5q0 78 44.5 121t116.5 43t115.5 -43t43.5 -121q0 -76 -44 -117.5t-116 -41.5zM545 48q45 0 71 27.5t26 78.5q0 53 -26 82t-71 29t-71 -29
t-26 -82q0 -51 26 -78.5t71 -27.5zM893 48q44 0 70.5 27.5t26.5 78.5q0 52 -26.5 81.5t-70.5 29.5q-45 0 -71 -29t-26 -82q0 -51 26 -78.5t71 -27.5z" />
    <glyph glyph-name="guilsinglleft" unicode="&#x2039;" horiz-adv-x="335" 
d="M202 94l-166 183l167 181h77v-8l-159 -172l159 -178v-6h-78z" />
    <glyph glyph-name="guilsinglright" unicode="&#x203a;" horiz-adv-x="335" 
d="M134 456l166 -183l-167 -181h-77v8l159 172l-159 178v6h78z" />
    <glyph glyph-name="fraction" unicode="&#x2044;" horiz-adv-x="113" 
d="M-180 -12l430 673h62l-430 -673h-62z" />
    <glyph glyph-name="Euro" unicode="&#x20ac;" horiz-adv-x="693" 
d="M628 97l3 -2l-13 -66q-69 -32 -155 -32q-119 0 -205 63.5t-115 172.5h-107l9 56h88q-2 28 -2 44q0 27 3 53h-71l10 56h73q31 107 116.5 169t201.5 62q94 0 166 -26l-13 -64l-3 -1q-61 25 -146 25q-91 0 -155 -43.5t-90 -121.5h269l-10 -56h-272q-3 -24 -3 -50
q0 -24 3 -47h253l-9 -56h-233q25 -81 89 -126t159 -45q81 0 159 35z" />
    <glyph glyph-name="trademark" unicode="&#x2122;" horiz-adv-x="811" 
d="M39 598v57h282v-57h-110v-253h-59v253h-113zM708 655l31 -310h-56l-22 206h-1l-97 -205h-33l-98 209h-1l-22 -210h-57l33 310h57l107 -226l103 226h56z" />
    <glyph glyph-name="minus" unicode="&#x2212;" horiz-adv-x="547" 
d="M75 263v60h397v-60h-397z" />
    <glyph glyph-name="approxequal" unicode="&#x2248;" horiz-adv-x="517" 
d="M125 329l-51 7q0 44 26.5 71t69.5 27q39 0 93.5 -20t82.5 -20q47 0 48 44l3 2l47 -9q0 -44 -26 -70t-70 -26q-33 0 -88 20t-83 20q-49 0 -51 -45zM125 138l-51 6q0 45 26.5 72.5t69.5 27.5q39 0 93.5 -20.5t82.5 -20.5q47 0 48 44l3 2l47 -8q0 -44 -26 -70.5t-70 -26.5
q-33 0 -88 20t-83 20q-49 0 -51 -44z" />
    <glyph glyph-name="notequal" unicode="&#x2260;" horiz-adv-x="559" 
d="M484 366h-122l-73 -155h195v-58h-222l-63 -133h-69l63 133h-118v58h145l73 155h-218v58h246l59 126h69l-59 -126h94v-58z" />
    <glyph glyph-name="uniF8FF" unicode="&#xf8ff;" horiz-adv-x="1451" 
d="M752 522q-26 0 -43.5 18t-17.5 43q0 26 17.5 44t43.5 18t44 -18t18 -44t-18 -43.5t-44 -17.5zM100 270q0 134 9 314h100q10 -200 10 -314h-119zM604 264q-82 0 -82 66q0 12 2 49t2 38h-22v79l119 30l1 -17h178q10 -64 10 -239h-118q0 92 3 147h-61l3 -65q4 -4 15 -4
q13 0 18 5v-74q-14 -15 -68 -15zM328 265q-92 0 -92 114q0 135 134 135q124 0 124 -117v-127h-83l-8 61q-6 -33 -23.5 -49.5t-51.5 -16.5zM834 270q0 175 10 239h80q6 -44 6 -76q2 15 6.5 30t24 33t49.5 18q42 0 58.5 -25t18.5 -81l3 -138h-114q0 26 1 56t1 37q0 29 -15 29
q-18 0 -18 -29q0 -7 1.5 -37t1.5 -56h-114zM1228 265q-122 0 -122 124q0 125 124 125q121 0 121 -123q0 -126 -123 -126zM366 345q24 0 24 30q0 26 -24 26q-22 0 -22 -26q0 -30 22 -30zM1228 345q23 0 23 30q0 26 -23 26q-21 0 -21 -26q0 -30 21 -30zM390 -50q-61 0 -88 17
v83q24 -16 70 -16q21 0 34 6t16.5 11.5t3.5 10.5q-16 -11 -49 -11q-90 0 -90 83v13h-55l3 -65q6 -4 15 -4q13 0 18 5v-73q-19 -15 -68 -15q-45 0 -63 17t-18 54q0 39 3 81h-18v80l117 29l-1 -18h177v-119q0 -16 3 -21.5t12 -5.5q16 0 16 27v119h104q10 -52 10 -138
q0 -81 -33.5 -115.5t-118.5 -34.5zM558 -44q0 142 10 282h78q7 -42 7 -76q17 81 80 81q37 0 58.5 -29t21.5 -84q0 -135 -137 -135q1 -15 1 -39h-119zM970 -5q-141 0 -141 122q0 59 32.5 92.5t92.5 33.5q55 0 85.5 -30t30.5 -86q0 -21 -3 -35h-124q11 -18 50 -18q34 0 55 12
v-75q-23 -16 -78 -16zM938 109h40q3 27 -17 27q-23 0 -23 -27zM670 72q5 0 12.5 2.5t16 11.5t8.5 23q0 23 -20 23q-22 0 -22 -31q0 -14 5 -29zM1098 -10q-24 0 -24 23t24 23t24 -23t-24 -23zM1098 -5q18 0 18 18t-18 18t-18 -18t18 -18zM1088 2v23h11q10 0 10 -7t-7 -7l6 -9
h-6l-4 9h-5v-9h-5zM1093 15h7q4 0 4 3t-4 3h-7v-6z" />
    <glyph glyph-name="i.loclTRK" horiz-adv-x="244" 
d="M122 614q-21 0 -36.5 15.5t-15.5 37.5q0 21 15.5 36t36.5 15t36.5 -15t15.5 -36q0 -22 -15.5 -37.5t-36.5 -15.5zM84 0v516h76v-516h-76z" />
    <glyph glyph-name="caroncomb.alt" 
d="M-102 502l8 212h59l8 -9l-27 -203h-48z" />
    <glyph glyph-name="uni0308.case" 
d="M-276 731q-19 0 -32 13t-13 32t13 32t32 13t32 -13t13 -32t-13 -32t-32 -13zM-73 731q-19 0 -32 13t-13 32t13 32t32 13t32 -13t13 -32t-13 -32t-32 -13z" />
    <glyph glyph-name="uni0307.case" 
d="M-127 732q-20 0 -34 14t-14 35q0 19 14.5 33.5t33.5 14.5q20 0 34.5 -14t14.5 -34q0 -21 -14.5 -35t-34.5 -14z" />
    <glyph glyph-name="gravecomb.case" 
d="M-45 701l-200 85l-5 11l40 59l180 -112z" />
    <glyph glyph-name="acutecomb.case" 
d="M-229 701l-16 42l180 113l40 -59l-5 -11z" />
    <glyph glyph-name="uni030B.case" 
d="M-296 711l-42 18l70 149l63 -15l2 -12zM-116 711l-42 19l71 148l62 -15l2 -12z" />
    <glyph glyph-name="uni0302.case" 
d="M-279 701l-28 37l120 111h35l124 -111l-29 -37l-114 83z" />
    <glyph glyph-name="uni030C.case" 
d="M-183 701l-124 112l28 36l115 -83l108 83l28 -36l-121 -112h-34z" />
    <glyph glyph-name="uni0306.case" 
d="M-159 707q-59 0 -97 35.5t-38 95.5l49 5q4 -37 27 -58.5t60 -21.5q39 0 63.5 22t25.5 58l47 -5q0 -60 -39 -95.5t-98 -35.5z" />
    <glyph glyph-name="uni030A.case" 
d="M-116 682q-41 0 -66.5 24.5t-25.5 62.5t25.5 62.5t66.5 24.5q40 0 65.5 -24.5t25.5 -62.5t-25.5 -62.5t-65.5 -24.5zM-116 723q20 0 33 13.5t13 32.5t-13 32.5t-33 13.5t-33 -13.5t-13 -32.5t13 -32.5t33 -13.5z" />
    <glyph glyph-name="tildecomb.case" 
d="M-285 715l-51 14q2 41 27.5 67.5t63.5 26.5q28 0 71.5 -18.5t62.5 -18.5q17 0 29.5 11.5t12.5 31.5l2 2l51 -16q-2 -42 -27 -67.5t-64 -25.5q-23 0 -67.5 19t-65.5 19q-18 0 -30.5 -12t-12.5 -32z" />
    <glyph glyph-name="uni0304.case" 
d="M-300 748v63h280v-63h-280z" />
    <glyph glyph-name="uni0337.case" 
d="M-253 222v66l225 140h4v-69l-225 -139z" />
    <glyph glyph-name="uni0338.case" 
d="M-705 -15v8l603 687h77v-6l-605 -689h-75z" />
    <glyph glyph-name="caron.alt" horiz-adv-x="134" 
d="M32 442l8 225h51l8 -9l-27 -216h-40z" />
    <glyph glyph-name="acute.case" horiz-adv-x="271" 
d="M42 701l-16 42l180 113l40 -59l-5 -11z" />
    <glyph glyph-name="breve.case" horiz-adv-x="317" 
d="M158 707q-59 0 -97 35.5t-38 95.5l49 5q4 -37 27 -58.5t60 -21.5q39 0 63.5 22t25.5 58l47 -5q0 -60 -39 -95.5t-98 -35.5z" />
    <glyph glyph-name="caron.case" horiz-adv-x="335" 
d="M152 701l-124 112l28 36l115 -83l108 83l28 -36l-121 -112h-34z" />
    <glyph glyph-name="circumflex.case" horiz-adv-x="335" 
d="M56 701l-28 37l120 111h35l124 -111l-29 -37l-114 83z" />
    <glyph glyph-name="dieresis.case" horiz-adv-x="350" 
d="M74 731q-19 0 -32 13t-13 32t13 32t32 13t32 -13t13 -32t-13 -32t-32 -13zM277 731q-19 0 -32 13t-13 32t13 32t32 13t32 -13t13 -32t-13 -32t-32 -13z" />
    <glyph glyph-name="dotaccent.case" horiz-adv-x="253" 
d="M126 732q-20 0 -34 14t-14 35q0 19 14 33.5t34 14.5t34.5 -14t14.5 -34q0 -21 -14.5 -35t-34.5 -14z" />
    <glyph glyph-name="grave.case" horiz-adv-x="271" 
d="M226 701l-200 85l-5 11l40 59l180 -112z" />
    <glyph glyph-name="hungarumlaut.case" horiz-adv-x="383" 
d="M87 711l-42 18l70 149l63 -15l2 -12zM267 711l-42 19l71 148l62 -15l2 -12z" />
    <glyph glyph-name="macron.case" horiz-adv-x="372" 
d="M20 748v63h280v-63h-280z" />
    <glyph glyph-name="ring.case" horiz-adv-x="233" 
d="M117 682q-41 0 -66.5 24.5t-25.5 62.5t25.5 62.5t66.5 24.5q40 0 65.5 -24.5t25.5 -62.5t-25.5 -62.5t-65.5 -24.5zM117 723q20 0 33 13.5t13 32.5t-13 32.5t-33 13.5t-33 -13.5t-13 -32.5t13 -32.5t33 -13.5z" />
    <glyph glyph-name="tilde.case" horiz-adv-x="353" 
d="M68 715l-51 14q2 41 27.5 67.5t63.5 26.5q28 0 71.5 -18.5t62.5 -18.5q17 0 29.5 11.5t12.5 31.5l2 2l51 -16q-2 -42 -27 -67.5t-64 -25.5q-23 0 -67.5 19t-65.5 19q-18 0 -30.5 -12t-12.5 -32z" />
    <glyph glyph-name="IJacute" horiz-adv-x="635" 
d="M68 695l-16 42l180 113l40 -59l-5 -11zM431 695l-16 42l180 113l40 -59l-5 -11zM100 0v661h75v-661h-75zM345 -3q-23 0 -51 3v64l3 1q17 -3 40 -3q132 0 132 157v442h75v-436q0 -228 -199 -228z" />
    <glyph glyph-name="ijacute" horiz-adv-x="492" 
d="M55 563l-27 39l153 143l52 -54l-3 -11zM321 563l-27 39l153 143l52 -54l-3 -11zM84 30v486h76v-486h-76zM224 -169q-52 0 -107 16v65l2 1q47 -14 102 -14q63 0 87.5 42t24.5 148v427h75v-443q0 -130 -46 -186t-138 -56z" />
    </font>
</defs>
</svg>
