<?xml version="1.0" standalone="no"?>
<!DOCTYPE svg PUBLIC "-//W3C//DTD SVG 1.1//EN" "http://www.w3.org/Graphics/SVG/1.1/DTD/svg11.dtd" >
<svg xmlns="http://www.w3.org/2000/svg" xmlns:xlink="http://www.w3.org/1999/xlink" version="1.1">
<metadata>
Created by FontForge 20170731 at Tue Mar  7 13:07:32 2017
 By Aleksey,,,
Copyright (c) 2017 by Alfonso Garci'a - Latinotype Team. All rights reserved.
</metadata>
<defs>
<font id="RawsonAlt-RegularIt" horiz-adv-x="0" >
  <font-face 
    font-family="Rawson Alt It"
    font-weight="400"
    font-style="italic"
    font-stretch="normal"
    units-per-em="1100"
    panose-1="0 0 5 0 0 0 0 0 0 0"
    ascent="880"
    descent="-220"
    x-height="518"
    cap-height="661"
    bbox="-651 -231 1318 898"
    underline-thickness="50"
    underline-position="-200"
    slope="-7.5"
    unicode-range="U+0020-FB02"
  />
<missing-glyph horiz-adv-x="480" 
 />
    <glyph glyph-name="fi" unicode="fi" horiz-adv-x="532" 
d="M474 721q21 0 34 -13t13 -33q0 -24 -15.5 -39t-36.5 -15t-34.5 13t-13.5 34q0 24 15.5 38.5t37.5 14.5zM219 538l-3 -20h118l-9 -60h-117l-89 -624h-75l89 624h-68l9 60h67l3 20q12 87 64 133t122 46q32 0 59 -11l-9 -66l-2 -1q-19 11 -47 11q-43 0 -73.5 -28t-38.5 -84z
M337 0l74 518h75l-74 -518h-75z" />
    <glyph glyph-name="fl" unicode="fl" horiz-adv-x="469" 
d="M219 538l-3 -20h118l-9 -61h-117l-88 -623h-75l88 623h-68l9 61h67l3 20q12 87 64 133t122 46q36 0 59 -11l-9 -66l-2 -1q-22 11 -47 11q-43 0 -73.5 -28t-38.5 -84zM437 712h74l-100 -712h-75z" />
    <glyph glyph-name=".notdef" horiz-adv-x="480" 
 />
    <glyph glyph-name=".null" 
 />
    <glyph glyph-name="nonmarkingreturn" horiz-adv-x="366" 
 />
    <glyph glyph-name="space" unicode=" " horiz-adv-x="251" 
 />
    <glyph glyph-name="exclam" unicode="!" horiz-adv-x="250" 
d="M85 192l63 492h76l-75 -492h-64zM90 -11q-19 0 -30 11.5t-11 28.5q0 21 13.5 34.5t34.5 13.5t31.5 -11.5t10.5 -29.5q0 -20 -14 -33.5t-35 -13.5z" />
    <glyph glyph-name="quotedbl" unicode="&#x22;" horiz-adv-x="318" 
d="M101 440l28 224h62l7 -8l-50 -216h-47zM222 440l29 224h62l6 -8l-50 -216h-47z" />
    <glyph glyph-name="numbersign" unicode="#" horiz-adv-x="546" 
d="M505 369h-76l-46 -151h89l-8 -52h-97l-32 -105h-52l32 105h-148l-32 -105h-52l32 105h-71l8 52h79l46 151h-93l8 52h101l32 106h52l-32 -106h148l32 106h52l-32 -106h67zM331 218l46 151h-148l-46 -151h148z" />
    <glyph glyph-name="dollar" unicode="$" horiz-adv-x="467" 
d="M338 615q64 -4 109 -25l-10 -67l-1 -1q-58 29 -137 29q-59 0 -95.5 -22t-36.5 -69q0 -25 16 -41.5t34.5 -24t62.5 -20.5q64 -20 98.5 -52t34.5 -85q0 -74 -46 -119t-124 -55l-13 -95h-70l13 93q-81 4 -142 38l10 67l2 1q66 -47 157 -47q142 0 142 104q0 35 -28.5 53.5
t-93.5 37.5q-67 19 -99.5 49t-32.5 83q0 72 49.5 115t129.5 52l13 96h71z" />
    <glyph glyph-name="percent" unicode="%" horiz-adv-x="723" 
d="M205 343q-60 0 -95.5 35t-35.5 99q0 87 50 139t126 52q61 0 97.5 -36.5t36.5 -101.5q0 -88 -50.5 -137.5t-128.5 -49.5zM81 11l516 645h65l-516 -645h-65zM213 396q48 0 78 34.5t30 94.5q0 43 -20.5 66.5t-56.5 23.5q-48 0 -78 -36t-30 -96q0 -42 20.5 -64.5t56.5 -22.5z
M493 -5q-60 0 -95.5 35t-35.5 99q0 88 50 139.5t127 51.5q60 0 96 -36t36 -102q0 -88 -50 -137.5t-128 -49.5zM501 48q49 0 78.5 34t29.5 94q0 43 -20.5 67t-56.5 24q-48 0 -78 -36.5t-30 -96.5q0 -41 20 -63.5t57 -22.5z" />
    <glyph glyph-name="ampersand" unicode="&#x26;" horiz-adv-x="631" 
d="M584 0h-84l-61 77q-88 -93 -213 -93q-85 0 -138 44.5t-53 122.5q0 148 170 228q-42 66 -42 126q0 78 57 129t136 51q74 0 123 -32l-9 -62h-1q-51 32 -113 32q-48 0 -85 -30.5t-37 -81.5q0 -34 19.5 -70t62.5 -92l127 -165q46 81 68 201h65q-31 -156 -94 -252zM237 49
q96 0 164 76l-144 183q-2 2 -19 25q-63 -31 -96 -71t-33 -99q0 -55 34 -84.5t94 -29.5z" />
    <glyph glyph-name="quotesingle" unicode="'" horiz-adv-x="198" 
d="M101 440l28 224h62l7 -8l-50 -216h-47z" />
    <glyph glyph-name="parenleft" unicode="(" horiz-adv-x="289" 
d="M174 -174q-51 24 -89 117t-38 236q0 119 26 224.5t66 175.5t83 115t83 62l19 -57q-33 -19 -66.5 -60.5t-66 -104t-52.5 -154.5t-20 -195q0 -118 26.5 -198.5t63.5 -103.5z" />
    <glyph glyph-name="parenright" unicode=")" horiz-adv-x="289" 
d="M126 760q51 -24 89 -117t38 -235q0 -120 -26 -225t-66 -175t-83 -115t-83 -63l-19 57q33 19 66.5 60.5t66 104t52.5 154.5t20 195q0 118 -27 198.5t-64 103.5z" />
    <glyph glyph-name="asterisk" unicode="*" horiz-adv-x="454" 
d="M267 578l-5 3l-35 140l3 7l49 13l6 -6l-1 -149l-4 -5zM302 570l-7 1l-6 8l27 33l79 94l8 -1l27 -33l-29 -34zM243 556l-134 21l-2 5l17 48l15 3l119 -56l1 -6l-5 -11zM419 486l-125 57l-2 6l5 12l5 4l141 -22l3 -5l-18 -48zM152 414l-31 35l2 9l127 92l6 -1l8 -7l-1 -7
l-105 -120zM272 379l-7 5l3 150l5 5l11 3l5 -3l36 -141l-4 -6z" />
    <glyph glyph-name="plus" unicode="+" horiz-adv-x="478" 
d="M443 323l-9 -58h-165l-26 -186h-58l26 186h-164l8 58h165l26 186h58l-26 -186h165z" />
    <glyph glyph-name="comma" unicode="," horiz-adv-x="193" 
d="M-13 -146q39 98 44 166q0 3 3 45l70 7l8 -11q-15 -114 -79 -207h-46z" />
    <glyph glyph-name="hyphen" unicode="-" horiz-adv-x="404" 
d="M72 259l9 63h261l-9 -63h-261z" />
    <glyph glyph-name="period" unicode="." horiz-adv-x="213" 
d="M73 -5q-22 0 -34.5 13t-12.5 32q0 24 15 39t40 15q23 0 35 -13.5t12 -33.5q0 -23 -15 -37.5t-40 -14.5z" />
    <glyph glyph-name="slash" unicode="/" horiz-adv-x="436" 
d="M-17 -118l419 868h68l-419 -868h-68z" />
    <glyph glyph-name="zero" unicode="0" horiz-adv-x="606" 
d="M274 -14q-100 0 -156 67t-56 194q0 197 84 313t210 116q99 0 154 -68.5t55 -196.5q0 -197 -83 -311t-208 -114zM282 51q89 0 147 97.5t58 265.5q0 89 -36.5 143t-100.5 54q-92 0 -151 -101t-59 -268q0 -87 37 -139t105 -52z" />
    <glyph glyph-name="one" unicode="1" horiz-adv-x="361" 
d="M153 0l79 564l-171 -78l-3 1l11 68l237 120h15l-94 -675h-74z" />
    <glyph glyph-name="two" unicode="2" horiz-adv-x="516" 
d="M10 0q16 134 224 294q101 78 137 121t36 94q0 47 -31 74.5t-91 27.5q-57 0 -106 -22.5t-78 -50.5l-1 1l8 70q76 68 188 68q84 0 135.5 -42t51.5 -114q0 -50 -21 -91t-59.5 -78.5t-116.5 -98.5q-158 -122 -174 -187h330l-10 -66h-422z" />
    <glyph glyph-name="three" unicode="3" horiz-adv-x="511" 
d="M354 355q95 -40 95 -147q0 -104 -65.5 -163.5t-183.5 -59.5q-110 0 -180 51l11 72l3 1q58 -61 165 -61q82 0 130 40t48 111q0 60 -37 88t-113 30l-58 1l9 64h58q71 0 114 34t43 98q0 45 -31.5 72t-86.5 27q-93 0 -159 -49l-2 1l8 65q72 48 167 48q80 0 129 -38.5
t49 -108.5q0 -127 -113 -176z" />
    <glyph glyph-name="four" unicode="4" horiz-adv-x="567" 
d="M527 214l-9 -67h-110l-21 -147h-69l21 147h-317l-11 31l414 496h57l-65 -460h110zM121 214h227l46 332z" />
    <glyph glyph-name="five" unicode="5" horiz-adv-x="517" 
d="M208 -15q-58 0 -97.5 10t-83.5 34l10 72l3 1q82 -50 171 -50q80 0 127.5 44t47.5 122q0 59 -34 94t-103 35q-87 0 -165 -23l-2 2l70 339h346l-9 -65h-282l-42 -198q41 11 104 11q94 0 144.5 -47.5t50.5 -132.5q0 -121 -76.5 -184.5t-179.5 -63.5z" />
    <glyph glyph-name="six" unicode="6" horiz-adv-x="557" 
d="M401 676q73 0 115 -20l-8 -63l-3 -1q-41 19 -112 19q-111 0 -177 -83t-82 -214q64 100 187 100q80 0 131 -48.5t51 -137.5q0 -103 -66.5 -173.5t-174.5 -70.5q-95 0 -151 65t-56 179q0 208 95.5 328t250.5 120zM306 347q-65 0 -112.5 -42t-63.5 -104q7 -72 43 -111
t97 -39q71 0 113.5 46.5t42.5 121.5q0 60 -30.5 94t-89.5 34z" />
    <glyph glyph-name="seven" unicode="7" horiz-adv-x="468" 
d="M86 0l319 595h-332l10 69h405l10 -36l-334 -628h-78z" />
    <glyph glyph-name="eight" unicode="8" horiz-adv-x="565" 
d="M395 346q54 -30 78.5 -65.5t24.5 -89.5q0 -89 -67 -147.5t-178 -58.5q-99 0 -153.5 43t-54.5 122q0 130 145 213q-75 52 -75 133q0 80 61 130.5t158 50.5q86 0 137.5 -39t51.5 -108q0 -58 -31 -101.5t-97 -82.5zM330 610q-64 0 -100 -30.5t-36 -79.5q0 -37 30 -64.5
t97 -55.5q4 -1 10 -4t7 -3q59 32 84.5 65t25.5 76t-31 69.5t-87 26.5zM261 51q73 0 116.5 36t43.5 92q0 49 -30.5 77t-107.5 60q-3 1 -17.5 7t-22.5 10q-119 -60 -119 -169q0 -54 36.5 -83.5t100.5 -29.5z" />
    <glyph glyph-name="nine" unicode="9" horiz-adv-x="554" 
d="M307 678q96 0 153.5 -63.5t57.5 -188.5q0 -199 -87 -317.5t-239 -118.5q-82 0 -137 24l10 67l3 1q59 -28 126 -28q61 0 107.5 25t73.5 68.5t41.5 88.5t20.5 97q-71 -90 -180 -90q-84 0 -134.5 52t-50.5 138q0 113 68 179t167 66zM273 310q55 0 99.5 30.5t70.5 79.5v3
q0 93 -36.5 141t-102.5 48q-65 0 -111 -43.5t-46 -123.5q0 -62 34.5 -98.5t91.5 -36.5z" />
    <glyph glyph-name="colon" unicode=":" horiz-adv-x="232" 
d="M137 398q-20 0 -30.5 11.5t-10.5 28.5q0 20 14.5 35t38.5 15q19 0 29.5 -11.5t10.5 -28.5q0 -21 -14 -35.5t-38 -14.5zM79 -5q-19 0 -29.5 10.5t-10.5 27.5q0 21 14 35.5t38 14.5q20 0 30.5 -11t10.5 -28q0 -21 -14 -35t-39 -14z" />
    <glyph glyph-name="semicolon" unicode=";" horiz-adv-x="250" 
d="M156 400q-22 0 -34.5 13t-12.5 32q0 23 15.5 38.5t39.5 15.5q23 0 35 -13.5t12 -33.5q0 -22 -14.5 -37t-40.5 -15zM15 -146q38 97 45 167q2 30 2 44l70 7l8 -11q-14 -106 -79 -207h-46z" />
    <glyph glyph-name="less" unicode="&#x3c;" horiz-adv-x="447" 
d="M117 295l13 -6l237 -159l-37 -54l-288 192l8 54l341 190l22 -53l-282 -158z" />
    <glyph glyph-name="equal" unicode="=" horiz-adv-x="538" 
d="M89 367l9 59h391l-8 -59h-392zM59 154l8 59h392l-8 -59h-392z" />
    <glyph glyph-name="greater" unicode="&#x3e;" horiz-adv-x="447" 
d="M128 512l288 -190l-8 -54l-341 -192l-23 54l282 158l15 6l-13 6l-237 158z" />
    <glyph glyph-name="question" unicode="?" horiz-adv-x="414" 
d="M124 189q9 64 33 104.5t78 81.5q49 37 72.5 69.5t23.5 84.5q0 44 -27 70.5t-76 26.5q-78 0 -135 -51l-2 1l10 67q58 48 144 48q69 0 115 -39.5t46 -105.5q0 -72 -31 -117t-95 -95q-46 -36 -64.5 -69.5t-24.5 -74.5zM135 -5q-20 0 -31 11t-11 28q0 20 13.5 34t35.5 14
q21 0 31.5 -11.5t10.5 -29.5q0 -19 -14 -32.5t-35 -13.5z" />
    <glyph glyph-name="at" unicode="@" horiz-adv-x="772" 
d="M558 73q-40 0 -58.5 22t-13.5 57q-51 -84 -139 -84q-56 0 -92.5 41.5t-36.5 107.5q0 101 57.5 163t140.5 62q67 0 106 -45l10 35h47l-32 -233l-4 -28q-7 -45 30 -45q46 0 73 57t27 146q0 101 -59 167t-172 66q-140 0 -235.5 -102t-95.5 -257q0 -119 68.5 -189t186.5 -70
q120 0 207 76h3l24 -40q-101 -90 -241 -90q-143 0 -226.5 83.5t-83.5 222.5q0 182 115 301t286 119q135 0 210.5 -81t75.5 -199q0 -109 -45.5 -186t-132.5 -77zM367 121q76 0 122 87l11 74h1l9 64q-33 46 -94 46q-58 0 -97.5 -45.5t-39.5 -117.5q0 -52 24.5 -80t63.5 -28z
" />
    <glyph glyph-name="A" unicode="A" horiz-adv-x="608" 
d="M484 0l-45 176h-291l-95 -176h-75l368 673h30l187 -673h-79zM179 235h244l-73 284l-5 28l-13 -28z" />
    <glyph glyph-name="B" unicode="B" horiz-adv-x="559" 
d="M401 354q101 -33 101 -144q0 -93 -65.5 -151.5t-205.5 -58.5h-170l92 661q72 7 150 7q104 0 153 -41.5t49 -106.5q0 -123 -104 -166zM310 607q-56 0 -92 -3l-33 -236h94q71 0 112.5 37.5t41.5 101.5q0 100 -123 100zM233 57q196 0 196 150q0 49 -32 78.5t-96 29.5h-124
l-36 -258h92z" />
    <glyph glyph-name="C" unicode="C" horiz-adv-x="608" 
d="M368 -12q-142 0 -225 77.5t-83 216.5q0 177 102 285t264 108q106 0 182 -39l-10 -70l-2 -1q-78 44 -177 44q-125 0 -204 -89.5t-79 -225.5q0 -113 66 -177t176 -64q88 0 161 44l3 -1l-11 -69q-71 -39 -163 -39z" />
    <glyph glyph-name="D" unicode="D" horiz-adv-x="700" 
d="M352 670q151 0 231 -75t80 -207q0 -181 -108 -285t-299 -104q-150 0 -195 3l93 659q94 9 198 9zM273 65q150 0 230.5 85t80.5 231q0 103 -62.5 161.5t-180.5 58.5q-86 0 -122 -4l-75 -528q60 -4 129 -4z" />
    <glyph glyph-name="E" unicode="E" horiz-adv-x="530" 
d="M515 592h-296l-30 -217h277l-10 -68h-277l-33 -238h307l-9 -69h-383l92 661h371z" />
    <glyph glyph-name="F" unicode="F" horiz-adv-x="493" 
d="M511 593h-292l-34 -239h249l-9 -67h-249l-41 -287h-74l92 661h367z" />
    <glyph glyph-name="G" unicode="G" horiz-adv-x="667" 
d="M352 -10q-136 0 -214 76t-78 207q0 180 108.5 291t281.5 111q110 0 182 -39l-10 -73l-3 -1q-72 46 -181 46q-133 0 -216.5 -89.5t-83.5 -234.5q0 -103 60.5 -164.5t167.5 -61.5q81 0 148 36l29 199h70l-35 -245q-105 -58 -226 -58z" />
    <glyph glyph-name="H" unicode="H" horiz-adv-x="712" 
d="M597 661h75l-93 -661h-74l42 305h-369l-43 -305h-74l92 661h75l-41 -289h370z" />
    <glyph glyph-name="I" unicode="I" horiz-adv-x="268" 
d="M61 0l92 661h75l-93 -661h-74z" />
    <glyph glyph-name="J" unicode="J" horiz-adv-x="346" 
d="M29 -3q-22 0 -49 3l9 64l3 1q13 -3 36 -3q125 0 147 158l63 441h75l-61 -436q-31 -228 -223 -228z" />
    <glyph glyph-name="K" unicode="K" horiz-adv-x="593" 
d="M628 658l-378 -326l306 -329l-1 -3h-93l-284 304l-43 -304h-74l92 661h75l-43 -302l353 302h89z" />
    <glyph glyph-name="L" unicode="L" horiz-adv-x="482" 
d="M144 63h295l-9 -63h-369l93 661h75z" />
    <glyph glyph-name="M" unicode="M" horiz-adv-x="817" 
d="M699 664h45l-31 -664h-71l26 496h-2l-278 -491h-25l-144 490h-2l-115 -495h-70l158 664h45l161 -529z" />
    <glyph glyph-name="N" unicode="N" horiz-adv-x="707" 
d="M61 0l93 666h32l335 -517h3l72 512h71l-93 -666h-30l-337 518h-2l-73 -513h-71z" />
    <glyph glyph-name="O" unicode="O" horiz-adv-x="751" 
d="M368 -13q-138 0 -222 84.5t-84 222.5q0 170 96.5 276t248.5 106q136 0 220 -85.5t84 -222.5q0 -170 -95.5 -275.5t-247.5 -105.5zM377 53q116 0 187 87.5t71 219.5q0 116 -64 183t-173 67q-117 0 -188 -87.5t-71 -220.5q0 -117 63.5 -183t174.5 -66z" />
    <glyph glyph-name="P" unicode="P" horiz-adv-x="532" 
d="M315 667q105 0 159 -46t54 -129q0 -115 -73.5 -179t-199.5 -64q-41 0 -84 5l-36 -254h-74l93 661q84 6 161 6zM256 313q94 0 145 43.5t51 124.5q0 55 -35 88t-106 33q-41 0 -92 -3l-39 -280q39 -6 76 -6z" />
    <glyph glyph-name="Q" unicode="Q" horiz-adv-x="742" 
d="M766 -157l1 -3l-14 -58q-101 4 -181 26t-125 47.5t-107.5 56.5t-121.5 46l10 68q202 15 297.5 98.5t95.5 239.5q0 116 -63 180.5t-170 64.5q-104 0 -171 -70.5t-67 -180.5q0 -88 50.5 -138.5t151.5 -49.5q24 0 53 6l2 -1l-4 -66q-31 -7 -66 -7q-126 1 -195.5 68
t-69.5 181q0 144 91 235t234 91q133 0 217.5 -81t84.5 -226q0 -161 -94.5 -265.5t-265.5 -129.5q51 -19 110.5 -46.5t94 -43t92.5 -28.5t130 -14z" />
    <glyph glyph-name="R" unicode="R" horiz-adv-x="560" 
d="M523 498q0 -90 -45.5 -147t-117.5 -79l124 -269l-1 -3h-78l-117 260h-13h-104l-36 -260h-74l93 662q72 6 164 6q97 0 151 -42t54 -128zM180 320h81q80 0 132.5 42.5t52.5 122.5q0 119 -132 119q-57 0 -95 -4z" />
    <glyph glyph-name="S" unicode="S" horiz-adv-x="509" 
d="M236 -14q-107 0 -187 46l3 76l3 2q76 -58 175 -58q67 0 107 31t40 82q0 54 -33.5 86t-108.5 67q-76 35 -120.5 77t-44.5 107q0 85 60.5 131t151.5 46q97 0 164 -31l-2 -72l-3 -1q-63 39 -154 39q-62 1 -101 -25t-39 -75q0 -46 33 -73t108 -62q77 -37 120 -81t43 -120
q0 -88 -59 -140t-156 -52z" />
    <glyph glyph-name="T" unicode="T" horiz-adv-x="534" 
d="M574 661l-9 -67h-211l-83 -594h-76l85 594h-214l9 67h499z" />
    <glyph glyph-name="U" unicode="U" horiz-adv-x="684" 
d="M309 -14q-106 0 -165.5 55.5t-59.5 147.5q0 38 4 65l57 407h74l-56 -398q-4 -25 -4 -52q0 -77 42.5 -118t115.5 -41q90 0 141 51.5t67 159.5l55 398h73l-57 -407q-39 -268 -287 -268z" />
    <glyph glyph-name="V" unicode="V" horiz-adv-x="599" 
d="M640 661l1 -3l-357 -672h-44l-167 672l1 3h78l123 -522l5 -35l13 35l273 522h74z" />
    <glyph glyph-name="W" unicode="W" horiz-adv-x="921" 
d="M957 661l1 -3l-303 -670h-54l-95 518l-3 22l-8 -22l-245 -518h-56l-117 670l1 3h78l81 -530l2 -36l14 36l242 527h52l94 -521l3 -36l13 36l228 524h72z" />
    <glyph glyph-name="X" unicode="X" horiz-adv-x="591" 
d="M610 658l-257 -317l183 -338l-1 -3h-86l-151 282l-226 -282h-88l-1 3l275 343l-169 312l1 3h86l139 -261l206 261h88z" />
    <glyph glyph-name="Y" unicode="Y" horiz-adv-x="566" 
d="M210 0l40 280l-174 378l1 3h79l142 -310l228 310h76l1 -3l-279 -379l-40 -279h-74z" />
    <glyph glyph-name="Z" unicode="Z" horiz-adv-x="559" 
d="M10 0l-5 27l459 572h-375l8 62h471l4 -26l-462 -573h388l-8 -62h-480z" />
    <glyph glyph-name="bracketleft" unicode="[" horiz-adv-x="295" 
d="M321 694h-105l-111 -798h104l-8 -55h-168l128 908h168z" />
    <glyph glyph-name="backslash" unicode="\" horiz-adv-x="435" 
d="M349 -118h-68l-176 868h68z" />
    <glyph glyph-name="bracketright" unicode="]" horiz-adv-x="295" 
d="M105 749h168l-128 -908h-169l9 55h103l113 798h-105z" />
    <glyph glyph-name="asciicircum" unicode="^" horiz-adv-x="476" 
d="M320 676l121 -325l-53 -23l-96 272l-4 13l-7 -13l-171 -272l-47 23l211 325h46z" />
    <glyph glyph-name="underscore" unicode="_" horiz-adv-x="459" 
d="M-7 -61l9 60h382l-8 -60h-383z" />
    <glyph glyph-name="grave" unicode="`" horiz-adv-x="234" 
d="M241 572l-166 103l-1 10l52 57l143 -125z" />
    <glyph glyph-name="a" unicode="a" horiz-adv-x="542" 
d="M493 76l3 -1l-10 -65q-27 -16 -63 -16q-73 0 -73 67q0 9 1 14q-73 -87 -178 -87q-67 0 -108.5 37.5t-41.5 101.5q0 88 63.5 130.5t154.5 42.5q86 0 134 -24l5 35q3 18 3 35q0 119 -135 119q-82 0 -149 -52l-3 1l9 68q21 19 66 33t97 14q94 0 142.5 -42.5t48.5 -124.5
q0 -25 -4 -48l-28 -195q-1 -7 -1 -17q-1 -38 32 -38q22 0 35 12zM194 51q97 0 163 94l10 73q-44 22 -119 22q-65 0 -107 -25.5t-42 -80.5q0 -39 26.5 -61t68.5 -22z" />
    <glyph glyph-name="b" unicode="b" horiz-adv-x="588" 
d="M345 529q90 0 143.5 -55t53.5 -155q0 -151 -79.5 -241t-209.5 -90q-121 0 -203 47l94 677h75l-36 -258q59 75 162 75zM260 55q91 0 147.5 68t56.5 183q0 77 -37 116t-99 39q-58 0 -103.5 -36t-58.5 -98l-34 -243q52 -29 128 -29z" />
    <glyph glyph-name="c" unicode="c" horiz-adv-x="481" 
d="M271 -12q-100 0 -162 61.5t-62 169.5q0 142 81 226.5t207 84.5q77 0 133 -27l-10 -68l-3 -1q-57 29 -126 29q-91 0 -147.5 -65t-56.5 -167q0 -80 42.5 -128.5t119.5 -48.5q64 0 124 34l3 -1l-10 -69q-58 -30 -133 -30z" />
    <glyph glyph-name="d" unicode="d" horiz-adv-x="587" 
d="M494 712h76l-100 -712h-62l1 66q-60 -78 -171 -78q-85 0 -139 57.5t-54 156.5q0 148 83 237.5t204 89.5q75 0 131 -36zM261 55q51 0 96 32.5t61 88.5l35 245q-46 42 -123 42q-88 0 -147.5 -68t-59.5 -182q0 -76 36.5 -117t101.5 -41z" />
    <glyph glyph-name="e" unicode="e" horiz-adv-x="549" 
d="M311 529q95 0 147 -55t52 -138q0 -36 -11 -89h-374v-19q0 -84 44.5 -129t116.5 -45q92 0 163 49l3 -1l-10 -71q-64 -43 -164 -43q-102 0 -166.5 60t-64.5 174q0 137 76.5 222t187.5 85zM134 307h301q1 8 1 24q0 62 -32.5 97t-99.5 35q-60 0 -106 -42t-64 -114z" />
    <glyph glyph-name="f" unicode="f" horiz-adv-x="323" 
d="M326 717q43 0 70 -11l-9 -65l-3 -1q-22 10 -53 10q-96 0 -112 -115l-2 -17h121l-9 -61h-121l-87 -622h-76l87 622h-67l9 61h67l1 9q14 97 63.5 143.5t120.5 46.5z" />
    <glyph glyph-name="g" unicode="g" horiz-adv-x="546" 
d="M549 518l-8 -57h-106q44 -39 44 -96q0 -80 -58.5 -129.5t-154.5 -49.5q-56 0 -96 18q-21 -16 -21 -38q0 -21 28.5 -32.5t107.5 -20.5q98 -11 140.5 -39t42.5 -84q0 -78 -68.5 -119.5t-189.5 -41.5q-205 0 -205 112q0 86 112 140q-42 22 -42 60q0 50 55 88q-48 40 -48 107
q0 83 60 132.5t155 49.5h252zM273 247q62 -1 97.5 30.5t35.5 85.5q0 43 -30 69t-83 26q-61 0 -98.5 -31.5t-37.5 -84.5q0 -44 30.5 -69.5t85.5 -25.5zM396 -23q0 34 -30.5 49.5t-107.5 23.5q-55 7 -83 13q-99 -43 -99 -105q0 -71 148 -71q172 0 172 90z" />
    <glyph glyph-name="h" unicode="h" horiz-adv-x="588" 
d="M350 529q79 0 126.5 -45t47.5 -126q0 -24 -3 -50l-44 -308h-74l43 303q1 11 1 30q0 66 -32.5 97t-88.5 31q-51 0 -94.5 -30.5t-62.5 -92.5l-47 -338h-76l101 712h75l-36 -258q58 75 164 75z" />
    <glyph glyph-name="i" unicode="i" horiz-adv-x="240" 
d="M177 621q-21 0 -34.5 13t-13.5 34q0 24 15.5 38.5t37.5 14.5q21 0 34 -13t13 -33q0 -24 -15.5 -39t-36.5 -15zM46 0l74 518h75l-73 -518h-76z" />
    <glyph glyph-name="j" unicode="j" horiz-adv-x="255" 
d="M194 621q-21 0 -34.5 13t-13.5 34q0 24 15.5 38.5t37.5 14.5q21 0 34 -13t13 -33q0 -24 -15.5 -39t-36.5 -15zM-46 -169q-25 0 -48 4l10 66l3 1q12 -3 30 -3q53 0 80.5 32.5t36.5 96.5l70 490h74l-71 -506q-26 -181 -185 -181z" />
    <glyph glyph-name="k" unicode="k" horiz-adv-x="510" 
d="M513 515l-282 -246l240 -266l-1 -3h-95l-219 243l-34 -243h-76l101 712h75l-59 -422l258 228h91z" />
    <glyph glyph-name="l" unicode="l" horiz-adv-x="263" 
d="M155 -9q-114 0 -96 117l86 604h74l-82 -582q-5 -38 4.5 -54.5t37.5 -16.5q20 0 39 12l2 -1l-9 -66q-29 -13 -56 -13z" />
    <glyph glyph-name="m" unicode="m" horiz-adv-x="900" 
d="M674 529q69 0 115 -42t46 -130q0 -33 -4 -56l-42 -301h-75l39 282q4 27 4 69q0 57 -30.5 83t-75.5 26q-58 0 -100 -39t-52 -107q0 -2 -0.5 -6.5t-0.5 -6.5l-43 -301h-75l39 282q4 27 4 69q0 57 -30.5 83t-75.5 26q-54 0 -94.5 -34t-53.5 -94l-47 -332h-76l74 518h61
l-2 -71q55 82 162 82q56 0 97.5 -27.5t55.5 -86.5q54 114 180 114z" />
    <glyph glyph-name="n" unicode="n" horiz-adv-x="589" 
d="M351 529q74 0 123.5 -44t49.5 -132q0 -27 -3 -52l-42 -301h-76l39 282q5 33 5 52q0 68 -34.5 97.5t-84.5 29.5q-57 0 -101 -35t-58 -95l-47 -331h-76l74 518h61l-2 -77q57 88 172 88z" />
    <glyph glyph-name="o" unicode="o" horiz-adv-x="604" 
d="M278 -12q-102 0 -166.5 62.5t-64.5 173.5q0 132 78 218.5t199 86.5q104 0 168.5 -62.5t64.5 -174.5q0 -131 -78.5 -217.5t-200.5 -86.5zM286 54q88 0 140.5 67.5t52.5 165.5q0 81 -44 128.5t-118 47.5q-87 0 -139.5 -68.5t-52.5 -163.5q0 -81 44 -129t117 -48z" />
    <glyph glyph-name="p" unicode="p" horiz-adv-x="589" 
d="M346 529q88 0 142.5 -54t54.5 -155q0 -152 -80 -242t-204 -90q-83 0 -135 31l-26 -184h-75l96 683h62l-2 -61q58 72 167 72zM260 55q90 0 147.5 68t57.5 184q0 78 -38 117t-102 39q-51 0 -99 -36t-59 -102l-33 -236q48 -34 126 -34z" />
    <glyph glyph-name="q" unicode="q" horiz-adv-x="588" 
d="M482 518h62l-97 -683h-76l33 230q-63 -77 -174 -77q-84 0 -134 56t-50 156q0 147 84 238t200 91q96 0 142 -47zM417 157l36 253l2 7q-46 47 -125 47q-87 0 -146 -70t-59 -182q0 -77 35.5 -117t97.5 -40q48 0 91 26.5t68 75.5z" />
    <glyph glyph-name="r" unicode="r" horiz-adv-x="368" 
d="M329 529q33 0 53 -10l-9 -68l-3 -1q-18 10 -50 10q-25 0 -44 -5t-41 -19.5t-40 -47.5t-31 -83l-42 -305h-76l74 518h61l-3 -71q53 82 151 82z" />
    <glyph glyph-name="s" unicode="s" horiz-adv-x="459" 
d="M178 -13q-102 0 -163 39l11 73l2 1q62 -48 163 -48q64 0 99.5 22.5t35.5 66.5q0 34 -26 53t-92 40q-69 23 -103 54t-34 84q0 73 59.5 115t158.5 42q84 0 136 -25l-9 -67l-2 -1q-56 28 -133 28q-61 0 -97.5 -21.5t-36.5 -60.5q0 -30 24.5 -47t84.5 -37q74 -24 109.5 -54.5
t35.5 -83.5q0 -83 -61 -128t-162 -45z" />
    <glyph glyph-name="t" unicode="t" horiz-adv-x="363" 
d="M217 457l-40 -288q-2 -20 -2 -35q0 -33 22.5 -52.5t64.5 -19.5q33 0 67 16l2 -1l-10 -64q-33 -18 -81 -18q-65 0 -103.5 32.5t-38.5 88.5q0 15 2 43l43 298h-104l9 61h103l18 122l74 14l1 -2l-19 -134h158l-9 -61h-157z" />
    <glyph glyph-name="u" unicode="u" horiz-adv-x="576" 
d="M456 518h76l-74 -518h-61l2 65q-64 -77 -171 -77q-78 0 -120.5 42t-42.5 117q0 26 4 55l44 316h76l-44 -308q-3 -22 -3 -49q0 -53 29 -80.5t80 -27.5q49 0 90.5 28t63.5 78z" />
    <glyph glyph-name="v" unicode="v" horiz-adv-x="526" 
d="M543 518l1 -3l-291 -521h-55l-142 521l1 3h81l103 -426l224 426h78z" />
    <glyph glyph-name="w" unicode="w" horiz-adv-x="767" 
d="M781 518l1 -3l-235 -515h-69l-63 409l-2 19l-8 -19l-185 -409h-69l-92 515l1 3h75l62 -405v-19l8 19l181 405h78l63 -404l2 -21l7 22l175 403h70z" />
    <glyph glyph-name="x" unicode="x" horiz-adv-x="508" 
d="M513 515l-214 -250l147 -262l-1 -3h-79l-118 215l-180 -215h-83l-1 3l226 265l-142 247l1 3h80l111 -202l170 202h82z" />
    <glyph glyph-name="y" unicode="y" horiz-adv-x="513" 
d="M530 515l-257 -484l-13 -26q-50 -94 -96.5 -134t-113.5 -40q-33 0 -57 9l11 61l2 1q24 -8 53 -8q70 0 135 121l4 8l-141 492l1 3h80l108 -411l207 411h76z" />
    <glyph glyph-name="z" unicode="z" horiz-adv-x="491" 
d="M473 482l-363 -418h319l-9 -64h-409l-3 35l359 419h-295l8 64h390z" />
    <glyph glyph-name="braceleft" unicode="{" horiz-adv-x="310" 
d="M316 756h29l-9 -58h-17q-37 0 -56 -14.5t-25 -57.5l-32 -221q-7 -50 -42 -79t-66 -29v-3q30 0 57 -29.5t20 -79.5l-31 -222q-6 -44 8.5 -58.5t52.5 -14.5h17l-7 -57h-29q-64 0 -91.5 29t-17.5 98l30 210q7 43 -17 68.5t-51 25.5l10 66q26 0 57 23.5t37 64.5l29 212
q10 68 45 97t99 29z" />
    <glyph glyph-name="bar" unicode="|" horiz-adv-x="251" 
d="M41 -102l117 830h68l-117 -830h-68z" />
    <glyph glyph-name="braceright" unicode="}" horiz-adv-x="311" 
d="M282 327l-9 -66q-27 0 -58 -24.5t-36 -67.5l-31 -210q-10 -69 -44 -97.5t-98 -28.5h-30l9 57h17q37 0 56.5 15t25.5 58l31 223q7 49 42.5 78.5t66.5 29.5v3q-31 0 -58 29t-20 79l32 222q6 43 -9 57t-53 14h-19l9 58h29q63 0 90 -29t18 -97l-29 -211q-6 -43 17.5 -67.5
t50.5 -24.5z" />
    <glyph glyph-name="asciitilde" unicode="~" horiz-adv-x="509" 
d="M119 238l-50 8q7 44 38.5 71.5t74.5 27.5q37 0 86.5 -21t76.5 -21q20 0 37 11.5t21 33.5l2 2l46 -10q-7 -43 -38 -69.5t-73 -26.5q-31 0 -82.5 20.5t-78.5 20.5q-22 0 -39 -11.5t-20 -32.5z" />
    <glyph glyph-name="exclamdown" unicode="&#xa1;" horiz-adv-x="235" 
d="M148 446q-19 0 -30 11.5t-11 28.5q0 21 13.5 34.5t35.5 13.5q20 0 30.5 -11.5t10.5 -29.5q0 -20 -14 -33.5t-35 -13.5zM21 -159l75 491h64l-65 -491h-74z" />
    <glyph glyph-name="cent" unicode="&#xa2;" horiz-adv-x="549" 
d="M397 609q72 -3 132 -30l-9 -64l-4 -2q-62 31 -136 31q-108 0 -175.5 -68t-67.5 -176q0 -82 47.5 -131t133.5 -49q80 0 155 39l3 -2l-9 -64q-71 -35 -150 -39l-12 -92h-71l13 96q-90 14 -140 74.5t-50 154.5q0 130 74 216t195 102l15 98h70z" />
    <glyph glyph-name="sterling" unicode="&#xa3;" horiz-adv-x="555" 
d="M389 675q94 0 149 -38l-10 -69l-3 -2q-55 41 -140 41q-71 0 -117 -43t-53 -123q-3 -37 -3 -74h207l-8 -62h-199q0 -31 -3 -60q-11 -114 -61 -182h331l-9 -63h-433l-1 6q59 68 80 136.5t21 150.5v12h-90l9 62h79v23q0 141 73 213t181 72z" />
    <glyph glyph-name="currency" unicode="&#xa4;" horiz-adv-x="681" 
d="M577 493q30 -52 30 -125q0 -119 -72 -204l58 -69l-58 -50l-56 68q-68 -46 -153 -46q-93 0 -155 51l-82 -73l-43 50l82 73q-35 56 -35 134q0 118 72 203l-54 66l57 50l53 -65q67 47 155 47q98 0 161 -57l80 73l43 -50zM334 130q95 0 152 67.5t57 163.5q0 81 -47 129.5
t-130 48.5q-94 0 -151 -67t-57 -163q0 -82 47 -130.5t129 -48.5z" />
    <glyph glyph-name="yen" unicode="&#xa5;" horiz-adv-x="606" 
d="M630 670l-251 -341h136l-8 -59h-165l-13 -91h165l-8 -60h-165l-17 -119h-73l17 119h-163l9 60h162l13 91h-163l8 59h135l-157 341h83l143 -324l234 324h78z" />
    <glyph glyph-name="brokenbar" unicode="&#xa6;" horiz-adv-x="258" 
d="M118 423l44 305h68l-43 -305h-69zM45 -102l43 312h69l-44 -312h-68z" />
    <glyph glyph-name="section" unicode="&#xa7;" horiz-adv-x="505" 
d="M330 690q95 0 147 -35l-9 -64l-1 -1q-51 37 -139 37q-59 0 -101.5 -27.5t-42.5 -80.5q0 -24 18 -45t34 -30t66 -34q8 -5 13 -7q69 -33 104.5 -69t35.5 -87q0 -81 -81 -139q29 -32 29 -76q0 -82 -65 -131t-160 -49q-99 0 -154 38l9 65l3 1q58 -42 149 -42q62 0 101.5 27
t39.5 82q0 33 -27 55t-89 53q-4 1 -6 2t-5 3t-6 3q-69 36 -102.5 69.5t-33.5 83.5q0 81 83 138q-31 36 -31 82q0 83 63.5 130.5t157.5 47.5zM265 349q-67 33 -94 55q-46 -39 -46 -93q0 -35 28 -62t91 -58q74 -37 99 -56q44 40 44 93q0 35 -27.5 61t-94.5 60z" />
    <glyph glyph-name="dieresis" unicode="&#xa8;" horiz-adv-x="305" 
d="M113 622q-20 0 -33 12.5t-13 32.5q0 24 15 38t36 14t33.5 -12.5t12.5 -31.5q0 -24 -15 -38.5t-36 -14.5zM298 622q-20 0 -33 12.5t-13 32.5q0 24 15.5 38t35.5 14q21 0 33.5 -12.5t12.5 -31.5q0 -24 -15 -38.5t-36 -14.5z" />
    <glyph glyph-name="copyright" unicode="&#xa9;" horiz-adv-x="666" 
d="M295 -12q-110 0 -176 71.5t-66 183.5q0 144 94 241t232 97q110 0 176 -70.5t66 -184.5q0 -143 -94.5 -240.5t-231.5 -97.5zM300 32q118 0 194.5 82t76.5 208q0 97 -54.5 156t-144.5 59q-113 0 -190.5 -82.5t-77.5 -207.5q0 -96 53.5 -155.5t142.5 -59.5zM328 131
q-60 0 -97 34.5t-37 93.5q0 79 51 127t127 48q48 0 77 -14l-6 -49l-3 -1q-29 15 -69 15q-53 0 -86 -32.5t-33 -83.5q0 -40 24.5 -64t66.5 -24q43 0 76 19l2 -1l-7 -48q-35 -20 -86 -20z" />
    <glyph glyph-name="ordfeminine" unicode="&#xaa;" horiz-adv-x="453" 
d="M424 407l2 -1l-6 -49q-20 -12 -39 -12q-56 0 -56 58q-58 -63 -137 -63q-49 0 -80.5 27.5t-31.5 72.5q0 66 47.5 97.5t114.5 31.5q63 0 103 -17l3 23q8 56 -18 82.5t-79 26.5q-60 0 -106 -24l-2 1l7 47q37 26 110 26q167 0 143 -157l-19 -137q-6 -41 19 -41q16 0 25 8z
M203 390q33 0 67.5 17t56.5 46l7 53q-39 15 -91 15q-107 0 -107 -73q0 -27 18.5 -42.5t48.5 -15.5z" />
    <glyph glyph-name="guillemotleft" unicode="&#xab;" horiz-adv-x="526" 
d="M242 93l-129 189l182 177h74v-8l-175 -172l120 -179l-1 -7h-71zM444 93l-129 189l182 177h74v-8l-175 -172l120 -179l-1 -7h-71z" />
    <glyph glyph-name="registered" unicode="&#xae;" horiz-adv-x="612" 
d="M374 728q97 0 154.5 -62t57.5 -161q0 -127 -82 -212.5t-204 -85.5q-98 0 -156.5 62.5t-58.5 161.5q0 127 83 212t206 85zM304 248q103 0 169 72t66 181q0 83 -47 134.5t-126 51.5q-98 0 -165.5 -72t-67.5 -180q0 -83 46.5 -135t124.5 -52zM442 528q0 -70 -58 -93l47 -89
h-54l-43 80h-55l-11 -80h-46l34 252q44 2 95 2q91 0 91 -72zM336 469q56 0 56 51q0 37 -47 37q-39 0 -47 -1l-12 -87h50z" />
    <glyph glyph-name="macron" unicode="&#xaf;" horiz-adv-x="336" 
d="M75 623l8 57h278l-8 -57h-278z" />
    <glyph glyph-name="degree" unicode="&#xb0;" horiz-adv-x="344" 
d="M217 426q-54 0 -89.5 35t-35.5 87q0 53 35.5 88t89.5 35q53 0 88 -35t35 -88q0 -52 -35 -87t-88 -35zM217 469q32 0 53.5 23t21.5 56q0 34 -21 57t-54 23q-35 0 -56.5 -23t-21.5 -57q0 -33 22 -56t56 -23z" />
    <glyph glyph-name="plusminus" unicode="&#xb1;" horiz-adv-x="520" 
d="M456 273h-164l-22 -155h160l-8 -59h-380l9 59h161l22 155h-166l9 57h165l25 179h58l-25 -179h164z" />
    <glyph glyph-name="acute" unicode="&#xb4;" horiz-adv-x="233" 
d="M106 568l-30 44l136 132l55 -54l-1 -10z" />
    <glyph glyph-name="paragraph" unicode="&#xb6;" horiz-adv-x="556" 
d="M555 602l-9 -67h-61l-92 -646h-23l91 646h-65l-92 -646h-71l47 331q-127 0 -182.5 46t-40.5 147q13 89 80 139t187 50h231z" />
    <glyph glyph-name="periodcentered" unicode="&#xb7;" horiz-adv-x="228" 
d="M106 199q-19 0 -29.5 10.5t-10.5 27.5q0 21 14 36t38 15q20 0 30.5 -11t10.5 -28q0 -21 -14 -35.5t-39 -14.5z" />
    <glyph glyph-name="cedilla" unicode="&#xb8;" horiz-adv-x="199" 
d="M10 -231q-32 0 -59 10l7 46l2 1q19 -9 47 -9q30 0 49.5 13.5t19.5 39.5q0 18 -11.5 28t-30.5 10q-22 0 -48 -8l-1 1l5 38l44 61h49l-36 -52q12 3 25 3q32 0 51.5 -18t19.5 -55q0 -55 -38 -82t-95 -27z" />
    <glyph glyph-name="ordmasculine" unicode="&#xba;" horiz-adv-x="482" 
d="M260 331q-78 0 -126 46t-48 132q0 106 62 171t157 65q75 0 123.5 -46t48.5 -131q0 -105 -64 -171t-153 -66zM267 387q61 0 102 49.5t41 127.5q0 61 -30 93.5t-81 32.5q-65 0 -106 -49t-41 -132q0 -57 30 -89.5t85 -32.5z" />
    <glyph glyph-name="guillemotright" unicode="&#xbb;" horiz-adv-x="525" 
d="M161 459l129 -189l-182 -177h-74v8l175 172l-120 179l1 7h71zM362 459l129 -189l-182 -177h-74v8l175 172l-120 179l1 7h71z" />
    <glyph glyph-name="onequarter" unicode="&#xbc;" horiz-adv-x="698" 
d="M109 302l41 289l-86 -34l9 65l141 53h8l-52 -373h-61zM549 664h58l-507 -676h-57zM652 115l-7 -41h-57l-11 -74h-56l11 74h-193l3 25l240 278h49l-38 -262h59zM416 115h121l26 179z" />
    <glyph glyph-name="onehalf" unicode="&#xbd;" horiz-adv-x="708" 
d="M127 302l41 289l-86 -34l9 65l141 53h8l-52 -373h-61zM23 -12l507 676h58l-507 -676h-58zM380 0q1 86 115 163q61 40 81 62t20 48q0 49 -67 49q-62 0 -109 -41l-1 1l8 54q47 40 120 40q49 0 81.5 -25t32.5 -67q0 -45 -25.5 -78t-84.5 -70q-82 -51 -92 -85h185l-7 -51
h-257z" />
    <glyph glyph-name="threequarters" unicode="&#xbe;" horiz-adv-x="742" 
d="M312 423q0 -59 -42 -94t-112 -35q-67 0 -109 27l8 52h1q33 -30 105 -30q41 0 67 21t26 57q0 52 -65 52h-54l6 43h42q37 0 57.5 16.5t20.5 45.5q0 49 -69 49q-56 0 -94 -24h-1l7 51q42 23 95 23q55 0 88 -22t33 -67q0 -59 -58 -89q48 -22 48 -76zM611 664h58l-507 -676
h-58zM689 115l-6 -41h-58l-11 -74h-56l11 74h-193l3 25l240 278h49l-38 -262h59zM453 115h121l26 179z" />
    <glyph glyph-name="questiondown" unicode="&#xbf;" horiz-adv-x="406" 
d="M348 530q20 0 31 -11t11 -28q0 -21 -14 -34.5t-35 -13.5t-31.5 11.5t-10.5 29.5q0 19 14 32.5t35 13.5zM359 336q-9 -64 -33 -104.5t-78 -81.5q-49 -37 -72.5 -69.5t-23.5 -84.5q0 -44 27 -70.5t76 -26.5q78 0 135 51l2 -1l-10 -67q-58 -48 -144 -48q-69 0 -115 39.5
t-46 105.5q0 72 31 117t95 95q46 36 64.5 69.5t24.5 74.5z" />
    <glyph glyph-name="Agrave" unicode="&#xc0;" horiz-adv-x="608" 
d="M445 701l-179 85l-3 11l48 59l155 -113zM484 0l-45 176h-291l-95 -176h-75l368 673h30l187 -673h-79zM179 235h244l-73 284l-5 28l-13 -28z" />
    <glyph glyph-name="Aacute" unicode="&#xc1;" horiz-adv-x="608" 
d="M472 780l-189 -80l-19 43l170 109l42 -62zM484 0l-45 176h-291l-95 -176h-75l368 673h30l187 -673h-79zM179 235h244l-73 284l-5 28l-13 -28z" />
    <glyph glyph-name="Acircumflex" unicode="&#xc2;" horiz-adv-x="608" 
d="M374 784l-115 -83l-25 36l132 112h34l102 -112l-31 -36zM484 0l-45 176h-291l-95 -176h-75l368 673h30l187 -673h-79zM179 235h244l-73 284l-5 28l-13 -28z" />
    <glyph glyph-name="Atilde" unicode="&#xc3;" horiz-adv-x="608" 
d="M266 715l-2 -1l-48 14q8 42 35.5 68.5t64.5 26.5q27 0 65.5 -19t56.5 -19q16 0 30 11.5t17 32.5l2 2l47 -16q-7 -42 -34.5 -67.5t-64.5 -25.5q-23 0 -63 19t-59 19q-18 0 -31 -12t-16 -33zM484 0l-45 176h-291l-95 -176h-75l368 673h30l187 -673h-79zM179 235h244
l-73 284l-5 28l-13 -28z" />
    <glyph glyph-name="Adieresis" unicode="&#xc4;" horiz-adv-x="608" 
d="M277 732q-19 0 -31 11t-12 30q0 22 14.5 35t33.5 13t30.5 -12t11.5 -30q0 -22 -13.5 -34.5t-33.5 -12.5zM471 732q-19 0 -31 11t-12 30q0 22 14.5 35t33.5 13t30.5 -12t11.5 -30q0 -22 -13.5 -34.5t-33.5 -12.5zM484 0l-45 176h-291l-95 -176h-75l368 673h30l187 -673
h-79zM179 235h244l-73 284l-5 28l-13 -28z" />
    <glyph glyph-name="Aring" unicode="&#xc5;" horiz-adv-x="608" 
d="M364 680q-37 0 -61 22t-24 58q0 41 28 68.5t71 27.5q36 0 60 -22t24 -57q0 -42 -27 -69.5t-71 -27.5zM373 815q-21 0 -35 -14.5t-14 -36.5q0 -19 12.5 -31t32.5 -12q22 0 35.5 14t13.5 37q0 19 -12.5 31t-32.5 12zM484 0l-45 176h-291l-95 -176h-75l368 673h30l187 -673
h-79zM179 235h244l-73 284l-5 28l-13 -28z" />
    <glyph glyph-name="AE" unicode="&#xc6;" horiz-adv-x="786" 
d="M772 599h-256l-32 -225h239l-10 -62h-237l-35 -249h268l-9 -63h-344l29 203h-215l-147 -203h-77l483 661h352zM209 257h184l45 320l-58 -85z" />
    <glyph glyph-name="Ccedilla" unicode="&#xc7;" horiz-adv-x="608" 
d="M426 675q106 0 182 -39l-10 -70l-2 -1q-78 44 -177 44q-125 0 -204 -89.5t-79 -225.5q0 -113 66 -177t176 -64q88 0 161 44l3 -1l-11 -69q-71 -39 -162 -39l-28 -40q12 3 25 3q32 0 51.5 -18t19.5 -55q0 -55 -38 -82t-95 -27q-32 0 -59 10l7 46l2 1q19 -9 47 -9
q30 0 49.5 13.5t19.5 39.5q0 18 -11.5 28t-30.5 10q-22 0 -48 -8l-1 1l5 38l37 51q-121 13 -191 89t-70 203q0 177 102 285t264 108z" />
    <glyph glyph-name="Egrave" unicode="&#xc8;" horiz-adv-x="530" 
d="M429 701l-179 85l-3 11l48 59l155 -113zM515 592h-296l-30 -217h277l-10 -68h-277l-33 -238h307l-9 -69h-383l92 661h371z" />
    <glyph glyph-name="Eacute" unicode="&#xc9;" horiz-adv-x="530" 
d="M456 780l-189 -80l-19 43l170 109l42 -62zM515 592h-296l-30 -217h277l-10 -68h-277l-33 -238h307l-9 -69h-383l92 661h371z" />
    <glyph glyph-name="Ecircumflex" unicode="&#xca;" horiz-adv-x="530" 
d="M358 784l-115 -83l-25 36l132 112h34l102 -112l-31 -36zM515 592h-296l-30 -217h277l-10 -68h-277l-33 -238h307l-9 -69h-383l92 661h371z" />
    <glyph glyph-name="Edieresis" unicode="&#xcb;" horiz-adv-x="530" 
d="M261 732q-19 0 -31 11t-12 30q0 22 14.5 35t33.5 13t30.5 -12t11.5 -30q0 -22 -13.5 -34.5t-33.5 -12.5zM455 732q-19 0 -31 11t-12 30q0 22 14.5 35t33.5 13t30.5 -12t11.5 -30q0 -22 -13.5 -34.5t-33.5 -12.5zM515 592h-296l-30 -217h277l-10 -68h-277l-33 -238h307
l-9 -69h-383l92 661h371z" />
    <glyph glyph-name="Igrave" unicode="&#xcc;" horiz-adv-x="268" 
d="M278 701l-179 85l-3 11l48 59l155 -113zM61 0l92 661h75l-93 -661h-74z" />
    <glyph glyph-name="Iacute" unicode="&#xcd;" horiz-adv-x="268" 
d="M116 700l-19 43l170 109l42 -62l-4 -10zM61 0l92 661h75l-93 -661h-74z" />
    <glyph glyph-name="Icircumflex" unicode="&#xce;" horiz-adv-x="268" 
d="M92 701l-25 36l132 112h34l102 -112l-31 -36l-97 83zM61 0l92 661h75l-93 -661h-74z" />
    <glyph glyph-name="Idieresis" unicode="&#xcf;" horiz-adv-x="268" 
d="M110 732q-19 0 -31 11t-12 30q0 22 14.5 35t33.5 13t30.5 -12t11.5 -30q0 -22 -13.5 -34.5t-33.5 -12.5zM304 732q-19 0 -31 11t-12 30q0 22 14.5 35t33.5 13t30.5 -12t11.5 -30q0 -22 -13.5 -34.5t-33.5 -12.5zM61 0l92 661h75l-93 -661h-74z" />
    <glyph glyph-name="Eth" unicode="&#xd0;" horiz-adv-x="700" 
d="M352 670q151 0 231 -75t80 -207q0 -181 -108 -285t-299 -104q-150 0 -195 3l42 299h-86l8 56h86l43 304q94 9 198 9zM273 65q150 0 230.5 85t80.5 231q0 103 -62.5 161.5t-180.5 58.5q-86 0 -122 -4l-34 -240h101l-8 -56h-101l-33 -232q60 -4 129 -4z" />
    <glyph glyph-name="Ntilde" unicode="&#xd1;" horiz-adv-x="707" 
d="M320 714l-48 14q8 42 35.5 68.5t64.5 26.5q27 0 65.5 -19t56.5 -19q16 0 30 11.5t17 32.5l2 2l47 -16q-7 -42 -34.5 -67.5t-64.5 -25.5q-23 0 -63 19t-59 19q-18 0 -31 -12t-16 -33zM61 0l93 666h32l335 -517h3l72 512h71l-93 -666h-30l-337 518h-2l-73 -513h-71z" />
    <glyph glyph-name="Ograve" unicode="&#xd2;" horiz-adv-x="751" 
d="M494 698l-179 85l-3 11l48 59l155 -113zM368 -13q-138 0 -222 84.5t-84 222.5q0 170 96.5 276t248.5 106q136 0 220 -85.5t84 -222.5q0 -170 -95.5 -275.5t-247.5 -105.5zM377 53q116 0 187 87.5t71 219.5q0 116 -64 183t-173 67q-117 0 -188 -87.5t-71 -220.5
q0 -117 63.5 -183t174.5 -66z" />
    <glyph glyph-name="Oacute" unicode="&#xd3;" horiz-adv-x="751" 
d="M332 697l-19 43l170 109l42 -62l-4 -10zM368 -13q-138 0 -222 84.5t-84 222.5q0 170 96.5 276t248.5 106q136 0 220 -85.5t84 -222.5q0 -170 -95.5 -275.5t-247.5 -105.5zM377 53q116 0 187 87.5t71 219.5q0 116 -64 183t-173 67q-117 0 -188 -87.5t-71 -220.5
q0 -117 63.5 -183t174.5 -66z" />
    <glyph glyph-name="Ocircumflex" unicode="&#xd4;" horiz-adv-x="751" 
d="M308 698l-25 36l132 112h34l102 -112l-31 -36l-97 83zM368 -13q-138 0 -222 84.5t-84 222.5q0 170 96.5 276t248.5 106q136 0 220 -85.5t84 -222.5q0 -170 -95.5 -275.5t-247.5 -105.5zM377 53q116 0 187 87.5t71 219.5q0 116 -64 183t-173 67q-117 0 -188 -87.5
t-71 -220.5q0 -117 63.5 -183t174.5 -66z" />
    <glyph glyph-name="Otilde" unicode="&#xd5;" horiz-adv-x="751" 
d="M313 711l-48 14q8 42 35.5 68.5t64.5 26.5q27 0 65.5 -19t56.5 -19q16 0 30 11.5t17 32.5l2 2l47 -16q-7 -42 -34.5 -67.5t-64.5 -25.5q-22 0 -62.5 19t-59.5 19q-18 0 -31 -12t-16 -33zM368 -13q-138 0 -222 84.5t-84 222.5q0 170 96.5 276t248.5 106q136 0 220 -85.5
t84 -222.5q0 -170 -95.5 -275.5t-247.5 -105.5zM377 53q116 0 187 87.5t71 219.5q0 116 -64 183t-173 67q-117 0 -188 -87.5t-71 -220.5q0 -117 63.5 -183t174.5 -66z" />
    <glyph glyph-name="Odieresis" unicode="&#xd6;" horiz-adv-x="751" 
d="M326 729q-19 0 -31 11t-12 30q0 22 14.5 35t33.5 13t30.5 -12t11.5 -30q0 -22 -13.5 -34.5t-33.5 -12.5zM520 729q-19 0 -31 11t-12 30q0 22 14.5 35t33.5 13t30.5 -12t11.5 -30q0 -22 -13.5 -34.5t-33.5 -12.5zM368 -13q-138 0 -222 84.5t-84 222.5q0 170 96.5 276
t248.5 106q136 0 220 -85.5t84 -222.5q0 -170 -95.5 -275.5t-247.5 -105.5zM377 53q116 0 187 87.5t71 219.5q0 116 -64 183t-173 67q-117 0 -188 -87.5t-71 -220.5q0 -117 63.5 -183t174.5 -66z" />
    <glyph glyph-name="multiply" unicode="&#xd7;" horiz-adv-x="492" 
d="M466 441l-170 -151l122 -150l-49 -40l-121 147l-168 -149l-42 48l169 151l-121 148l50 41l119 -146l168 149z" />
    <glyph glyph-name="Oslash" unicode="&#xd8;" horiz-adv-x="751" 
d="M622 595q89 -84 89 -227q0 -170 -95.5 -275.5t-247.5 -105.5q-94 0 -167 42l-63 -85h-65v7l83 112q-94 85 -94 231q0 170 96.5 276t248.5 106q97 0 170 -45l62 83h67v-6zM139 302q0 -114 61 -180l335 451q-59 37 -137 37q-117 0 -188 -87.5t-71 -220.5zM377 53
q116 0 187 87.5t71 219.5q0 110 -57 176l-334 -450q54 -33 133 -33z" />
    <glyph glyph-name="Ugrave" unicode="&#xd9;" horiz-adv-x="684" 
d="M482 701l-179 85l-3 11l48 59l155 -113zM309 -14q-106 0 -165.5 55.5t-59.5 147.5q0 38 4 65l57 407h74l-56 -398q-4 -25 -4 -52q0 -77 42.5 -118t115.5 -41q90 0 141 51.5t67 159.5l55 398h73l-57 -407q-39 -268 -287 -268z" />
    <glyph glyph-name="Uacute" unicode="&#xda;" horiz-adv-x="684" 
d="M320 700l-19 43l170 109l42 -62l-4 -10zM309 -14q-106 0 -165.5 55.5t-59.5 147.5q0 38 4 65l57 407h74l-56 -398q-4 -25 -4 -52q0 -77 42.5 -118t115.5 -41q90 0 141 51.5t67 159.5l55 398h73l-57 -407q-39 -268 -287 -268z" />
    <glyph glyph-name="Ucircumflex" unicode="&#xdb;" horiz-adv-x="684" 
d="M296 701l-25 36l132 112h34l102 -112l-31 -36l-97 83zM309 -14q-106 0 -165.5 55.5t-59.5 147.5q0 38 4 65l57 407h74l-56 -398q-4 -25 -4 -52q0 -77 42.5 -118t115.5 -41q90 0 141 51.5t67 159.5l55 398h73l-57 -407q-39 -268 -287 -268z" />
    <glyph glyph-name="Udieresis" unicode="&#xdc;" horiz-adv-x="684" 
d="M314 732q-19 0 -31 11t-12 30q0 22 14.5 35t33.5 13t30.5 -12t11.5 -30q0 -22 -13.5 -34.5t-33.5 -12.5zM508 732q-19 0 -31 11t-12 30q0 22 14.5 35t33.5 13t30.5 -12t11.5 -30q0 -22 -13.5 -34.5t-33.5 -12.5zM309 -14q-106 0 -165.5 55.5t-59.5 147.5q0 38 4 65
l57 407h74l-56 -398q-4 -25 -4 -52q0 -77 42.5 -118t115.5 -41q90 0 141 51.5t67 159.5l55 398h73l-57 -407q-39 -268 -287 -268z" />
    <glyph glyph-name="Yacute" unicode="&#xdd;" horiz-adv-x="566" 
d="M267 700l-19 43l170 109l42 -62l-4 -10zM210 0l40 280l-174 378l1 3h79l142 -310l228 310h76l1 -3l-279 -379l-40 -279h-74z" />
    <glyph glyph-name="Thorn" unicode="&#xde;" horiz-adv-x="539" 
d="M298 542q97 0 152 -45t55 -129q0 -112 -72.5 -176.5t-199.5 -64.5q-45 0 -80 4l-18 -131h-74l92 661h74l-17 -124q38 5 88 5zM234 189q95 0 145 43.5t50 122.5q0 57 -37 89.5t-111 32.5q-44 0 -80 -4l-39 -280q35 -4 72 -4z" />
    <glyph glyph-name="germandbls" unicode="&#xdf;" horiz-adv-x="593" 
d="M375 -13q-82 0 -129 37l11 71l2 1q37 -44 109 -44q46 0 73.5 22t27.5 64q0 28 -15.5 47t-54.5 47q-28 19 -42 31t-26 33t-12 46q0 30 11 55t23 38.5t35 34.5q57 51 57 100q0 38 -28.5 58.5t-72.5 20.5q-132 0 -152 -154l-70 -495h-76l72 503q15 104 77.5 159t154.5 55
q72 0 121 -34.5t49 -101.5q0 -47 -19.5 -79t-54.5 -65q-16 -15 -23.5 -22.5t-15 -21.5t-7.5 -29q0 -24 15.5 -41t52.5 -44q39 -29 57.5 -57t18.5 -75q0 -73 -50 -116.5t-119 -43.5z" />
    <glyph glyph-name="agrave" unicode="&#xe0;" horiz-adv-x="542" 
d="M359 572l-166 103l-1 10l52 57l143 -125zM493 76l3 -1l-10 -65q-27 -16 -63 -16q-73 0 -73 67q0 9 1 14q-73 -87 -178 -87q-67 0 -108.5 37.5t-41.5 101.5q0 88 63.5 130.5t154.5 42.5q86 0 134 -24l5 35q3 18 3 35q0 119 -135 119q-82 0 -149 -52l-3 1l9 68q21 19 66 33
t97 14q94 0 142.5 -42.5t48.5 -124.5q0 -25 -4 -48l-28 -195q-1 -7 -1 -17q-1 -38 32 -38q22 0 35 12zM194 51q97 0 163 94l10 73q-44 22 -119 22q-65 0 -107 -25.5t-42 -80.5q0 -39 26.5 -61t68.5 -22z" />
    <glyph glyph-name="aacute" unicode="&#xe1;" horiz-adv-x="542" 
d="M405 680l-160 -112l-30 44l136 132l55 -54zM493 76l3 -1l-10 -65q-27 -16 -63 -16q-73 0 -73 67q0 9 1 14q-73 -87 -178 -87q-67 0 -108.5 37.5t-41.5 101.5q0 88 63.5 130.5t154.5 42.5q86 0 134 -24l5 35q3 18 3 35q0 119 -135 119q-82 0 -149 -52l-3 1l9 68
q21 19 66 33t97 14q94 0 142.5 -42.5t48.5 -124.5q0 -25 -4 -48l-28 -195q-1 -7 -1 -17q-1 -38 32 -38q22 0 35 12zM194 51q97 0 163 94l10 73q-44 22 -119 22q-65 0 -107 -25.5t-42 -80.5q0 -39 26.5 -61t68.5 -22z" />
    <glyph glyph-name="acircumflex" unicode="&#xe2;" horiz-adv-x="542" 
d="M307 666l-113 -96l-29 32l132 135h36l94 -135l-37 -32zM493 76l3 -1l-10 -65q-27 -16 -63 -16q-73 0 -73 67q0 9 1 14q-73 -87 -178 -87q-67 0 -108.5 37.5t-41.5 101.5q0 88 63.5 130.5t154.5 42.5q86 0 134 -24l5 35q3 18 3 35q0 119 -135 119q-82 0 -149 -52l-3 1
l9 68q21 19 66 33t97 14q94 0 142.5 -42.5t48.5 -124.5q0 -25 -4 -48l-28 -195q-1 -7 -1 -17q-1 -38 32 -38q22 0 35 12zM194 51q97 0 163 94l10 73q-44 22 -119 22q-65 0 -107 -25.5t-42 -80.5q0 -39 26.5 -61t68.5 -22z" />
    <glyph glyph-name="atilde" unicode="&#xe3;" horiz-adv-x="542" 
d="M194 606l-3 -1l-47 11q6 41 31.5 68t61.5 27q28 0 66.5 -19.5t58.5 -19.5q39 0 45 43l3 2l51 -11q-7 -47 -34 -71.5t-63 -24.5q-28 0 -67.5 20t-59.5 20q-16 0 -28 -12t-15 -32zM493 76l3 -1l-10 -65q-27 -16 -63 -16q-73 0 -73 67q0 9 1 14q-73 -87 -178 -87
q-67 0 -108.5 37.5t-41.5 101.5q0 88 63.5 130.5t154.5 42.5q86 0 134 -24l5 35q3 18 3 35q0 119 -135 119q-82 0 -149 -52l-3 1l9 68q21 19 66 33t97 14q94 0 142.5 -42.5t48.5 -124.5q0 -25 -4 -48l-28 -195q-1 -7 -1 -17q-1 -38 32 -38q22 0 35 12zM194 51q97 0 163 94
l10 73q-44 22 -119 22q-65 0 -107 -25.5t-42 -80.5q0 -39 26.5 -61t68.5 -22z" />
    <glyph glyph-name="adieresis" unicode="&#xe4;" horiz-adv-x="542" 
d="M208 622q-20 0 -33 12.5t-13 32.5q0 24 15 38t36 14t33.5 -12.5t12.5 -31.5q0 -24 -15 -38.5t-36 -14.5zM393 622q-20 0 -33 12.5t-13 32.5q0 24 15.5 38t35.5 14q21 0 33.5 -12.5t12.5 -31.5q0 -24 -15 -38.5t-36 -14.5zM493 76l3 -1l-10 -65q-27 -16 -63 -16
q-73 0 -73 67q0 9 1 14q-73 -87 -178 -87q-67 0 -108.5 37.5t-41.5 101.5q0 88 63.5 130.5t154.5 42.5q86 0 134 -24l5 35q3 18 3 35q0 119 -135 119q-82 0 -149 -52l-3 1l9 68q21 19 66 33t97 14q94 0 142.5 -42.5t48.5 -124.5q0 -25 -4 -48l-28 -195q-1 -7 -1 -17
q-1 -38 32 -38q22 0 35 12zM194 51q97 0 163 94l10 73q-44 22 -119 22q-65 0 -107 -25.5t-42 -80.5q0 -39 26.5 -61t68.5 -22z" />
    <glyph glyph-name="aring" unicode="&#xe5;" horiz-adv-x="542" 
d="M292 564q-37 0 -61 23.5t-24 60.5q0 43 28 71.5t71 28.5q37 0 61 -23t24 -60q0 -44 -27.5 -72.5t-71.5 -28.5zM302 707q-22 0 -36.5 -15.5t-14.5 -40.5q0 -21 12.5 -33t33.5 -12q22 0 36 15t14 40q0 21 -12.5 33.5t-32.5 12.5zM493 76l3 -1l-10 -65q-27 -16 -63 -16
q-73 0 -73 67q0 9 1 14q-73 -87 -178 -87q-67 0 -108.5 37.5t-41.5 101.5q0 88 63.5 130.5t154.5 42.5q86 0 134 -24l5 35q3 18 3 35q0 119 -135 119q-82 0 -149 -52l-3 1l9 68q21 19 66 33t97 14q94 0 142.5 -42.5t48.5 -124.5q0 -25 -4 -48l-28 -195q-1 -7 -1 -17
q-1 -38 32 -38q22 0 35 12zM194 51q97 0 163 94l10 73q-44 22 -119 22q-65 0 -107 -25.5t-42 -80.5q0 -39 26.5 -61t68.5 -22z" />
    <glyph glyph-name="ae" unicode="&#xe6;" horiz-adv-x="912" 
d="M675 529q94 0 146 -55t52 -138q0 -43 -11 -89h-374v-19q0 -83 45.5 -128.5t115.5 -45.5q93 0 164 49l3 -1l-11 -71q-64 -43 -164 -43q-78 0 -136 36t-81 106q-63 -142 -196 -142q-89 0 -141.5 56t-52.5 152q0 153 80 243t198 90q68 0 111 -17.5t77 -53.5q73 71 175 71z
M245 55q57 0 103 54t63 144q8 90 47 152q-52 58 -143 58q-86 0 -144.5 -68t-58.5 -189q0 -71 35.5 -111t97.5 -40zM497 307h302q1 8 1 24q0 62 -33 97t-99 35q-60 0 -106.5 -42t-64.5 -114z" />
    <glyph glyph-name="ccedilla" unicode="&#xe7;" horiz-adv-x="481" 
d="M335 530q77 0 133 -27l-10 -68l-3 -1q-57 29 -126 29q-91 0 -147.5 -65t-56.5 -167q0 -80 42.5 -128.5t119.5 -48.5q64 0 124 34l3 -1l-10 -69q-55 -27 -118 -30l-28 -40q12 3 25 3q32 0 51.5 -18t19.5 -55q0 -55 -38 -82t-95 -27q-32 0 -59 10l7 46l2 1q19 -9 47 -9
q30 0 49.5 13.5t19.5 39.5q0 18 -11.5 28t-30.5 10q-22 0 -48 -8l-1 1l5 38l37 51q-87 10 -139 70.5t-52 158.5q0 142 81 226.5t207 84.5z" />
    <glyph glyph-name="egrave" unicode="&#xe8;" horiz-adv-x="549" 
d="M384 572l-166 103l-1 10l52 57l143 -125zM311 529q95 0 147 -55t52 -138q0 -36 -11 -89h-374v-19q0 -84 44.5 -129t116.5 -45q92 0 163 49l3 -1l-10 -71q-64 -43 -164 -43q-102 0 -166.5 60t-64.5 174q0 137 76.5 222t187.5 85zM134 307h301q1 8 1 24q0 62 -32.5 97
t-99.5 35q-60 0 -106 -42t-64 -114z" />
    <glyph glyph-name="eacute" unicode="&#xe9;" horiz-adv-x="549" 
d="M430 680l-160 -112l-30 44l136 132l55 -54zM311 529q95 0 147 -55t52 -138q0 -36 -11 -89h-374v-19q0 -84 44.5 -129t116.5 -45q92 0 163 49l3 -1l-10 -71q-64 -43 -164 -43q-102 0 -166.5 60t-64.5 174q0 137 76.5 222t187.5 85zM134 307h301q1 8 1 24q0 62 -32.5 97
t-99.5 35q-60 0 -106 -42t-64 -114z" />
    <glyph glyph-name="ecircumflex" unicode="&#xea;" horiz-adv-x="549" 
d="M332 666l-113 -96l-29 32l132 135h36l94 -135l-37 -32zM311 529q95 0 147 -55t52 -138q0 -36 -11 -89h-374v-19q0 -84 44.5 -129t116.5 -45q92 0 163 49l3 -1l-10 -71q-64 -43 -164 -43q-102 0 -166.5 60t-64.5 174q0 137 76.5 222t187.5 85zM134 307h301q1 8 1 24
q0 62 -32.5 97t-99.5 35q-60 0 -106 -42t-64 -114z" />
    <glyph glyph-name="edieresis" unicode="&#xeb;" horiz-adv-x="549" 
d="M233 622q-20 0 -33 12.5t-13 32.5q0 24 15 38t36 14t33.5 -12.5t12.5 -31.5q0 -24 -15 -38.5t-36 -14.5zM418 622q-20 0 -33 12.5t-13 32.5q0 24 15.5 38t35.5 14q21 0 33.5 -12.5t12.5 -31.5q0 -24 -15 -38.5t-36 -14.5zM311 529q95 0 147 -55t52 -138q0 -36 -11 -89
h-374v-19q0 -84 44.5 -129t116.5 -45q92 0 163 49l3 -1l-10 -71q-64 -43 -164 -43q-102 0 -166.5 60t-64.5 174q0 137 76.5 222t187.5 85zM134 307h301q1 8 1 24q0 62 -32.5 97t-99.5 35q-60 0 -106 -42t-64 -114z" />
    <glyph glyph-name="igrave" unicode="&#xec;" horiz-adv-x="240" 
d="M225 562l-152 118l-1 10l59 53l126 -143zM46 0l73 518h75l-72 -518h-76z" />
    <glyph glyph-name="iacute" unicode="&#xed;" horiz-adv-x="240" 
d="M106 568l-30 44l136 132l55 -54l-1 -10zM46 0l73 518h76l-74 -518h-75z" />
    <glyph glyph-name="icircumflex" unicode="&#xee;" horiz-adv-x="240" 
d="M71 566l-28 32l131 136h35l95 -136l-37 -32l-87 96zM46 0l74 518h75l-73 -518h-76z" />
    <glyph glyph-name="idieresis" unicode="&#xef;" horiz-adv-x="242" 
d="M96 622q-20 0 -33.5 12.5t-13.5 32.5q0 24 15.5 38t36.5 14q20 0 32.5 -12.5t12.5 -31.5q0 -24 -15 -38.5t-35 -14.5zM246 622q-20 0 -33.5 12.5t-13.5 32.5q0 24 15.5 38t36.5 14q20 0 32.5 -12.5t12.5 -31.5q0 -24 -15 -38.5t-35 -14.5zM47 0l73 518h76l-74 -518h-75z
" />
    <glyph glyph-name="eth" unicode="&#xf0;" horiz-adv-x="615" 
d="M479 668q90 -80 90 -264q0 -197 -84.5 -307t-226.5 -110q-97 0 -154.5 56t-57.5 155q0 127 80.5 208t194.5 81q119 0 174 -81q-3 152 -71 211l-87 -79l-29 34l77 70q-34 14 -75 14q-76 0 -137 -25l-1 3l8 64q58 24 141 24q70 0 121 -28l97 89l29 -33zM270 53
q85 0 142 59.5t75 173.5q-4 46 -46.5 90.5t-117.5 44.5q-88 0 -143.5 -59.5t-55.5 -151.5q0 -71 39.5 -114t106.5 -43z" />
    <glyph glyph-name="ntilde" unicode="&#xf1;" horiz-adv-x="589" 
d="M236 606l-3 -1l-47 11q6 41 31.5 68t61.5 27q28 0 66.5 -19.5t58.5 -19.5q39 0 45 43l3 2l51 -11q-7 -47 -34 -71.5t-63 -24.5q-28 0 -67.5 20t-59.5 20q-16 0 -28 -12t-15 -32zM351 529q74 0 123.5 -44t49.5 -132q0 -27 -3 -52l-42 -301h-76l39 282q5 33 5 52
q0 68 -34.5 97.5t-84.5 29.5q-57 0 -101 -35t-58 -95l-47 -331h-76l74 518h61l-2 -77q57 88 172 88z" />
    <glyph glyph-name="ograve" unicode="&#xf2;" horiz-adv-x="604" 
d="M401 568l-166 103l-1 10l52 57l143 -125zM278 -12q-102 0 -166.5 62.5t-64.5 173.5q0 132 78 218.5t199 86.5q104 0 168.5 -62.5t64.5 -174.5q0 -131 -78.5 -217.5t-200.5 -86.5zM286 54q88 0 140.5 67.5t52.5 165.5q0 81 -44 128.5t-118 47.5q-87 0 -139.5 -68.5
t-52.5 -163.5q0 -81 44 -129t117 -48z" />
    <glyph glyph-name="oacute" unicode="&#xf3;" horiz-adv-x="604" 
d="M287 564l-30 44l136 132l55 -54l-1 -10zM278 -12q-102 0 -166.5 62.5t-64.5 173.5q0 132 78 218.5t199 86.5q104 0 168.5 -62.5t64.5 -174.5q0 -131 -78.5 -217.5t-200.5 -86.5zM286 54q88 0 140.5 67.5t52.5 165.5q0 81 -44 128.5t-118 47.5q-87 0 -139.5 -68.5
t-52.5 -163.5q0 -81 44 -129t117 -48z" />
    <glyph glyph-name="ocircumflex" unicode="&#xf4;" horiz-adv-x="604" 
d="M236 566l-29 32l132 135h36l94 -135l-37 -32l-83 96zM278 -12q-102 0 -166.5 62.5t-64.5 173.5q0 132 78 218.5t199 86.5q104 0 168.5 -62.5t64.5 -174.5q0 -131 -78.5 -217.5t-200.5 -86.5zM286 54q88 0 140.5 67.5t52.5 165.5q0 81 -44 128.5t-118 47.5
q-87 0 -139.5 -68.5t-52.5 -163.5q0 -81 44 -129t117 -48z" />
    <glyph glyph-name="otilde" unicode="&#xf5;" horiz-adv-x="604" 
d="M233 601l-47 11q6 41 31.5 68t61.5 27q28 0 66.5 -19.5t58.5 -19.5q39 0 45 43l3 2l51 -11q-7 -47 -34 -71.5t-63 -24.5q-28 0 -67.5 20t-59.5 20q-16 0 -28 -12t-15 -32zM278 -12q-102 0 -166.5 62.5t-64.5 173.5q0 132 78 218.5t199 86.5q104 0 168.5 -62.5
t64.5 -174.5q0 -131 -78.5 -217.5t-200.5 -86.5zM286 54q88 0 140.5 67.5t52.5 165.5q0 81 -44 128.5t-118 47.5q-87 0 -139.5 -68.5t-52.5 -163.5q0 -81 44 -129t117 -48z" />
    <glyph glyph-name="odieresis" unicode="&#xf6;" horiz-adv-x="604" 
d="M250 618q-20 0 -33 12.5t-13 32.5q0 24 15 38t36 14t33.5 -12.5t12.5 -31.5q0 -24 -15 -38.5t-36 -14.5zM435 618q-20 0 -33 12.5t-13 32.5q0 24 15.5 38t35.5 14q21 0 33.5 -12.5t12.5 -31.5q0 -24 -15 -38.5t-36 -14.5zM278 -12q-102 0 -166.5 62.5t-64.5 173.5
q0 132 78 218.5t199 86.5q104 0 168.5 -62.5t64.5 -174.5q0 -131 -78.5 -217.5t-200.5 -86.5zM286 54q88 0 140.5 67.5t52.5 165.5q0 81 -44 128.5t-118 47.5q-87 0 -139.5 -68.5t-52.5 -163.5q0 -81 44 -129t117 -48z" />
    <glyph glyph-name="divide" unicode="&#xf7;" horiz-adv-x="513" 
d="M277 406q-21 0 -32.5 11.5t-11.5 30.5q0 24 16 40t43 16q21 0 33 -11.5t12 -30.5q0 -24 -16.5 -40t-43.5 -16zM63 269l7 58h393l-8 -58h-392zM233 85q-22 0 -33.5 12t-11.5 30q0 24 16 41t42 17q22 0 33.5 -12.5t11.5 -31.5q0 -24 -15.5 -40t-42.5 -16z" />
    <glyph glyph-name="oslash" unicode="&#xf8;" horiz-adv-x="604" 
d="M478 479q79 -64 79 -187q0 -131 -78.5 -217.5t-200.5 -86.5q-61 0 -106 22l-43 -66h-56v8l55 85q-81 63 -81 187q0 132 78 218.5t199 86.5q61 0 108 -22l39 61h61v-6zM125 231q0 -81 44 -130l224 346q-35 16 -76 16q-87 0 -139.5 -68.5t-52.5 -163.5zM286 54
q88 0 140.5 67.5t52.5 165.5q0 82 -43 128l-225 -345q35 -16 75 -16z" />
    <glyph glyph-name="ugrave" unicode="&#xf9;" horiz-adv-x="576" 
d="M400 572l-166 103l-1 10l52 57l143 -125zM456 518h76l-74 -518h-61l2 65q-64 -77 -171 -77q-78 0 -120.5 42t-42.5 117q0 26 4 55l44 316h76l-44 -308q-3 -22 -3 -49q0 -53 29 -80.5t80 -27.5q49 0 90.5 28t63.5 78z" />
    <glyph glyph-name="uacute" unicode="&#xfa;" horiz-adv-x="576" 
d="M446 680l-160 -112l-30 44l136 132l55 -54zM456 518h76l-74 -518h-61l2 65q-64 -77 -171 -77q-78 0 -120.5 42t-42.5 117q0 26 4 55l44 316h76l-44 -308q-3 -22 -3 -49q0 -53 29 -80.5t80 -27.5q49 0 90.5 28t63.5 78z" />
    <glyph glyph-name="ucircumflex" unicode="&#xfb;" horiz-adv-x="576" 
d="M348 666l-113 -96l-29 32l132 135h36l94 -135l-37 -32zM456 518h76l-74 -518h-61l2 65q-64 -77 -171 -77q-78 0 -120.5 42t-42.5 117q0 26 4 55l44 316h76l-44 -308q-3 -22 -3 -49q0 -53 29 -80.5t80 -27.5q49 0 90.5 28t63.5 78z" />
    <glyph glyph-name="udieresis" unicode="&#xfc;" horiz-adv-x="576" 
d="M249 622q-20 0 -33 12.5t-13 32.5q0 24 15 38t36 14t33.5 -12.5t12.5 -31.5q0 -24 -15 -38.5t-36 -14.5zM434 622q-20 0 -33 12.5t-13 32.5q0 24 15.5 38t35.5 14q21 0 33.5 -12.5t12.5 -31.5q0 -24 -15 -38.5t-36 -14.5zM456 518h76l-74 -518h-61l2 65q-64 -77 -171 -77
q-78 0 -120.5 42t-42.5 117q0 26 4 55l44 316h76l-44 -308q-3 -22 -3 -49q0 -53 29 -80.5t80 -27.5q49 0 90.5 28t63.5 78z" />
    <glyph glyph-name="yacute" unicode="&#xfd;" horiz-adv-x="513" 
d="M423 680l-160 -112l-30 44l136 132l55 -54zM530 515l-257 -484l-13 -26q-50 -94 -96.5 -134t-113.5 -40q-33 0 -57 9l11 61l2 1q24 -8 53 -8q70 0 135 121l4 8l-141 492l1 3h80l108 -411l207 411h76z" />
    <glyph glyph-name="thorn" unicode="&#xfe;" horiz-adv-x="589" 
d="M340 529q94 0 148 -55t54 -156q0 -152 -81.5 -241t-203.5 -89q-82 0 -134 31l-26 -184h-75l123 877h75l-35 -252q54 69 155 69zM258 55q89 0 147.5 66t58.5 184q0 79 -37 118.5t-99 39.5q-52 0 -98 -32t-63 -97l-34 -245q46 -34 125 -34z" />
    <glyph glyph-name="ydieresis" unicode="&#xff;" horiz-adv-x="513" 
d="M226 622q-20 0 -33 12.5t-13 32.5q0 24 15 38t36 14t33.5 -12.5t12.5 -31.5q0 -24 -15 -38.5t-36 -14.5zM411 622q-20 0 -33 12.5t-13 32.5q0 24 15.5 38t35.5 14q21 0 33.5 -12.5t12.5 -31.5q0 -24 -15 -38.5t-36 -14.5zM530 515l-257 -484l-13 -26q-50 -94 -96.5 -134
t-113.5 -40q-33 0 -57 9l11 61l2 1q24 -8 53 -8q70 0 135 121l4 8l-141 492l1 3h80l108 -411l207 411h76z" />
    <glyph glyph-name="Amacron" unicode="&#x100;" horiz-adv-x="608" 
d="M514 811l-10 -63h-267l9 63h268zM484 0l-45 176h-291l-95 -176h-75l368 673h30l187 -673h-79zM179 235h244l-73 284l-5 28l-13 -28z" />
    <glyph glyph-name="amacron" unicode="&#x101;" horiz-adv-x="542" 
d="M446 680l-8 -57h-278l8 57h278zM493 76l3 -1l-10 -65q-27 -16 -63 -16q-73 0 -73 67q0 9 1 14q-73 -87 -178 -87q-67 0 -108.5 37.5t-41.5 101.5q0 88 63.5 130.5t154.5 42.5q86 0 134 -24l5 35q3 18 3 35q0 119 -135 119q-82 0 -149 -52l-3 1l9 68q21 19 66 33t97 14
q94 0 142.5 -42.5t48.5 -124.5q0 -25 -4 -48l-28 -195q-1 -7 -1 -17q-1 -38 32 -38q22 0 35 12zM194 51q97 0 163 94l10 73q-44 22 -119 22q-65 0 -107 -25.5t-42 -80.5q0 -39 26.5 -61t68.5 -22z" />
    <glyph glyph-name="Abreve" unicode="&#x102;" horiz-adv-x="608" 
d="M369 706q-59 0 -92 35.5t-24 96.5l50 5q-2 -37 17 -59t53 -22q36 0 62.5 22.5t32.5 58.5l47 -5q-8 -60 -50 -96t-96 -36zM484 0l-45 176h-291l-95 -176h-75l368 673h30l187 -673h-79zM179 235h244l-73 284l-5 28l-13 -28z" />
    <glyph glyph-name="abreve" unicode="&#x103;" horiz-adv-x="542" 
d="M296 579q-56 0 -89 37.5t-24 101.5l51 6l2 -2q-4 -39 14 -62t52 -23q35 0 59.5 23t32.5 61l3 3l47 -6q-9 -65 -50 -102t-98 -37zM493 76l3 -1l-10 -65q-27 -16 -63 -16q-73 0 -73 67q0 9 1 14q-73 -87 -178 -87q-67 0 -108.5 37.5t-41.5 101.5q0 88 63.5 130.5
t154.5 42.5q86 0 134 -24l5 35q3 18 3 35q0 119 -135 119q-82 0 -149 -52l-3 1l9 68q21 19 66 33t97 14q94 0 142.5 -42.5t48.5 -124.5q0 -25 -4 -48l-28 -195q-1 -7 -1 -17q-1 -38 32 -38q22 0 35 12zM194 51q97 0 163 94l10 73q-44 22 -119 22q-65 0 -107 -25.5t-42 -80.5
q0 -39 26.5 -61t68.5 -22z" />
    <glyph glyph-name="Aogonek" unicode="&#x104;" horiz-adv-x="608" 
d="M546 0q-105 -69 -105 -136q0 -38 43 -38q18 0 29 4l2 -2l-6 -49q-26 -7 -53 -7q-41 0 -65 18.5t-24 52.5q0 88 120 157h-3l-45 176h-291l-95 -176h-75l368 673h30l187 -673h-17zM179 235h244l-73 284l-5 28l-13 -28z" />
    <glyph glyph-name="aogonek" unicode="&#x105;" horiz-adv-x="542" 
d="M469 2q-102 -69 -102 -134q0 -38 43 -38q18 0 29 4l2 -2l-6 -49q-26 -7 -53 -7q-41 0 -65 18.5t-24 52.5q0 83 107 149q-50 10 -50 65q0 9 1 14q-73 -87 -178 -87q-67 0 -108.5 37.5t-41.5 101.5q0 88 63.5 130.5t154.5 42.5q86 0 134 -24l5 35q3 18 3 35q0 119 -135 119
q-82 0 -149 -52l-3 1l9 68q21 19 66 33t97 14q94 0 142.5 -42.5t48.5 -124.5q0 -25 -4 -48l-28 -195q-1 -7 -1 -17q-1 -38 32 -38q22 0 35 12l3 -1l-10 -65q-9 -5 -17 -8zM194 51q97 0 163 94l10 73q-44 22 -119 22q-65 0 -107 -25.5t-42 -80.5q0 -39 26.5 -61t68.5 -22z
" />
    <glyph glyph-name="Cacute" unicode="&#x106;" horiz-adv-x="608" 
d="M344 700l-19 43l170 109l42 -62l-4 -10zM368 -12q-142 0 -225 77.5t-83 216.5q0 177 102 285t264 108q106 0 182 -39l-10 -70l-2 -1q-78 44 -177 44q-125 0 -204 -89.5t-79 -225.5q0 -113 66 -177t176 -64q88 0 161 44l3 -1l-11 -69q-71 -39 -163 -39z" />
    <glyph glyph-name="cacute" unicode="&#x107;" horiz-adv-x="481" 
d="M281 572l-30 44l136 132l55 -54l-1 -10zM271 -12q-100 0 -162 61.5t-62 169.5q0 142 81 226.5t207 84.5q77 0 133 -27l-10 -68l-3 -1q-57 29 -126 29q-91 0 -147.5 -65t-56.5 -167q0 -80 42.5 -128.5t119.5 -48.5q64 0 124 34l3 -1l-10 -69q-58 -30 -133 -30z" />
    <glyph glyph-name="Cdotaccent" unicode="&#x10a;" horiz-adv-x="608" 
d="M436 732q-21 0 -34.5 13t-13.5 34q0 24 15.5 38.5t37.5 14.5q21 0 34 -13t13 -33q0 -24 -15.5 -39t-36.5 -15zM368 -12q-142 0 -225 77.5t-83 216.5q0 177 102 285t264 108q106 0 182 -39l-10 -70l-2 -1q-78 44 -177 44q-125 0 -204 -89.5t-79 -225.5q0 -113 66 -177
t176 -64q88 0 161 44l3 -1l-11 -69q-71 -39 -163 -39z" />
    <glyph glyph-name="cdotaccent" unicode="&#x10b;" horiz-adv-x="481" 
d="M341 625q-21 0 -34.5 13t-13.5 34q0 24 15.5 38.5t37.5 14.5q21 0 34 -13t13 -33q0 -24 -15.5 -39t-36.5 -15zM271 -12q-100 0 -162 61.5t-62 169.5q0 142 81 226.5t207 84.5q77 0 133 -27l-10 -68l-3 -1q-57 29 -126 29q-91 0 -147.5 -65t-56.5 -167q0 -80 42.5 -128.5
t119.5 -48.5q64 0 124 34l3 -1l-10 -69q-58 -30 -133 -30z" />
    <glyph glyph-name="Ccaron" unicode="&#x10c;" horiz-adv-x="608" 
d="M413 701l-106 112l34 36l97 -83l110 83l27 -36l-127 -112h-35zM368 -12q-142 0 -225 77.5t-83 216.5q0 177 102 285t264 108q106 0 182 -39l-10 -70l-2 -1q-78 44 -177 44q-125 0 -204 -89.5t-79 -225.5q0 -113 66 -177t176 -64q88 0 161 44l3 -1l-11 -69
q-71 -39 -163 -39z" />
    <glyph glyph-name="ccaron" unicode="&#x10d;" horiz-adv-x="481" 
d="M312 574l-94 136l36 31l85 -96l112 96l27 -31l-130 -136h-36zM271 -12q-100 0 -162 61.5t-62 169.5q0 142 81 226.5t207 84.5q77 0 133 -27l-10 -68l-3 -1q-57 29 -126 29q-91 0 -147.5 -65t-56.5 -167q0 -80 42.5 -128.5t119.5 -48.5q64 0 124 34l3 -1l-10 -69
q-58 -30 -133 -30z" />
    <glyph glyph-name="Dcaron" unicode="&#x10e;" horiz-adv-x="700" 
d="M402 704h-35l-106 112l34 36l97 -83l110 83l27 -36zM352 670q151 0 231 -75t80 -207q0 -181 -108 -285t-299 -104q-150 0 -195 3l93 659q94 9 198 9zM273 65q150 0 230.5 85t80.5 231q0 103 -62.5 161.5t-180.5 58.5q-86 0 -122 -4l-75 -528q60 -4 129 -4z" />
    <glyph glyph-name="dcaron" unicode="&#x10f;" horiz-adv-x="613" 
d="M463 493l31 219h76l-100 -712h-62l1 66q-60 -78 -171 -78q-85 0 -139 57.5t-54 156.5q0 148 83 237.5t204 89.5q75 0 131 -36zM688 712l7 -9l-55 -203h-48l38 212h58zM261 55q51 0 96 32.5t61 88.5l35 245q-46 42 -123 42q-88 0 -147.5 -68t-59.5 -182q0 -76 36.5 -117
t101.5 -41z" />
    <glyph glyph-name="Dcroat" unicode="&#x110;" horiz-adv-x="700" 
d="M352 670q151 0 231 -75t80 -207q0 -181 -108 -285t-299 -104q-150 0 -195 3l42 299h-86l8 56h86l43 304q94 9 198 9zM273 65q150 0 230.5 85t80.5 231q0 103 -62.5 161.5t-180.5 58.5q-86 0 -122 -4l-34 -240h101l-8 -56h-101l-33 -232q60 -4 129 -4z" />
    <glyph glyph-name="dcroat" unicode="&#x111;" horiz-adv-x="587" 
d="M642 644l-8 -56h-81l-83 -588h-62l1 66q-60 -78 -171 -78q-85 0 -139 57.5t-54 156.5q0 148 83 237.5t204 89.5q75 0 131 -36l13 95h-103l8 56h103l10 68h76l-10 -68h82zM261 55q51 0 96 32.5t61 88.5l35 245q-46 42 -123 42q-88 0 -147.5 -68t-59.5 -182
q0 -76 36.5 -117t101.5 -41z" />
    <glyph glyph-name="Emacron" unicode="&#x112;" horiz-adv-x="530" 
d="M498 811l-10 -63h-267l9 63h268zM515 592h-296l-30 -217h277l-10 -68h-277l-33 -238h307l-9 -69h-383l92 661h371z" />
    <glyph glyph-name="emacron" unicode="&#x113;" horiz-adv-x="549" 
d="M471 680l-8 -57h-278l8 57h278zM311 529q95 0 147 -55t52 -138q0 -36 -11 -89h-374v-19q0 -84 44.5 -129t116.5 -45q92 0 163 49l3 -1l-10 -71q-64 -43 -164 -43q-102 0 -166.5 60t-64.5 174q0 137 76.5 222t187.5 85zM134 307h301q1 8 1 24q0 62 -32.5 97t-99.5 35
q-60 0 -106 -42t-64 -114z" />
    <glyph glyph-name="Edotaccent" unicode="&#x116;" horiz-adv-x="530" 
d="M359 732q-21 0 -34.5 13t-13.5 34q0 24 15.5 38.5t37.5 14.5q21 0 34 -13t13 -33q0 -24 -15.5 -39t-36.5 -15zM515 592h-296l-30 -217h277l-10 -68h-277l-33 -238h307l-9 -69h-383l92 661h371z" />
    <glyph glyph-name="edotaccent" unicode="&#x117;" horiz-adv-x="549" 
d="M330 621q-21 0 -34.5 13t-13.5 34q0 24 15.5 38.5t37.5 14.5q21 0 34 -13t13 -33q0 -24 -15.5 -39t-36.5 -15zM311 529q95 0 147 -55t52 -138q0 -36 -11 -89h-374v-19q0 -84 44.5 -129t116.5 -45q92 0 163 49l3 -1l-10 -71q-64 -43 -164 -43q-102 0 -166.5 60t-64.5 174
q0 137 76.5 222t187.5 85zM134 307h301q1 8 1 24q0 62 -32.5 97t-99.5 35q-60 0 -106 -42t-64 -114z" />
    <glyph glyph-name="Eogonek" unicode="&#x118;" horiz-adv-x="530" 
d="M515 592h-296l-30 -217h277l-10 -68h-277l-33 -238h307l-9 -69h-1q-105 -69 -105 -136q0 -38 43 -38q18 0 29 4l2 -2l-6 -49q-26 -7 -53 -7q-41 0 -65 18.5t-24 52.5q0 88 120 157h-323l92 661h371z" />
    <glyph glyph-name="eogonek" unicode="&#x119;" horiz-adv-x="549" 
d="M311 529q95 0 147 -55t52 -138q0 -36 -11 -89h-374v-19q0 -84 44.5 -129t116.5 -45q92 0 163 49l3 -1l-10 -71q-25 -17 -61 -30q-101 -67 -101 -133q0 -38 43 -38q18 0 29 4l2 -2l-6 -49q-26 -7 -53 -7q-41 0 -65 18.5t-24 52.5q0 78 95 141h-23q-102 0 -166.5 60
t-64.5 174q0 137 76.5 222t187.5 85zM134 307h301q1 8 1 24q0 62 -32.5 97t-99.5 35q-60 0 -106 -42t-64 -114z" />
    <glyph glyph-name="Ecaron" unicode="&#x11a;" horiz-adv-x="530" 
d="M371 701h-35l-106 112l34 36l97 -83l110 83l27 -36zM515 592h-296l-30 -217h277l-10 -68h-277l-33 -238h307l-9 -69h-383l92 661h371z" />
    <glyph glyph-name="ecaron" unicode="&#x11b;" horiz-adv-x="549" 
d="M337 570h-36l-94 136l36 31l85 -96l112 96l27 -31zM311 529q95 0 147 -55t52 -138q0 -36 -11 -89h-374v-19q0 -84 44.5 -129t116.5 -45q92 0 163 49l3 -1l-10 -71q-64 -43 -164 -43q-102 0 -166.5 60t-64.5 174q0 137 76.5 222t187.5 85zM134 307h301q1 8 1 24
q0 62 -32.5 97t-99.5 35q-60 0 -106 -42t-64 -114z" />
    <glyph glyph-name="Gbreve" unicode="&#x11e;" horiz-adv-x="667" 
d="M438 709q-59 0 -92 35.5t-24 96.5l50 5q-2 -37 17 -59t53 -22q36 0 62.5 22.5t32.5 58.5l47 -5q-8 -60 -50 -96t-96 -36zM352 -10q-136 0 -214 76t-78 207q0 180 108.5 291t281.5 111q110 0 182 -39l-10 -73l-3 -1q-72 46 -181 46q-133 0 -216.5 -89.5t-83.5 -234.5
q0 -103 60.5 -164.5t167.5 -61.5q81 0 148 36l29 199h70l-35 -245q-105 -58 -226 -58z" />
    <glyph glyph-name="gbreve" unicode="&#x11f;" horiz-adv-x="546" 
d="M304 583q-56 0 -89 37.5t-24 101.5l51 6l2 -2q-4 -39 14 -62t52 -23q35 0 59.5 23t32.5 61l3 3l47 -6q-9 -65 -50 -102t-98 -37zM549 518l-8 -57h-106q44 -39 44 -96q0 -80 -58.5 -129.5t-154.5 -49.5q-56 0 -96 18q-21 -16 -21 -38q0 -21 28.5 -32.5t107.5 -20.5
q98 -11 140.5 -39t42.5 -84q0 -78 -68.5 -119.5t-189.5 -41.5q-205 0 -205 112q0 86 112 140q-42 22 -42 60q0 50 55 88q-48 40 -48 107q0 83 60 132.5t155 49.5h252zM273 247q62 -1 97.5 30.5t35.5 85.5q0 43 -30 69t-83 26q-61 0 -98.5 -31.5t-37.5 -84.5
q0 -44 30.5 -69.5t85.5 -25.5zM396 -23q0 34 -30.5 49.5t-107.5 23.5q-55 7 -83 13q-99 -43 -99 -105q0 -71 148 -71q172 0 172 90z" />
    <glyph glyph-name="Gdotaccent" unicode="&#x120;" horiz-adv-x="667" 
d="M444 735q-21 0 -34.5 13t-13.5 34q0 24 15.5 38.5t37.5 14.5q21 0 34 -13t13 -33q0 -24 -15.5 -39t-36.5 -15zM352 -10q-136 0 -214 76t-78 207q0 180 108.5 291t281.5 111q110 0 182 -39l-10 -73l-3 -1q-72 46 -181 46q-133 0 -216.5 -89.5t-83.5 -234.5
q0 -103 60.5 -164.5t167.5 -61.5q81 0 148 36l29 199h70l-35 -245q-105 -58 -226 -58z" />
    <glyph glyph-name="gdotaccent" unicode="&#x121;" horiz-adv-x="546" 
d="M313 625q-21 0 -34.5 13t-13.5 34q0 24 15.5 38.5t37.5 14.5q21 0 34 -13t13 -33q0 -24 -15.5 -39t-36.5 -15zM549 518l-8 -57h-106q44 -39 44 -96q0 -80 -58.5 -129.5t-154.5 -49.5q-56 0 -96 18q-21 -16 -21 -38q0 -21 28.5 -32.5t107.5 -20.5q98 -11 140.5 -39
t42.5 -84q0 -78 -68.5 -119.5t-189.5 -41.5q-205 0 -205 112q0 86 112 140q-42 22 -42 60q0 50 55 88q-48 40 -48 107q0 83 60 132.5t155 49.5h252zM273 247q62 -1 97.5 30.5t35.5 85.5q0 43 -30 69t-83 26q-61 0 -98.5 -31.5t-37.5 -84.5q0 -44 30.5 -69.5t85.5 -25.5z
M396 -23q0 34 -30.5 49.5t-107.5 23.5q-55 7 -83 13q-99 -43 -99 -105q0 -71 148 -71q172 0 172 90z" />
    <glyph glyph-name="Gcommaaccent" unicode="&#x122;" horiz-adv-x="667" 
d="M352 -10q-136 0 -214 76t-78 207q0 180 108.5 291t281.5 111q110 0 182 -39l-10 -73l-3 -1q-72 46 -181 46q-133 0 -216.5 -89.5t-83.5 -234.5q0 -103 60.5 -164.5t167.5 -61.5q81 0 148 36l29 199h70l-35 -245q-105 -58 -226 -58zM256 -225q25 56 37 135q1 6 2 18.5
t2 18.5l70 6l5 -9q-13 -87 -65 -169h-51z" />
    <glyph glyph-name="gcommaaccent" unicode="&#x123;" horiz-adv-x="546" 
d="M345 575l-70 -6l-5 9q13 87 65 169h51q-25 -56 -37 -135q-1 -6 -2 -18.5t-2 -18.5zM549 518l-8 -57h-106q44 -39 44 -96q0 -80 -58.5 -129.5t-154.5 -49.5q-56 0 -96 18q-21 -16 -21 -38q0 -21 28.5 -32.5t107.5 -20.5q98 -11 140.5 -39t42.5 -84q0 -78 -68.5 -119.5
t-189.5 -41.5q-205 0 -205 112q0 86 112 140q-42 22 -42 60q0 50 55 88q-48 40 -48 107q0 83 60 132.5t155 49.5h252zM273 247q62 -1 97.5 30.5t35.5 85.5q0 43 -30 69t-83 26q-61 0 -98.5 -31.5t-37.5 -84.5q0 -44 30.5 -69.5t85.5 -25.5zM396 -23q0 34 -30.5 49.5
t-107.5 23.5q-55 7 -83 13q-99 -43 -99 -105q0 -71 148 -71q172 0 172 90z" />
    <glyph glyph-name="Hbar" unicode="&#x126;" horiz-adv-x="712" 
d="M711 540l-9 -58h-55l-68 -482h-74l42 305h-369l-43 -305h-74l67 482h-57l9 58h56l17 121h75l-17 -121h369l17 121h75l-17 -121h56zM557 372l15 110h-369l-16 -110h370z" />
    <glyph glyph-name="hbar" unicode="&#x127;" horiz-adv-x="587" 
d="M350 529q79 0 126.5 -45t47.5 -126q0 -24 -3 -50l-44 -308h-74l41 292q3 24 3 41q0 66 -32.5 97t-88.5 31q-51 0 -94.5 -30.5t-62.5 -92.5l-47 -338h-76l83 582h-77l8 56h77l10 74h75l-10 -74h109l-8 -56h-109l-18 -128q58 75 164 75z" />
    <glyph glyph-name="Itilde" unicode="&#x128;" horiz-adv-x="268" 
d="M97 714l-48 14q8 42 35.5 68.5t64.5 26.5q27 0 65.5 -19t56.5 -19q16 0 30 11.5t17 32.5l2 2l47 -16q-7 -42 -34.5 -67.5t-64.5 -25.5q-22 0 -62 19t-60 19q-18 0 -31 -12t-16 -33zM61 0l92 661h75l-93 -661h-74z" />
    <glyph glyph-name="itilde" unicode="&#x129;" horiz-adv-x="240" 
d="M68 601l-47 11q6 40 33 68t63 28q29 0 71 -20.5t63 -20.5q17 0 30 11.5t15 31.5l3 2l48 -11q-7 -44 -34.5 -70t-64.5 -26q-26 0 -68 20.5t-63 20.5q-17 0 -29.5 -11.5t-16.5 -31.5zM46 0l74 518h75l-73 -518h-76z" />
    <glyph glyph-name="Imacron" unicode="&#x12a;" horiz-adv-x="268" 
d="M70 748l9 63h268l-10 -63h-267zM61 0l92 661h75l-93 -661h-74z" />
    <glyph glyph-name="imacron" unicode="&#x12b;" horiz-adv-x="240" 
d="M53 620l8 56h244l-9 -56h-243zM46 0l74 518h75l-73 -518h-76z" />
    <glyph glyph-name="Iogonek" unicode="&#x12e;" horiz-adv-x="268" 
d="M125 0q-99 -66 -99 -132q0 -38 43 -38q18 0 29 4l2 -2l-6 -49q-26 -7 -53 -7q-41 0 -65 18.5t-24 52.5q0 85 113 153h-4l92 661h75l-93 -661h-10z" />
    <glyph glyph-name="iogonek" unicode="&#x12f;" horiz-adv-x="239" 
d="M182 721q21 0 34 -13t13 -33q0 -24 -15.5 -39t-36.5 -15t-34.5 13t-13.5 34q0 24 15.5 38.5t37.5 14.5zM45 0l74 518h75l-72 -518h-3q-105 -69 -105 -135q0 -39 43 -39q18 0 29 4l2 -1l-6 -49q-22 -8 -53 -8q-40 0 -64 18.5t-24 52.5q0 88 119 157h-15z" />
    <glyph glyph-name="Idotaccent" unicode="&#x130;" horiz-adv-x="268" 
d="M208 732q-21 0 -34.5 13t-13.5 34q0 24 15.5 38.5t37.5 14.5q21 0 34 -13t13 -33q0 -24 -15.5 -39t-36.5 -15zM61 0l92 661h75l-93 -661h-74z" />
    <glyph glyph-name="dotlessi" unicode="&#x131;" horiz-adv-x="240" 
d="M46 0l74 518h75l-73 -518h-76z" />
    <glyph glyph-name="IJ" unicode="&#x132;" horiz-adv-x="614" 
d="M61 0l92 661h75l-93 -661h-74zM297 -3q-22 0 -49 3l9 64l3 1q14 -3 36 -3q125 0 147 158l63 441h75l-61 -436q-31 -228 -223 -228z" />
    <glyph glyph-name="ij" unicode="&#x133;" horiz-adv-x="495" 
d="M177 621q-21 0 -34.5 13t-13.5 34q0 24 15.5 38.5t37.5 14.5q21 0 34 -13t13 -33q0 -24 -15.5 -39t-36.5 -15zM433 621q-21 0 -34.5 13t-13.5 34q0 24 15.5 38.5t37.5 14.5q21 0 34 -13t13 -33q0 -24 -15.5 -39t-36.5 -15zM46 0l74 518h75l-73 -518h-76zM194 -169
q-25 0 -48 4l10 66l3 1q12 -3 30 -3q53 0 80.5 32.5t36.5 96.5l70 490h74l-71 -506q-26 -181 -185 -181z" />
    <glyph glyph-name="Kcommaaccent" unicode="&#x136;" horiz-adv-x="593" 
d="M628 658l-378 -326l306 -329l-1 -3h-93l-284 304l-43 -304h-74l92 661h75l-43 -302l353 302h89zM227 -53l70 6l5 -9q-13 -87 -65 -169h-51q25 56 37 135q1 6 2 18.5t2 18.5z" />
    <glyph glyph-name="kcommaaccent" unicode="&#x137;" horiz-adv-x="510" 
d="M513 515l-282 -246l240 -266l-1 -3h-95l-219 243l-34 -243h-76l101 712h75l-59 -422l258 228h91zM181 -53l70 6l5 -9q-13 -87 -65 -169h-51q25 56 37 135q1 6 2 18.5t2 18.5z" />
    <glyph glyph-name="kgreenlandic" unicode="&#x138;" horiz-adv-x="510" 
d="M524 518l-292 -250l232 -268h-99l-209 242l-34 -242h-76l73 518h75l-32 -229l270 229h92z" />
    <glyph glyph-name="Lacute" unicode="&#x139;" horiz-adv-x="482" 
d="M313 780l-189 -80l-19 43l170 109l42 -62zM144 63h295l-9 -63h-369l93 661h75z" />
    <glyph glyph-name="lacute" unicode="&#x13a;" horiz-adv-x="263" 
d="M105 746l-19 43l170 109l42 -62l-4 -10zM155 -9q-114 0 -96 117l86 604h74l-82 -582q-5 -38 4.5 -54.5t37.5 -16.5q20 0 39 12l2 -1l-9 -66q-29 -13 -56 -13z" />
    <glyph glyph-name="Lcommaaccent" unicode="&#x13b;" horiz-adv-x="482" 
d="M144 63h295l-9 -63h-369l93 661h75zM204 -53l70 6l5 -9q-13 -87 -65 -169h-51q25 56 37 135q1 6 2 18.5t2 18.5z" />
    <glyph glyph-name="lcommaaccent" unicode="&#x13c;" horiz-adv-x="263" 
d="M155 -9q-114 0 -96 117l86 604h74l-82 -582q-5 -38 4.5 -54.5t37.5 -16.5q20 0 39 12l2 -1l-9 -66q-29 -13 -56 -13zM41 -225q25 56 37 135q1 6 2 18.5t2 18.5l70 6l5 -9q-13 -87 -65 -169h-51z" />
    <glyph glyph-name="Lcaron" unicode="&#x13d;" horiz-adv-x="484" 
d="M459 670l-54 -203h-48l38 212h59zM228 661l-84 -598h295l-9 -63h-369l92 661h75z" />
    <glyph glyph-name="lcaron" unicode="&#x13e;" horiz-adv-x="263" 
d="M257 504l38 212h58l7 -9l-55 -203h-48zM155 -9q-114 0 -96 117l86 604h74l-82 -582q-5 -38 4.5 -54.5t37.5 -16.5q20 0 39 12l2 -1l-9 -66q-29 -13 -56 -13z" />
    <glyph glyph-name="Ldot" unicode="&#x13f;" horiz-adv-x="492" 
d="M144 63h295l-9 -63h-369l93 661h75zM383 334q-19 0 -29.5 11t-10.5 27q0 21 14 36t38 15q40 0 40 -39q0 -21 -14 -35.5t-38 -14.5z" />
    <glyph glyph-name="ldot" unicode="&#x140;" horiz-adv-x="318" 
d="M155 -9q-114 0 -96 117l86 604h74l-82 -582q-5 -38 4.5 -54.5t37.5 -16.5q20 0 39 12l2 -1l-9 -66q-29 -13 -56 -13zM285 316q-19 0 -29.5 10.5t-10.5 27.5q0 21 14 36t38 15q20 0 30.5 -11t10.5 -28q0 -21 -14 -35.5t-39 -14.5z" />
    <glyph glyph-name="Lslash" unicode="&#x141;" horiz-adv-x="482" 
d="M144 63h295l-9 -63h-369l38 273l-75 -44l-3 2l9 65l79 47l45 318h75l-38 -270l76 45h3l-9 -68l-80 -47z" />
    <glyph glyph-name="lslash" unicode="&#x142;" horiz-adv-x="263" 
d="M168 354l-31 -224q-5 -38 4.5 -54.5t37.5 -16.5q20 0 39 12l2 -1l-9 -66q-29 -13 -56 -13q-114 0 -96 117l28 196l-75 -45h-4l9 64l79 48l49 341h74l-41 -292l76 46h3l-10 -65z" />
    <glyph glyph-name="Nacute" unicode="&#x143;" horiz-adv-x="707" 
d="M339 700l-19 43l170 109l42 -62l-4 -10zM61 0l93 666h32l335 -517h3l72 512h71l-93 -666h-30l-337 518h-2l-73 -513h-71z" />
    <glyph glyph-name="nacute" unicode="&#x144;" horiz-adv-x="589" 
d="M447 680l-160 -112l-30 44l136 132l55 -54zM351 529q74 0 123.5 -44t49.5 -132q0 -27 -3 -52l-42 -301h-76l39 282q5 33 5 52q0 68 -34.5 97.5t-84.5 29.5q-57 0 -101 -35t-58 -95l-47 -331h-76l74 518h61l-2 -77q57 88 172 88z" />
    <glyph glyph-name="Ncommaaccent" unicode="&#x145;" horiz-adv-x="707" 
d="M61 0l93 666h32l335 -517h3l72 512h71l-93 -666h-30l-337 518h-2l-73 -513h-71zM234 -225q25 56 37 135q1 6 2 18.5t2 18.5l70 6l5 -9q-13 -87 -65 -169h-51z" />
    <glyph glyph-name="ncommaaccent" unicode="&#x146;" horiz-adv-x="589" 
d="M351 529q74 0 123.5 -44t49.5 -132q0 -27 -3 -52l-42 -301h-76l39 282q5 33 5 52q0 68 -34.5 97.5t-84.5 29.5q-57 0 -101 -35t-58 -95l-47 -331h-76l74 518h61l-2 -77q57 88 172 88zM226 -53l70 6l5 -9q-13 -87 -65 -169h-51q25 56 37 135q1 6 2 18.5t2 18.5z" />
    <glyph glyph-name="Ncaron" unicode="&#x147;" horiz-adv-x="707" 
d="M408 701l-106 112l34 36l97 -83l110 83l27 -36l-127 -112h-35zM61 0l93 666h32l335 -517h3l72 512h71l-93 -666h-30l-337 518h-2l-73 -513h-71z" />
    <glyph glyph-name="ncaron" unicode="&#x148;" horiz-adv-x="589" 
d="M354 570h-36l-94 136l36 31l85 -96l112 96l27 -31zM351 529q74 0 123.5 -44t49.5 -132q0 -27 -3 -52l-42 -301h-76l39 282q5 33 5 52q0 68 -34.5 97.5t-84.5 29.5q-57 0 -101 -35t-58 -95l-47 -331h-76l74 518h61l-2 -77q57 88 172 88z" />
    <glyph glyph-name="Eng" unicode="&#x14a;" horiz-adv-x="706" 
d="M667 661l-51 -367l-34 -249q-33 -238 -225 -238q-24 0 -48 3l9 62l1 1q18 -3 38 -3q65 0 102.5 43t48.5 118l2 17l-303 464h-2l-73 -512h-71l93 666h32l336 -515h2l72 510h71z" />
    <glyph glyph-name="eng" unicode="&#x14b;" horiz-adv-x="590" 
d="M351 529q75 0 124.5 -44t49.5 -132q0 -18 -4 -52l-47 -328q-25 -172 -177 -172q-7 0 -31 2l8 62l2 2q6 -2 15 -2q49 0 75 28.5t35 93.5l41 295q5 33 5 52q0 68 -34.5 97.5t-84.5 29.5q-59 0 -104 -37.5t-57 -100.5l-45 -323h-76l74 518h61l-4 -80q56 91 174 91z" />
    <glyph glyph-name="Omacron" unicode="&#x14c;" horiz-adv-x="751" 
d="M286 745l9 63h268l-10 -63h-267zM368 -13q-138 0 -222 84.5t-84 222.5q0 170 96.5 276t248.5 106q136 0 220 -85.5t84 -222.5q0 -170 -95.5 -275.5t-247.5 -105.5zM377 53q116 0 187 87.5t71 219.5q0 116 -64 183t-173 67q-117 0 -188 -87.5t-71 -220.5q0 -117 63.5 -183
t174.5 -66z" />
    <glyph glyph-name="omacron" unicode="&#x14d;" horiz-adv-x="604" 
d="M202 619l8 57h278l-8 -57h-278zM278 -12q-102 0 -166.5 62.5t-64.5 173.5q0 132 78 218.5t199 86.5q104 0 168.5 -62.5t64.5 -174.5q0 -131 -78.5 -217.5t-200.5 -86.5zM286 54q88 0 140.5 67.5t52.5 165.5q0 81 -44 128.5t-118 47.5q-87 0 -139.5 -68.5t-52.5 -163.5
q0 -81 44 -129t117 -48z" />
    <glyph glyph-name="Ohungarumlaut" unicode="&#x150;" horiz-adv-x="751" 
d="M315 708l-38 18l76 150l63 -16v-12zM488 708l-38 18l77 150l62 -16v-12zM368 -13q-138 0 -222 84.5t-84 222.5q0 170 96.5 276t248.5 106q136 0 220 -85.5t84 -222.5q0 -170 -95.5 -275.5t-247.5 -105.5zM377 53q116 0 187 87.5t71 219.5q0 116 -64 183t-173 67
q-117 0 -188 -87.5t-71 -220.5q0 -117 63.5 -183t174.5 -66z" />
    <glyph glyph-name="ohungarumlaut" unicode="&#x151;" horiz-adv-x="604" 
d="M249 563l-35 20l96 159l54 -20l-1 -12zM407 563l-34 20l96 159l53 -20l-1 -12zM278 -12q-102 0 -166.5 62.5t-64.5 173.5q0 132 78 218.5t199 86.5q104 0 168.5 -62.5t64.5 -174.5q0 -131 -78.5 -217.5t-200.5 -86.5zM286 54q88 0 140.5 67.5t52.5 165.5q0 81 -44 128.5
t-118 47.5q-87 0 -139.5 -68.5t-52.5 -163.5q0 -81 44 -129t117 -48z" />
    <glyph glyph-name="OE" unicode="&#x152;" horiz-adv-x="879" 
d="M875 665l-10 -68l-243 1q85 -83 89 -217h106l-10 -68h-99q-18 -156 -119 -244h214l-10 -69h-335q-44 -11 -90 -11q-138 0 -222 84.5t-84 222.5q0 170 96.5 276t248.5 106q54 0 97 -13h371zM139 304q0 -117 63.5 -183t174.5 -66h2l78 551q-28 6 -59 6q-117 0 -188 -87.5
t-71 -220.5zM635 381q-8 140 -107 198l-28 -198h135zM461 69q71 25 116 90t55 154h-142l-34 -244h5z" />
    <glyph glyph-name="oe" unicode="&#x153;" horiz-adv-x="946" 
d="M712 529q90 0 142.5 -52.5t52.5 -146.5q0 -36 -13 -85h-360q-1 -8 -1 -25q0 -80 40.5 -123t110.5 -43q49 0 83.5 11t78.5 38l2 -1l-10 -71q-71 -44 -165 -44q-142 0 -188 118q-68 -118 -218 -118q-98 0 -159.5 63.5t-61.5 165.5q0 142 77.5 227.5t195.5 85.5
q68 0 118.5 -31.5t74.5 -92.5q34 60 86 92t114 32zM277 52q84 0 134.5 63t50.5 174q0 79 -38.5 127t-111.5 48q-79 0 -133.5 -64.5t-54.5 -175.5q0 -76 41 -124t112 -48zM542 304h290q1 9 1 29q0 64 -32 97.5t-95 32.5q-57 -1 -101.5 -43t-62.5 -116z" />
    <glyph glyph-name="Racute" unicode="&#x154;" horiz-adv-x="560" 
d="M441 780l-189 -80l-19 43l170 109l42 -62zM523 498q0 -90 -45.5 -147t-117.5 -79l124 -269l-1 -3h-78l-117 260h-13h-104l-36 -260h-74l93 662q72 6 164 6q97 0 151 -42t54 -128zM180 320h81q80 0 132.5 42.5t52.5 122.5q0 119 -132 119q-57 0 -95 -4z" />
    <glyph glyph-name="racute" unicode="&#x155;" horiz-adv-x="368" 
d="M371 680l-160 -112l-30 44l136 132l55 -54zM329 529q33 0 53 -10l-9 -68l-3 -1q-18 10 -50 10q-25 0 -44 -5t-41 -19.5t-40 -47.5t-31 -83l-42 -305h-76l74 518h61l-3 -71q53 82 151 82z" />
    <glyph glyph-name="Rcommaaccent" unicode="&#x156;" horiz-adv-x="560" 
d="M523 498q0 -90 -45.5 -147t-117.5 -79l124 -269l-1 -3h-78l-117 260h-13h-104l-36 -260h-74l93 662q72 6 164 6q97 0 151 -42t54 -128zM180 320h81q80 0 132.5 42.5t52.5 122.5q0 119 -132 119q-57 0 -95 -4zM202 -53l70 6l5 -9q-13 -87 -65 -169h-51q25 56 37 135
q1 6 2 18.5t2 18.5z" />
    <glyph glyph-name="rcommaaccent" unicode="&#x157;" horiz-adv-x="368" 
d="M329 529q33 0 53 -10l-9 -68l-3 -1q-18 10 -50 10q-25 0 -44 -5t-41 -19.5t-40 -47.5t-31 -83l-42 -305h-76l74 518h61l-3 -71q53 82 151 82zM40 -53l70 6l5 -9q-13 -87 -65 -169h-51q25 56 37 135q1 6 2 18.5t2 18.5z" />
    <glyph glyph-name="Rcaron" unicode="&#x158;" horiz-adv-x="560" 
d="M356 701h-35l-106 112l34 36l97 -83l110 83l27 -36zM523 498q0 -90 -45.5 -147t-117.5 -79l124 -269l-1 -3h-78l-117 260h-13h-104l-36 -260h-74l93 662q72 6 164 6q97 0 151 -42t54 -128zM180 320h81q80 0 132.5 42.5t52.5 122.5q0 119 -132 119q-57 0 -95 -4z" />
    <glyph glyph-name="rcaron" unicode="&#x159;" horiz-adv-x="368" 
d="M278 570h-36l-94 136l36 31l85 -96l112 96l27 -31zM178 447q53 82 151 82q33 0 53 -10l-9 -68l-3 -1q-18 10 -50 10q-25 0 -44 -5t-41 -19.5t-40 -47.5t-31 -83l-42 -305h-76l74 518h61z" />
    <glyph glyph-name="Sacute" unicode="&#x15a;" horiz-adv-x="509" 
d="M197 705l-19 43l170 109l42 -62l-4 -10zM236 -14q-107 0 -187 46l3 76l3 2q76 -58 175 -58q67 0 107 31t40 82q0 54 -33.5 86t-108.5 67q-76 35 -120.5 77t-44.5 107q0 85 60.5 131t151.5 46q97 0 164 -31l-2 -72l-3 -1q-63 39 -154 39q-62 1 -101 -25t-39 -75
q0 -46 33 -73t108 -62q77 -37 120 -81t43 -120q0 -88 -59 -140t-156 -52z" />
    <glyph glyph-name="sacute" unicode="&#x15b;" horiz-adv-x="459" 
d="M228 572l-30 44l136 132l55 -54l-1 -10zM178 -13q-102 0 -163 39l11 73l2 1q62 -48 163 -48q64 0 99.5 22.5t35.5 66.5q0 34 -26 53t-92 40q-69 23 -103 54t-34 84q0 73 59.5 115t158.5 42q84 0 136 -25l-9 -67l-2 -1q-56 28 -133 28q-61 0 -97.5 -21.5t-36.5 -60.5
q0 -30 24.5 -47t84.5 -37q74 -24 109.5 -54.5t35.5 -83.5q0 -83 -61 -128t-162 -45z" />
    <glyph glyph-name="Scedilla" unicode="&#x15e;" horiz-adv-x="509" 
d="M451 178q0 -79 -49 -130t-131 -60l-28 -40q12 3 25 3q32 0 51.5 -18t19.5 -55q0 -55 -38 -82t-95 -27q-32 0 -59 10l7 46l2 1q19 -9 47 -9q30 0 49.5 13.5t19.5 39.5q0 18 -11.5 28t-30.5 10q-22 0 -48 -8l-1 1l5 38l34 47q-94 2 -171 46l3 76l3 2q76 -58 175 -58
q67 0 107 31t40 82q0 54 -33.5 86t-108.5 67q-76 35 -120.5 77t-44.5 107q0 85 60.5 131t151.5 46q97 0 164 -31l-2 -72l-3 -1q-63 39 -154 39q-62 1 -101 -25t-39 -75q0 -46 33 -73t108 -62q77 -37 120 -81t43 -120z" />
    <glyph glyph-name="scedilla" unicode="&#x15f;" horiz-adv-x="459" 
d="M289 529q84 0 136 -25l-9 -67l-2 -1q-56 28 -133 28q-61 0 -97.5 -21.5t-36.5 -60.5q0 -30 24.5 -47t84.5 -37q74 -24 109.5 -54.5t35.5 -83.5q0 -75 -49.5 -119t-134.5 -52l-28 -41q12 3 25 3q32 0 51.5 -18t19.5 -55q0 -55 -38 -82t-95 -27q-32 0 -59 10l7 46l2 1
q19 -9 47 -9q30 0 49.5 13.5t19.5 39.5q0 18 -11.5 28t-30.5 10q-22 0 -48 -8l-1 1l5 38l35 48q-96 3 -152 39l11 73l2 1q62 -48 163 -48q64 0 99.5 22.5t35.5 66.5q0 34 -26 53t-92 40q-69 23 -103 54t-34 84q0 73 59.5 115t158.5 42z" />
    <glyph glyph-name="Scaron" unicode="&#x160;" horiz-adv-x="509" 
d="M266 706l-106 112l34 36l97 -83l110 83l27 -36l-127 -112h-35zM236 -14q-107 0 -187 46l3 76l3 2q76 -58 175 -58q67 0 107 31t40 82q0 54 -33.5 86t-108.5 67q-76 35 -120.5 77t-44.5 107q0 85 60.5 131t151.5 46q97 0 164 -31l-2 -72l-3 -1q-63 39 -154 39
q-62 1 -101 -25t-39 -75q0 -46 33 -73t108 -62q77 -37 120 -81t43 -120q0 -88 -59 -140t-156 -52z" />
    <glyph glyph-name="scaron" unicode="&#x161;" horiz-adv-x="459" 
d="M259 574l-94 136l36 31l85 -96l112 96l27 -31l-130 -136h-36zM178 -13q-102 0 -163 39l11 73l2 1q62 -48 163 -48q64 0 99.5 22.5t35.5 66.5q0 34 -26 53t-92 40q-69 23 -103 54t-34 84q0 73 59.5 115t158.5 42q84 0 136 -25l-9 -67l-2 -1q-56 28 -133 28
q-61 0 -97.5 -21.5t-36.5 -60.5q0 -30 24.5 -47t84.5 -37q74 -24 109.5 -54.5t35.5 -83.5q0 -83 -61 -128t-162 -45z" />
    <glyph glyph-name="uni0162" unicode="&#x162;" horiz-adv-x="534" 
d="M271 0h-13l-36 -52q12 3 25 3q32 0 51.5 -18t19.5 -55q0 -55 -38 -82t-95 -27q-32 0 -59 10l7 46l2 1q19 -9 47 -9q30 0 49.5 13.5t19.5 39.5q0 18 -11.5 28t-30.5 10q-22 0 -48 -8l-1 1l5 38l44 61h-14l85 594h-214l9 67h499l-9 -67h-211z" />
    <glyph glyph-name="uni0163" unicode="&#x163;" horiz-adv-x="363" 
d="M217 457l-40 -288q-2 -20 -2 -35q0 -33 22.5 -52.5t64.5 -19.5q33 0 67 16l2 -1l-10 -64q-33 -18 -81 -18h-6l-33 -47q12 3 25 3q32 0 51.5 -18t19.5 -55q0 -55 -38 -82t-95 -27q-32 0 -59 10l7 46l2 1q19 -9 47 -9q30 0 49.5 13.5t19.5 39.5q0 18 -11.5 28t-30.5 10
q-22 0 -48 -8l-1 1l5 38l44 61h6q-45 11 -70.5 41t-25.5 75q0 15 2 43l43 298h-104l9 61h103l18 122l74 14l1 -2l-19 -134h158l-9 -61h-157z" />
    <glyph glyph-name="Tcaron" unicode="&#x164;" horiz-adv-x="534" 
d="M353 701h-35l-106 112l34 36l97 -83l110 83l27 -36zM574 661l-9 -67h-211l-83 -594h-76l85 594h-214l9 67h499z" />
    <glyph glyph-name="tcaron" unicode="&#x165;" horiz-adv-x="363" 
d="M412 785l-55 -203h-48l38 212h58zM244 652l-19 -134h158l-9 -61h-157l-40 -288q-2 -20 -2 -35q0 -33 22.5 -52.5t64.5 -19.5q33 0 67 16l2 -1l-10 -64q-33 -18 -81 -18q-65 0 -103.5 32.5t-38.5 88.5q0 15 2 43l43 298h-104l9 61h103l18 122l74 14z" />
    <glyph glyph-name="Tbar" unicode="&#x166;" horiz-adv-x="536" 
d="M566 594h-211l-36 -255h96l-8 -55h-95l-40 -284h-76l41 284h-92l7 55h93l36 255h-214l9 67h499z" />
    <glyph glyph-name="tbar" unicode="&#x167;" horiz-adv-x="363" 
d="M374 457h-157l-20 -145h99l-8 -56h-99l-12 -87q-2 -20 -2 -35q0 -33 22.5 -52.5t64.5 -19.5q33 0 67 16l2 -1l-10 -64q-33 -18 -81 -18q-65 0 -103.5 32.5t-38.5 88.5q0 15 2 43l14 97h-87l8 56h87l21 145h-104l9 61h103l18 122l74 14l1 -2l-19 -134h158z" />
    <glyph glyph-name="Utilde" unicode="&#x168;" horiz-adv-x="684" 
d="M301 714l-48 14q8 42 35.5 68.5t64.5 26.5q27 0 65.5 -19t56.5 -19q16 0 30 11.5t17 32.5l2 2l47 -16q-7 -42 -34.5 -67.5t-64.5 -25.5q-22 0 -62 19t-60 19q-18 0 -31 -12t-16 -33zM309 -14q-106 0 -165.5 55.5t-59.5 147.5q0 38 4 65l57 407h74l-56 -398q-4 -25 -4 -52
q0 -77 42.5 -118t115.5 -41q90 0 141 51.5t67 159.5l55 398h73l-57 -407q-39 -268 -287 -268z" />
    <glyph glyph-name="utilde" unicode="&#x169;" horiz-adv-x="576" 
d="M235 606l-3 -1l-47 11q6 41 31.5 68t61.5 27q28 0 66.5 -19.5t58.5 -19.5q39 0 45 43l3 2l51 -11q-7 -47 -34 -71.5t-63 -24.5q-28 0 -67.5 20t-59.5 20q-16 0 -28 -12t-15 -32zM456 518h76l-74 -518h-61l2 65q-64 -77 -171 -77q-78 0 -120.5 42t-42.5 117q0 26 4 55
l44 316h76l-44 -308q-3 -22 -3 -49q0 -53 29 -80.5t80 -27.5q49 0 90.5 28t63.5 78z" />
    <glyph glyph-name="Umacron" unicode="&#x16a;" horiz-adv-x="684" 
d="M274 748l9 63h268l-10 -63h-267zM309 -14q-106 0 -165.5 55.5t-59.5 147.5q0 38 4 65l57 407h74l-56 -398q-4 -25 -4 -52q0 -77 42.5 -118t115.5 -41q90 0 141 51.5t67 159.5l55 398h73l-57 -407q-39 -268 -287 -268z" />
    <glyph glyph-name="umacron" unicode="&#x16b;" horiz-adv-x="576" 
d="M487 680l-8 -57h-278l8 57h278zM456 518h76l-74 -518h-61l2 65q-64 -77 -171 -77q-78 0 -120.5 42t-42.5 117q0 26 4 55l44 316h76l-44 -308q-3 -22 -3 -49q0 -53 29 -80.5t80 -27.5q49 0 90.5 28t63.5 78z" />
    <glyph glyph-name="Uring" unicode="&#x16e;" horiz-adv-x="684" 
d="M401 680q-37 0 -61 22t-24 58q0 41 28 68.5t71 27.5q36 0 60 -22t24 -57q0 -42 -27 -69.5t-71 -27.5zM406 721q22 0 35.5 14t13.5 37q0 19 -12.5 31t-32.5 12q-21 0 -35 -14.5t-14 -36.5q0 -19 12.5 -31t32.5 -12zM309 -14q-106 0 -165.5 55.5t-59.5 147.5q0 38 4 65
l57 407h74l-56 -398q-4 -25 -4 -52q0 -77 42.5 -118t115.5 -41q90 0 141 51.5t67 159.5l55 398h73l-57 -407q-39 -268 -287 -268z" />
    <glyph glyph-name="uring" unicode="&#x16f;" horiz-adv-x="576" 
d="M333 564q-37 0 -61 23.5t-24 60.5q0 43 28 71.5t71 28.5q37 0 61 -23t24 -60q0 -44 -27.5 -72.5t-71.5 -28.5zM343 707q-22 0 -36.5 -15.5t-14.5 -40.5q0 -21 12.5 -33t33.5 -12q22 0 36 15t14 40q0 21 -12.5 33.5t-32.5 12.5zM456 518h76l-74 -518h-61l2 65
q-64 -77 -171 -77q-78 0 -120.5 42t-42.5 117q0 26 4 55l44 316h76l-44 -308q-3 -22 -3 -49q0 -53 29 -80.5t80 -27.5q49 0 90.5 28t63.5 78z" />
    <glyph glyph-name="Uhungarumlaut" unicode="&#x170;" horiz-adv-x="684" 
d="M303 711l-38 18l76 150l63 -16v-12zM476 711l-38 18l77 150l62 -16v-12zM309 -14q-106 0 -165.5 55.5t-59.5 147.5q0 38 4 65l57 407h74l-56 -398q-4 -25 -4 -52q0 -77 42.5 -118t115.5 -41q90 0 141 51.5t67 159.5l55 398h73l-57 -407q-39 -268 -287 -268z" />
    <glyph glyph-name="uhungarumlaut" unicode="&#x171;" horiz-adv-x="576" 
d="M362 714l-114 -147l-35 20l96 159l54 -20zM520 714l-114 -147l-34 20l96 159l53 -20zM456 518h76l-74 -518h-61l2 65q-64 -77 -171 -77q-78 0 -120.5 42t-42.5 117q0 26 4 55l44 316h76l-44 -308q-3 -22 -3 -49q0 -53 29 -80.5t80 -27.5q49 0 90.5 28t63.5 78z" />
    <glyph glyph-name="Uogonek" unicode="&#x172;" horiz-adv-x="684" 
d="M580 661h73l-57 -407q-32 -217 -201 -258q-93 -65 -93 -128q0 -38 43 -38q18 0 29 4l2 -2l-6 -49q-26 -7 -53 -7q-41 0 -65 18.5t-24 52.5q0 77 92 139h-11q-106 0 -165.5 55.5t-59.5 147.5q0 38 4 65l57 407h74l-56 -398q-4 -25 -4 -52q0 -77 42.5 -118t115.5 -41
q90 0 141 51.5t67 159.5z" />
    <glyph glyph-name="uogonek" unicode="&#x173;" horiz-adv-x="576" 
d="M456 0q-103 -69 -103 -135q0 -38 43 -38q18 0 29 4l2 -2l-6 -49q-26 -7 -53 -7q-41 0 -65 18.5t-24 52.5q0 87 118 156l2 65q-64 -77 -171 -77q-78 0 -120.5 42t-42.5 117q0 26 4 55l44 316h76l-44 -308q-3 -22 -3 -49q0 -53 29 -80.5t80 -27.5q49 0 90.5 28t63.5 78
l51 359h76l-74 -518h-2z" />
    <glyph glyph-name="Wcircumflex" unicode="&#x174;" horiz-adv-x="921" 
d="M535 784l-115 -83l-25 36l132 112h34l102 -112l-31 -36zM957 661l1 -3l-303 -670h-54l-95 518l-3 22l-8 -22l-245 -518h-56l-117 670l1 3h78l81 -530l2 -36l14 36l242 527h52l94 -521l3 -36l13 36l228 524h72z" />
    <glyph glyph-name="wcircumflex" unicode="&#x175;" horiz-adv-x="767" 
d="M445 671l-113 -96l-29 32l132 135h36l94 -135l-37 -32zM781 518l1 -3l-235 -515h-69l-63 409l-2 19l-8 -19l-185 -409h-69l-92 515l1 3h75l62 -405v-19l8 19l181 405h78l63 -404l2 -21l7 22l175 403h70z" />
    <glyph glyph-name="Ycircumflex" unicode="&#x176;" horiz-adv-x="566" 
d="M243 701l-25 36l132 112h34l102 -112l-31 -36l-97 83zM210 0l40 280l-174 378l1 3h79l142 -310l228 310h76l1 -3l-279 -379l-40 -279h-74z" />
    <glyph glyph-name="ycircumflex" unicode="&#x177;" horiz-adv-x="513" 
d="M325 666l-113 -96l-29 32l132 135h36l94 -135l-37 -32zM530 515l-257 -484l-13 -26q-50 -94 -96.5 -134t-113.5 -40q-33 0 -57 9l11 61l2 1q24 -8 53 -8q70 0 135 121l4 8l-141 492l1 3h80l108 -411l207 411h76z" />
    <glyph glyph-name="Ydieresis" unicode="&#x178;" horiz-adv-x="566" 
d="M261 732q-19 0 -31 11t-12 30q0 22 14.5 35t33.5 13t30.5 -12t11.5 -30q0 -22 -13.5 -34.5t-33.5 -12.5zM455 732q-19 0 -31 11t-12 30q0 22 14.5 35t33.5 13t30.5 -12t11.5 -30q0 -22 -13.5 -34.5t-33.5 -12.5zM210 0l40 280l-174 378l1 3h79l142 -310l228 310h76l1 -3
l-279 -379l-40 -279h-74z" />
    <glyph glyph-name="Zacute" unicode="&#x179;" horiz-adv-x="559" 
d="M260 704l-19 43l170 109l42 -62l-4 -10zM10 0l-5 27l459 572h-375l8 62h471l4 -26l-462 -573h388l-8 -62h-480z" />
    <glyph glyph-name="zacute" unicode="&#x17a;" horiz-adv-x="491" 
d="M401 680l-160 -112l-30 44l136 132l55 -54zM473 482l-363 -418h319l-9 -64h-409l-3 35l359 419h-295l8 64h390z" />
    <glyph glyph-name="Zdotaccent" unicode="&#x17b;" horiz-adv-x="559" 
d="M352 736q-21 0 -34.5 13t-13.5 34q0 24 15.5 38.5t37.5 14.5q21 0 34 -13t13 -33q0 -24 -15.5 -39t-36.5 -15zM10 0l-5 27l459 572h-375l8 62h471l4 -26l-462 -573h388l-8 -62h-480z" />
    <glyph glyph-name="zdotaccent" unicode="&#x17c;" horiz-adv-x="491" 
d="M301 621q-21 0 -34.5 13t-13.5 34q0 24 15.5 38.5t37.5 14.5q21 0 34 -13t13 -33q0 -24 -15.5 -39t-36.5 -15zM473 482l-363 -418h319l-9 -64h-409l-3 35l359 419h-295l8 64h390z" />
    <glyph glyph-name="Zcaron" unicode="&#x17d;" horiz-adv-x="559" 
d="M329 705l-106 112l34 36l97 -83l110 83l27 -36l-127 -112h-35zM10 0l-5 27l459 572h-375l8 62h471l4 -26l-462 -573h388l-8 -62h-480z" />
    <glyph glyph-name="zcaron" unicode="&#x17e;" horiz-adv-x="491" 
d="M308 570h-36l-94 136l36 31l85 -96l112 96l27 -31zM473 482l-363 -418h319l-9 -64h-409l-3 35l359 419h-295l8 64h390z" />
    <glyph glyph-name="uni01EA" unicode="&#x1ea;" horiz-adv-x="751" 
d="M439 -6q-93 -65 -93 -128q0 -38 43 -38q18 0 29 4l2 -2l-6 -49q-26 -7 -53 -7q-41 0 -65 18.5t-24 52.5q0 77 96 142q-138 0 -222 84.5t-84 222.5q0 170 96.5 276t248.5 106q136 0 220 -85.5t84 -222.5q0 -149 -74.5 -250t-197.5 -124zM139 302q0 -117 63.5 -183
t174.5 -66q116 0 187 87.5t71 219.5q0 116 -64 183t-173 67q-117 0 -188 -87.5t-71 -220.5z" />
    <glyph glyph-name="uni01EB" unicode="&#x1eb;" horiz-adv-x="604" 
d="M356 -1q-97 -68 -97 -131q0 -38 43 -38q18 0 29 4l2 -2l-6 -49q-26 -7 -53 -7q-41 0 -65 18.5t-24 52.5q0 75 94 141h-1q-102 0 -166.5 62.5t-64.5 173.5q0 132 78 218.5t199 86.5q104 0 168.5 -62.5t64.5 -174.5q0 -108 -55 -187.5t-146 -105.5zM125 231q0 -81 44 -129
t117 -48q88 0 140.5 67.5t52.5 165.5q0 81 -44 128.5t-118 47.5q-87 0 -139.5 -68.5t-52.5 -163.5z" />
    <glyph glyph-name="AEacute" unicode="&#x1fc;" horiz-adv-x="786" 
d="M648 780l-189 -80l-19 43l170 109l42 -62zM772 599h-256l-32 -225h239l-10 -62h-237l-35 -249h268l-9 -63h-344l29 203h-215l-147 -203h-77l483 661h352zM209 257h184l45 320l-58 -85z" />
    <glyph glyph-name="aeacute" unicode="&#x1fd;" horiz-adv-x="912" 
d="M621 680l-160 -112l-30 44l136 132l55 -54zM675 529q94 0 146 -55t52 -138q0 -43 -11 -89h-374v-19q0 -83 45.5 -128.5t115.5 -45.5q93 0 164 49l3 -1l-11 -71q-64 -43 -164 -43q-78 0 -136 36t-81 106q-63 -142 -196 -142q-89 0 -141.5 56t-52.5 152q0 153 80 243
t198 90q68 0 111 -17.5t77 -53.5q73 71 175 71zM245 55q57 0 103 54t63 144q8 90 47 152q-52 58 -143 58q-86 0 -144.5 -68t-58.5 -189q0 -71 35.5 -111t97.5 -40zM497 307h302q1 8 1 24q0 62 -33 97t-99 35q-60 0 -106.5 -42t-64.5 -114z" />
    <glyph glyph-name="Oslashacute" unicode="&#x1fe;" horiz-adv-x="751" 
d="M542 780l-189 -80l-19 43l170 109l42 -62zM622 595q89 -84 89 -227q0 -170 -95.5 -275.5t-247.5 -105.5q-94 0 -167 42l-63 -85h-65v7l83 112q-94 85 -94 231q0 170 96.5 276t248.5 106q97 0 170 -45l62 83h67v-6zM139 302q0 -114 61 -180l335 451q-59 37 -137 37
q-117 0 -188 -87.5t-71 -220.5zM377 53q116 0 187 87.5t71 219.5q0 110 -57 176l-334 -450q54 -33 133 -33z" />
    <glyph glyph-name="oslashacute" unicode="&#x1ff;" horiz-adv-x="604" 
d="M445 680l-160 -112l-30 44l136 132l55 -54zM478 479q79 -64 79 -187q0 -131 -78.5 -217.5t-200.5 -86.5q-61 0 -106 22l-43 -66h-56v8l55 85q-81 63 -81 187q0 132 78 218.5t199 86.5q61 0 108 -22l39 61h61v-6zM125 231q0 -81 44 -130l224 346q-35 16 -76 16
q-87 0 -139.5 -68.5t-52.5 -163.5zM286 54q88 0 140.5 67.5t52.5 165.5q0 82 -43 128l-225 -345q35 -16 75 -16z" />
    <glyph glyph-name="Scommaaccent" unicode="&#x218;" horiz-adv-x="509" 
d="M236 -14q-107 0 -187 46l3 76l3 2q76 -58 175 -58q67 0 107 31t40 82q0 54 -33.5 86t-108.5 67q-76 35 -120.5 77t-44.5 107q0 85 60.5 131t151.5 46q97 0 164 -31l-2 -72l-3 -1q-63 39 -154 39q-62 1 -101 -25t-39 -75q0 -46 33 -73t108 -62q77 -37 120 -81t43 -120
q0 -88 -59 -140t-156 -52zM163 -225q25 56 37 135q1 6 2 18.5t2 18.5l70 6l5 -9q-13 -87 -65 -169h-51z" />
    <glyph glyph-name="scommaaccent" unicode="&#x219;" horiz-adv-x="459" 
d="M178 -13q-102 0 -163 39l11 73l2 1q62 -48 163 -48q64 0 99.5 22.5t35.5 66.5q0 34 -26 53t-92 40q-69 23 -103 54t-34 84q0 73 59.5 115t158.5 42q84 0 136 -25l-9 -67l-2 -1q-56 28 -133 28q-61 0 -97.5 -21.5t-36.5 -60.5q0 -30 24.5 -47t84.5 -37q74 -24 109.5 -54.5
t35.5 -83.5q0 -83 -61 -128t-162 -45zM109 -225q25 56 37 135q1 6 2 18.5t2 18.5l70 6l5 -9q-13 -87 -65 -169h-51z" />
    <glyph glyph-name="uni021A" unicode="&#x21a;" horiz-adv-x="534" 
d="M574 661l-9 -67h-211l-83 -594h-76l85 594h-214l9 67h499zM183 -53l70 6l5 -9q-13 -87 -65 -169h-51q25 56 37 135q1 6 2 18.5t2 18.5z" />
    <glyph glyph-name="uni021B" unicode="&#x21b;" horiz-adv-x="363" 
d="M217 457l-40 -288q-2 -20 -2 -35q0 -33 22.5 -52.5t64.5 -19.5q33 0 67 16l2 -1l-10 -64q-33 -18 -81 -18q-65 0 -103.5 32.5t-38.5 88.5q0 15 2 43l43 298h-104l9 61h103l18 122l74 14l1 -2l-19 -134h158l-9 -61h-157zM162 -53l70 6l5 -9q-13 -87 -65 -169h-51
q25 56 37 135q1 6 2 18.5t2 18.5z" />
    <glyph glyph-name="uni0237" unicode="&#x237;" horiz-adv-x="255" 
d="M-46 -169q-25 0 -48 4l10 66l3 1q12 -3 30 -3q53 0 80.5 32.5t36.5 96.5l70 490h74l-71 -506q-26 -181 -185 -181z" />
    <glyph glyph-name="circumflex" unicode="&#x2c6;" horiz-adv-x="326" 
d="M109 570l-29 32l132 135h36l94 -135l-37 -32l-83 96z" />
    <glyph glyph-name="caron" unicode="&#x2c7;" horiz-adv-x="326" 
d="M191 570l-94 136l36 31l85 -96l112 96l27 -31l-130 -136h-36z" />
    <glyph glyph-name="breve" unicode="&#x2d8;" horiz-adv-x="309" 
d="M203 579q-56 0 -89 37.5t-24 101.5l51 6l2 -2q-4 -39 14 -62t52 -23q35 0 59.5 23t32.5 61l3 3l47 -6q-9 -65 -50 -102t-98 -37z" />
    <glyph glyph-name="dotaccent" unicode="&#x2d9;" horiz-adv-x="266" 
d="M190 621q-21 0 -34.5 13t-13.5 34q0 24 15.5 38.5t37.5 14.5q21 0 34 -13t13 -33q0 -24 -15.5 -39t-36.5 -15z" />
    <glyph glyph-name="ring" unicode="&#x2da;" horiz-adv-x="317" 
d="M182 564q-37 0 -61 23.5t-24 60.5q0 43 28 71.5t71 28.5q37 0 61 -23t24 -60q0 -44 -27.5 -72.5t-71.5 -28.5zM187 606q22 0 36 15t14 40q0 21 -12.5 33.5t-32.5 12.5q-22 0 -36.5 -15.5t-14.5 -40.5q0 -21 12.5 -33t33.5 -12z" />
    <glyph glyph-name="ogonek" unicode="&#x2db;" horiz-adv-x="188" 
d="M49 -224q-41 0 -65 18.5t-24 52.5q0 91 127 161l52 -4q-105 -69 -105 -136q0 -38 43 -38q18 0 29 4l2 -2l-6 -49q-26 -7 -53 -7z" />
    <glyph glyph-name="tilde" unicode="&#x2dc;" horiz-adv-x="339" 
d="M113 605l-47 11q6 41 31.5 68t61.5 27q28 0 66.5 -19.5t58.5 -19.5q39 0 45 43l3 2l51 -11q-7 -47 -34 -71.5t-63 -24.5q-28 0 -67.5 20t-59.5 20q-16 0 -28 -12t-15 -32z" />
    <glyph glyph-name="hungarumlaut" unicode="&#x2dd;" horiz-adv-x="346" 
d="M107 567l-35 20l96 159l54 -20l-1 -12zM265 567l-34 20l96 159l53 -20l-1 -12z" />
    <glyph glyph-name="gravecomb" unicode="&#x300;" 
d="M7 572l-166 103l-1 10l52 57l143 -125z" />
    <glyph glyph-name="acutecomb" unicode="&#x301;" 
d="M-127 568l-30 44l136 132l55 -54l-1 -10z" />
    <glyph glyph-name="uni0302" unicode="&#x302;" 
d="M-216 570l-29 32l132 135h36l94 -135l-37 -32l-83 96z" />
    <glyph glyph-name="tildecomb" unicode="&#x303;" 
d="M-226 605l-47 11q6 41 31.5 68t61.5 27q28 0 66.5 -19.5t58.5 -19.5q39 0 45 43l3 2l51 -11q-7 -47 -34 -71.5t-63 -24.5q-28 0 -67.5 20t-59.5 20q-16 0 -28 -12t-15 -32z" />
    <glyph glyph-name="uni0304" unicode="&#x304;" 
d="M-250 623l8 57h278l-8 -57h-278z" />
    <glyph glyph-name="uni0306" unicode="&#x306;" 
d="M-106 579q-56 0 -89 37.5t-24 101.5l51 6l2 -2q-4 -39 14 -62t52 -23q35 0 59.5 23t32.5 61l3 3l47 -6q-9 -65 -50 -102t-98 -37z" />
    <glyph glyph-name="uni0307" unicode="&#x307;" 
d="M-76 621q-21 0 -34.5 13t-13.5 34q0 24 15.5 38.5t37.5 14.5q21 0 34 -13t13 -33q0 -24 -15.5 -39t-36.5 -15z" />
    <glyph glyph-name="uni0308" unicode="&#x308;" 
d="M-196 622q-20 0 -33 12.5t-13 32.5q0 24 15 38t36 14t33.5 -12.5t12.5 -31.5q0 -24 -15 -38.5t-36 -14.5zM-11 622q-20 0 -33 12.5t-13 32.5q0 24 15.5 38t35.5 14q21 0 33.5 -12.5t12.5 -31.5q0 -24 -15 -38.5t-36 -14.5z" />
    <glyph glyph-name="uni030A" unicode="&#x30a;" 
d="M-94 564q-37 0 -61 23.5t-24 60.5q0 43 28 71.5t71 28.5q37 0 61 -23t24 -60q0 -44 -27.5 -72.5t-71.5 -28.5zM-89 606q22 0 36 15t14 40q0 21 -12.5 33.5t-32.5 12.5q-22 0 -36.5 -15.5t-14.5 -40.5q0 -21 12.5 -33t33.5 -12z" />
    <glyph glyph-name="uni030B" unicode="&#x30b;" 
d="M-239 567l-35 20l96 159l54 -20l-1 -12zM-81 567l-34 20l96 159l53 -20l-1 -12z" />
    <glyph glyph-name="uni030C" unicode="&#x30c;" 
d="M-134 570l-94 136l36 31l85 -96l112 96l27 -31l-130 -136h-36z" />
    <glyph glyph-name="uni0326" unicode="&#x326;" 
d="M-204 -225q25 56 37 135q1 6 2 18.5t2 18.5l70 6l5 -9q-13 -87 -65 -169h-51z" />
    <glyph glyph-name="uni0327" unicode="&#x327;" 
d="M-189 -231q-32 0 -59 10l7 46l2 1q19 -9 47 -9q30 0 49.5 13.5t19.5 39.5q0 18 -11.5 28t-30.5 10q-22 0 -48 -8l-1 1l5 38l44 61h49l-36 -52q12 3 25 3q32 0 51.5 -18t19.5 -55q0 -55 -38 -82t-95 -27z" />
    <glyph glyph-name="uni0328" unicode="&#x328;" 
d="M-147 -224q-41 0 -65 18.5t-24 52.5q0 91 127 161l52 -4q-105 -69 -105 -136q0 -38 43 -38q18 0 29 4l2 -2l-6 -49q-26 -7 -53 -7z" />
    <glyph glyph-name="uni0335" unicode="&#x335;" 
d="M-301 191l8 56h261l-8 -56h-261z" />
    <glyph glyph-name="uni0336" unicode="&#x336;" 
d="M-592 327l9 58h631l-9 -58h-631z" />
    <glyph glyph-name="uni0337" unicode="&#x337;" 
d="M-240 256l9 64l237 143h3l-10 -65l-235 -142h-4z" />
    <glyph glyph-name="uni0338" unicode="&#x338;" 
d="M-519 -51v8l398 616h61v-6l-403 -618h-56z" />
    <glyph glyph-name="Wgrave" unicode="&#x1e80;" horiz-adv-x="921" 
d="M606 701l-179 85l-3 11l48 59l155 -113zM957 661l1 -3l-303 -670h-54l-95 518l-3 22l-8 -22l-245 -518h-56l-117 670l1 3h78l81 -530l2 -36l14 36l242 527h52l94 -521l3 -36l13 36l228 524h72z" />
    <glyph glyph-name="wgrave" unicode="&#x1e81;" horiz-adv-x="767" 
d="M497 577l-166 103l-1 10l52 57l143 -125zM781 518l1 -3l-235 -515h-69l-63 409l-2 19l-8 -19l-185 -409h-69l-92 515l1 3h75l62 -405v-19l8 19l181 405h78l63 -404l2 -21l7 22l175 403h70z" />
    <glyph glyph-name="Wacute" unicode="&#x1e82;" horiz-adv-x="921" 
d="M633 780l-189 -80l-19 43l170 109l42 -62zM957 661l1 -3l-303 -670h-54l-95 518l-3 22l-8 -22l-245 -518h-56l-117 670l1 3h78l81 -530l2 -36l14 36l242 527h52l94 -521l3 -36l13 36l228 524h72z" />
    <glyph glyph-name="wacute" unicode="&#x1e83;" horiz-adv-x="767" 
d="M543 685l-160 -112l-30 44l136 132l55 -54zM781 518l1 -3l-235 -515h-69l-63 409l-2 19l-8 -19l-185 -409h-69l-92 515l1 3h75l62 -405v-19l8 19l181 405h78l63 -404l2 -21l7 22l175 403h70z" />
    <glyph glyph-name="Wdieresis" unicode="&#x1e84;" horiz-adv-x="921" 
d="M438 732q-19 0 -31 11t-12 30q0 22 14.5 35t33.5 13t30.5 -12t11.5 -30q0 -22 -13.5 -34.5t-33.5 -12.5zM632 732q-19 0 -31 11t-12 30q0 22 14.5 35t33.5 13t30.5 -12t11.5 -30q0 -22 -13.5 -34.5t-33.5 -12.5zM957 661l1 -3l-303 -670h-54l-95 518l-3 22l-8 -22
l-245 -518h-56l-117 670l1 3h78l81 -530l2 -36l14 36l242 527h52l94 -521l3 -36l13 36l228 524h72z" />
    <glyph glyph-name="wdieresis" unicode="&#x1e85;" horiz-adv-x="767" 
d="M346 627q-20 0 -33 12.5t-13 32.5q0 24 15 38t36 14t33.5 -12.5t12.5 -31.5q0 -24 -15 -38.5t-36 -14.5zM531 627q-20 0 -33 12.5t-13 32.5q0 24 15.5 38t35.5 14q21 0 33.5 -12.5t12.5 -31.5q0 -24 -15 -38.5t-36 -14.5zM781 518l1 -3l-235 -515h-69l-63 409l-2 19
l-8 -19l-185 -409h-69l-92 515l1 3h75l62 -405v-19l8 19l181 405h78l63 -404l2 -21l7 22l175 403h70z" />
    <glyph glyph-name="Ygrave" unicode="&#x1ef2;" horiz-adv-x="566" 
d="M429 701l-179 85l-3 11l48 59l155 -113zM210 0l40 280l-174 378l1 3h79l142 -310l228 310h76l1 -3l-279 -379l-40 -279h-74z" />
    <glyph glyph-name="ygrave" unicode="&#x1ef3;" horiz-adv-x="513" 
d="M377 572l-166 103l-1 10l52 57l143 -125zM530 515l-257 -484l-13 -26q-50 -94 -96.5 -134t-113.5 -40q-33 0 -57 9l11 61l2 1q24 -8 53 -8q70 0 135 121l4 8l-141 492l1 3h80l108 -411l207 411h76z" />
    <glyph glyph-name="uni1EF8" unicode="&#x1ef8;" horiz-adv-x="566" 
d="M248 714l-48 14q8 42 35.5 68.5t64.5 26.5q27 0 65.5 -19t56.5 -19q16 0 30 11.5t17 32.5l2 2l47 -16q-7 -42 -34.5 -67.5t-64.5 -25.5q-22 0 -62.5 19t-59.5 19q-18 0 -31 -12t-16 -33zM210 0l40 280l-174 378l1 3h79l142 -310l228 310h76l1 -3l-279 -379l-40 -279h-74z
" />
    <glyph glyph-name="uni1EF9" unicode="&#x1ef9;" horiz-adv-x="513" 
d="M212 606l-3 -1l-47 11q6 41 31.5 68t61.5 27q28 0 66.5 -19.5t58.5 -19.5q39 0 45 43l3 2l51 -11q-7 -47 -34 -71.5t-63 -24.5q-28 0 -67.5 20t-59.5 20q-16 0 -28 -12t-15 -32zM530 515l-257 -484l-13 -26q-50 -94 -96.5 -134t-113.5 -40q-33 0 -57 9l11 61l2 1
q24 -8 53 -8q70 0 135 121l4 8l-141 492l1 3h80l108 -411l207 411h76z" />
    <glyph glyph-name="endash" unicode="&#x2013;" horiz-adv-x="499" 
d="M71 249l8 63h355l-9 -63h-354z" />
    <glyph glyph-name="emdash" unicode="&#x2014;" horiz-adv-x="823" 
d="M71 249l8 63h680l-8 -63h-680z" />
    <glyph glyph-name="quoteleft" unicode="&#x2018;" horiz-adv-x="201" 
d="M215 696q-22 -78 -34 -154q-4 -25 -6 -55l-68 -11l-8 11q14 92 70 209h46z" />
    <glyph glyph-name="quoteright" unicode="&#x2019;" horiz-adv-x="189" 
d="M83 477q20 71 33 151q6 35 7 58l68 11l8 -12q-15 -94 -70 -208h-46z" />
    <glyph glyph-name="quotesinglbase" unicode="&#x201a;" horiz-adv-x="196" 
d="M-16 -145q9 29 34 150q2 11 7 58l68 11l8 -12q-15 -95 -70 -207h-47z" />
    <glyph glyph-name="quotedblleft" unicode="&#x201c;" horiz-adv-x="337" 
d="M215 696q-22 -78 -34 -154q-4 -25 -6 -55l-68 -11l-8 11q14 92 70 209h46zM351 696q-23 -80 -34 -154q-4 -25 -6 -55l-68 -11l-8 11q14 92 70 209h46z" />
    <glyph glyph-name="quotedblright" unicode="&#x201d;" horiz-adv-x="333" 
d="M83 477q20 71 33 151q6 35 7 58l68 11l8 -12q-15 -94 -70 -208h-46zM218 477q21 68 34 153q4 25 6 56l68 11l9 -12q-14 -88 -70 -208h-47z" />
    <glyph glyph-name="quotedblbase" unicode="&#x201e;" horiz-adv-x="329" 
d="M-16 -145q9 29 34 150q2 11 7 58l68 11l8 -12q-15 -95 -70 -207h-47zM120 -145q18 60 34 153q4 20 6 55l69 11l8 -12q-14 -89 -70 -207h-47z" />
    <glyph glyph-name="dagger" unicode="&#x2020;" horiz-adv-x="499" 
d="M310 508l166 12l-10 -69l-154 6l-81 -509h-51l62 510l-154 -9l10 71l162 -10l16 180l71 -1z" />
    <glyph glyph-name="daggerdbl" unicode="&#x2021;" horiz-adv-x="500" 
d="M170 -55l36 177l-167 -10l10 71l155 -10l29 145l12 144l-157 -10l11 71l162 -11l15 179h72l-36 -179l166 11l-11 -71l-154 10l-29 -144l-11 -144l156 9l-10 -71l-163 11l-14 -178h-72z" />
    <glyph glyph-name="bullet" unicode="&#x2022;" horiz-adv-x="364" 
d="M171 174q-37 0 -60.5 25t-23.5 63q0 44 33 77t78 33q36 0 60 -25.5t24 -62.5q0 -44 -33 -77t-78 -33z" />
    <glyph glyph-name="ellipsis" unicode="&#x2026;" horiz-adv-x="551" 
d="M73 -5q-22 0 -34.5 13t-12.5 32q0 24 15 39t40 15q23 0 35 -13.5t12 -33.5q0 -23 -15 -37.5t-40 -14.5zM249 -5q-22 0 -34.5 13t-12.5 32q0 24 15 39t40 15q23 0 35 -13.5t12 -33.5q0 -23 -15 -37.5t-40 -14.5zM423 -5q-22 0 -34.5 13t-12.5 32q0 24 15 39t40 15
q23 0 35 -13.5t12 -33.5q0 -23 -15 -37.5t-40 -14.5z" />
    <glyph glyph-name="perthousand" unicode="&#x2030;" horiz-adv-x="1041" 
d="M205 343q-60 0 -95.5 35t-35.5 100q0 87 50.5 138.5t127.5 51.5q60 0 96.5 -36t36.5 -101q0 -89 -50.5 -138.5t-129.5 -49.5zM78 11l516 645h65l-516 -645h-65zM213 396q49 0 79.5 34.5t30.5 94.5q0 42 -21 66t-57 24q-48 0 -78 -35.5t-30 -94.5q0 -42 20 -65.5t56 -23.5
zM486 -5q-60 0 -96 35t-36 99q0 88 50.5 139.5t126.5 51.5q62 0 97.5 -36t35.5 -102q0 -88 -50 -137.5t-128 -49.5zM816 -5q-60 0 -95.5 35t-35.5 99q0 88 50.5 139.5t128.5 51.5q60 0 95.5 -36t35.5 -102q0 -88 -50 -137.5t-129 -49.5zM494 48q48 0 78 34t30 94
q0 43 -20.5 67t-56.5 24q-49 0 -79 -36t-30 -97q0 -41 20.5 -63.5t57.5 -22.5zM825 48q49 0 78.5 34t29.5 94q0 43 -20.5 67t-56.5 24q-48 0 -78 -36t-30 -96q0 -42 20.5 -64.5t56.5 -22.5z" />
    <glyph glyph-name="guilsinglleft" unicode="&#x2039;" horiz-adv-x="326" 
d="M242 93l-129 189l182 177h74v-8l-175 -172l120 -179l-1 -7h-71z" />
    <glyph glyph-name="guilsinglright" unicode="&#x203a;" horiz-adv-x="325" 
d="M162 459l129 -189l-182 -177h-74v8l175 172l-120 179l1 7h71z" />
    <glyph glyph-name="fraction" unicode="&#x2044;" horiz-adv-x="132" 
d="M-202 -12l506 676h58l-507 -676h-57z" />
    <glyph glyph-name="Euro" unicode="&#x20ac;" horiz-adv-x="662" 
d="M498 675q91 0 158 -27l-10 -69l-3 -1q-60 31 -146 31q-87 0 -154.5 -44t-101.5 -122h246l-18 -55h-247q-11 -47 -11 -98h227l-17 -55h-205q14 -82 71 -129t143 -47q72 0 147 33l1 -2l-8 -66q-74 -33 -146 -33q-121 0 -197 66t-89 178h-115l17 55h95q1 48 11 98h-75l18 55
h73q40 109 129.5 170.5t206.5 61.5z" />
    <glyph glyph-name="trademark" unicode="&#x2122;" horiz-adv-x="779" 
d="M359 600h-104l-36 -254h-59l35 254h-106l8 57h270zM680 657h56l-14 -311h-56l8 207h-1l-119 -205h-34l-61 210h-1l-49 -212h-57l74 311h58l67 -227z" />
    <glyph glyph-name="minus" unicode="&#x2212;" horiz-adv-x="526" 
d="M74 265l9 59h380l-9 -59h-380z" />
    <glyph glyph-name="approxequal" unicode="&#x2248;" horiz-adv-x="497" 
d="M133 329l-49 8q6 44 35 71t72 27q36 0 85 -19.5t76 -19.5q44 0 50 44l4 1l45 -8q-5 -44 -34 -71t-72 -27q-31 0 -80.5 21t-76.5 21q-46 0 -54 -46zM106 139l-49 6q7 45 35.5 72.5t70.5 27.5q37 0 86 -20.5t76 -20.5q43 0 50 43l4 3l45 -9q-5 -43 -34 -69.5t-72 -26.5
q-31 0 -80 19.5t-76 19.5q-48 0 -54 -44z" />
    <glyph glyph-name="notequal" unicode="&#x2260;" horiz-adv-x="538" 
d="M481 367h-116l-92 -156h187l-9 -58h-212l-78 -133h-68l78 133h-112l9 58h137l92 156h-208l9 58h233l74 127h69l-75 -127h91z" />
    <glyph glyph-name="uniF8FF" unicode="&#xf8ff;" horiz-adv-x="1456" 
d="M719 520q-25 0 -43 18t-18 43q0 26 17.5 44t43.5 18t44 -18t18 -44t-18 -43.5t-44 -17.5zM67 269q0 133 9 313h100q10 -200 10 -313h-119zM571 263q-82 0 -82 65q0 12 2 49t2 38h-22v79l119 30l1 -17h178q10 -64 10 -238h-118q0 91 3 146h-61l3 -65q4 -4 15 -4q13 0 18 5
v-73q-14 -15 -68 -15zM295 264q-92 0 -92 113q0 135 134 135q124 0 124 -117v-126h-83l-8 60q-13 -65 -75 -65zM801 269q0 174 10 238h80q6 -44 6 -76q2 15 6.5 30t24 33t49.5 18q42 0 58.5 -25t18.5 -81l3 -137h-114q0 26 1 55.5t1 36.5q0 29 -15 29q-18 0 -18 -29
q0 -7 1.5 -36.5t1.5 -55.5h-114zM1195 264q-122 0 -122 123q0 125 124 125q121 0 121 -123q0 -125 -123 -125zM333 343q24 0 24 30q0 26 -24 26q-22 0 -22 -26q0 -30 22 -30zM1195 343q23 0 23 30q0 26 -23 26q-21 0 -21 -26q0 -30 21 -30zM357 -50q-61 0 -88 17v83
q24 -16 70 -16q21 0 34 6t16.5 11.5t3.5 10.5q-17 -11 -49 -11q-90 0 -90 82v13h-55l3 -64q6 -4 15 -4q13 0 18 5v-73q-19 -15 -68 -15q-45 0 -63 17t-18 54q0 38 3 80h-18v80l117 29l-1 -18h177v-119q0 -16 3 -21t12 -5q16 0 16 26v119h104q10 -53 10 -138
q0 -80 -33.5 -114.5t-118.5 -34.5zM525 -44q0 141 10 281h78q7 -42 7 -76q17 81 80 81q37 0 58.5 -29t21.5 -84q0 -134 -137 -134q1 -15 1 -39h-119zM937 -5q-141 0 -141 122q0 58 33 91.5t92 33.5q55 0 85.5 -30t30.5 -86q0 -22 -3 -34h-124q11 -18 50 -18q34 0 55 12v-75
q-23 -16 -78 -16zM905 108h40q3 27 -17 27q-23 0 -23 -27zM637 72q5 0 12.5 2.5t16 11t8.5 22.5q0 23 -20 23q-22 0 -22 -30q0 -14 5 -29zM1065 -10q-24 0 -24 23t24 23t24 -23t-24 -23zM1065 -5q18 0 18 18t-18 18t-18 -18t18 -18zM1055 2v23h11q10 0 10 -7t-7 -7l6 -9h-6
l-4 9h-5v-9h-5zM1060 15h7q4 0 4 3t-4 3h-7v-6z" />
    <glyph glyph-name="i.loclTRK" horiz-adv-x="240" 
d="M177 621q-21 0 -34.5 13t-13.5 34q0 24 15.5 38.5t37.5 14.5q21 0 34 -13t13 -33q0 -24 -15.5 -39t-36.5 -15zM46 0l74 518h75l-73 -518h-76z" />
    <glyph glyph-name="caroncomb.alt" 
d="M-67 504l38 212h58l7 -9l-55 -203h-48z" />
    <glyph glyph-name="uni0308.case" 
d="M-197 735q-19 0 -31 11t-12 30q0 22 14.5 35t33.5 13t30.5 -12t11.5 -30q0 -22 -13.5 -34.5t-33.5 -12.5zM-3 735q-19 0 -31 11t-12 30q0 22 14.5 35t33.5 13t30.5 -12t11.5 -30q0 -22 -13.5 -34.5t-33.5 -12.5z" />
    <glyph glyph-name="uni0307.case" 
d="M-50 735q-21 0 -34.5 13t-13.5 34q0 24 15.5 38.5t37.5 14.5q21 0 34 -13t13 -33q0 -24 -15.5 -39t-36.5 -15z" />
    <glyph glyph-name="gravecomb.case" 
d="M16 704l-179 85l-3 11l48 59l155 -113z" />
    <glyph glyph-name="acutecomb.case" 
d="M-144 703l-19 43l170 109l42 -62l-4 -10z" />
    <glyph glyph-name="uni030B.case" 
d="M-222 714l-38 18l76 150l63 -16v-12zM-49 714l-38 18l77 150l62 -16v-12z" />
    <glyph glyph-name="uni0302.case" 
d="M-204 704l-25 36l132 112h34l102 -112l-31 -36l-97 83z" />
    <glyph glyph-name="uni030C.case" 
d="M-113 704l-106 112l34 36l97 -83l110 83l27 -36l-127 -112h-35z" />
    <glyph glyph-name="uni0306.case" 
d="M-87 709q-59 0 -92 35.5t-24 96.5l50 5q-2 -37 17 -59t53 -22q36 0 62.5 22.5t32.5 58.5l47 -5q-8 -60 -50 -96t-96 -36z" />
    <glyph glyph-name="uni030A.case" 
d="M-52 683q-37 0 -61 22t-24 58q0 41 28 68.5t71 27.5q36 0 60 -22t24 -57q0 -42 -27 -69.5t-71 -27.5zM-47 724q22 0 35.5 14t13.5 37q0 19 -12.5 31t-32.5 12q-21 0 -35 -14.5t-14 -36.5q0 -19 12.5 -31t32.5 -12z" />
    <glyph glyph-name="tildecomb.case" 
d="M-210 717l-48 14q8 42 35.5 68.5t64.5 26.5q27 0 65.5 -19t56.5 -19q16 0 30 11.5t17 32.5l2 2l47 -16q-7 -42 -34.5 -67.5t-64.5 -25.5q-23 0 -63 19t-59 19q-18 0 -31 -12t-16 -33z" />
    <glyph glyph-name="uni0304.case" 
d="M-219 751l9 63h268l-10 -63h-267z" />
    <glyph glyph-name="uni0337.case" 
d="M-249 224l9 65l237 140h3l-9 -68l-237 -139z" />
    <glyph glyph-name="uni0338.case" 
d="M-651 -50v7l566 763h67v-6l-568 -764h-65z" />
    <glyph glyph-name="caron.alt" horiz-adv-x="135" 
d="M68 504l38 212h58l7 -9l-55 -203h-48z" />
    <glyph glyph-name="acute.case" horiz-adv-x="265" 
d="M121 703l-19 43l170 109l42 -62l-4 -10z" />
    <glyph glyph-name="breve.case" horiz-adv-x="309" 
d="M222 709q-59 0 -92 35.5t-24 96.5l50 5q-2 -37 17 -59t53 -22q36 0 62.5 22.5t32.5 58.5l47 -5q-8 -60 -50 -96t-96 -36z" />
    <glyph glyph-name="caron.case" horiz-adv-x="326" 
d="M213 704l-106 112l34 36l97 -83l110 83l27 -36l-127 -112h-35z" />
    <glyph glyph-name="circumflex.case" horiz-adv-x="325" 
d="M121 704l-25 36l132 112h34l102 -112l-31 -36l-97 83z" />
    <glyph glyph-name="dieresis.case" horiz-adv-x="343" 
d="M146 735q-19 0 -31 11t-12 30q0 22 14.5 35t33.5 13t30.5 -12t11.5 -30q0 -22 -13.5 -34.5t-33.5 -12.5zM340 735q-19 0 -31 11t-12 30q0 22 14.5 35t33.5 13t30.5 -12t11.5 -30q0 -22 -13.5 -34.5t-33.5 -12.5z" />
    <glyph glyph-name="dotaccent.case" horiz-adv-x="246" 
d="M196 735q-21 0 -34.5 13t-13.5 34q0 24 15.5 38.5t37.5 14.5q21 0 34 -13t13 -33q0 -24 -15.5 -39t-36.5 -15z" />
    <glyph glyph-name="grave.case" horiz-adv-x="265" 
d="M281 704l-179 85l-3 11l48 59l155 -113z" />
    <glyph glyph-name="hungarumlaut.case" horiz-adv-x="374" 
d="M152 714l-38 18l76 150l63 -16v-12zM325 714l-38 18l77 150l62 -16v-12z" />
    <glyph glyph-name="macron.case" horiz-adv-x="360" 
d="M92 751l9 63h268l-10 -63h-267z" />
    <glyph glyph-name="ring.case" horiz-adv-x="230" 
d="M178 683q-37 0 -61 22t-24 58q0 41 28 68.5t71 27.5q36 0 60 -22t24 -57q0 -42 -27 -69.5t-71 -27.5zM183 724q22 0 35.5 14t13.5 37q0 19 -12.5 31t-32.5 12q-21 0 -35 -14.5t-14 -36.5q0 -19 12.5 -31t32.5 -12z" />
    <glyph glyph-name="tilde.case" horiz-adv-x="345" 
d="M135 717l-48 14q8 42 35.5 68.5t64.5 26.5q27 0 65.5 -19t56.5 -19q16 0 30 11.5t17 32.5l2 2l47 -16q-7 -42 -34.5 -67.5t-64.5 -25.5q-22 0 -62 19t-60 19q-18 0 -31 -12t-16 -33z" />
    <glyph glyph-name="IJacute" horiz-adv-x="608" 
d="M127 708l-19 43l170 109l42 -62l-4 -10zM470 708l-19 43l170 109l42 -62l-4 -10zM61 0l92 661h75l-93 -661h-74zM297 -3q-22 0 -49 3l9 64l3 1q14 -3 36 -3q125 0 147 158l63 441h75l-61 -436q-31 -228 -223 -228z" />
    <glyph glyph-name="ijacute" horiz-adv-x="490" 
d="M118 568l-31 40l134 138l57 -56l-1 -10zM367 568l-31 40l134 138l58 -56l-1 -10zM46 0l74 518h75l-73 -518h-76zM188 -169q-25 0 -48 4l10 66l2 1q13 -3 31 -3q53 0 81 32.5t37 96.5l69 490h74l-71 -506q-26 -181 -185 -181z" />
    </font>
</defs>
</svg>
