<?xml version="1.0" standalone="no"?>
<!DOCTYPE svg PUBLIC "-//W3C//DTD SVG 1.1//EN" "http://www.w3.org/Graphics/SVG/1.1/DTD/svg11.dtd" >
<svg xmlns="http://www.w3.org/2000/svg" xmlns:xlink="http://www.w3.org/1999/xlink" version="1.1">
<metadata>
Created by FontForge 20170731 at Thu Mar  2 15:41:47 2017
 By Aleksey,,,
Copyright (c) 2017 by Alfonso Garci'a - Latinotype Team. All rights reserved.
</metadata>
<defs>
<font id="RawsonAlt-SemiBold" horiz-adv-x="0" >
  <font-face 
    font-family="Rawson Alt SemiBold"
    font-weight="600"
    font-stretch="normal"
    units-per-em="1100"
    panose-1="0 0 7 0 0 0 0 0 0 0"
    ascent="880"
    descent="-220"
    x-height="516"
    cap-height="662"
    bbox="-715 -238 1351 927"
    underline-thickness="50"
    underline-position="-200"
    unicode-range="U+0020-FB02"
  />
<missing-glyph horiz-adv-x="500" 
 />
    <glyph glyph-name="fi" unicode="fi" horiz-adv-x="599" 
d="M466 601q-30 0 -51.5 21t-21.5 52q0 29 21.5 50t51.5 21t51 -21t21 -50q0 -31 -21 -52t-51 -21zM103 517q1 95 53.5 147t135.5 52q38 0 67 -10v-102l-3 -1q-19 8 -45 8q-41 0 -65 -23.5t-25 -70.5h109v-93h-109v-424h-118v424h-71v93h71zM407 0v516h117v-516h-117z" />
    <glyph glyph-name="fl" unicode="fl" horiz-adv-x="600" 
d="M103 516q0 95 53 147.5t136 52.5q41 0 67 -9v-104l-3 -1q-18 9 -45 9q-41 0 -65 -23.5t-25 -71.5h109v-93h-109v-423h-118v423h-71v93h71zM406 710h118v-710h-118v710z" />
    <glyph glyph-name=".notdef" horiz-adv-x="500" 
 />
    <glyph glyph-name=".null" 
 />
    <glyph glyph-name="nonmarkingreturn" horiz-adv-x="366" 
 />
    <glyph glyph-name="space" unicode=" " horiz-adv-x="249" 
 />
    <glyph glyph-name="exclam" unicode="!" horiz-adv-x="276" 
d="M89 211l-9 477h117l-8 -477h-100zM137 -12q-32 0 -49 18t-17 46q0 26 17 43.5t49 17.5t49 -17.5t17 -43.5q0 -28 -17 -46t-49 -18z" />
    <glyph glyph-name="quotedbl" unicode="&#x22;" horiz-adv-x="361" 
d="M71 421l-5 240h91l11 -11l-28 -229h-69zM217 421l-5 240h91l11 -11l-28 -229h-69z" />
    <glyph glyph-name="numbersign" unicode="#" horiz-adv-x="594" 
d="M540 358h-82l-21 -126h95v-79h-108l-18 -106h-78l18 106h-139l-18 -106h-78l18 106h-75v79h88l21 126h-102v78h115l18 105h78l-18 -105h139l18 105h78l-18 -105h69v-78zM359 232l21 126h-139l-21 -126h139z" />
    <glyph glyph-name="dollar" unicode="$" horiz-adv-x="497" 
d="M450 224q0 -65 -38 -106t-107 -53v-97h-110v93q-77 6 -145 37v100l2 1q78 -51 177 -51q116 0 116 67q0 31 -28 47t-104 36q-82 23 -120 60t-38 98q0 62 42.5 102t115.5 52v99h110v-96q64 -5 110 -24v-100l-2 -1q-63 30 -150 30q-106 0 -106 -58q0 -29 25 -43t95 -33
q77 -24 116 -61.5t39 -98.5z" />
    <glyph glyph-name="percent" unicode="%" horiz-adv-x="794" 
d="M204 327q-75 0 -121.5 43t-46.5 124q0 80 47.5 125.5t121.5 45.5q76 0 123.5 -45t47.5 -126t-47.5 -124t-124.5 -43zM124 12l453 639h95l-453 -639h-95zM204 403q80 0 80 91q0 45 -21 69.5t-59 24.5q-36 0 -56.5 -24.5t-20.5 -69.5q0 -91 77 -91zM587 -5q-75 0 -121.5 43
t-46.5 123q0 81 46.5 126t121.5 45q77 0 124 -44.5t47 -126.5q0 -81 -47 -123.5t-124 -42.5zM587 72q80 0 80 89q0 46 -21 70.5t-59 24.5q-36 0 -56.5 -24.5t-20.5 -70.5q0 -89 77 -89z" />
    <glyph glyph-name="ampersand" unicode="&#x26;" horiz-adv-x="676" 
d="M674 332h-76q-14 -110 -59 -189l132 -143h-130l-63 65q-85 -82 -213 -82q-96 0 -158.5 48.5t-62.5 143.5q0 132 136 205q-58 71 -58 144q0 69 53 114.5t136 45.5q81 0 139 -29v-96h-3q-57 28 -120 28q-40 0 -67 -18.5t-27 -51.5q0 -30 21 -59.5t85 -98.5l131 -141
q20 46 29 114h-76v85h251v-85zM282 83q76 0 131 50l-155 161l-20 21q-43 -24 -63 -52t-20 -69q0 -52 34 -81.5t93 -29.5z" />
    <glyph glyph-name="quotesingle" unicode="'" horiz-adv-x="216" 
d="M71 421l-5 240h91l11 -11l-28 -229h-69z" />
    <glyph glyph-name="parenleft" unicode="(" horiz-adv-x="323" 
d="M253 -178q-78 33 -143.5 158t-65.5 315q0 186 65.5 311.5t143.5 159.5l44 -86q-55 -36 -98 -135.5t-43 -248.5q0 -150 43 -252t98 -136z" />
    <glyph glyph-name="parenright" unicode=")" horiz-adv-x="323" 
d="M70 773q78 -33 143.5 -158t65.5 -315q0 -186 -65.5 -311.5t-143.5 -159.5l-44 86q55 36 98 135.5t43 248.5q0 150 -43 252t-98 136z" />
    <glyph glyph-name="asterisk" unicode="*" horiz-adv-x="489" 
d="M234 570l-9 4l-67 139l3 9l72 20l12 -8l11 -152l-5 -8zM286 558l-10 1l-11 12l-1 9l88 129l9 1l52 -53l-1 -13zM211 538l-154 11l-6 8l18 72l14 6l136 -66l4 -9l-4 -17zM416 454l-137 65l-3 9l3 16l8 6l155 -12l6 -7l-19 -72zM139 379l-53 52l1 14l126 85l10 -1l12 -11
v-10l-87 -128zM265 347l-11 7l-11 152l6 7l16 5l8 -4l69 -140l-4 -9z" />
    <glyph glyph-name="plus" unicode="+" horiz-adv-x="521" 
d="M481 335v-85h-177v-185h-87v185h-178v85h179v185h86v-185h177z" />
    <glyph glyph-name="comma" unicode="," horiz-adv-x="224" 
d="M41 -147q21 87 21 165q0 34 -4 75l101 10l14 -16q0 -129 -63 -234h-69z" />
    <glyph glyph-name="hyphen" unicode="-" horiz-adv-x="422" 
d="M67 241v96h288v-96h-288z" />
    <glyph glyph-name="period" unicode="." horiz-adv-x="243" 
d="M121 -9q-33 0 -51.5 19t-18.5 49q0 28 19 48t51 20q33 0 52 -20t19 -48q0 -30 -19 -49t-52 -19z" />
    <glyph glyph-name="slash" unicode="/" horiz-adv-x="479" 
d="M31 -120l313 869h105l-313 -869h-105z" />
    <glyph glyph-name="zero" unicode="0" horiz-adv-x="647" 
d="M322 -15q-121 0 -196 88t-75 253q0 166 75.5 257.5t196.5 91.5q123 0 198 -91t75 -258q0 -165 -75 -253t-199 -88zM323 85q70 0 110.5 62.5t40.5 178.5q0 118 -41 183.5t-110 65.5q-68 0 -108 -65.5t-40 -183.5q0 -116 39.5 -178.5t108.5 -62.5z" />
    <glyph glyph-name="one" unicode="1" horiz-adv-x="394" 
d="M186 0v505l-155 -66h-5v118l253 116h22v-673h-115z" />
    <glyph glyph-name="two" unicode="2" horiz-adv-x="558" 
d="M41 0q-1 82 49 155.5t149 156.5q79 63 107.5 97.5t28.5 71.5q0 92 -125 92q-62 0 -112.5 -21.5t-77.5 -45.5l-2 1l-1 102q79 67 208 67q96 0 161 -47.5t65 -136.5q0 -68 -34.5 -115t-129.5 -127q-128 -104 -135 -150h319v-100h-470z" />
    <glyph glyph-name="three" unicode="3" horiz-adv-x="541" 
d="M492 195q2 -95 -66.5 -152.5t-180.5 -57.5q-117 0 -196 43v107l2 1q72 -53 178 -53q66 0 108.5 30t42.5 85q0 51 -41 75t-133 25l-56 1v94h56q70 0 107.5 24t37.5 69q0 42 -31.5 66.5t-89.5 24.5q-105 0 -164 -41l-1 1v98q84 42 182 42q96 0 156.5 -43.5t60.5 -129.5
q0 -91 -80 -145q104 -43 108 -164z" />
    <glyph glyph-name="four" unicode="4" horiz-adv-x="605" 
d="M571 227v-97h-104v-130h-107v130h-342v52l357 487h92v-442h104zM164 227h196v269z" />
    <glyph glyph-name="five" unicode="5" horiz-adv-x="551" 
d="M261 -15q-110 0 -205 37v110h2q96 -45 191 -45q66 0 102.5 31t36.5 90q0 52 -36.5 83.5t-105.5 31.5q-91 0 -178 -24l-2 3l23 362h385v-99h-288l-10 -151q38 9 91 9q112 0 175.5 -53.5t63.5 -153.5q0 -62 -22 -108.5t-58.5 -72t-78 -38t-86.5 -12.5z" />
    <glyph glyph-name="six" unicode="6" horiz-adv-x="596" 
d="M339 427q95 0 153 -56t58 -151q0 -101 -67.5 -168.5t-181.5 -67.5q-121 0 -186 79t-65 229q0 177 89 280t230 103q83 0 128 -18v-97l-3 -2q-49 18 -122 18q-96 0 -146 -64t-60 -166q60 81 173 81zM304 85q61 0 96.5 34.5t35.5 90.5q0 50 -32 83t-93 33q-54 0 -92.5 -33.5
t-46.5 -87.5q28 -120 132 -120z" />
    <glyph glyph-name="seven" unicode="7" horiz-adv-x="504" 
d="M109 0l241 554h-325v108h459v-59l-253 -603h-122z" />
    <glyph glyph-name="eight" unicode="8" horiz-adv-x="600" 
d="M549 177q1 -85 -66 -138.5t-180 -53.5q-122 0 -187 47t-65 134q-2 111 113 185q-88 58 -88 147q0 82 64 130t163 48q98 0 162 -42.5t64 -124.5q0 -95 -105 -159q66 -34 95 -73.5t30 -99.5zM301 575q-52 0 -80 -20t-28 -55q0 -34 31.5 -58t108.5 -52q4 -2 6 -2
q77 43 77 108q0 38 -30 58.5t-85 20.5zM307 83q62 0 95 25.5t31 67.5q0 39 -33 62.5t-122 56.5q-3 1 -15.5 6t-18.5 8q-76 -52 -76 -129q0 -48 36.5 -72.5t102.5 -24.5z" />
    <glyph glyph-name="nine" unicode="9" horiz-adv-x="594" 
d="M288 677q119 0 187 -82.5t68 -240.5q0 -181 -76.5 -273.5t-216.5 -92.5q-100 0 -162 25v104l4 2q65 -32 146 -32q92 -1 135.5 53t52.5 152q-62 -62 -164 -62q-100 0 -160 57.5t-60 158.5q0 103 68.5 167t177.5 64zM283 330q93 0 144 76q-9 83 -46.5 126t-94.5 43
t-92.5 -33t-35.5 -91q0 -55 33.5 -88t91.5 -33z" />
    <glyph glyph-name="colon" unicode=":" horiz-adv-x="263" 
d="M131 377q-32 0 -49 17.5t-17 44.5q0 26 17.5 44.5t48.5 18.5q32 0 49.5 -18t17.5 -45t-17.5 -44.5t-49.5 -17.5zM131 -9q-32 0 -49 17.5t-17 44.5q0 26 17.5 44.5t48.5 18.5q32 0 49.5 -18t17.5 -45t-17 -44.5t-50 -17.5z" />
    <glyph glyph-name="semicolon" unicode=";" horiz-adv-x="273" 
d="M143 378q-33 0 -51.5 19t-18.5 49q0 28 19 48t51 20q33 0 52 -20t19 -48q0 -30 -19 -49t-52 -19zM66 -147q21 87 21 165q0 34 -4 75l101 10l14 -16q0 -129 -63 -234h-69z" />
    <glyph glyph-name="less" unicode="&#x3c;" horiz-adv-x="479" 
d="M140 296l19 -8l268 -155l-43 -78l-348 201v79l348 201l43 -77l-269 -155z" />
    <glyph glyph-name="equal" unicode="=" horiz-adv-x="585" 
d="M68 355v86h449v-86h-449zM68 136v86h449v-86h-449z" />
    <glyph glyph-name="greater" unicode="&#x3e;" horiz-adv-x="479" 
d="M96 536l348 -201v-79l-348 -201l-43 77l269 155l18 8l-19 8l-268 155z" />
    <glyph glyph-name="question" unicode="?" horiz-adv-x="440" 
d="M123 201q0 69 19 109t71 78q37 28 53.5 52t16.5 63q0 40 -27 64.5t-78 24.5q-79 0 -131 -42l-2 1v102q58 40 149 40q88 0 146.5 -46.5t58.5 -131.5q0 -64 -26.5 -103.5t-82.5 -83.5q-64 -46 -64 -125zM176 -7q-32 0 -49 17.5t-17 44.5q0 28 17 45.5t49 17.5t49 -17.5
t17 -45.5q0 -27 -17 -44.5t-49 -17.5z" />
    <glyph glyph-name="at" unicode="@" horiz-adv-x="822" 
d="M594 432v-246q0 -35 30 -35q62 0 62 146q0 108 -68.5 175.5t-184.5 67.5q-130 0 -209.5 -81t-79.5 -210q0 -130 78 -206t210 -76q119 0 192 64h3l43 -64q-89 -84 -238 -84q-178 0 -281 100t-103 266q0 165 106 269.5t279 104.5q155 0 252 -91.5t97 -228.5
q0 -105 -41.5 -168.5t-127.5 -63.5q-42 0 -67 18.5t-31 48.5q-37 -72 -123 -72q-71 0 -115.5 48.5t-44.5 135.5t50 139.5t128 52.5q64 0 108 -36l5 26h71zM506 212v122q-33 33 -85 33q-44 0 -72 -30.5t-28 -82.5q0 -51 26 -79.5t67 -28.5q66 0 92 66z" />
    <glyph glyph-name="A" unicode="A" horiz-adv-x="640" 
d="M519 0l-57 132h-287l-54 -132h-117l288 668h50l299 -668h-122zM211 219h213l-97 222l-13 37l-12 -37z" />
    <glyph glyph-name="B" unicode="B" horiz-adv-x="596" 
d="M434 357q55 -20 86.5 -61.5t31.5 -100.5q0 -93 -64 -144t-190 -51h-209v662q81 7 179 7q242 0 242 -172q0 -97 -76 -140zM283 576q-47 0 -80 -3v-192h84q54 0 84.5 26.5t30.5 72.5q0 45 -29.5 70.5t-89.5 25.5zM287 87q81 0 116 28t35 80q0 45 -34 73.5t-94 28.5h-107
v-210h84z" />
    <glyph glyph-name="C" unicode="C" horiz-adv-x="623" 
d="M399 -12q-157 1 -254.5 92t-97.5 245q0 160 97 255t254 95q94 0 182 -32v-110l-3 -1q-74 37 -163 37q-115 0 -180.5 -64t-65.5 -175q0 -110 65 -172.5t183 -62.5q85 0 160 34l4 -1v-106q-79 -34 -181 -34z" />
    <glyph glyph-name="D" unicode="D" horiz-adv-x="732" 
d="M318 671q176 0 271.5 -89.5t95.5 -244.5q0 -161 -99.5 -249.5t-277.5 -88.5q-155 0 -219 2v661q128 9 229 9zM321 102q120 1 181 60.5t61 172.5q0 110 -65 169.5t-183 59.5q-58 0 -110 -4v-455q44 -3 116 -3z" />
    <glyph glyph-name="E" unicode="E" horiz-adv-x="558" 
d="M206 103h304v-103h-421v662h410v-102h-293v-170h274v-101h-274v-186z" />
    <glyph glyph-name="F" unicode="F" horiz-adv-x="523" 
d="M493 556h-287v-194h245v-103h-245v-259h-117v662h404v-106z" />
    <glyph glyph-name="G" unicode="G" horiz-adv-x="690" 
d="M395 -10q-165 0 -256.5 88.5t-91.5 250.5q0 157 100.5 251.5t270.5 94.5q106 0 188 -33l-1 -113l-3 -1q-83 41 -187 41q-114 0 -180 -65t-66 -175q0 -109 60.5 -171.5t172.5 -62.5q71 0 126 22v194h105l1 -273q-105 -48 -239 -48z" />
    <glyph glyph-name="H" unicode="H" horiz-adv-x="747" 
d="M540 662h118v-662h-118v280h-334v-280h-117v662h117v-276h334v276z" />
    <glyph glyph-name="I" unicode="I" horiz-adv-x="296" 
d="M89 0v662h118v-662h-118z" />
    <glyph glyph-name="J" unicode="J" horiz-adv-x="373" 
d="M70 -3q-24 0 -56 3v99l4 2q16 -3 37 -3q119 0 119 146v418h118v-408q0 -257 -222 -257z" />
    <glyph glyph-name="K" unicode="K" horiz-adv-x="647" 
d="M306 337l348 -334l-1 -3h-148l-299 282v-282h-117v662h117v-288l291 288h137l1 -4z" />
    <glyph glyph-name="L" unicode="L" horiz-adv-x="504" 
d="M206 98h287v-98h-404v662h117v-564z" />
    <glyph glyph-name="M" unicode="M" horiz-adv-x="849" 
d="M726 661l63 -661h-111l-35 407h-3l-194 -403h-39l-198 401h-2l-37 -405h-110l64 661h70l237 -473l228 473h67z" />
    <glyph glyph-name="N" unicode="N" horiz-adv-x="739" 
d="M89 0v662h51l395 -432h3v432h112v-662h-50l-396 435h-3v-435h-112z" />
    <glyph glyph-name="O" unicode="O" horiz-adv-x="783" 
d="M392 -13q-145 0 -245 91t-100 253q0 158 97.5 251.5t247.5 93.5q145 0 244.5 -91.5t99.5 -253.5q0 -158 -97 -251t-247 -93zM392 92q100 0 161 64.5t61 174.5q0 111 -61 175t-161 64t-161.5 -64t-61.5 -175q0 -110 61.5 -174.5t161.5 -64.5z" />
    <glyph glyph-name="P" unicode="P" horiz-adv-x="576" 
d="M546 454q1 -112 -68.5 -170t-189.5 -58q-38 0 -83 5v-231h-116v662q110 6 190 6q128 0 197 -53.5t70 -160.5zM273 324q156 0 156 124q0 55 -36.5 87t-105.5 32q-65 0 -82 -1v-237q43 -5 68 -5z" />
    <glyph glyph-name="Q" unicode="Q" horiz-adv-x="783" 
d="M736 331q0 -135 -72.5 -223.5t-191.5 -112.5q19 -45 55 -71.5t100 -42.5l1 -3l-42 -85q-93 20 -146 69.5t-79 125.5q-135 10 -224.5 100t-89.5 243q0 158 97.5 251.5t247.5 93.5q145 0 244.5 -91.5t99.5 -253.5zM392 92q100 0 161 64.5t61 174.5q0 111 -61 175t-161 64
t-161.5 -64t-61.5 -175q0 -110 61.5 -174.5t161.5 -64.5z" />
    <glyph glyph-name="R" unicode="R" horiz-adv-x="607" 
d="M411 257l161 -254l-1 -3h-126l-148 239h-92v-239h-116v662q92 6 190 6q119 0 190.5 -50.5t71.5 -160.5q0 -78 -35.5 -128t-94.5 -72zM205 565v-235h75q64 0 103.5 30.5t39.5 86.5q0 59 -34 89.5t-99 30.5q-66 0 -85 -2z" />
    <glyph glyph-name="S" unicode="S" horiz-adv-x="531" 
d="M245 -12q-110 0 -191 43v114l4 2q80 -57 175 -57q58 0 92 23t34 64q0 40 -26.5 66t-100.5 58q-77 33 -122 75.5t-45 111.5q0 91 63.5 139.5t159.5 48.5q100 0 167 -31v-106l-3 -1q-61 35 -150 35q-55 1 -87 -18t-32 -56q0 -22 17.5 -41t33 -27.5t62.5 -30.5q11 -5 16 -8
q80 -37 122 -83.5t42 -125.5q0 -90 -63 -142.5t-168 -52.5z" />
    <glyph glyph-name="T" unicode="T" horiz-adv-x="574" 
d="M560 662v-105h-211v-557h-118v557h-217v105h546z" />
    <glyph glyph-name="U" unicode="U" horiz-adv-x="717" 
d="M359 -14q-134 0 -206.5 71t-72.5 202v403h117v-388q0 -93 42 -140.5t121 -47.5t121 48t42 140v388h114v-403q0 -130 -73.5 -201.5t-204.5 -71.5z" />
    <glyph glyph-name="V" unicode="V" horiz-adv-x="633" 
d="M627 662l2 -4l-279 -667h-72l-272 667l2 4h123l178 -463l11 -43l11 43l181 463h115z" />
    <glyph glyph-name="W" unicode="W" horiz-adv-x="964" 
d="M951 662l1 -4l-216 -665h-88l-155 453l-8 30l-8 -30l-155 -453h-90l-224 665l1 4h124l140 -461l8 -45l11 45l151 456h86l151 -445l12 -51l11 51l135 450h113z" />
    <glyph glyph-name="X" unicode="X" horiz-adv-x="640" 
d="M396 346l238 -343l-1 -3h-138l-182 265l-172 -265h-127l-1 3l229 338l-221 317l1 4h140l163 -240l157 240h129l1 -4z" />
    <glyph glyph-name="Y" unicode="Y" horiz-adv-x="605" 
d="M245 0v268l-239 390l1 4h126l173 -288l171 288h119l1 -4l-236 -392v-266h-116z" />
    <glyph glyph-name="Z" unicode="Z" horiz-adv-x="595" 
d="M36 0v40l357 526h-355l-1 96h516v-40l-362 -525h369v-97h-524z" />
    <glyph glyph-name="bracketleft" unicode="[" horiz-adv-x="328" 
d="M294 668h-109v-740h109v-85h-209v911h209v-86z" />
    <glyph glyph-name="backslash" unicode="\" horiz-adv-x="479" 
d="M449 -120h-105l-313 869h105z" />
    <glyph glyph-name="bracketright" unicode="]" horiz-adv-x="328" 
d="M34 754h209v-911h-209v85h108v740h-108v86z" />
    <glyph glyph-name="asciicircum" unicode="^" horiz-adv-x="518" 
d="M295 682l182 -344l-76 -34l-134 263l-7 17l-8 -17l-133 -263l-78 34l182 344h72z" />
    <glyph glyph-name="underscore" unicode="_" horiz-adv-x="505" 
d="M42 -94v93h421v-93h-421z" />
    <glyph glyph-name="grave" unicode="`" horiz-adv-x="255" 
d="M208 560l-197 110l-3 14l75 83l163 -150z" />
    <glyph glyph-name="a" unicode="a" horiz-adv-x="643" 
d="M614 110l3 -2v-98q-31 -17 -75 -17q-85 0 -100 70q-60 -76 -172 -76q-101 0 -164 69t-63 191q0 127 74.5 204.5t192.5 77.5q81 0 136 -40l5 27h96v-373q0 -43 35 -43q19 0 32 10zM304 92q41 0 74.5 20.5t50.5 55.5v223q-44 36 -111 36t-110 -47.5t-43 -125.5
q0 -80 38.5 -121t100.5 -41z" />
    <glyph glyph-name="b" unicode="b" horiz-adv-x="623" 
d="M348 529q104 0 167 -68.5t63 -190.5q0 -130 -77.5 -206.5t-198.5 -76.5q-135 0 -229 48v675h118v-244q56 63 157 63zM303 89q68 0 111 44t43 127q0 81 -38.5 122.5t-99.5 41.5q-39 0 -76 -21.5t-52 -55.5v-235q49 -23 112 -23z" />
    <glyph glyph-name="c" unicode="c" horiz-adv-x="497" 
d="M322 -13q-123 0 -201 72.5t-78 197.5t77 198.5t200 73.5q74 0 135 -22v-99l-4 -2q-60 23 -118 23q-77 0 -123 -45.5t-46 -122.5q0 -78 45.5 -125t123.5 -48q60 0 119 31l5 -2v-101q-56 -29 -135 -29z" />
    <glyph glyph-name="d" unicode="d" horiz-adv-x="646" 
d="M614 113l4 -2l-1 -100q-30 -18 -75 -18q-85 0 -100 68q-60 -74 -170 -74q-100 0 -164 68.5t-64 194.5q0 122 74 200.5t189 78.5q72 0 123 -27v208h118v-567q0 -43 36 -43q17 0 30 13zM304 92q41 0 75 20.5t51 55.5v227q-45 32 -110 32q-69 0 -112 -46.5t-43 -125.5
q0 -81 39 -122t100 -41z" />
    <glyph glyph-name="e" unicode="e" horiz-adv-x="577" 
d="M299 529q110 0 173 -65t64 -184q0 -17 -2 -51h-370q9 -70 56.5 -106.5t121.5 -36.5q78 0 159 37l3 -1v-94q-73 -41 -183 -41q-115 0 -196.5 68t-81.5 204q0 120 73 195t183 75zM166 310h254q-6 58 -37.5 89.5t-83.5 31.5q-51 0 -86.5 -31t-46.5 -90z" />
    <glyph glyph-name="f" unicode="f" horiz-adv-x="357" 
d="M292 716q47 0 75 -11v-102l-4 -1q-19 9 -52 9q-89 0 -90 -95h115v-93h-115v-423h-118v423h-71v93h71q3 97 55 148.5t134 51.5z" />
    <glyph glyph-name="g" unicode="g" horiz-adv-x="622" 
d="M467 525h81v-457q0 -116 -75 -177.5t-204 -61.5q-108 0 -192 40v108l4 2q78 -50 178 -50q91 0 131 33.5t40 102.5v17q-58 -60 -157 -60q-103 0 -166 64t-63 181q0 120 76 191t182 71q96 0 153 -45zM430 199v194q-45 34 -114 34q-67 0 -109 -41t-42 -114q0 -72 38 -110.5
t98 -38.5q89 0 129 76z" />
    <glyph glyph-name="h" unicode="h" horiz-adv-x="622" 
d="M355 529q89 0 144 -57.5t55 -160.5v-311h-117v282q0 71 -32.5 102.5t-84.5 31.5q-45 0 -79 -23t-48 -64v-329h-118v710h118v-253q56 72 162 72z" />
    <glyph glyph-name="i" unicode="i" horiz-adv-x="268" 
d="M134 595q-31 0 -53 22t-22 53t22 52.5t53 21.5q30 0 52 -21.5t22 -52.5t-22 -53t-52 -22zM75 0v516h118v-516h-118z" />
    <glyph glyph-name="j" unicode="j" horiz-adv-x="286" 
d="M152 595q-31 0 -53 22t-22 53t22 52.5t53 21.5q30 0 52 -21.5t22 -52.5t-22 -53t-52 -22zM23 -170q-18 0 -62 6v102l3 1q16 -3 34 -3q51 0 73 29t22 85v466h118v-493q0 -96 -48.5 -144.5t-139.5 -48.5z" />
    <glyph glyph-name="k" unicode="k" horiz-adv-x="560" 
d="M301 271l254 -268l-1 -3h-144l-217 226v-226h-118v710h118v-408l211 214h136l1 -3z" />
    <glyph glyph-name="l" unicode="l" horiz-adv-x="300" 
d="M217 -10q-146 0 -146 145v575h118v-545q0 -69 53 -69q21 0 38 9l3 -1v-102q-31 -12 -66 -12z" />
    <glyph glyph-name="m" unicode="m" horiz-adv-x="945" 
d="M685 529q81 0 136.5 -55.5t55.5 -155.5v-318h-118v284q0 68 -30 99.5t-79 31.5q-38 0 -69 -21t-46 -62v-14v-318h-118v284q0 68 -30 99.5t-79 31.5q-40 0 -71.5 -23t-43.5 -65v-327h-118v516h96l11 -69q21 34 63 58t101 24q112 0 162 -93q55 93 177 93z" />
    <glyph glyph-name="n" unicode="n" horiz-adv-x="623" 
d="M354 529q90 0 145.5 -57.5t55.5 -163.5v-308h-118v276q0 73 -33 106t-87 33q-43 0 -77 -23.5t-47 -64.5v-327h-118v516h96l12 -70q25 37 69 60t102 23z" />
    <glyph glyph-name="o" unicode="o" horiz-adv-x="634" 
d="M316 -13q-117 0 -195 71t-78 201q0 123 78.5 196.5t194.5 73.5q118 0 196 -70.5t78 -200.5q0 -124 -78.5 -197.5t-195.5 -73.5zM316 88q70 0 111.5 47t41.5 124t-41.5 122.5t-111.5 45.5q-69 0 -110.5 -46t-41.5 -122q0 -78 41.5 -124.5t110.5 -46.5z" />
    <glyph glyph-name="p" unicode="p" horiz-adv-x="624" 
d="M353 529q104 0 165.5 -70.5t61.5 -187.5q0 -128 -73.5 -206t-189.5 -78q-73 0 -124 27v-178h-118v680h96l11 -63q58 76 171 76zM306 89q72 0 112.5 46t40.5 130q0 77 -37 118t-102 41q-40 0 -76 -22t-51 -55v-230q46 -28 113 -28z" />
    <glyph glyph-name="q" unicode="q" horiz-adv-x="623" 
d="M452 516h96v-680h-118v212q-58 -61 -159 -61t-164 70t-63 194q0 125 74.5 201.5t183.5 76.5q92 0 145 -40zM304 92q41 0 75.5 21t50.5 57v223q-44 34 -112 34q-67 0 -109.5 -46t-42.5 -124q0 -82 37.5 -123.5t100.5 -41.5z" />
    <glyph glyph-name="r" unicode="r" horiz-adv-x="401" 
d="M324 527q33 0 56 -8v-106l-3 -2q-23 9 -53 9q-116 0 -131 -134v-286h-118v516h96l11 -71q22 41 60 61.5t82 20.5z" />
    <glyph glyph-name="s" unicode="s" horiz-adv-x="486" 
d="M228 -13q-109 0 -183 37v105l3 1q76 -50 174 -50q111 0 111 57q0 29 -25 45t-99 36q-83 23 -121.5 58t-38.5 96q0 71 60 114t159 43q91 0 153 -25v-100l-4 -1q-61 29 -147 29q-48 0 -77 -14t-29 -40q0 -24 23.5 -37.5t92.5 -32.5q87 -22 126.5 -59t39.5 -101
q0 -78 -58 -119.5t-160 -41.5z" />
    <glyph glyph-name="t" unicode="t" horiz-adv-x="407" 
d="M390 421h-164v-230q0 -92 82 -92q41 0 79 19l3 -1v-100q-45 -23 -116 -23q-79 0 -122.5 44.5t-43.5 128.5v254h-91v95h91v125l115 23l3 -2v-146h164v-95z" />
    <glyph glyph-name="u" unicode="u" horiz-adv-x="611" 
d="M418 516h118v-516h-96l-11 67q-53 -80 -172 -80q-90 0 -139 52t-49 149v328h118v-304q0 -124 110 -124q41 0 74.5 21.5t46.5 65.5v341z" />
    <glyph glyph-name="v" unicode="v" horiz-adv-x="556" 
d="M545 516l2 -3l-225 -517h-88l-223 517l1 3h128l142 -368l142 368h121z" />
    <glyph glyph-name="w" unicode="w" horiz-adv-x="807" 
d="M791 516l1 -3l-173 -513h-84l-123 355l-5 20l-6 -20l-127 -355h-86l-174 513l1 3h118l101 -341l4 -24l5 24l117 341h97l114 -340l5 -23l4 25l102 338h109z" />
    <glyph glyph-name="x" unicode="x" horiz-adv-x="548" 
d="M347 264l188 -261l-1 -3h-133l-130 186l-131 -186h-124l-1 3l188 259l-181 251l1 3h134l122 -176l123 176h122l1 -3z" />
    <glyph glyph-name="y" unicode="y" horiz-adv-x="535" 
d="M524 516l1 -3l-218 -518l-66 -158h-122l-2 3l97 196l-201 477l1 3h126l132 -362l133 362h119z" />
    <glyph glyph-name="z" unicode="z" horiz-adv-x="524" 
d="M193 98h296v-98h-452v56l285 361h-283v99h442v-59z" />
    <glyph glyph-name="braceleft" unicode="{" horiz-adv-x="349" 
d="M221 416q0 -51 -33.5 -83t-67.5 -32v-5q34 0 67.5 -32t33.5 -83v-203q0 -35 16.5 -47.5t50.5 -12.5h26v-88h-42q-153 0 -153 142v183q0 45 -28.5 70.5t-54.5 25.5v99q27 0 55 24t28 67v183q0 142 153 142h42v-88h-26q-34 0 -50.5 -12t-16.5 -47v-203z" />
    <glyph glyph-name="bar" unicode="|" horiz-adv-x="276" 
d="M85 -104v830h107v-830h-107z" />
    <glyph glyph-name="braceright" unicode="}" horiz-adv-x="349" 
d="M229 441q0 -46 29 -71t56 -25v-99q-27 0 -56 -23.5t-29 -67.5v-183q0 -142 -152 -142h-41v88h26q34 0 50 12.5t16 47.5v203q0 51 34 83t68 32v5q-34 0 -68 32t-34 83v203q0 35 -16 47t-50 12h-26v88h41q152 0 152 -142v-183z" />
    <glyph glyph-name="asciitilde" unicode="~" horiz-adv-x="542" 
d="M138 226l-73 11q0 53 32 86.5t84 33.5q40 0 95.5 -19t82.5 -19q20 0 33.5 10t14.5 31l4 2l68 -14q0 -51 -32.5 -83.5t-82.5 -32.5q-33 0 -90.5 19.5t-83.5 19.5q-22 0 -36 -11.5t-15 -30.5z" />
    <glyph glyph-name="exclamdown" unicode="&#xa1;" horiz-adv-x="263" 
d="M133 408q-32 0 -49 17t-17 44t17 45.5t49 18.5q31 0 48.5 -18.5t17.5 -45.5t-17 -44t-49 -17zM73 -168l7 478h101l8 -478h-116z" />
    <glyph glyph-name="cent" unicode="&#xa2;" horiz-adv-x="557" 
d="M501 186v-102q-56 -27 -128 -31v-93h-110v99q-102 21 -160 90t-58 175q0 110 58 183t161 93v101h111v-95q64 -4 121 -26v-100l-4 -4q-69 28 -140 28q-85 0 -134.5 -47t-49.5 -126t49 -127t134 -48q82 0 146 33z" />
    <glyph glyph-name="sterling" unicode="&#xa3;" horiz-adv-x="581" 
d="M218 98h317v-98h-466l-4 7q66 106 66 252q0 17 -1 26h-90v96h78q-5 33 -5 61q0 113 71 172.5t174 59.5q92 0 158 -32v-103l-4 -2q-71 37 -146 37q-64 0 -100.5 -31.5t-36.5 -93.5q0 -31 5 -68h198v-96h-185q1 -9 1 -27q0 -87 -30 -160z" />
    <glyph glyph-name="currency" unicode="&#xa4;" horiz-adv-x="715" 
d="M620 335q0 -76 -42 -144l82 -82l-79 -77l-81 81q-65 -43 -144 -43q-76 0 -141 41l-79 -79l-78 77l78 78q-45 67 -45 148q0 79 43 144l-76 76l78 78l76 -76q68 42 144 42q80 0 147 -45l78 79l79 -78l-80 -80q40 -66 40 -140zM192 335q0 -69 47.5 -117.5t116.5 -48.5
t116 48.5t47 117.5t-47 117t-116 48t-116.5 -48t-47.5 -117z" />
    <glyph glyph-name="yen" unicode="&#xa5;" horiz-adv-x="657" 
d="M627 668l-195 -325h112v-91h-156v-58h156v-91h-156v-103h-116v103h-153v91h153v58h-153v91h108l-198 325h130l174 -298l172 298h122z" />
    <glyph glyph-name="brokenbar" unicode="&#xa6;" horiz-adv-x="284" 
d="M89 416v310h107v-310h-107zM89 -104v314h107v-314h-107z" />
    <glyph glyph-name="section" unicode="&#xa7;" horiz-adv-x="539" 
d="M430 121q42 -38 42 -97q0 -78 -63.5 -125.5t-160.5 -47.5q-105 0 -173 36v100l4 2q72 -42 164 -42q109 0 109 72q0 30 -26.5 48t-99.5 49l-15 6q-86 36 -125.5 71.5t-39.5 99.5q0 72 70 125q-47 43 -47 108q0 76 62.5 121t158.5 45q102 0 160 -30v-99l-2 -1
q-56 33 -146 33q-48 0 -82 -18t-34 -55q0 -22 17 -38.5t37.5 -26t74.5 -30.5q7 -3 10 -4q86 -34 128.5 -73t42.5 -100q0 -72 -66 -129zM278 202q58 -24 95 -42q23 29 23 65q0 34 -29 58t-109 58q-51 21 -86 40q-26 -30 -26 -67q0 -33 28 -56.5t104 -55.5z" />
    <glyph glyph-name="dieresis" unicode="&#xa8;" horiz-adv-x="367" 
d="M80 599q-29 0 -49.5 20.5t-20.5 50.5q0 28 20.5 49t49.5 21t50 -21t21 -49q0 -30 -21 -50.5t-50 -20.5zM293 599q-30 0 -50.5 20.5t-20.5 50.5q0 28 20.5 49t50.5 21q28 0 49.5 -21t21.5 -49q0 -30 -21 -50.5t-50 -20.5z" />
    <glyph glyph-name="copyright" unicode="&#xa9;" horiz-adv-x="693" 
d="M348 -15q-135 0 -218.5 85t-83.5 214t83.5 213.5t218.5 84.5q133 0 215.5 -84.5t82.5 -213.5t-82.5 -214t-215.5 -85zM346 49q106 0 167 65.5t61 169.5q0 103 -63 168t-165 65q-101 0 -163.5 -65t-62.5 -168t62.5 -169t163.5 -66zM365 130q-72 0 -118.5 39.5t-46.5 108.5
q0 72 45.5 113.5t118.5 41.5q47 0 80 -13v-69l-3 -2q-29 13 -66 13q-42 0 -65.5 -21.5t-23.5 -58.5t24.5 -59t66.5 -22q39 0 66 15l3 -1v-70q-33 -15 -81 -15z" />
    <glyph glyph-name="ordfeminine" unicode="&#xaa;" horiz-adv-x="475" 
d="M431 429l2 -1v-74q-22 -11 -60 -11q-54 0 -66 54q-54 -59 -138 -59q-54 0 -87.5 31.5t-33.5 80.5q0 63 44 92.5t107 29.5q61 0 98 -13v5q0 91 -104 91q-64 0 -112 -23l-2 2v73q41 26 129 26q89 0 132.5 -43t43.5 -122v-111q0 -34 24 -34q12 0 23 6zM196 411
q30 0 58.5 13.5t42.5 34.5v37q-38 11 -79 11q-78 0 -78 -49q0 -47 56 -47z" />
    <glyph glyph-name="guillemotleft" unicode="&#xab;" horiz-adv-x="567" 
d="M180 95l-149 187l151 184h112v-10l-140 -172l141 -181v-8h-115zM405 95l-149 187l151 184h112v-10l-140 -172l141 -181v-8h-115z" />
    <glyph glyph-name="registered" unicode="&#xae;" horiz-adv-x="646" 
d="M325 735q120 0 194.5 -76.5t74.5 -192.5t-74.5 -192.5t-194.5 -76.5q-123 0 -198.5 76t-75.5 193t75.5 193t198.5 76zM322 258q94 0 147.5 58t53.5 150t-55 150t-146 58q-90 0 -145.5 -58t-55.5 -150q0 -91 55.5 -149.5t145.5 -58.5zM437 507q0 -59 -47 -83l57 -83h-78
l-49 71h-41v-71h-71v257q58 2 108 2q121 0 121 -93zM279 540v-74h37q47 0 47 38q0 37 -47 37q-30 0 -37 -1z" />
    <glyph glyph-name="macron" unicode="&#xaf;" horiz-adv-x="355" 
d="M23 614v80h301v-80h-301z" />
    <glyph glyph-name="degree" unicode="&#xb0;" horiz-adv-x="367" 
d="M184 402q-59 0 -98.5 38.5t-39.5 96.5t39.5 96.5t98.5 38.5t98 -38.5t39 -96.5t-39 -96.5t-98 -38.5zM184 467q29 0 47.5 20t18.5 50t-18.5 50.5t-47.5 20.5q-30 0 -48.5 -20.5t-18.5 -50.5t18.5 -50t48.5 -20z" />
    <glyph glyph-name="plusminus" unicode="&#xb1;" horiz-adv-x="556" 
d="M499 263h-178v-143h171v-86h-429v86h172v143h-179v84h180v173h85v-173h178v-84z" />
    <glyph glyph-name="acute" unicode="&#xb4;" horiz-adv-x="255" 
d="M49 560l-39 57l163 150l76 -83l-3 -14z" />
    <glyph glyph-name="paragraph" unicode="&#xb6;" horiz-adv-x="602" 
d="M551 600v-104h-62v-607h-32v607h-64v-607h-111v317q-250 0 -250 198q1 95 66.5 145.5t186.5 50.5h266z" />
    <glyph glyph-name="periodcentered" unicode="&#xb7;" horiz-adv-x="254" 
d="M127 179q-32 0 -49 17t-17 44q0 28 17 45.5t49 17.5t49 -17.5t17 -45.5q0 -27 -17 -44t-49 -17z" />
    <glyph glyph-name="cedilla" unicode="&#xb8;" horiz-adv-x="212" 
d="M76 -238q-32 0 -64 10v59l3 1q21 -7 44 -7q59 0 59 40q0 34 -43 34q-23 0 -40 -6l-2 3v49l36 55h70l-31 -46q4 1 15 1q91 -4 91 -88q0 -54 -39.5 -79.5t-98.5 -25.5z" />
    <glyph glyph-name="ordmasculine" unicode="&#xba;" horiz-adv-x="503" 
d="M252 329q-88 0 -149 54.5t-61 151.5q0 94 59 151.5t151 57.5q87 0 148 -55t61 -153q0 -93 -59 -150t-150 -57zM252 414q49 0 78.5 33.5t29.5 88.5t-29.5 88.5t-78.5 33.5t-78.5 -33.5t-29.5 -88.5t29.5 -88.5t78.5 -33.5z" />
    <glyph glyph-name="guillemotright" unicode="&#xbb;" horiz-adv-x="567" 
d="M162 467l149 -187l-151 -184h-112v10l140 172l-141 181v8h115zM387 467l149 -187l-151 -184h-112v10l140 172l-141 181v8h115z" />
    <glyph glyph-name="onequarter" unicode="&#xbc;" horiz-adv-x="746" 
d="M107 300v251l-81 -26v93l161 54h11v-372h-91zM498 662h91l-416 -674h-89zM716 122v-59h-52v-63h-83v63h-195v39l203 270h75v-250h52zM479 122h102v139z" />
    <glyph glyph-name="onehalf" unicode="&#xbd;" horiz-adv-x="757" 
d="M117 300v251l-82 -26v93l162 54h10v-372h-90zM61 -12l414 674h91l-416 -674h-89zM432 0q0 96 104 171q51 38 66.5 54t15.5 33t-15 28t-42 11q-71 0 -119 -38l-1 1v76q56 38 130 38q60 0 100.5 -26.5t40.5 -78.5q0 -40 -21.5 -68.5t-68.5 -62.5q-60 -40 -65 -66h169v-72
h-294z" />
    <glyph glyph-name="threequarters" unicode="&#xbe;" horiz-adv-x="779" 
d="M313 413q0 -56 -42.5 -88.5t-112.5 -32.5q-73 0 -119 24v70l1 1q38 -24 107 -24q37 0 60.5 12.5t23.5 38.5q0 22 -16 34t-43 12h-71v61h63q51 0 51 39q0 42 -72 42q-63 0 -95 -19l-1 1v71q44 19 109 19q143 0 143 -98q0 -49 -44 -78q58 -27 58 -85zM554 662h91l-415 -674
h-90zM748 122v-59h-51v-63h-84v63h-194v39l202 270h76v-250h51zM511 122h102v139z" />
    <glyph glyph-name="questiondown" unicode="&#xbf;" horiz-adv-x="433" 
d="M259 528q32 0 49 -17.5t17 -44.5q0 -28 -17 -45.5t-49 -17.5t-49 17.5t-17 45.5q0 27 17 44.5t49 17.5zM312 320q0 -69 -19 -109t-71 -78q-37 -28 -53.5 -52t-16.5 -63q0 -40 27 -64.5t78 -24.5q79 0 131 42l2 -1v-102q-58 -40 -149 -40q-88 0 -146.5 46.5t-58.5 131.5
q0 64 26.5 103.5t82.5 83.5q64 46 64 125z" />
    <glyph glyph-name="Agrave" unicode="&#xc0;" horiz-adv-x="640" 
d="M407 700l-219 79l-6 14l58 90l190 -121zM519 0l-57 132h-287l-54 -132h-117l288 668h50l299 -668h-122zM211 219h213l-97 222l-13 37l-12 -37z" />
    <glyph glyph-name="Aacute" unicode="&#xc1;" horiz-adv-x="640" 
d="M438 779l-219 -79l-24 61l191 122l58 -90zM519 0l-57 132h-287l-54 -132h-117l288 668h50l299 -668h-122zM211 219h213l-97 222l-13 37l-12 -37z" />
    <glyph glyph-name="Acircumflex" unicode="&#xc2;" horiz-adv-x="640" 
d="M313 779l-111 -78l-38 52l124 120h53l129 -120l-40 -52zM519 0l-57 132h-287l-54 -132h-117l288 668h50l299 -668h-122zM211 219h213l-97 222l-13 37l-12 -37z" />
    <glyph glyph-name="Atilde" unicode="&#xc3;" horiz-adv-x="640" 
d="M216 712l-2 -2l-73 21q2 49 31.5 81.5t76.5 32.5q30 0 71.5 -17t60.5 -17q16 0 28 11t12 28l2 2l73 -22q-2 -50 -31.5 -81t-76.5 -31q-24 0 -67.5 17t-63.5 17q-18 0 -29.5 -11.5t-11.5 -28.5zM519 0l-57 132h-287l-54 -132h-117l288 668h50l299 -668h-122zM211 219h213
l-97 222l-13 37l-12 -37z" />
    <glyph glyph-name="Adieresis" unicode="&#xc4;" horiz-adv-x="640" 
d="M206 723q-26 0 -44.5 18.5t-18.5 44.5t18.5 44.5t44.5 18.5t45 -18.5t19 -44.5t-19 -44.5t-45 -18.5zM429 723q-26 0 -44.5 18.5t-18.5 44.5t18.5 44.5t44.5 18.5t44.5 -18.5t18.5 -44.5t-18.5 -44.5t-44.5 -18.5zM519 0l-57 132h-287l-54 -132h-117l288 668h50l299 -668
h-122zM211 219h213l-97 222l-13 37l-12 -37z" />
    <glyph glyph-name="Aring" unicode="&#xc5;" horiz-adv-x="640" 
d="M317 685q-47 0 -77 28t-30 71t30 71.5t77 28.5t77 -28.5t30 -71.5q0 -42 -30 -70.5t-77 -28.5zM317 826q-18 0 -30 -12t-12 -30t12 -30t30 -12q19 0 31 12t12 30t-12 30t-31 12zM519 0l-57 132h-287l-54 -132h-117l288 668h50l299 -668h-122zM211 219h213l-97 222l-13 37
l-12 -37z" />
    <glyph glyph-name="AE" unicode="&#xc6;" horiz-adv-x="839" 
d="M525 96h266v-96h-385v171h-209l-103 -171h-120l399 662h407v-96h-255v-176h236v-95h-236v-199zM246 254h160v278l-60 -112z" />
    <glyph glyph-name="Ccedilla" unicode="&#xc7;" horiz-adv-x="623" 
d="M414 569q-115 0 -180.5 -64t-65.5 -175q0 -110 65 -172.5t183 -62.5q85 0 160 34l4 -1v-106q-67 -29 -153 -33l-23 -35q4 1 15 1q91 -4 91 -88q0 -54 -39.5 -79.5t-98.5 -25.5q-32 0 -64 10v59l3 1q21 -7 44 -7q59 0 59 40q0 34 -43 34q-23 0 -40 -6l-2 3v49l29 45
q-140 13 -225.5 102.5t-85.5 232.5q0 160 97 255t254 95q94 0 182 -32v-110l-3 -1q-74 37 -163 37z" />
    <glyph glyph-name="Egrave" unicode="&#xc8;" horiz-adv-x="558" 
d="M397 700l-219 79l-6 14l58 90l190 -121zM206 103h304v-103h-421v662h410v-102h-293v-170h274v-101h-274v-186z" />
    <glyph glyph-name="Eacute" unicode="&#xc9;" horiz-adv-x="558" 
d="M428 779l-219 -79l-24 61l191 122l58 -90zM206 103h304v-103h-421v662h410v-102h-293v-170h274v-101h-274v-186z" />
    <glyph glyph-name="Ecircumflex" unicode="&#xca;" horiz-adv-x="558" 
d="M303 779l-111 -78l-38 52l124 120h53l129 -120l-40 -52zM206 103h304v-103h-421v662h410v-102h-293v-170h274v-101h-274v-186z" />
    <glyph glyph-name="Edieresis" unicode="&#xcb;" horiz-adv-x="558" 
d="M196 723q-26 0 -44.5 18.5t-18.5 44.5t18.5 44.5t44.5 18.5t45 -18.5t19 -44.5t-19 -44.5t-45 -18.5zM419 723q-26 0 -44.5 18.5t-18.5 44.5t18.5 44.5t44.5 18.5t44.5 -18.5t18.5 -44.5t-18.5 -44.5t-44.5 -18.5zM206 103h304v-103h-421v662h410v-102h-293v-170h274
v-101h-274v-186z" />
    <glyph glyph-name="Igrave" unicode="&#xcc;" horiz-adv-x="296" 
d="M239 700l-219 79l-6 14l58 90l190 -121zM89 0v662h118v-662h-118z" />
    <glyph glyph-name="Iacute" unicode="&#xcd;" horiz-adv-x="296" 
d="M51 700l-24 61l191 122l58 -90l-6 -14zM89 0v662h118v-662h-118z" />
    <glyph glyph-name="Icircumflex" unicode="&#xce;" horiz-adv-x="296" 
d="M34 701l-38 52l124 120h53l129 -120l-40 -52l-117 78zM89 0v662h118v-662h-118z" />
    <glyph glyph-name="Idieresis" unicode="&#xcf;" horiz-adv-x="296" 
d="M38 723q-26 0 -44.5 18.5t-18.5 44.5t18.5 44.5t44.5 18.5t45 -18.5t19 -44.5t-19 -44.5t-45 -18.5zM261 723q-26 0 -44.5 18.5t-18.5 44.5t18.5 44.5t44.5 18.5t44.5 -18.5t18.5 -44.5t-18.5 -44.5t-44.5 -18.5zM89 0v662h118v-662h-118z" />
    <glyph glyph-name="Eth" unicode="&#xd0;" horiz-adv-x="745" 
d="M331 671q176 0 271.5 -89.5t95.5 -244.5q0 -161 -99.5 -249.5t-277.5 -88.5q-155 0 -219 2v287h-85v80h85v294q128 9 229 9zM334 102q120 1 181 60.5t61 172.5q0 110 -65 169.5t-183 59.5q-58 0 -110 -4v-192h103v-80h-103v-183q43 -3 116 -3z" />
    <glyph glyph-name="Ntilde" unicode="&#xd1;" horiz-adv-x="739" 
d="M269 710l-73 21q2 49 31.5 81.5t76.5 32.5q30 0 71.5 -17t60.5 -17q16 0 28 11t12 28l2 2l73 -22q-2 -50 -31.5 -81t-76.5 -31q-24 0 -67.5 17t-63.5 17q-18 0 -29.5 -11.5t-11.5 -28.5zM89 0v662h51l395 -432h3v432h112v-662h-50l-396 435h-3v-435h-112z" />
    <glyph glyph-name="Ograve" unicode="&#xd2;" horiz-adv-x="783" 
d="M482 700l-219 79l-6 14l58 90l190 -121zM392 -13q-145 0 -245 91t-100 253q0 158 97.5 251.5t247.5 93.5q145 0 244.5 -91.5t99.5 -253.5q0 -158 -97 -251t-247 -93zM392 92q100 0 161 64.5t61 174.5q0 111 -61 175t-161 64t-161.5 -64t-61.5 -175q0 -110 61.5 -174.5
t161.5 -64.5z" />
    <glyph glyph-name="Oacute" unicode="&#xd3;" horiz-adv-x="783" 
d="M294 700l-24 61l191 122l58 -90l-6 -14zM392 -13q-145 0 -245 91t-100 253q0 158 97.5 251.5t247.5 93.5q145 0 244.5 -91.5t99.5 -253.5q0 -158 -97 -251t-247 -93zM392 92q100 0 161 64.5t61 174.5q0 111 -61 175t-161 64t-161.5 -64t-61.5 -175q0 -110 61.5 -174.5
t161.5 -64.5z" />
    <glyph glyph-name="Ocircumflex" unicode="&#xd4;" horiz-adv-x="783" 
d="M277 701l-38 52l124 120h53l129 -120l-40 -52l-117 78zM392 -13q-145 0 -245 91t-100 253q0 158 97.5 251.5t247.5 93.5q145 0 244.5 -91.5t99.5 -253.5q0 -158 -97 -251t-247 -93zM392 92q100 0 161 64.5t61 174.5q0 111 -61 175t-161 64t-161.5 -64t-61.5 -175
q0 -110 61.5 -174.5t161.5 -64.5z" />
    <glyph glyph-name="Otilde" unicode="&#xd5;" horiz-adv-x="783" 
d="M289 710l-73 21q2 49 31.5 81.5t76.5 32.5q30 0 71.5 -17t60.5 -17q16 0 28 11t12 28l2 2l73 -22q-2 -50 -31.5 -81t-76.5 -31q-24 0 -67.5 17t-63.5 17q-18 0 -29.5 -11.5t-11.5 -28.5zM392 -13q-145 0 -245 91t-100 253q0 158 97.5 251.5t247.5 93.5q145 0 244.5 -91.5
t99.5 -253.5q0 -158 -97 -251t-247 -93zM392 92q100 0 161 64.5t61 174.5q0 111 -61 175t-161 64t-161.5 -64t-61.5 -175q0 -110 61.5 -174.5t161.5 -64.5z" />
    <glyph glyph-name="Odieresis" unicode="&#xd6;" horiz-adv-x="783" 
d="M281 723q-26 0 -44.5 18.5t-18.5 44.5t18.5 44.5t44.5 18.5t45 -18.5t19 -44.5t-19 -44.5t-45 -18.5zM504 723q-26 0 -44.5 18.5t-18.5 44.5t18.5 44.5t44.5 18.5t44.5 -18.5t18.5 -44.5t-18.5 -44.5t-44.5 -18.5zM392 -13q-145 0 -245 91t-100 253q0 158 97.5 251.5
t247.5 93.5q145 0 244.5 -91.5t99.5 -253.5q0 -158 -97 -251t-247 -93zM392 92q100 0 161 64.5t61 174.5q0 111 -61 175t-161 64t-161.5 -64t-61.5 -175q0 -110 61.5 -174.5t161.5 -64.5z" />
    <glyph glyph-name="multiply" unicode="&#xd7;" horiz-adv-x="521" 
d="M467 438l-146 -146l146 -146l-60 -61l-146 146l-146 -146l-62 61l146 146l-146 146l62 61l146 -146l146 146z" />
    <glyph glyph-name="Oslash" unicode="&#xd8;" horiz-adv-x="783" 
d="M737 678v-8l-86 -100q85 -95 85 -239q0 -158 -97 -251t-247 -93q-110 0 -196 53l-49 -57h-100v11l85 99q-85 93 -85 238q0 158 97.5 251.5t247.5 93.5q107 0 193 -52l47 54h105zM169 331q0 -88 40 -148l304 355q-52 32 -121 32q-100 0 -161.5 -64t-61.5 -175zM614 331
q0 87 -40 149l-305 -355q51 -33 123 -33q100 0 161 64.5t61 174.5z" />
    <glyph glyph-name="Ugrave" unicode="&#xd9;" horiz-adv-x="717" 
d="M449 700l-219 79l-6 14l58 90l190 -121zM359 -14q-134 0 -206.5 71t-72.5 202v403h117v-388q0 -93 42 -140.5t121 -47.5t121 48t42 140v388h114v-403q0 -130 -73.5 -201.5t-204.5 -71.5z" />
    <glyph glyph-name="Uacute" unicode="&#xda;" horiz-adv-x="717" 
d="M261 700l-24 61l191 122l58 -90l-6 -14zM359 -14q-134 0 -206.5 71t-72.5 202v403h117v-388q0 -93 42 -140.5t121 -47.5t121 48t42 140v388h114v-403q0 -130 -73.5 -201.5t-204.5 -71.5z" />
    <glyph glyph-name="Ucircumflex" unicode="&#xdb;" horiz-adv-x="717" 
d="M244 701l-38 52l124 120h53l129 -120l-40 -52l-117 78zM359 -14q-134 0 -206.5 71t-72.5 202v403h117v-388q0 -93 42 -140.5t121 -47.5t121 48t42 140v388h114v-403q0 -130 -73.5 -201.5t-204.5 -71.5z" />
    <glyph glyph-name="Udieresis" unicode="&#xdc;" horiz-adv-x="717" 
d="M248 723q-26 0 -44.5 18.5t-18.5 44.5t18.5 44.5t44.5 18.5t45 -18.5t19 -44.5t-19 -44.5t-45 -18.5zM471 723q-26 0 -44.5 18.5t-18.5 44.5t18.5 44.5t44.5 18.5t44.5 -18.5t18.5 -44.5t-18.5 -44.5t-44.5 -18.5zM359 -14q-134 0 -206.5 71t-72.5 202v403h117v-388
q0 -93 42 -140.5t121 -47.5t121 48t42 140v388h114v-403q0 -130 -73.5 -201.5t-204.5 -71.5z" />
    <glyph glyph-name="Yacute" unicode="&#xdd;" horiz-adv-x="605" 
d="M206 700l-24 61l191 122l58 -90l-6 -14zM245 0v268l-239 390l1 4h126l173 -288l171 288h119l1 -4l-236 -392v-266h-116z" />
    <glyph glyph-name="Thorn" unicode="&#xde;" horiz-adv-x="581" 
d="M538 346q1 -113 -68.5 -172.5t-189.5 -59.5q-38 0 -75 3v-117h-116v662h116v-113q48 4 83 4q109 0 179 -51.5t71 -155.5zM266 209q155 0 155 125q0 56 -37.5 87t-108.5 31q-22 0 -70 -3v-237q35 -3 61 -3z" />
    <glyph glyph-name="germandbls" unicode="&#xdf;" horiz-adv-x="636" 
d="M515 290q51 -37 72.5 -67t21.5 -84q0 -70 -51 -111t-122 -41q-82 0 -135 30v103l3 1q51 -41 116 -41q75 0 75 50q0 28 -16 46t-65 48q-37 25 -53 38t-29.5 37t-13.5 54q0 33 14 60t30.5 42t30.5 37t14 46q0 36 -26 54.5t-69 18.5q-119 0 -119 -135v-476h-118v487
q0 109 64 169t170 60q42 0 78.5 -8.5t68 -27.5t50 -53t18.5 -81q0 -34 -13 -62t-29 -43t-29 -33t-13 -33q0 -23 16.5 -39.5t58.5 -45.5z" />
    <glyph glyph-name="agrave" unicode="&#xe0;" horiz-adv-x="643" 
d="M381 560l-197 110l-3 14l75 83l163 -150zM614 110l3 -2v-98q-31 -17 -75 -17q-85 0 -100 70q-60 -76 -172 -76q-101 0 -164 69t-63 191q0 127 74.5 204.5t192.5 77.5q81 0 136 -40l5 27h96v-373q0 -43 35 -43q19 0 32 10zM304 92q41 0 74.5 20.5t50.5 55.5v223
q-44 36 -111 36t-110 -47.5t-43 -125.5q0 -80 38.5 -121t100.5 -41z" />
    <glyph glyph-name="aacute" unicode="&#xe1;" horiz-adv-x="643" 
d="M439 670l-197 -110l-39 57l163 150l76 -83zM614 110l3 -2v-98q-31 -17 -75 -17q-85 0 -100 70q-60 -76 -172 -76q-101 0 -164 69t-63 191q0 127 74.5 204.5t192.5 77.5q81 0 136 -40l5 27h96v-373q0 -43 35 -43q19 0 32 10zM304 92q41 0 74.5 20.5t50.5 55.5v223
q-44 36 -111 36t-110 -47.5t-43 -125.5q0 -80 38.5 -121t100.5 -41z" />
    <glyph glyph-name="acircumflex" unicode="&#xe2;" horiz-adv-x="643" 
d="M313 654l-101 -86l-46 44l120 142h55l124 -142l-46 -44zM614 110l3 -2v-98q-31 -17 -75 -17q-85 0 -100 70q-60 -76 -172 -76q-101 0 -164 69t-63 191q0 127 74.5 204.5t192.5 77.5q81 0 136 -40l5 27h96v-373q0 -43 35 -43q19 0 32 10zM304 92q41 0 74.5 20.5t50.5 55.5
v223q-44 36 -111 36t-110 -47.5t-43 -125.5q0 -80 38.5 -121t100.5 -41z" />
    <glyph glyph-name="atilde" unicode="&#xe3;" horiz-adv-x="643" 
d="M215 599l-3 -2l-73 18q0 47 27.5 81t74.5 34q31 0 75.5 -18t65.5 -18q17 0 28.5 11t11.5 28l3 2l73 -18q0 -53 -30 -84t-76 -31q-28 -1 -73.5 17.5t-64.5 18.5q-17 0 -28 -10.5t-11 -28.5zM614 110l3 -2v-98q-31 -17 -75 -17q-85 0 -100 70q-60 -76 -172 -76
q-101 0 -164 69t-63 191q0 127 74.5 204.5t192.5 77.5q81 0 136 -40l5 27h96v-373q0 -43 35 -43q19 0 32 10zM304 92q41 0 74.5 20.5t50.5 55.5v223q-44 36 -111 36t-110 -47.5t-43 -125.5q0 -80 38.5 -121t100.5 -41z" />
    <glyph glyph-name="adieresis" unicode="&#xe4;" horiz-adv-x="643" 
d="M212 599q-29 0 -49.5 20.5t-20.5 50.5q0 28 20.5 49t49.5 21t50 -21t21 -49q0 -30 -21 -50.5t-50 -20.5zM425 599q-30 0 -50.5 20.5t-20.5 50.5q0 28 20.5 49t50.5 21q28 0 49.5 -21t21.5 -49q0 -30 -21 -50.5t-50 -20.5zM614 110l3 -2v-98q-31 -17 -75 -17
q-85 0 -100 70q-60 -76 -172 -76q-101 0 -164 69t-63 191q0 127 74.5 204.5t192.5 77.5q81 0 136 -40l5 27h96v-373q0 -43 35 -43q19 0 32 10zM304 92q41 0 74.5 20.5t50.5 55.5v223q-44 36 -111 36t-110 -47.5t-43 -125.5q0 -80 38.5 -121t100.5 -41z" />
    <glyph glyph-name="aring" unicode="&#xe5;" horiz-adv-x="643" 
d="M315 557q-48 0 -79 31t-31 77q0 45 31 75.5t79 30.5q49 0 80 -30.5t31 -75.5q0 -47 -31 -77.5t-80 -30.5zM316 712q-20 0 -34 -13.5t-14 -33.5t14 -34t34 -14q21 0 34.5 14t13.5 34t-13.5 33.5t-34.5 13.5zM614 110l3 -2v-98q-31 -17 -75 -17q-85 0 -100 70
q-60 -76 -172 -76q-101 0 -164 69t-63 191q0 127 74.5 204.5t192.5 77.5q81 0 136 -40l5 27h96v-373q0 -43 35 -43q19 0 32 10zM304 92q41 0 74.5 20.5t50.5 55.5v223q-44 36 -111 36t-110 -47.5t-43 -125.5q0 -80 38.5 -121t100.5 -41z" />
    <glyph glyph-name="ae" unicode="&#xe6;" horiz-adv-x="890" 
d="M605 529q109 0 172 -64.5t64 -185.5q0 -10 -0.5 -27t-0.5 -25h-361q9 -68 52 -105t105 -37q93 0 169 43l4 -2v-96q-77 -43 -183 -43q-66 0 -123 25t-93 75q-84 -99 -209 -99q-79 0 -123.5 39t-44.5 107q0 51 24.5 85.5t72.5 52.5t101.5 25.5t127.5 8.5q-5 123 -135 123
q-91 0 -144 -33l-3 2v94q21 14 67 25.5t101 11.5q128 0 184 -79q70 79 176 79zM480 306h246q-11 128 -121 128q-48 0 -81.5 -33t-43.5 -95zM224 82q48 0 88.5 20.5t63.5 53.5q-11 33 -14 71q-105 -2 -159.5 -19t-54.5 -65q0 -28 21 -44.5t55 -16.5z" />
    <glyph glyph-name="ccedilla" unicode="&#xe7;" horiz-adv-x="497" 
d="M457 16q-53 -26 -118 -29l-22 -33q4 1 15 1q91 -4 91 -88q0 -54 -39.5 -79.5t-98.5 -25.5q-32 0 -64 10v59l3 1q21 -7 44 -7q59 0 59 40q0 34 -43 34q-24 0 -40 -6l-2 3v49l30 45q-104 15 -166.5 85t-62.5 182q0 125 77 198.5t200 73.5q74 0 135 -22v-99l-4 -2
q-60 23 -118 23q-77 0 -123 -45.5t-46 -122.5q0 -78 45.5 -125t123.5 -48q60 0 119 31l5 -2v-101z" />
    <glyph glyph-name="egrave" unicode="&#xe8;" horiz-adv-x="577" 
d="M362 560l-197 110l-3 14l75 83l163 -150zM299 529q110 0 173 -65t64 -184q0 -17 -2 -51h-370q9 -70 56.5 -106.5t121.5 -36.5q78 0 159 37l3 -1v-94q-73 -41 -183 -41q-115 0 -196.5 68t-81.5 204q0 120 73 195t183 75zM166 310h254q-6 58 -37.5 89.5t-83.5 31.5
q-51 0 -86.5 -31t-46.5 -90z" />
    <glyph glyph-name="eacute" unicode="&#xe9;" horiz-adv-x="577" 
d="M420 670l-197 -110l-39 57l163 150l76 -83zM299 529q110 0 173 -65t64 -184q0 -17 -2 -51h-370q9 -70 56.5 -106.5t121.5 -36.5q78 0 159 37l3 -1v-94q-73 -41 -183 -41q-115 0 -196.5 68t-81.5 204q0 120 73 195t183 75zM166 310h254q-6 58 -37.5 89.5t-83.5 31.5
q-51 0 -86.5 -31t-46.5 -90z" />
    <glyph glyph-name="ecircumflex" unicode="&#xea;" horiz-adv-x="577" 
d="M294 654l-101 -86l-46 44l120 142h55l124 -142l-46 -44zM299 529q110 0 173 -65t64 -184q0 -17 -2 -51h-370q9 -70 56.5 -106.5t121.5 -36.5q78 0 159 37l3 -1v-94q-73 -41 -183 -41q-115 0 -196.5 68t-81.5 204q0 120 73 195t183 75zM166 310h254q-6 58 -37.5 89.5
t-83.5 31.5q-51 0 -86.5 -31t-46.5 -90z" />
    <glyph glyph-name="edieresis" unicode="&#xeb;" horiz-adv-x="577" 
d="M193 599q-29 0 -49.5 20.5t-20.5 50.5q0 28 20.5 49t49.5 21t50 -21t21 -49q0 -30 -21 -50.5t-50 -20.5zM406 599q-30 0 -50.5 20.5t-20.5 50.5q0 28 20.5 49t50.5 21q28 0 49.5 -21t21.5 -49q0 -30 -21 -50.5t-50 -20.5zM299 529q110 0 173 -65t64 -184q0 -17 -2 -51
h-370q9 -70 56.5 -106.5t121.5 -36.5q78 0 159 37l3 -1v-94q-73 -41 -183 -41q-115 0 -196.5 68t-81.5 204q0 120 73 195t183 75zM166 310h254q-6 58 -37.5 89.5t-83.5 31.5q-51 0 -86.5 -31t-46.5 -90z" />
    <glyph glyph-name="igrave" unicode="&#xec;" horiz-adv-x="268" 
d="M200 560l-197 110l-3 14l75 83l163 -150zM75 0v516h118v-516h-118z" />
    <glyph glyph-name="iacute" unicode="&#xed;" horiz-adv-x="268" 
d="M61 560l-39 57l163 150l76 -83l-3 -14zM75 0v516h118v-516h-118z" />
    <glyph glyph-name="icircumflex" unicode="&#xee;" horiz-adv-x="268" 
d="M31 568l-46 44l120 142h55l124 -142l-46 -44l-106 86zM75 0v516h118v-516h-118z" />
    <glyph glyph-name="idieresis" unicode="&#xef;" horiz-adv-x="268" 
d="M46 599q-30 0 -50.5 20.5t-20.5 50.5q0 28 20.5 49t50.5 21q28 0 49.5 -21t21.5 -49q0 -30 -21 -50.5t-50 -20.5zM226 599q-30 0 -50 20.5t-20 50.5q0 28 20.5 49t49.5 21q28 0 49.5 -21t21.5 -49q0 -30 -21 -50.5t-50 -20.5zM75 0v516h118v-516h-118z" />
    <glyph glyph-name="eth" unicode="&#xf0;" horiz-adv-x="646" 
d="M431 680q161 -89 161 -363q0 -155 -75 -242.5t-208 -87.5q-120 0 -192 65t-72 182q0 108 72 176t178 68q102 0 164 -52q-22 130 -104 172l-71 -76l-60 53l41 44h-7q-82 0 -136 -22l-4 3v99q53 21 143 21q49 0 89 -9l74 79l59 -53zM312 88q151 0 157 196
q-15 38 -55.5 67.5t-98.5 29.5q-67 0 -107.5 -41t-40.5 -103q0 -66 39.5 -107.5t105.5 -41.5z" />
    <glyph glyph-name="ntilde" unicode="&#xf1;" horiz-adv-x="623" 
d="M207 599l-3 -2l-73 18q0 47 27.5 81t74.5 34q31 0 75.5 -18t65.5 -18q17 0 28.5 11t11.5 28l3 2l73 -18q0 -53 -30 -84t-76 -31q-28 -1 -73.5 17.5t-64.5 18.5q-17 0 -28 -10.5t-11 -28.5zM354 529q90 0 145.5 -57.5t55.5 -163.5v-308h-118v276q0 73 -33 106t-87 33
q-43 0 -77 -23.5t-47 -64.5v-327h-118v516h96l12 -70q25 37 69 60t102 23z" />
    <glyph glyph-name="ograve" unicode="&#xf2;" horiz-adv-x="634" 
d="M383 560l-197 110l-3 14l75 83l163 -150zM316 -13q-117 0 -195 71t-78 201q0 123 78.5 196.5t194.5 73.5q118 0 196 -70.5t78 -200.5q0 -124 -78.5 -197.5t-195.5 -73.5zM316 88q70 0 111.5 47t41.5 124t-41.5 122.5t-111.5 45.5q-69 0 -110.5 -46t-41.5 -122
q0 -78 41.5 -124.5t110.5 -46.5z" />
    <glyph glyph-name="oacute" unicode="&#xf3;" horiz-adv-x="634" 
d="M244 560l-39 57l163 150l76 -83l-3 -14zM316 -13q-117 0 -195 71t-78 201q0 123 78.5 196.5t194.5 73.5q118 0 196 -70.5t78 -200.5q0 -124 -78.5 -197.5t-195.5 -73.5zM316 88q70 0 111.5 47t41.5 124t-41.5 122.5t-111.5 45.5q-69 0 -110.5 -46t-41.5 -122
q0 -78 41.5 -124.5t110.5 -46.5z" />
    <glyph glyph-name="ocircumflex" unicode="&#xf4;" horiz-adv-x="634" 
d="M214 568l-46 44l120 142h55l124 -142l-46 -44l-106 86zM316 -13q-117 0 -195 71t-78 201q0 123 78.5 196.5t194.5 73.5q118 0 196 -70.5t78 -200.5q0 -124 -78.5 -197.5t-195.5 -73.5zM316 88q70 0 111.5 47t41.5 124t-41.5 122.5t-111.5 45.5q-69 0 -110.5 -46
t-41.5 -122q0 -78 41.5 -124.5t110.5 -46.5z" />
    <glyph glyph-name="otilde" unicode="&#xf5;" horiz-adv-x="634" 
d="M214 597l-73 18q0 47 27.5 81t74.5 34q31 0 75.5 -18t65.5 -18q17 0 28.5 11t11.5 28l3 2l73 -18q0 -53 -30 -84t-76 -31q-28 -1 -73.5 17.5t-64.5 18.5q-17 0 -28 -10.5t-11 -28.5zM316 -13q-117 0 -195 71t-78 201q0 123 78.5 196.5t194.5 73.5q118 0 196 -70.5
t78 -200.5q0 -124 -78.5 -197.5t-195.5 -73.5zM316 88q70 0 111.5 47t41.5 124t-41.5 122.5t-111.5 45.5q-69 0 -110.5 -46t-41.5 -122q0 -78 41.5 -124.5t110.5 -46.5z" />
    <glyph glyph-name="odieresis" unicode="&#xf6;" horiz-adv-x="634" 
d="M214 599q-29 0 -49.5 20.5t-20.5 50.5q0 28 20.5 49t49.5 21t50 -21t21 -49q0 -30 -21 -50.5t-50 -20.5zM427 599q-30 0 -50.5 20.5t-20.5 50.5q0 28 20.5 49t50.5 21q28 0 49.5 -21t21.5 -49q0 -30 -21 -50.5t-50 -20.5zM316 -13q-117 0 -195 71t-78 201
q0 123 78.5 196.5t194.5 73.5q118 0 196 -70.5t78 -200.5q0 -124 -78.5 -197.5t-195.5 -73.5zM316 88q70 0 111.5 47t41.5 124t-41.5 122.5t-111.5 45.5q-69 0 -110.5 -46t-41.5 -122q0 -78 41.5 -124.5t110.5 -46.5z" />
    <glyph glyph-name="divide" unicode="&#xf7;" horiz-adv-x="546" 
d="M273 398q-34 0 -52.5 18.5t-18.5 47.5q0 30 18.5 49.5t52.5 19.5q35 0 53.5 -19.5t18.5 -49.5q0 -28 -18.5 -47t-53.5 -19zM49 256v86h449v-86h-449zM273 61q-35 0 -53 18.5t-18 47.5t18.5 48.5t52.5 19.5t53 -19.5t19 -48.5t-18.5 -47.5t-53.5 -18.5z" />
    <glyph glyph-name="oslash" unicode="&#xf8;" horiz-adv-x="635" 
d="M594 534v-8l-68 -81q65 -72 65 -187q0 -123 -78.5 -197t-195.5 -74q-83 0 -147 36l-35 -42h-91v11l66 79q-66 72 -66 188q0 123 78.5 196.5t194.5 73.5q81 0 146 -35l33 40h98zM165 259q0 -54 22 -96l205 246q-32 18 -75 18q-69 0 -110.5 -46t-41.5 -122zM470 259
q0 53 -22 94l-207 -246q33 -19 76 -19q70 0 111.5 47t41.5 124z" />
    <glyph glyph-name="ugrave" unicode="&#xf9;" horiz-adv-x="611" 
d="M374 560l-197 110l-3 14l75 83l163 -150zM418 516h118v-516h-96l-11 67q-53 -80 -172 -80q-90 0 -139 52t-49 149v328h118v-304q0 -124 110 -124q41 0 74.5 21.5t46.5 65.5v341z" />
    <glyph glyph-name="uacute" unicode="&#xfa;" horiz-adv-x="611" 
d="M432 670l-197 -110l-39 57l163 150l76 -83zM418 516h118v-516h-96l-11 67q-53 -80 -172 -80q-90 0 -139 52t-49 149v328h118v-304q0 -124 110 -124q41 0 74.5 21.5t46.5 65.5v341z" />
    <glyph glyph-name="ucircumflex" unicode="&#xfb;" horiz-adv-x="611" 
d="M306 654l-101 -86l-46 44l120 142h55l124 -142l-46 -44zM418 516h118v-516h-96l-11 67q-53 -80 -172 -80q-90 0 -139 52t-49 149v328h118v-304q0 -124 110 -124q41 0 74.5 21.5t46.5 65.5v341z" />
    <glyph glyph-name="udieresis" unicode="&#xfc;" horiz-adv-x="611" 
d="M205 599q-29 0 -49.5 20.5t-20.5 50.5q0 28 20.5 49t49.5 21t50 -21t21 -49q0 -30 -21 -50.5t-50 -20.5zM418 599q-30 0 -50.5 20.5t-20.5 50.5q0 28 20.5 49t50.5 21q28 0 49.5 -21t21.5 -49q0 -30 -21 -50.5t-50 -20.5zM418 516h118v-516h-96l-11 67q-53 -80 -172 -80
q-90 0 -139 52t-49 149v328h118v-304q0 -124 110 -124q41 0 74.5 21.5t46.5 65.5v341z" />
    <glyph glyph-name="yacute" unicode="&#xfd;" horiz-adv-x="535" 
d="M398 670l-197 -110l-39 57l163 150l76 -83zM524 516l1 -3l-218 -518l-66 -158h-122l-2 3l97 196l-201 477l1 3h126l132 -362l133 362h119z" />
    <glyph glyph-name="thorn" unicode="&#xfe;" horiz-adv-x="624" 
d="M356 529q101 0 162.5 -70t61.5 -190q0 -129 -74.5 -205.5t-185.5 -76.5q-76 0 -127 27v-178h-118v874h118v-243q58 62 163 62zM310 89q67 0 108 45.5t41 127.5q0 81 -38.5 121.5t-98.5 40.5q-43 0 -78 -21.5t-51 -55.5v-230q47 -28 117 -28z" />
    <glyph glyph-name="ydieresis" unicode="&#xff;" horiz-adv-x="535" 
d="M171 599q-29 0 -49.5 20.5t-20.5 50.5q0 28 20.5 49t49.5 21t50 -21t21 -49q0 -30 -21 -50.5t-50 -20.5zM384 599q-30 0 -50.5 20.5t-20.5 50.5q0 28 20.5 49t50.5 21q28 0 49.5 -21t21.5 -49q0 -30 -21 -50.5t-50 -20.5zM524 516l1 -3l-218 -518l-66 -158h-122l-2 3
l97 196l-201 477l1 3h126l132 -362l133 362h119z" />
    <glyph glyph-name="Amacron" unicode="&#x100;" horiz-adv-x="640" 
d="M468 829v-86h-303v86h303zM519 0l-57 132h-287l-54 -132h-117l288 668h50l299 -668h-122zM211 219h213l-97 222l-13 37l-12 -37z" />
    <glyph glyph-name="amacron" unicode="&#x101;" horiz-adv-x="643" 
d="M465 694v-80h-301v80h301zM614 110l3 -2v-98q-31 -17 -75 -17q-85 0 -100 70q-60 -76 -172 -76q-101 0 -164 69t-63 191q0 127 74.5 204.5t192.5 77.5q81 0 136 -40l5 27h96v-373q0 -43 35 -43q19 0 32 10zM304 92q41 0 74.5 20.5t50.5 55.5v223q-44 36 -111 36
t-110 -47.5t-43 -125.5q0 -80 38.5 -121t100.5 -41z" />
    <glyph glyph-name="Abreve" unicode="&#x102;" horiz-adv-x="640" 
d="M315 709q-63 0 -106.5 40t-43.5 106l75 8q3 -34 23 -54t54 -20q36 0 57.5 20.5t23.5 53.5l71 -8q0 -66 -44 -106t-110 -40zM519 0l-57 132h-287l-54 -132h-117l288 668h50l299 -668h-122zM211 219h213l-97 222l-13 37l-12 -37z" />
    <glyph glyph-name="abreve" unicode="&#x103;" horiz-adv-x="643" 
d="M314 575q-64 0 -106.5 41t-42.5 110l75 8l3 -2q2 -33 21 -53t51 -20q33 0 53.5 20t22.5 52l3 3l71 -8q0 -69 -43.5 -110t-107.5 -41zM614 110l3 -2v-98q-31 -17 -75 -17q-85 0 -100 70q-60 -76 -172 -76q-101 0 -164 69t-63 191q0 127 74.5 204.5t192.5 77.5
q81 0 136 -40l5 27h96v-373q0 -43 35 -43q19 0 32 10zM304 92q41 0 74.5 20.5t50.5 55.5v223q-44 36 -111 36t-110 -47.5t-43 -125.5q0 -80 38.5 -121t100.5 -41z" />
    <glyph glyph-name="Aogonek" unicode="&#x104;" horiz-adv-x="640" 
d="M615 0q-85 -54 -85 -119q0 -17 11 -29.5t34 -12.5q15 0 30 4l4 -2v-68q-26 -8 -63 -8q-52 0 -85 22.5t-33 65.5q0 84 105 147h-14l-57 132h-287l-54 -132h-117l288 668h50l299 -668h-26zM211 219h213l-97 222l-13 37l-12 -37z" />
    <glyph glyph-name="aogonek" unicode="&#x105;" horiz-adv-x="643" 
d="M617 108v-98q-1 0 -4 -2t-4 -2h1q-85 -54 -85 -119q0 -17 11 -29.5t34 -12.5q15 0 30 4l4 -2v-68q-26 -8 -63 -8q-52 0 -85 22.5t-33 65.5q0 78 89 137q-58 11 -70 67q-60 -76 -172 -76q-101 0 -164 69t-63 191q0 127 74.5 204.5t192.5 77.5q81 0 136 -40l5 27h96v-373
q0 -43 35 -43q19 0 32 10zM304 92q41 0 74.5 20.5t50.5 55.5v223q-44 36 -111 36t-110 -47.5t-43 -125.5q0 -80 38.5 -121t100.5 -41z" />
    <glyph glyph-name="Cacute" unicode="&#x106;" horiz-adv-x="623" 
d="M276 700l-24 61l191 122l58 -90l-6 -14zM399 -12q-157 1 -254.5 92t-97.5 245q0 160 97 255t254 95q94 0 182 -32v-110l-3 -1q-74 37 -163 37q-115 0 -180.5 -64t-65.5 -175q0 -110 65 -172.5t183 -62.5q85 0 160 34l4 -1v-106q-79 -34 -181 -34z" />
    <glyph glyph-name="cacute" unicode="&#x107;" horiz-adv-x="497" 
d="M221 568l-39 57l163 150l76 -83l-3 -14zM322 -13q-123 0 -201 72.5t-78 197.5t77 198.5t200 73.5q74 0 135 -22v-99l-4 -2q-60 23 -118 23q-77 0 -123 -45.5t-46 -122.5q0 -78 45.5 -125t123.5 -48q60 0 119 31l5 -2v-101q-56 -29 -135 -29z" />
    <glyph glyph-name="Cdotaccent" unicode="&#x10a;" horiz-adv-x="623" 
d="M374 721q-29 0 -49.5 20.5t-20.5 50.5q0 29 20.5 49.5t49.5 20.5q28 0 49 -21t21 -49q0 -30 -20.5 -50.5t-49.5 -20.5zM399 -12q-157 1 -254.5 92t-97.5 245q0 160 97 255t254 95q94 0 182 -32v-110l-3 -1q-74 37 -163 37q-115 0 -180.5 -64t-65.5 -175q0 -110 65 -172.5
t183 -62.5q85 0 160 34l4 -1v-106q-79 -34 -181 -34z" />
    <glyph glyph-name="cdotaccent" unicode="&#x10b;" horiz-adv-x="497" 
d="M294 603q-31 0 -53 22t-22 53t22 52.5t53 21.5q30 0 52 -21.5t22 -52.5t-22 -53t-52 -22zM322 -13q-123 0 -201 72.5t-78 197.5t77 198.5t200 73.5q74 0 135 -22v-99l-4 -2q-60 23 -118 23q-77 0 -123 -45.5t-46 -122.5q0 -78 45.5 -125t123.5 -48q60 0 119 31l5 -2v-101
q-56 -29 -135 -29z" />
    <glyph glyph-name="Ccaron" unicode="&#x10c;" horiz-adv-x="623" 
d="M350 702l-129 118l40 52l117 -78l111 78l38 -52l-124 -118h-53zM399 -12q-157 1 -254.5 92t-97.5 245q0 160 97 255t254 95q94 0 182 -32v-110l-3 -1q-74 37 -163 37q-115 0 -180.5 -64t-65.5 -175q0 -110 65 -172.5t183 -62.5q85 0 160 34l4 -1v-106q-79 -34 -181 -34z
" />
    <glyph glyph-name="ccaron" unicode="&#x10d;" horiz-adv-x="497" 
d="M270 576l-125 142l47 44l106 -86l101 86l45 -44l-120 -142h-54zM322 -13q-123 0 -201 72.5t-78 197.5t77 198.5t200 73.5q74 0 135 -22v-99l-4 -2q-60 23 -118 23q-77 0 -123 -45.5t-46 -122.5q0 -78 45.5 -125t123.5 -48q60 0 119 31l5 -2v-101q-56 -29 -135 -29z" />
    <glyph glyph-name="Dcaron" unicode="&#x10e;" horiz-adv-x="732" 
d="M362 702h-53l-129 118l40 52l117 -78l111 78l38 -52zM318 671q176 0 271.5 -89.5t95.5 -244.5q0 -161 -99.5 -249.5t-277.5 -88.5q-155 0 -219 2v661q128 9 229 9zM321 102q120 1 181 60.5t61 172.5q0 110 -65 169.5t-183 59.5q-58 0 -110 -4v-455q44 -3 116 -3z" />
    <glyph glyph-name="dcaron" unicode="&#x10f;" horiz-adv-x="678" 
d="M703 714l10 -11l-36 -217h-70l8 228h88zM583 100q19 0 32 13l3 -2l-1 -100q-30 -18 -75 -18q-85 0 -100 68q-60 -74 -170 -74q-100 0 -164 68.5t-64 194.5q0 122 74 200.5t189 78.5q72 0 123 -27v208h118v-567q0 -43 35 -43zM304 92q41 0 75 20.5t51 55.5v227
q-45 32 -110 32q-69 0 -112 -46.5t-43 -125.5q0 -81 39 -122t100 -41z" />
    <glyph glyph-name="Dcroat" unicode="&#x110;" horiz-adv-x="745" 
d="M331 671q176 0 271.5 -89.5t95.5 -244.5q0 -161 -99.5 -249.5t-277.5 -88.5q-155 0 -219 2v287h-85v80h85v294q128 9 229 9zM334 102q120 1 181 60.5t61 172.5q0 110 -65 169.5t-183 59.5q-58 0 -110 -4v-192h103v-80h-103v-183q43 -3 116 -3z" />
    <glyph glyph-name="dcroat" unicode="&#x111;" horiz-adv-x="646" 
d="M548 571v-428q0 -43 36 -43q17 0 30 13l4 -2l-1 -100q-30 -18 -75 -18q-85 0 -100 68q-60 -74 -170 -74q-100 0 -164 68.5t-64 194.5q0 122 74 200.5t189 78.5q72 0 123 -27v69h-105v80h105v59h118v-59h81v-80h-81zM430 168v227q-45 32 -110 32q-69 0 -112 -46.5
t-43 -125.5q0 -81 39 -122t100 -41q41 0 75 20.5t51 55.5z" />
    <glyph glyph-name="Emacron" unicode="&#x112;" horiz-adv-x="558" 
d="M458 829v-86h-303v86h303zM206 103h304v-103h-421v662h410v-102h-293v-170h274v-101h-274v-186z" />
    <glyph glyph-name="emacron" unicode="&#x113;" horiz-adv-x="577" 
d="M446 694v-80h-301v80h301zM299 529q110 0 173 -65t64 -184q0 -17 -2 -51h-370q9 -70 56.5 -106.5t121.5 -36.5q78 0 159 37l3 -1v-94q-73 -41 -183 -41q-115 0 -196.5 68t-81.5 204q0 120 73 195t183 75zM166 310h254q-6 58 -37.5 89.5t-83.5 31.5q-51 0 -86.5 -31
t-46.5 -90z" />
    <glyph glyph-name="Edotaccent" unicode="&#x116;" horiz-adv-x="558" 
d="M307 721q-29 0 -49.5 20.5t-20.5 50.5q0 29 20.5 49.5t49.5 20.5t49.5 -21t20.5 -49q0 -30 -20.5 -50.5t-49.5 -20.5zM206 103h304v-103h-421v662h410v-102h-293v-170h274v-101h-274v-186z" />
    <glyph glyph-name="edotaccent" unicode="&#x117;" horiz-adv-x="577" 
d="M296 595q-31 0 -53 22t-22 53t22 52.5t53 21.5q30 0 52 -21.5t22 -52.5t-22 -53t-52 -22zM299 529q110 0 173 -65t64 -184q0 -17 -2 -51h-370q9 -70 56.5 -106.5t121.5 -36.5q78 0 159 37l3 -1v-94q-73 -41 -183 -41q-115 0 -196.5 68t-81.5 204q0 120 73 195t183 75z
M166 310h254q-6 58 -37.5 89.5t-83.5 31.5q-51 0 -86.5 -31t-46.5 -90z" />
    <glyph glyph-name="Eogonek" unicode="&#x118;" horiz-adv-x="558" 
d="M510 0q-85 -54 -85 -119q0 -17 11 -29.5t34 -12.5q15 0 30 4l4 -2v-68q-26 -8 -63 -8q-52 0 -85 22.5t-33 65.5q0 84 105 147h-339v662h410v-102h-293v-170h274v-101h-274v-186h304v-103z" />
    <glyph glyph-name="eogonek" unicode="&#x119;" horiz-adv-x="577" 
d="M299 529q110 0 173 -65t64 -184q0 -17 -2 -51h-370q9 -70 56.5 -106.5t121.5 -36.5q78 0 159 37l3 -1v-94q-20 -12 -52 -23q-84 -54 -84 -118q0 -17 11 -29.5t34 -12.5q15 0 30 4l4 -2v-68q-26 -8 -63 -8q-52 0 -85 22.5t-33 65.5q0 72 77 128h-22q-115 0 -196.5 68
t-81.5 204q0 120 73 195t183 75zM166 310h254q-6 58 -37.5 89.5t-83.5 31.5q-51 0 -86.5 -31t-46.5 -90z" />
    <glyph glyph-name="Ecaron" unicode="&#x11a;" horiz-adv-x="558" 
d="M336 702h-53l-129 118l40 52l117 -78l111 78l38 -52zM206 103h304v-103h-421v662h410v-102h-293v-170h274v-101h-274v-186z" />
    <glyph glyph-name="ecaron" unicode="&#x11b;" horiz-adv-x="577" 
d="M326 568h-54l-125 142l47 44l106 -86l101 86l45 -44zM299 529q110 0 173 -65t64 -184q0 -17 -2 -51h-370q9 -70 56.5 -106.5t121.5 -36.5q78 0 159 37l3 -1v-94q-73 -41 -183 -41q-115 0 -196.5 68t-81.5 204q0 120 73 195t183 75zM166 310h254q-6 58 -37.5 89.5
t-83.5 31.5q-51 0 -86.5 -31t-46.5 -90z" />
    <glyph glyph-name="Gbreve" unicode="&#x11e;" horiz-adv-x="690" 
d="M382 709q-63 0 -106.5 40t-43.5 106l75 8q3 -34 23 -54t54 -20q36 0 57.5 20.5t23.5 53.5l71 -8q0 -66 -44 -106t-110 -40zM395 -10q-165 0 -256.5 88.5t-91.5 250.5q0 157 100.5 251.5t270.5 94.5q106 0 188 -33l-1 -113l-3 -1q-83 41 -187 41q-114 0 -180 -65t-66 -175
q0 -109 60.5 -171.5t172.5 -62.5q71 0 126 22v194h105l1 -273q-105 -48 -239 -48z" />
    <glyph glyph-name="gbreve" unicode="&#x11f;" horiz-adv-x="622" 
d="M305 575q-64 0 -106.5 41t-42.5 110l75 8l3 -2q2 -33 21 -53t51 -20q33 0 53.5 20t22.5 52l3 3l71 -8q0 -69 -43.5 -110t-107.5 -41zM467 525h81v-457q0 -116 -75 -177.5t-204 -61.5q-108 0 -192 40v108l4 2q78 -50 178 -50q91 0 131 33.5t40 102.5v17q-58 -60 -157 -60
q-103 0 -166 64t-63 181q0 120 76 191t182 71q96 0 153 -45zM430 199v194q-45 34 -114 34q-67 0 -109 -41t-42 -114q0 -72 38 -110.5t98 -38.5q89 0 129 76z" />
    <glyph glyph-name="Gdotaccent" unicode="&#x120;" horiz-adv-x="690" 
d="M384 721q-29 0 -49.5 20.5t-20.5 50.5q0 29 20.5 49.5t49.5 20.5q28 0 49 -21t21 -49q0 -30 -20.5 -50.5t-49.5 -20.5zM395 -10q-165 0 -256.5 88.5t-91.5 250.5q0 157 100.5 251.5t270.5 94.5q106 0 188 -33l-1 -113l-3 -1q-83 41 -187 41q-114 0 -180 -65t-66 -175
q0 -109 60.5 -171.5t172.5 -62.5q71 0 126 22v194h105l1 -273q-105 -48 -239 -48z" />
    <glyph glyph-name="gdotaccent" unicode="&#x121;" horiz-adv-x="622" 
d="M306 595q-31 0 -53 22t-22 53t22 52.5t53 21.5q30 0 52 -21.5t22 -52.5t-22 -53t-52 -22zM467 525h81v-457q0 -116 -75 -177.5t-204 -61.5q-108 0 -192 40v108l4 2q78 -50 178 -50q91 0 131 33.5t40 102.5v17q-58 -60 -157 -60q-103 0 -166 64t-63 181q0 120 76 191
t182 71q96 0 153 -45zM430 199v194q-45 34 -114 34q-67 0 -109 -41t-42 -114q0 -72 38 -110.5t98 -38.5q89 0 129 76z" />
    <glyph glyph-name="Gcommaaccent" unicode="&#x122;" horiz-adv-x="690" 
d="M395 -10q-165 0 -256.5 88.5t-91.5 250.5q0 157 100.5 251.5t270.5 94.5q106 0 188 -33l-1 -113l-3 -1q-83 41 -187 41q-114 0 -180 -65t-66 -175q0 -109 60.5 -171.5t172.5 -62.5q71 0 126 22v194h105l1 -273q-105 -48 -239 -48zM322 -237q18 66 18 134q0 8 -0.5 16.5
t-1.5 18.5t-1 16l101 8l9 -13q0 -97 -51 -180h-74z" />
    <glyph glyph-name="gcommaaccent" unicode="&#x123;" horiz-adv-x="622" 
d="M366 568l-101 -8l-9 13q0 97 51 180h74q-18 -66 -18 -134q0 -8 0.5 -16.5t1.5 -18.5t1 -16zM467 525h81v-457q0 -116 -75 -177.5t-204 -61.5q-108 0 -192 40v108l4 2q78 -50 178 -50q91 0 131 33.5t40 102.5v17q-58 -60 -157 -60q-103 0 -166 64t-63 181q0 120 76 191
t182 71q96 0 153 -45zM430 199v194q-45 34 -114 34q-67 0 -109 -41t-42 -114q0 -72 38 -110.5t98 -38.5q89 0 129 76z" />
    <glyph glyph-name="Hbar" unicode="&#x126;" horiz-adv-x="793" 
d="M755 555v-81h-74v-474h-117v280h-335v-280h-117v474h-74v81h74v107h117v-107h335v107h117v-107h74zM564 386v88h-335v-88h335z" />
    <glyph glyph-name="hbar" unicode="&#x127;" horiz-adv-x="622" 
d="M355 529q89 0 144 -57.5t55 -160.5v-311h-117v282q0 71 -32.5 102.5t-84.5 31.5q-45 0 -79 -23t-48 -64v-329h-118v571h-80v80h80v59h118v-59h106v-80h-106v-114q56 72 162 72z" />
    <glyph glyph-name="Itilde" unicode="&#x128;" horiz-adv-x="296" 
d="M46 710l-73 21q2 49 31.5 81.5t76.5 32.5q30 0 71.5 -17t60.5 -17q16 0 28 11t12 28l2 2l73 -22q-2 -50 -31.5 -81t-76.5 -31q-24 0 -67.5 17t-63.5 17q-18 0 -29.5 -11.5t-11.5 -28.5zM89 0v662h118v-662h-118z" />
    <glyph glyph-name="itilde" unicode="&#x129;" horiz-adv-x="268" 
d="M31 597l-73 18q0 47 27.5 81t74.5 34q31 0 75.5 -18t65.5 -18q17 0 28.5 11t11.5 28l3 2l73 -18q0 -53 -30 -84t-76 -31q-28 -1 -73.5 17.5t-64.5 18.5q-17 0 -28 -10.5t-11 -28.5zM75 0v516h118v-516h-118z" />
    <glyph glyph-name="Imacron" unicode="&#x12a;" horiz-adv-x="296" 
d="M27 745v89h242v-89h-242zM89 0v662h118v-662h-118z" />
    <glyph glyph-name="imacron" unicode="&#x12b;" horiz-adv-x="268" 
d="M-5 614v80h277v-80h-277zM75 0v516h118v-516h-118z" />
    <glyph glyph-name="Iogonek" unicode="&#x12e;" horiz-adv-x="296" 
d="M191 0q-76 -51 -76 -113q0 -17 11 -29.5t34 -12.5q15 0 30 4l4 -2v-68q-26 -8 -63 -8q-52 0 -85 22.5t-33 65.5q0 80 95 141h-19v662h118v-662h-16z" />
    <glyph glyph-name="iogonek" unicode="&#x12f;" horiz-adv-x="268" 
d="M134 595q-31 0 -53 22t-22 53t22 52.5t53 21.5q30 0 52 -21.5t22 -52.5t-22 -53t-52 -22zM75 0v516h118v-516h-12q-85 -54 -85 -119q0 -17 11 -29.5t34 -12.5q15 0 30 4l4 -2v-68q-26 -8 -63 -8q-52 0 -85 22.5t-33 65.5q0 84 105 147h-24z" />
    <glyph glyph-name="Idotaccent" unicode="&#x130;" horiz-adv-x="296" 
d="M149 721q-29 0 -49.5 20.5t-20.5 50.5q0 29 20.5 49.5t49.5 20.5t49.5 -21t20.5 -49q0 -30 -20.5 -50.5t-49.5 -20.5zM89 0v662h118v-662h-118z" />
    <glyph glyph-name="dotlessi" unicode="&#x131;" horiz-adv-x="268" 
d="M75 0v516h118v-516h-118z" />
    <glyph glyph-name="IJ" unicode="&#x132;" horiz-adv-x="669" 
d="M89 0v662h118v-662h-118zM366 -3q-25 0 -56 3v99l4 2q16 -3 37 -3q119 0 119 146v418h118v-408q0 -257 -222 -257z" />
    <glyph glyph-name="ij" unicode="&#x133;" horiz-adv-x="541" 
d="M134 595q-31 0 -53 22t-22 53t22 52.5t53 21.5q30 0 52 -21.5t22 -52.5t-22 -53t-52 -22zM407 595q-30 0 -52 22t-22 53t22 52.5t52 21.5q31 0 53 -21.5t22 -52.5t-22 -53t-53 -22zM75 55v461h118v-461h-118zM255 -170q-60 0 -121 18v102l2 1q48 -15 106 -15
q60 0 83.5 39t23.5 142v399h117v-420q0 -143 -54 -204.5t-157 -61.5z" />
    <glyph glyph-name="Kcommaaccent" unicode="&#x136;" horiz-adv-x="647" 
d="M306 337l348 -334l-1 -3h-148l-299 282v-282h-117v662h117v-288l291 288h137l1 -4zM274 -52l101 8l9 -13q0 -97 -51 -180h-74q18 66 18 134q0 8 -0.5 16.5t-1.5 18.5t-1 16z" />
    <glyph glyph-name="kcommaaccent" unicode="&#x137;" horiz-adv-x="560" 
d="M301 271l254 -268l-1 -3h-144l-217 226v-226h-118v710h118v-408l211 214h136l1 -3zM232 -52l101 8l9 -13q0 -97 -51 -180h-74q18 66 18 134q0 8 -0.5 16.5t-1.5 18.5t-1 16z" />
    <glyph glyph-name="kgreenlandic" unicode="&#x138;" horiz-adv-x="560" 
d="M301 271l254 -268l-1 -3h-144l-217 226v-226h-118v516h118v-215l214 215h136l2 -3z" />
    <glyph glyph-name="Lacute" unicode="&#x139;" horiz-adv-x="504" 
d="M290 793l-6 -14l-219 -79l-24 61l191 122zM206 98h287v-98h-404v662h117v-564z" />
    <glyph glyph-name="lacute" unicode="&#x13a;" horiz-adv-x="300" 
d="M32 744l-24 61l191 122l58 -90l-6 -14zM217 -10q-146 0 -146 145v575h118v-545q0 -69 53 -69q21 0 38 9l3 -1v-102q-31 -12 -66 -12z" />
    <glyph glyph-name="Lcommaaccent" unicode="&#x13b;" horiz-adv-x="504" 
d="M206 98h287v-98h-404v662h117v-564zM238 -52l101 8l9 -13q0 -97 -51 -180h-74q18 66 18 134q0 8 -0.5 16.5t-1.5 18.5t-1 16z" />
    <glyph glyph-name="lcommaaccent" unicode="&#x13c;" horiz-adv-x="300" 
d="M217 -10q-146 0 -146 145v575h118v-545q0 -69 53 -69q21 0 38 9l3 -1v-102q-31 -12 -66 -12zM109 -237q18 66 18 134q0 8 -0.5 16.5t-1.5 18.5t-1 16l101 8l9 -13q0 -97 -51 -180h-74z" />
    <glyph glyph-name="Lcaron" unicode="&#x13d;" horiz-adv-x="510" 
d="M447 666l-35 -216h-70l8 228h87zM206 98h287v-98h-404v662h117v-564z" />
    <glyph glyph-name="lcaron" unicode="&#x13e;" horiz-adv-x="317" 
d="M243 486l8 228h87l10 -11l-35 -217h-70zM217 -10q-146 0 -146 145v575h118v-545q0 -69 53 -69q22 0 39 9l2 -1v-102q-31 -12 -66 -12z" />
    <glyph glyph-name="Ldot" unicode="&#x13f;" horiz-adv-x="527" 
d="M206 98h287v-98h-404v662h117v-564zM402 328q-32 0 -49 17t-17 44t17 45t49 18t49 -18t17 -45t-17 -44t-49 -17z" />
    <glyph glyph-name="ldot" unicode="&#x140;" horiz-adv-x="376" 
d="M217 -10q-146 0 -146 145v575h118v-545q0 -69 53 -69q22 0 39 9l2 -1v-102q-31 -12 -66 -12zM319 296q-32 0 -49 16.5t-17 43.5q0 28 17 46t49 18t49 -18t17 -46q0 -27 -17 -43.5t-49 -16.5z" />
    <glyph glyph-name="Lslash" unicode="&#x141;" horiz-adv-x="516" 
d="M218 98h286v-98h-404v246l-69 -43l-4 2v93l73 46v318h118v-244l70 44h4v-96l-74 -46v-222z" />
    <glyph glyph-name="lslash" unicode="&#x142;" horiz-adv-x="349" 
d="M313 105l2 -1v-102q-31 -12 -66 -12q-146 0 -146 145v139l-67 -43h-4v92l71 46v341h118v-266l71 46h4v-92l-75 -48v-185q0 -69 53 -69q22 0 39 9z" />
    <glyph glyph-name="Nacute" unicode="&#x143;" horiz-adv-x="739" 
d="M274 700l-24 61l191 122l58 -90l-6 -14zM89 0v662h51l395 -432h3v432h112v-662h-50l-396 435h-3v-435h-112z" />
    <glyph glyph-name="nacute" unicode="&#x144;" horiz-adv-x="623" 
d="M431 670l-197 -110l-39 57l163 150l76 -83zM354 529q90 0 145.5 -57.5t55.5 -163.5v-308h-118v276q0 73 -33 106t-87 33q-43 0 -77 -23.5t-47 -64.5v-327h-118v516h96l12 -70q25 37 69 60t102 23z" />
    <glyph glyph-name="Ncommaaccent" unicode="&#x145;" horiz-adv-x="739" 
d="M89 0v662h51l395 -432h3v432h112v-662h-50l-396 435h-3v-435h-112zM304 -237q18 66 18 134q0 8 -0.5 16.5t-1.5 18.5t-1 16l101 8l9 -13q0 -97 -51 -180h-74z" />
    <glyph glyph-name="ncommaaccent" unicode="&#x146;" horiz-adv-x="623" 
d="M354 529q90 0 145.5 -57.5t55.5 -163.5v-308h-118v276q0 73 -33 106t-87 33q-43 0 -77 -23.5t-47 -64.5v-327h-118v516h96l12 -70q25 37 69 60t102 23zM250 -52l101 8l9 -13q0 -97 -51 -180h-74q18 66 18 134q0 8 -0.5 16.5t-1.5 18.5t-1 16z" />
    <glyph glyph-name="Ncaron" unicode="&#x147;" horiz-adv-x="739" 
d="M348 702l-129 118l40 52l117 -78l111 78l38 -52l-124 -118h-53zM89 0v662h51l395 -432h3v432h112v-662h-50l-396 435h-3v-435h-112z" />
    <glyph glyph-name="ncaron" unicode="&#x148;" horiz-adv-x="623" 
d="M337 568h-54l-125 142l47 44l106 -86l101 86l45 -44zM354 529q90 0 145.5 -57.5t55.5 -163.5v-308h-118v276q0 73 -33 106t-87 33q-43 0 -77 -23.5t-47 -64.5v-327h-118v516h96l12 -70q25 37 69 60t102 23z" />
    <glyph glyph-name="Eng" unicode="&#x14a;" horiz-adv-x="738" 
d="M538 662h112v-599q0 -259 -219 -259q-30 0 -55 4v96l1 1q18 -3 39 -3q122 0 122 151v15l-334 367h-3v-435h-112v662h51l395 -432h3v432z" />
    <glyph glyph-name="eng" unicode="&#x14b;" horiz-adv-x="617" 
d="M357 529q87 0 139.5 -54.5t52.5 -156.5v-344q0 -94 -47 -139.5t-131 -45.5q-8 0 -24 1.5t-20 1.5v96l2 2q14 -2 16 -2q45 0 66 24.5t21 81.5v289q0 68 -33 100t-85 32q-42 0 -75 -22.5t-46 -63.5v-329h-118v516h96l13 -79q56 92 173 92z" />
    <glyph glyph-name="Omacron" unicode="&#x14c;" horiz-adv-x="783" 
d="M240 743v86h303v-86h-303zM392 -13q-145 0 -245 91t-100 253q0 158 97.5 251.5t247.5 93.5q145 0 244.5 -91.5t99.5 -253.5q0 -158 -97 -251t-247 -93zM392 92q100 0 161 64.5t61 174.5q0 111 -61 175t-161 64t-161.5 -64t-61.5 -175q0 -110 61.5 -174.5t161.5 -64.5z
" />
    <glyph glyph-name="omacron" unicode="&#x14d;" horiz-adv-x="634" 
d="M166 614v80h301v-80h-301zM316 -13q-117 0 -195 71t-78 201q0 123 78.5 196.5t194.5 73.5q118 0 196 -70.5t78 -200.5q0 -124 -78.5 -197.5t-195.5 -73.5zM316 88q70 0 111.5 47t41.5 124t-41.5 122.5t-111.5 45.5q-69 0 -110.5 -46t-41.5 -122q0 -78 41.5 -124.5
t110.5 -46.5z" />
    <glyph glyph-name="Ohungarumlaut" unicode="&#x150;" horiz-adv-x="783" 
d="M304 706l-58 25l71 166l90 -21l2 -16zM500 706l-59 25l72 166l89 -21l3 -16zM392 -13q-145 0 -245 91t-100 253q0 158 97.5 251.5t247.5 93.5q145 0 244.5 -91.5t99.5 -253.5q0 -158 -97 -251t-247 -93zM392 92q100 0 161 64.5t61 174.5q0 111 -61 175t-161 64
t-161.5 -64t-61.5 -175q0 -110 61.5 -174.5t161.5 -64.5z" />
    <glyph glyph-name="ohungarumlaut" unicode="&#x151;" horiz-adv-x="634" 
d="M233 562l-53 29l84 173l84 -29l1 -17zM413 562l-54 29l84 173l83 -29l2 -17zM316 -13q-117 0 -195 71t-78 201q0 123 78.5 196.5t194.5 73.5q118 0 196 -70.5t78 -200.5q0 -124 -78.5 -197.5t-195.5 -73.5zM316 88q70 0 111.5 47t41.5 124t-41.5 122.5t-111.5 45.5
q-69 0 -110.5 -46t-41.5 -122q0 -78 41.5 -124.5t110.5 -46.5z" />
    <glyph glyph-name="OE" unicode="&#x152;" horiz-adv-x="933" 
d="M882 94v-94h-412q-44 -11 -91 -11q-136 0 -231.5 91t-95.5 253q0 158 92.5 251t234.5 93q52 0 97 -13h395v-93h-244q66 -76 79 -184h146v-92h-145q-9 -120 -80 -201h255zM173 333q0 -110 57.5 -174t148.5 -64q94 0 151.5 64.5t57.5 173.5t-57.5 173.5t-151.5 64.5
q-91 0 -148.5 -64t-57.5 -174z" />
    <glyph glyph-name="oe" unicode="&#x153;" horiz-adv-x="967" 
d="M698 529q105 0 166 -64.5t62 -185.5q0 -34 -1 -51h-355q8 -70 52 -106.5t118 -36.5q76 0 152 38l3 -2v-93q-72 -41 -170 -41q-143 0 -215 102q-68 -102 -207 -102q-114 0 -187 71.5t-73 198.5q0 119 74 195.5t186 76.5q137 0 206 -100q66 100 189 100zM572 309h245
q-6 62 -37.5 93.5t-83.5 31.5q-48 0 -81 -32t-43 -93zM306 87q66 0 104.5 47t38.5 125q0 77 -38.5 123t-104.5 46q-62 0 -102 -47.5t-40 -123.5q0 -77 39.5 -123.5t102.5 -46.5z" />
    <glyph glyph-name="Racute" unicode="&#x154;" horiz-adv-x="607" 
d="M417 779l-219 -79l-24 61l191 122l58 -90zM411 257l161 -254l-1 -3h-126l-148 239h-92v-239h-116v662q92 6 190 6q119 0 190.5 -50.5t71.5 -160.5q0 -78 -35.5 -128t-94.5 -72zM205 565v-235h75q64 0 103.5 30.5t39.5 86.5q0 59 -34 89.5t-99 30.5q-66 0 -85 -2z" />
    <glyph glyph-name="racute" unicode="&#x155;" horiz-adv-x="401" 
d="M354 670l-197 -110l-39 57l163 150l76 -83zM324 527q33 0 56 -8v-106l-3 -2q-23 9 -53 9q-116 0 -131 -134v-286h-118v516h96l11 -71q22 41 60 61.5t82 20.5z" />
    <glyph glyph-name="Rcommaaccent" unicode="&#x156;" horiz-adv-x="607" 
d="M411 257l161 -254l-1 -3h-126l-148 239h-92v-239h-116v662q92 6 190 6q119 0 190.5 -50.5t71.5 -160.5q0 -78 -35.5 -128t-94.5 -72zM205 565v-235h75q64 0 103.5 30.5t39.5 86.5q0 59 -34 89.5t-99 30.5q-66 0 -85 -2zM250 -52l101 8l9 -13q0 -97 -51 -180h-74
q18 66 18 134q0 8 -0.5 16.5t-1.5 18.5t-1 16z" />
    <glyph glyph-name="rcommaaccent" unicode="&#x157;" horiz-adv-x="401" 
d="M324 527q33 0 56 -8v-106l-3 -2q-23 9 -53 9q-116 0 -131 -134v-286h-118v516h96l11 -71q22 41 60 61.5t82 20.5zM81 -52l101 8l9 -13q0 -97 -51 -180h-74q18 66 18 134q0 8 -0.5 16.5t-1.5 18.5t-1 16z" />
    <glyph glyph-name="Rcaron" unicode="&#x158;" horiz-adv-x="607" 
d="M325 702h-53l-129 118l40 52l117 -78l111 78l38 -52zM411 257l161 -254l-1 -3h-126l-148 239h-92v-239h-116v662q92 6 190 6q119 0 190.5 -50.5t71.5 -160.5q0 -78 -35.5 -128t-94.5 -72zM205 565v-235h75q64 0 103.5 30.5t39.5 86.5q0 59 -34 89.5t-99 30.5
q-66 0 -85 -2z" />
    <glyph glyph-name="rcaron" unicode="&#x159;" horiz-adv-x="401" 
d="M260 568h-54l-125 142l47 44l106 -86l101 86l45 -44zM182 445q22 41 60 61.5t82 20.5q33 0 56 -8v-106l-3 -2q-23 9 -53 9q-116 0 -131 -134v-286h-118v516h96z" />
    <glyph glyph-name="Sacute" unicode="&#x15a;" horiz-adv-x="531" 
d="M178 700l-24 61l191 122l58 -90l-6 -14zM245 -12q-110 0 -191 43v114l4 2q80 -57 175 -57q58 0 92 23t34 64q0 40 -26.5 66t-100.5 58q-77 33 -122 75.5t-45 111.5q0 91 63.5 139.5t159.5 48.5q100 0 167 -31v-106l-3 -1q-61 35 -150 35q-55 1 -87 -18t-32 -56
q0 -22 17.5 -41t33 -27.5t62.5 -30.5q11 -5 16 -8q80 -37 122 -83.5t42 -125.5q0 -90 -63 -142.5t-168 -52.5z" />
    <glyph glyph-name="sacute" unicode="&#x15b;" horiz-adv-x="486" 
d="M171 568l-39 57l163 150l76 -83l-3 -14zM228 -13q-109 0 -183 37v105l3 1q76 -50 174 -50q111 0 111 57q0 29 -25 45t-99 36q-83 23 -121.5 58t-38.5 96q0 71 60 114t159 43q91 0 153 -25v-100l-4 -1q-61 29 -147 29q-48 0 -77 -14t-29 -40q0 -24 23.5 -37.5t92.5 -32.5
q87 -22 126.5 -59t39.5 -101q0 -78 -58 -119.5t-160 -41.5z" />
    <glyph glyph-name="Scedilla" unicode="&#x15e;" horiz-adv-x="531" 
d="M476 183q0 -77 -47 -127t-129 -64l-26 -38q4 1 15 1q91 -4 91 -88q0 -54 -39.5 -79.5t-98.5 -25.5q-32 0 -64 10v59l3 1q21 -7 44 -7q59 0 59 40q0 34 -43 34q-23 0 -40 -6l-2 3v49l28 43q-95 2 -173 43v114l4 2q80 -57 175 -57q58 0 92 23t34 64q0 40 -26.5 66
t-100.5 58q-77 33 -122 75.5t-45 111.5q0 91 63.5 139.5t159.5 48.5q100 0 167 -31v-106l-3 -1q-61 35 -150 35q-55 1 -87 -18t-32 -56q0 -22 17.5 -41t33 -27.5t62.5 -30.5q11 -5 16 -8q80 -37 122 -83.5t42 -125.5z" />
    <glyph glyph-name="scedilla" unicode="&#x15f;" horiz-adv-x="486" 
d="M446 148q0 -67 -44 -107.5t-124 -50.5l-24 -36q4 1 15 1q91 -4 91 -88q0 -54 -39.5 -79.5t-98.5 -25.5q-32 0 -64 10v59l3 1q21 -7 44 -7q59 0 59 40q0 34 -43 34q-24 0 -40 -6l-2 3v49l28 42q-96 4 -162 37v105l3 1q76 -50 174 -50q111 0 111 57q0 29 -25 45t-99 36
q-83 23 -121.5 58t-38.5 96q0 71 60 114t159 43q91 0 153 -25v-100l-4 -1q-61 29 -147 29q-48 0 -77 -14t-29 -40q0 -24 23.5 -37.5t92.5 -32.5q87 -22 126.5 -59t39.5 -101z" />
    <glyph glyph-name="Scaron" unicode="&#x160;" horiz-adv-x="531" 
d="M252 702l-129 118l40 52l117 -78l111 78l38 -52l-124 -118h-53zM245 -12q-110 0 -191 43v114l4 2q80 -57 175 -57q58 0 92 23t34 64q0 40 -26.5 66t-100.5 58q-77 33 -122 75.5t-45 111.5q0 91 63.5 139.5t159.5 48.5q100 0 167 -31v-106l-3 -1q-61 35 -150 35
q-55 1 -87 -18t-32 -56q0 -22 17.5 -41t33 -27.5t62.5 -30.5q11 -5 16 -8q80 -37 122 -83.5t42 -125.5q0 -90 -63 -142.5t-168 -52.5z" />
    <glyph glyph-name="scaron" unicode="&#x161;" horiz-adv-x="486" 
d="M220 576l-125 142l47 44l106 -86l101 86l45 -44l-120 -142h-54zM228 -13q-109 0 -183 37v105l3 1q76 -50 174 -50q111 0 111 57q0 29 -25 45t-99 36q-83 23 -121.5 58t-38.5 96q0 71 60 114t159 43q91 0 153 -25v-100l-4 -1q-61 29 -147 29q-48 0 -77 -14t-29 -40
q0 -24 23.5 -37.5t92.5 -32.5q87 -22 126.5 -59t39.5 -101q0 -78 -58 -119.5t-160 -41.5z" />
    <glyph glyph-name="uni0162" unicode="&#x162;" horiz-adv-x="574" 
d="M349 0h-23l-31 -46q4 1 15 1q91 -4 91 -88q0 -54 -39.5 -79.5t-98.5 -25.5q-32 0 -64 10v59l3 1q21 -7 44 -7q59 0 59 40q0 34 -43 34q-24 0 -40 -6l-2 3v49l36 55h-25v557h-217v105h546v-105h-211v-557z" />
    <glyph glyph-name="uni0163" unicode="&#x163;" horiz-adv-x="407" 
d="M390 421h-164v-230q0 -92 82 -92q41 0 79 19l3 -1v-100q-37 -19 -91 -22l-27 -41q4 1 15 1q91 -4 91 -88q0 -54 -39.5 -79.5t-98.5 -25.5q-32 0 -64 10v59l3 1q21 -7 44 -7q59 0 59 40q0 34 -43 34q-24 0 -40 -6l-2 3v49l34 53q-59 11 -91 54t-32 115v254h-91v95h91v125
l115 23l3 -2v-146h164v-95z" />
    <glyph glyph-name="Tcaron" unicode="&#x164;" horiz-adv-x="574" 
d="M316 702h-53l-129 118l40 52l117 -78l111 78l38 -52zM560 662v-105h-211v-557h-118v557h-217v105h546z" />
    <glyph glyph-name="tcaron" unicode="&#x165;" horiz-adv-x="403" 
d="M403 787l-37 -188h-62l8 199h81zM226 662v-146h164v-95h-164v-230q0 -92 82 -92q41 0 79 19l3 -1v-100q-45 -23 -116 -23q-79 0 -122.5 44.5t-43.5 128.5v254h-91v95h91v125l115 23z" />
    <glyph glyph-name="Tbar" unicode="&#x166;" horiz-adv-x="581" 
d="M564 557h-211v-214h89v-79h-89v-264h-118v264h-97v79h97v214h-217v105h546v-105z" />
    <glyph glyph-name="tbar" unicode="&#x167;" horiz-adv-x="407" 
d="M390 421h-164v-107h98v-80h-98v-43q0 -92 82 -92q41 0 79 19l3 -1v-100q-45 -23 -116 -23q-79 0 -122.5 44.5t-43.5 128.5v67h-88v80h88v107h-91v95h91v125l115 23l3 -2v-146h164v-95z" />
    <glyph glyph-name="Utilde" unicode="&#x168;" horiz-adv-x="717" 
d="M256 710l-73 21q2 49 31.5 81.5t76.5 32.5q30 0 71.5 -17t60.5 -17q16 0 28 11t12 28l2 2l73 -22q-2 -50 -31.5 -81t-76.5 -31q-24 0 -67.5 17t-63.5 17q-18 0 -29.5 -11.5t-11.5 -28.5zM359 -14q-134 0 -206.5 71t-72.5 202v403h117v-388q0 -93 42 -140.5t121 -47.5
t121 48t42 140v388h114v-403q0 -130 -73.5 -201.5t-204.5 -71.5z" />
    <glyph glyph-name="utilde" unicode="&#x169;" horiz-adv-x="611" 
d="M208 599l-3 -2l-73 18q0 47 27.5 81t74.5 34q31 0 75.5 -18t65.5 -18q17 0 28.5 11t11.5 28l3 2l73 -18q0 -53 -30 -84t-76 -31q-28 -1 -73.5 17.5t-64.5 18.5q-17 0 -28 -10.5t-11 -28.5zM418 516h118v-516h-96l-11 67q-53 -80 -172 -80q-90 0 -139 52t-49 149v328h118
v-304q0 -124 110 -124q41 0 74.5 21.5t46.5 65.5v341z" />
    <glyph glyph-name="Umacron" unicode="&#x16a;" horiz-adv-x="717" 
d="M207 743v86h303v-86h-303zM359 -14q-134 0 -206.5 71t-72.5 202v403h117v-388q0 -93 42 -140.5t121 -47.5t121 48t42 140v388h114v-403q0 -130 -73.5 -201.5t-204.5 -71.5z" />
    <glyph glyph-name="umacron" unicode="&#x16b;" horiz-adv-x="611" 
d="M458 694v-80h-301v80h301zM418 516h118v-516h-96l-11 67q-53 -80 -172 -80q-90 0 -139 52t-49 149v328h118v-304q0 -124 110 -124q41 0 74.5 21.5t46.5 65.5v341z" />
    <glyph glyph-name="Uring" unicode="&#x16e;" horiz-adv-x="717" 
d="M359 685q-47 0 -77 28t-30 71t30 71.5t77 28.5t77 -28.5t30 -71.5q0 -42 -30 -70.5t-77 -28.5zM359 742q19 0 31 12t12 30t-12 30t-31 12q-18 0 -30 -12t-12 -30t12 -30t30 -12zM359 -14q-134 0 -206.5 71t-72.5 202v403h117v-388q0 -93 42 -140.5t121 -47.5t121 48
t42 140v388h114v-403q0 -130 -73.5 -201.5t-204.5 -71.5z" />
    <glyph glyph-name="uring" unicode="&#x16f;" horiz-adv-x="611" 
d="M308 557q-48 0 -79 31t-31 77q0 45 31 75.5t79 30.5q49 0 80 -30.5t31 -75.5q0 -47 -30.5 -77.5t-80.5 -30.5zM309 712q-20 0 -34 -13.5t-14 -33.5t14 -34t34 -14q21 0 34.5 14t13.5 34t-13.5 33.5t-34.5 13.5zM418 516h118v-516h-96l-11 67q-53 -80 -172 -80
q-90 0 -139 52t-49 149v328h118v-304q0 -124 110 -124q41 0 74.5 21.5t46.5 65.5v341z" />
    <glyph glyph-name="Uhungarumlaut" unicode="&#x170;" horiz-adv-x="717" 
d="M271 706l-58 25l71 166l90 -21l2 -16zM467 706l-59 25l72 166l89 -21l3 -16zM359 -14q-134 0 -206.5 71t-72.5 202v403h117v-388q0 -93 42 -140.5t121 -47.5t121 48t42 140v388h114v-403q0 -130 -73.5 -201.5t-204.5 -71.5z" />
    <glyph glyph-name="uhungarumlaut" unicode="&#x171;" horiz-adv-x="611" 
d="M340 718l-116 -156l-53 29l84 173l84 -29zM519 718l-115 -156l-54 29l84 173l83 -29zM418 516h118v-516h-96l-11 67q-53 -80 -172 -80q-90 0 -139 52t-49 149v328h118v-304q0 -124 110 -124q41 0 74.5 21.5t46.5 65.5v341z" />
    <glyph glyph-name="Uogonek" unicode="&#x172;" horiz-adv-x="717" 
d="M523 662h114v-403q0 -101 -45 -167.5t-129 -91.5q-76 -51 -76 -113q0 -17 11 -29.5t34 -12.5q15 0 30 4l4 -2v-68q-26 -8 -63 -8q-52 0 -85 22.5t-33 65.5q0 72 75 127h-1q-134 0 -206.5 71t-72.5 202v403h117v-388q0 -93 42 -140.5t121 -47.5t121 48t42 140v388z" />
    <glyph glyph-name="uogonek" unicode="&#x173;" horiz-adv-x="611" 
d="M418 516h118v-516h-2q-83 -54 -83 -118q0 -17 11 -29.5t34 -12.5q15 0 30 4l4 -2v-68q-26 -8 -63 -8q-52 0 -85 22.5t-33 65.5q0 85 103 146h-12l-11 67q-53 -80 -172 -80q-90 0 -139 52t-49 149v328h118v-304q0 -124 110 -124q41 0 74.5 21.5t46.5 65.5v341z" />
    <glyph glyph-name="Wcircumflex" unicode="&#x174;" horiz-adv-x="964" 
d="M479 781l-111 -78l-38 52l124 120h53l129 -120l-40 -52zM951 662l1 -4l-216 -665h-88l-155 453l-8 30l-8 -30l-155 -453h-90l-224 665l1 4h124l140 -461l8 -45l11 45l151 456h86l151 -445l12 -51l11 51l135 450h113z" />
    <glyph glyph-name="wcircumflex" unicode="&#x175;" horiz-adv-x="807" 
d="M403 663l-101 -86l-46 44l120 142h55l124 -142l-46 -44zM791 516l1 -3l-173 -513h-84l-123 355l-5 20l-6 -20l-127 -355h-86l-174 513l1 3h118l101 -341l4 -24l5 24l117 341h97l114 -340l5 -23l4 25l102 338h109z" />
    <glyph glyph-name="Ycircumflex" unicode="&#x176;" horiz-adv-x="605" 
d="M189 701l-38 52l124 120h53l129 -120l-40 -52l-117 78zM245 0v268l-239 390l1 4h126l173 -288l171 288h119l1 -4l-236 -392v-266h-116z" />
    <glyph glyph-name="ycircumflex" unicode="&#x177;" horiz-adv-x="535" 
d="M272 654l-101 -86l-46 44l120 142h55l124 -142l-46 -44zM524 516l1 -3l-218 -518l-66 -158h-122l-2 3l97 196l-201 477l1 3h126l132 -362l133 362h119z" />
    <glyph glyph-name="Ydieresis" unicode="&#x178;" horiz-adv-x="605" 
d="M193 723q-26 0 -44.5 18.5t-18.5 44.5t18.5 44.5t44.5 18.5t45 -18.5t19 -44.5t-19 -44.5t-45 -18.5zM416 723q-26 0 -44.5 18.5t-18.5 44.5t18.5 44.5t44.5 18.5t44.5 -18.5t18.5 -44.5t-18.5 -44.5t-44.5 -18.5zM245 0v268l-239 390l1 4h126l173 -288l171 288h119l1 -4
l-236 -392v-266h-116z" />
    <glyph glyph-name="Zacute" unicode="&#x179;" horiz-adv-x="595" 
d="M197 700l-24 61l191 122l58 -90l-6 -14zM36 0v40l357 526h-355l-1 96h516v-40l-362 -525h369v-97h-524z" />
    <glyph glyph-name="zacute" unicode="&#x17a;" horiz-adv-x="524" 
d="M383 670l-197 -110l-39 57l163 150l76 -83zM193 98h296v-98h-452v56l285 361h-283v99h442v-59z" />
    <glyph glyph-name="Zdotaccent" unicode="&#x17b;" horiz-adv-x="595" 
d="M295 721q-29 0 -49.5 20.5t-20.5 50.5q0 29 20.5 49.5t49.5 20.5t49.5 -21t20.5 -49q0 -30 -20.5 -50.5t-49.5 -20.5zM36 0v40l357 526h-355l-1 96h516v-40l-362 -525h369v-97h-524z" />
    <glyph glyph-name="zdotaccent" unicode="&#x17c;" horiz-adv-x="524" 
d="M259 595q-31 0 -53 22t-22 53t22 52.5t53 21.5q30 0 52 -21.5t22 -52.5t-22 -53t-52 -22zM193 98h296v-98h-452v56l285 361h-283v99h442v-59z" />
    <glyph glyph-name="Zcaron" unicode="&#x17d;" horiz-adv-x="595" 
d="M271 702l-129 118l40 52l117 -78l111 78l38 -52l-124 -118h-53zM36 0v40l357 526h-355l-1 96h516v-40l-362 -525h369v-97h-524z" />
    <glyph glyph-name="zcaron" unicode="&#x17e;" horiz-adv-x="524" 
d="M289 568h-54l-125 142l47 44l106 -86l101 86l45 -44zM193 98h296v-98h-452v56l285 361h-283v99h442v-59z" />
    <glyph glyph-name="uni01EA" unicode="&#x1ea;" horiz-adv-x="783" 
d="M497 0q-83 -52 -83 -117q0 -17 11 -29.5t34 -12.5q15 0 30 4l4 -2v-68q-26 -8 -63 -8q-52 0 -85 22.5t-33 65.5q0 75 82 132h-2q-145 0 -245 91t-100 253q0 158 97.5 251.5t247.5 93.5q145 0 244.5 -91.5t99.5 -253.5q0 -128 -65 -214.5t-174 -116.5zM169 331
q0 -110 61.5 -174.5t161.5 -64.5t161 64.5t61 174.5q0 111 -61 175t-161 64t-161.5 -64t-61.5 -175z" />
    <glyph glyph-name="uni01EB" unicode="&#x1eb;" horiz-adv-x="634" 
d="M409 1q-77 -54 -77 -114q0 -17 11 -29.5t34 -12.5q15 0 30 4l4 -2v-68q-26 -8 -63 -8q-52 0 -85 22.5t-33 65.5q0 71 76 128q-113 3 -188 74t-75 198q0 123 78.5 196.5t194.5 73.5q118 0 196 -70.5t78 -200.5q0 -97 -49.5 -164t-131.5 -93zM164 259q0 -78 41.5 -124.5
t110.5 -46.5q70 0 111.5 47t41.5 124t-41.5 122.5t-111.5 45.5q-69 0 -110.5 -46t-41.5 -122z" />
    <glyph glyph-name="AEacute" unicode="&#x1fc;" horiz-adv-x="839" 
d="M626 783l-219 -79l-24 61l191 122l58 -90zM525 96h266v-96h-385v171h-209l-103 -171h-120l399 662h407v-96h-255v-176h236v-95h-236v-199zM246 254h160v278l-60 -112z" />
    <glyph glyph-name="aeacute" unicode="&#x1fd;" horiz-adv-x="890" 
d="M564 670l-197 -110l-39 57l163 150l76 -83zM605 529q109 0 172 -64.5t64 -185.5q0 -10 -0.5 -27t-0.5 -25h-361q9 -68 52 -105t105 -37q93 0 169 43l4 -2v-96q-77 -43 -183 -43q-66 0 -123 25t-93 75q-84 -99 -209 -99q-79 0 -123.5 39t-44.5 107q0 51 24.5 85.5
t72.5 52.5t101.5 25.5t127.5 8.5q-5 123 -135 123q-91 0 -144 -33l-3 2v94q21 14 67 25.5t101 11.5q128 0 184 -79q70 79 176 79zM480 306h246q-11 128 -121 128q-48 0 -81.5 -33t-43.5 -95zM224 82q48 0 88.5 20.5t63.5 53.5q-11 33 -14 71q-105 -2 -159.5 -19t-54.5 -65
q0 -28 21 -44.5t55 -16.5z" />
    <glyph glyph-name="Oslashacute" unicode="&#x1fe;" horiz-adv-x="783" 
d="M513 779l-219 -79l-24 61l191 122l58 -90zM737 678v-8l-86 -100q85 -95 85 -239q0 -158 -97 -251t-247 -93q-110 0 -196 53l-49 -57h-100v11l85 99q-85 93 -85 238q0 158 97.5 251.5t247.5 93.5q107 0 193 -52l47 54h105zM169 331q0 -88 40 -148l304 355q-52 32 -121 32
q-100 0 -161.5 -64t-61.5 -175zM614 331q0 87 -40 149l-305 -355q51 -33 123 -33q100 0 161 64.5t61 174.5z" />
    <glyph glyph-name="oslashacute" unicode="&#x1ff;" horiz-adv-x="635" 
d="M442 670l-197 -110l-39 57l163 150l76 -83zM594 534v-8l-68 -81q65 -72 65 -187q0 -123 -78.5 -197t-195.5 -74q-83 0 -147 36l-35 -42h-91v11l66 79q-66 72 -66 188q0 123 78.5 196.5t194.5 73.5q81 0 146 -35l33 40h98zM165 259q0 -54 22 -96l205 246q-32 18 -75 18
q-69 0 -110.5 -46t-41.5 -122zM470 259q0 53 -22 94l-207 -246q33 -19 76 -19q70 0 111.5 47t41.5 124z" />
    <glyph glyph-name="Scommaaccent" unicode="&#x218;" horiz-adv-x="531" 
d="M245 -12q-110 0 -191 43v114l4 2q80 -57 175 -57q58 0 92 23t34 64q0 40 -26.5 66t-100.5 58q-77 33 -122 75.5t-45 111.5q0 91 63.5 139.5t159.5 48.5q100 0 167 -31v-106l-3 -1q-61 35 -150 35q-55 1 -87 -18t-32 -56q0 -22 17.5 -41t33 -27.5t62.5 -30.5q11 -5 16 -8
q80 -37 122 -83.5t42 -125.5q0 -90 -63 -142.5t-168 -52.5zM194 -237q18 66 18 134q0 8 -0.5 16.5t-1.5 18.5t-1 16l101 8l9 -13q0 -97 -51 -180h-74z" />
    <glyph glyph-name="scommaaccent" unicode="&#x219;" horiz-adv-x="486" 
d="M228 -13q-109 0 -183 37v105l3 1q76 -50 174 -50q111 0 111 57q0 29 -25 45t-99 36q-83 23 -121.5 58t-38.5 96q0 71 60 114t159 43q91 0 153 -25v-100l-4 -1q-61 29 -147 29q-48 0 -77 -14t-29 -40q0 -24 23.5 -37.5t92.5 -32.5q87 -22 126.5 -59t39.5 -101
q0 -78 -58 -119.5t-160 -41.5zM174 -237q18 66 18 134q0 8 -0.5 16.5t-1.5 18.5t-1 16l101 8l9 -13q0 -97 -51 -180h-74z" />
    <glyph glyph-name="uni021A" unicode="&#x21a;" horiz-adv-x="574" 
d="M560 662v-105h-211v-557h-118v557h-217v105h546zM230 -52l101 8l9 -13q0 -97 -51 -180h-74q18 66 18 134q0 8 -0.5 16.5t-1.5 18.5t-1 16z" />
    <glyph glyph-name="uni021B" unicode="&#x21b;" horiz-adv-x="407" 
d="M390 421h-164v-230q0 -92 82 -92q41 0 79 19l3 -1v-100q-45 -23 -116 -23q-79 0 -122.5 44.5t-43.5 128.5v254h-91v95h91v125l115 23l3 -2v-146h164v-95zM207 -52l101 8l9 -13q0 -97 -51 -180h-74q18 66 18 134q0 8 -0.5 16.5t-1.5 18.5t-1 16z" />
    <glyph glyph-name="uni0237" unicode="&#x237;" horiz-adv-x="286" 
d="M23 -170q-18 0 -62 6v102l3 1q16 -3 34 -3q51 0 73 29t22 85v466h118v-493q0 -96 -48.5 -144.5t-139.5 -48.5z" />
    <glyph glyph-name="circumflex" unicode="&#x2c6;" horiz-adv-x="372" 
d="M83 568l-46 44l120 142h55l124 -142l-46 -44l-106 86z" />
    <glyph glyph-name="caron" unicode="&#x2c7;" horiz-adv-x="372" 
d="M168 522l-128 149l39 40l109 -96l109 96l39 -40l-129 -149h-39z" />
    <glyph glyph-name="breve" unicode="&#x2d8;" horiz-adv-x="346" 
d="M172 575q-64 0 -106.5 41t-42.5 110l75 8l3 -2q2 -33 21 -53t51 -20q33 0 53.5 20t22.5 52l3 3l71 -8q0 -69 -43.5 -110t-107.5 -41z" />
    <glyph glyph-name="dotaccent" unicode="&#x2d9;" horiz-adv-x="289" 
d="M145 595q-31 0 -53 22t-22 53t22 52.5t53 21.5q30 0 52 -21.5t22 -52.5t-22 -53t-52 -22z" />
    <glyph glyph-name="ring" unicode="&#x2da;" horiz-adv-x="328" 
d="M147 557q-48 0 -79 31t-31 77q0 45 31 75.5t79 30.5q49 0 80 -30.5t31 -75.5q0 -47 -31 -77.5t-80 -30.5zM148 617q21 0 34.5 14t13.5 34t-13.5 33.5t-34.5 13.5q-20 0 -34 -13.5t-14 -33.5t14 -34t34 -14z" />
    <glyph glyph-name="ogonek" unicode="&#x2db;" horiz-adv-x="206" 
d="M133 -229q-52 0 -85 22.5t-33 65.5q0 87 110 150l77 -3q-85 -54 -85 -119q0 -17 11 -29.5t34 -12.5q15 0 30 4l4 -2v-68q-26 -8 -63 -8z" />
    <glyph glyph-name="tilde" unicode="&#x2dc;" horiz-adv-x="380" 
d="M87 597l-73 18q0 47 27.5 81t74.5 34q31 0 75.5 -18t65.5 -18q17 0 28.5 11t11.5 28l3 2l73 -18q0 -53 -30 -84t-76 -31q-28 -1 -73.5 17.5t-64.5 18.5q-17 0 -28 -10.5t-11 -28.5z" />
    <glyph glyph-name="hungarumlaut" unicode="&#x2dd;" horiz-adv-x="395" 
d="M77 562l-53 29l84 173l84 -29l1 -17zM257 562l-54 29l84 173l83 -29l2 -17z" />
    <glyph glyph-name="gravecomb" unicode="&#x300;" 
d="M-47 560l-197 110l-3 14l75 83l163 -150z" />
    <glyph glyph-name="acutecomb" unicode="&#x301;" 
d="M-206 560l-39 57l163 150l76 -83l-3 -14z" />
    <glyph glyph-name="uni0302" unicode="&#x302;" 
d="M-289 568l-46 44l120 142h55l124 -142l-46 -44l-106 86z" />
    <glyph glyph-name="tildecomb" unicode="&#x303;" 
d="M-293 597l-73 18q0 47 27.5 81t74.5 34q31 0 75.5 -18t65.5 -18q17 0 28.5 11t11.5 28l3 2l73 -18q0 -53 -30 -84t-76 -31q-28 -1 -73.5 17.5t-64.5 18.5q-17 0 -28 -10.5t-11 -28.5z" />
    <glyph glyph-name="uni0304" unicode="&#x304;" 
d="M-324 614v80h301v-80h-301z" />
    <glyph glyph-name="uni0306" unicode="&#x306;" 
d="M-174 575q-64 0 -106.5 41t-42.5 110l75 8l3 -2q2 -33 21 -53t51 -20q33 0 53.5 20t22.5 52l3 3l71 -8q0 -69 -43.5 -110t-107.5 -41z" />
    <glyph glyph-name="uni0307" unicode="&#x307;" 
d="M-144 595q-31 0 -53 22t-22 53t22 52.5t53 21.5q30 0 52 -21.5t22 -52.5t-22 -53t-52 -22z" />
    <glyph glyph-name="uni0308" unicode="&#x308;" 
d="M-287 599q-29 0 -49.5 20.5t-20.5 50.5q0 28 20.5 49t49.5 21t50 -21t21 -49q0 -30 -21 -50.5t-50 -20.5zM-74 599q-30 0 -50.5 20.5t-20.5 50.5q0 28 20.5 49t50.5 21q28 0 49.5 -21t21.5 -49q0 -30 -21 -50.5t-50 -20.5z" />
    <glyph glyph-name="uni030A" unicode="&#x30a;" 
d="M-148 557q-48 0 -79 31t-31 77q0 45 31 75.5t79 30.5q49 0 80 -30.5t31 -75.5q0 -47 -30.5 -77.5t-80.5 -30.5zM-147 617q21 0 34.5 14t13.5 34t-13.5 33.5t-34.5 13.5q-20 0 -34 -13.5t-14 -33.5t14 -34t34 -14z" />
    <glyph glyph-name="uni030B" unicode="&#x30b;" 
d="M-318 562l-53 29l84 173l84 -29l1 -17zM-138 562l-54 29l84 173l83 -29l2 -17z" />
    <glyph glyph-name="uni030C" unicode="&#x30c;" 
d="M-210 568l-125 142l47 44l106 -86l101 86l45 -44l-120 -142h-54z" />
    <glyph glyph-name="uni0326" unicode="&#x326;" 
d="M-161 -237q18 66 18 134q0 8 -0.5 16.5t-1.5 18.5t-1 16l101 8l9 -13q0 -97 -51 -180h-74z" />
    <glyph glyph-name="uni0327" unicode="&#x327;" 
d="M-136 -238q-32 0 -64 10v59l3 1q21 -7 44 -7q59 0 59 40q0 34 -43 34q-23 0 -40 -6l-2 3v49l36 55h70l-31 -46q4 1 15 1q91 -4 91 -88q0 -54 -39.5 -79.5t-98.5 -25.5z" />
    <glyph glyph-name="uni0328" unicode="&#x328;" 
d="M-88 -229q-52 0 -85 22.5t-33 65.5q0 87 110 150l77 -3q-85 -54 -85 -119q0 -17 11 -29.5t34 -12.5q15 0 30 4l4 -2v-68q-26 -8 -63 -8z" />
    <glyph glyph-name="uni0335" unicode="&#x335;" 
d="M-334 160v80h304v-80h-304z" />
    <glyph glyph-name="uni0336" unicode="&#x336;" 
d="M-600 329v82h577v-82h-577z" />
    <glyph glyph-name="uni0337" unicode="&#x337;" 
d="M-280 224v93l260 167h4v-93l-260 -167h-4z" />
    <glyph glyph-name="uni0338" unicode="&#x338;" 
d="M-582 -13v11l452 541h99v-8l-459 -544h-92z" />
    <glyph glyph-name="Wgrave" unicode="&#x1e80;" horiz-adv-x="964" 
d="M573 702l-219 79l-6 14l58 90l190 -121zM951 662l1 -4l-216 -665h-88l-155 453l-8 30l-8 -30l-155 -453h-90l-224 665l1 4h124l140 -461l8 -45l11 45l151 456h86l151 -445l12 -51l11 51l135 450h113z" />
    <glyph glyph-name="wgrave" unicode="&#x1e81;" horiz-adv-x="807" 
d="M471 569l-197 110l-3 14l75 83l163 -150zM791 516l1 -3l-173 -513h-84l-123 355l-5 20l-6 -20l-127 -355h-86l-174 513l1 3h118l101 -341l4 -24l5 24l117 341h97l114 -340l5 -23l4 25l102 338h109z" />
    <glyph glyph-name="Wacute" unicode="&#x1e82;" horiz-adv-x="964" 
d="M604 781l-219 -79l-24 61l191 122l58 -90zM951 662l1 -4l-216 -665h-88l-155 453l-8 30l-8 -30l-155 -453h-90l-224 665l1 4h124l140 -461l8 -45l11 45l151 456h86l151 -445l12 -51l11 51l135 450h113z" />
    <glyph glyph-name="wacute" unicode="&#x1e83;" horiz-adv-x="807" 
d="M529 679l-197 -110l-39 57l163 150l76 -83zM791 516l1 -3l-173 -513h-84l-123 355l-5 20l-6 -20l-127 -355h-86l-174 513l1 3h118l101 -341l4 -24l5 24l117 341h97l114 -340l5 -23l4 25l102 338h109z" />
    <glyph glyph-name="Wdieresis" unicode="&#x1e84;" horiz-adv-x="964" 
d="M372 725q-26 0 -44.5 18.5t-18.5 44.5t18.5 44.5t44.5 18.5t45 -18.5t19 -44.5t-19 -44.5t-45 -18.5zM595 725q-26 0 -44.5 18.5t-18.5 44.5t18.5 44.5t44.5 18.5t44.5 -18.5t18.5 -44.5t-18.5 -44.5t-44.5 -18.5zM951 662l1 -4l-216 -665h-88l-155 453l-8 30l-8 -30
l-155 -453h-90l-224 665l1 4h124l140 -461l8 -45l11 45l151 456h86l151 -445l12 -51l11 51l135 450h113z" />
    <glyph glyph-name="wdieresis" unicode="&#x1e85;" horiz-adv-x="807" 
d="M302 608q-29 0 -49.5 20.5t-20.5 50.5q0 28 20.5 49t49.5 21t50 -21t21 -49q0 -30 -21 -50.5t-50 -20.5zM515 608q-30 0 -50.5 20.5t-20.5 50.5q0 28 20.5 49t50.5 21q28 0 49.5 -21t21.5 -49q0 -30 -21 -50.5t-50 -20.5zM791 516l1 -3l-173 -513h-84l-123 355l-5 20
l-6 -20l-127 -355h-86l-174 513l1 3h118l101 -341l4 -24l5 24l117 341h97l114 -340l5 -23l4 25l102 338h109z" />
    <glyph glyph-name="Ygrave" unicode="&#x1ef2;" horiz-adv-x="605" 
d="M394 700l-219 79l-6 14l58 90l190 -121zM245 0v268l-239 390l1 4h126l173 -288l171 288h119l1 -4l-236 -392v-266h-116z" />
    <glyph glyph-name="ygrave" unicode="&#x1ef3;" horiz-adv-x="535" 
d="M340 560l-197 110l-3 14l75 83l163 -150zM524 516l1 -3l-218 -518l-66 -158h-122l-2 3l97 196l-201 477l1 3h126l132 -362l133 362h119z" />
    <glyph glyph-name="uni1EF8" unicode="&#x1ef8;" horiz-adv-x="605" 
d="M201 710l-73 21q2 49 31.5 81.5t76.5 32.5q30 0 71.5 -17t60.5 -17q16 0 28 11t12 28l2 2l73 -22q-2 -50 -31.5 -81t-76.5 -31q-24 0 -67.5 17t-63.5 17q-18 0 -29.5 -11.5t-11.5 -28.5zM245 0v268l-239 390l1 4h126l173 -288l171 288h119l1 -4l-236 -392v-266h-116z" />
    <glyph glyph-name="uni1EF9" unicode="&#x1ef9;" horiz-adv-x="535" 
d="M174 599l-3 -2l-73 18q0 47 27.5 81t74.5 34q31 0 75.5 -18t65.5 -18q17 0 28.5 11t11.5 28l3 2l73 -18q0 -53 -30 -84t-76 -31q-28 -1 -73.5 17.5t-64.5 18.5q-17 0 -28 -10.5t-11 -28.5zM524 516l1 -3l-218 -518l-66 -158h-122l-2 3l97 196l-201 477l1 3h126l132 -362
l133 362h119z" />
    <glyph glyph-name="endash" unicode="&#x2013;" horiz-adv-x="534" 
d="M67 231v96h400v-96h-400z" />
    <glyph glyph-name="emdash" unicode="&#x2014;" horiz-adv-x="872" 
d="M67 231v96h738v-96h-738z" />
    <glyph glyph-name="quoteleft" unicode="&#x2018;" horiz-adv-x="223" 
d="M179 698q-11 -73 -14 -148q-1 -36 2 -86l-97 -17l-15 17q1 104 56 234h68z" />
    <glyph glyph-name="quoteright" unicode="&#x2019;" horiz-adv-x="213" 
d="M48 448q11 73 14 148q1 36 -2 86l97 17l15 -17q-1 -104 -56 -234h-68z" />
    <glyph glyph-name="quotesinglbase" unicode="&#x201a;" horiz-adv-x="221" 
d="M37 -161q11 73 14 148q1 36 -2 86l97 17l15 -17q-1 -104 -56 -234h-68z" />
    <glyph glyph-name="quotedblleft" unicode="&#x201c;" horiz-adv-x="385" 
d="M179 698q-11 -73 -14 -148q-1 -36 2 -86l-97 -17l-15 17q1 104 56 234h68zM340 698q-11 -73 -14 -148q-1 -36 2 -86l-97 -17l-15 17q1 104 56 234h68z" />
    <glyph glyph-name="quotedblright" unicode="&#x201d;" horiz-adv-x="381" 
d="M48 448q11 73 14 148q1 36 -2 86l97 17l15 -17q-1 -104 -56 -234h-68zM209 448q11 73 14 148q1 36 -2 86l97 17l15 -17q-1 -104 -56 -234h-68z" />
    <glyph glyph-name="quotedblbase" unicode="&#x201e;" horiz-adv-x="380" 
d="M37 -161q11 73 14 148q1 36 -2 86l97 17l15 -17q-1 -104 -56 -234h-68zM198 -161q11 73 14 148q1 36 -2 86l97 17l15 -17q-1 -104 -56 -234h-68z" />
    <glyph glyph-name="dagger" unicode="&#x2020;" horiz-adv-x="559" 
d="M317 510l184 17v-110l-169 15l-13 -508h-80l-15 507l-166 -14v110l181 -18l-15 192h110z" />
    <glyph glyph-name="daggerdbl" unicode="&#x2021;" horiz-adv-x="559" 
d="M224 -74l17 185l-185 -15v109l170 -15l14 124l-15 123l-166 -14v110l181 -17l-16 185h110l-17 -184l185 16v-110l-170 15l-12 -124l13 -123l167 14v-109l-182 16l16 -186h-110z" />
    <glyph glyph-name="bullet" unicode="&#x2022;" horiz-adv-x="394" 
d="M197 142q-49 0 -84 35t-35 84t35 84t84 35t84 -35t35 -84t-35 -84t-84 -35z" />
    <glyph glyph-name="ellipsis" unicode="&#x2026;" horiz-adv-x="637" 
d="M121 -9q-33 0 -51.5 19t-18.5 49q0 28 19 48t51 20q33 0 52 -20t19 -48q0 -30 -19 -49t-52 -19zM325 -9q-33 0 -51.5 19t-18.5 49q0 28 19 48t51 20q33 0 52 -20t19 -48q0 -30 -19 -49t-52 -19zM528 -9q-33 0 -51.5 19t-18.5 49q0 28 19 48t51 20q33 0 52 -20t19 -48
q0 -30 -19 -49t-52 -19z" />
    <glyph glyph-name="perthousand" unicode="&#x2030;" horiz-adv-x="1142" 
d="M205 327q-75 0 -121.5 43t-46.5 124t47 126t122 45q77 0 124 -44.5t47 -126.5q0 -81 -47 -124t-125 -43zM119 12l452 639h96l-453 -639h-95zM205 403q38 0 59.5 23.5t21.5 68.5t-21.5 69t-59.5 24q-36 0 -56.5 -24.5t-20.5 -68.5t20.5 -68t56.5 -24zM576 -5
q-76 0 -123 43t-47 123q0 81 47.5 126t122.5 45q76 0 123 -44.5t47 -126.5q0 -80 -47 -123t-123 -43zM940 -5q-76 0 -122.5 43t-46.5 123q0 82 47 126.5t123 44.5t123 -44.5t47 -126.5q0 -81 -47 -123.5t-124 -42.5zM576 72q37 0 58 22.5t21 66.5q0 46 -21 70.5t-58 24.5
t-58 -24.5t-21 -70.5q0 -44 21 -66.5t58 -22.5zM941 72q37 0 58 22.5t21 66.5q0 46 -21 70.5t-58 24.5t-58 -24.5t-21 -70.5q0 -44 21 -66.5t58 -22.5z" />
    <glyph glyph-name="guilsinglleft" unicode="&#x2039;" horiz-adv-x="341" 
d="M180 95l-149 187l151 184h112v-10l-140 -172l141 -181v-8h-115z" />
    <glyph glyph-name="guilsinglright" unicode="&#x203a;" horiz-adv-x="341" 
d="M162 466l149 -187l-151 -184h-112v10l140 172l-141 181v8h115z" />
    <glyph glyph-name="fraction" unicode="&#x2044;" horiz-adv-x="122" 
d="M-173 -12l415 674h91l-416 -674h-90z" />
    <glyph glyph-name="Euro" unicode="&#x20ac;" horiz-adv-x="680" 
d="M619 130l3 -2l-19 -104q-63 -29 -142 -29q-115 0 -201 59t-119 163h-107l14 85h78q-1 9 -1 29q0 15 2 41h-67l15 85h69q34 103 119 161.5t198 58.5q88 0 160 -23l-19 -102l-3 -1q-57 22 -126 22q-147 0 -202 -116h223l-15 -85h-230q-2 -24 -2 -36t2 -34h218l-14 -85h-183
q53 -118 205 -118q76 0 144 31z" />
    <glyph glyph-name="trademark" unicode="&#x2122;" horiz-adv-x="839" 
d="M38 572v86h303v-86h-104v-231h-91v231h-108zM744 658l30 -317h-85l-17 169h-1l-77 -169h-53l-76 172h-1l-18 -172h-86l32 317h91l88 -196l85 196h88z" />
    <glyph glyph-name="minus" unicode="&#x2212;" horiz-adv-x="565" 
d="M68 250v86h429v-86h-429z" />
    <glyph glyph-name="approxequal" unicode="&#x2248;" horiz-adv-x="529" 
d="M140 322l-73 10q0 53 30.5 86t81.5 33q38 0 90 -18.5t79 -18.5q43 0 44 40l4 3l68 -13q0 -52 -30.5 -84t-81.5 -32q-32 0 -85 18.5t-78 18.5q-46 0 -48 -41zM140 121l-73 10q0 54 30.5 87t81.5 33q38 0 90 -18.5t79 -18.5q43 0 44 39l4 3l68 -13q0 -52 -30.5 -84
t-81.5 -32q-32 0 -85 18.5t-78 18.5q-46 0 -48 -40z" />
    <glyph glyph-name="notequal" unicode="&#x2260;" horiz-adv-x="585" 
d="M517 357h-130l-65 -137h195v-83h-234l-55 -117h-100l55 117h-115v83h154l65 137h-219v84h259l51 109h100l-51 -109h90v-84z" />
    <glyph glyph-name="uniF8FF" unicode="&#xf8ff;" horiz-adv-x="1451" 
d="M752 522q-26 0 -43.5 18t-17.5 43q0 26 17.5 44t43.5 18t44 -18t18 -44t-18 -43.5t-44 -17.5zM100 270q0 134 9 314h100q10 -200 10 -314h-119zM604 264q-82 0 -82 66q0 12 2 49t2 38h-22v79l119 30l1 -17h178q10 -64 10 -239h-118q0 92 3 147h-61l3 -65q4 -4 15 -4
q13 0 18 5v-74q-14 -15 -68 -15zM328 265q-92 0 -92 114q0 135 134 135q124 0 124 -117v-127h-83l-8 61q-6 -33 -23.5 -49.5t-51.5 -16.5zM834 270q0 175 10 239h80q6 -44 6 -76q2 15 6.5 30t24 33t49.5 18q42 0 58.5 -25t18.5 -81l3 -138h-114q0 26 1 56t1 37q0 29 -15 29
q-18 0 -18 -29q0 -7 1.5 -37t1.5 -56h-114zM1228 265q-122 0 -122 124q0 125 124 125q121 0 121 -123q0 -126 -123 -126zM366 345q24 0 24 30q0 26 -24 26q-22 0 -22 -26q0 -30 22 -30zM1228 345q23 0 23 30q0 26 -23 26q-21 0 -21 -26q0 -30 21 -30zM390 -50q-61 0 -88 17
v83q24 -16 70 -16q21 0 34 6t16.5 11.5t3.5 10.5q-16 -11 -49 -11q-90 0 -90 83v13h-55l3 -65q6 -4 15 -4q13 0 18 5v-73q-19 -15 -68 -15q-45 0 -63 17t-18 54q0 39 3 81h-18v80l117 29l-1 -18h177v-119q0 -16 3 -21.5t12 -5.5q16 0 16 27v119h104q10 -52 10 -138
q0 -81 -33.5 -115.5t-118.5 -34.5zM558 -44q0 142 10 282h78q7 -42 7 -76q17 81 80 81q37 0 58.5 -29t21.5 -84q0 -135 -137 -135q1 -15 1 -39h-119zM970 -5q-141 0 -141 122q0 59 32.5 92.5t92.5 33.5q55 0 85.5 -30t30.5 -86q0 -21 -3 -35h-124q11 -18 50 -18q34 0 55 12
v-75q-23 -16 -78 -16zM938 109h40q3 27 -17 27q-23 0 -23 -27zM670 72q5 0 12.5 2.5t16 11.5t8.5 23q0 23 -20 23q-22 0 -22 -31q0 -14 5 -29zM1098 -10q-24 0 -24 23t24 23t24 -23t-24 -23zM1098 -5q18 0 18 18t-18 18t-18 -18t18 -18zM1088 2v23h11q10 0 10 -7t-7 -7l6 -9
h-6l-4 9h-5v-9h-5zM1093 15h7q4 0 4 3t-4 3h-7v-6z" />
    <glyph glyph-name="i.loclTRK" horiz-adv-x="268" 
d="M134 595q-31 0 -53 22t-22 53t22 52.5t53 21.5q30 0 52 -21.5t22 -52.5t-22 -53t-52 -22zM75 0v516h118v-516h-118z" />
    <glyph glyph-name="caroncomb.alt" 
d="M-132 486l8 228h87l10 -11l-35 -217h-70z" />
    <glyph glyph-name="uni0308.case" 
d="M-316 723q-26 0 -44.5 18.5t-18.5 44.5t18.5 44.5t44.5 18.5t45 -18.5t19 -44.5t-19 -44.5t-45 -18.5zM-93 723q-26 0 -44.5 18.5t-18.5 44.5t18.5 44.5t44.5 18.5t44.5 -18.5t18.5 -44.5t-18.5 -44.5t-44.5 -18.5z" />
    <glyph glyph-name="uni0307.case" 
d="M-128 721q-29 0 -49.5 20.5t-20.5 50.5q0 29 20.5 49.5t49.5 20.5q28 0 49 -21t21 -49q0 -30 -20.5 -50.5t-49.5 -20.5z" />
    <glyph glyph-name="gravecomb.case" 
d="M-56 700l-219 79l-6 14l58 90l190 -121z" />
    <glyph glyph-name="acutecomb.case" 
d="M-248 700l-24 61l191 122l58 -90l-6 -14z" />
    <glyph glyph-name="uni030B.case" 
d="M-322 706l-58 25l71 166l90 -21l2 -16zM-126 706l-59 25l72 166l89 -21l3 -16z" />
    <glyph glyph-name="uni0302.case" 
d="M-296 701l-38 52l124 120h53l129 -120l-40 -52l-117 78z" />
    <glyph glyph-name="uni030C.case" 
d="M-205 702l-129 118l40 52l117 -78l111 78l38 -52l-124 -118h-53z" />
    <glyph glyph-name="uni0306.case" 
d="M-175 709q-63 0 -106.5 40t-43.5 106l75 8q3 -34 23 -54t54 -20q36 0 57.5 20.5t23.5 53.5l71 -8q0 -66 -44 -106t-110 -40z" />
    <glyph glyph-name="uni030A.case" 
d="M-132 685q-47 0 -77 28t-30 71t30 71.5t77 28.5t77 -28.5t30 -71.5q0 -42 -30 -70.5t-77 -28.5zM-132 742q18 0 30.5 12t12.5 30t-12.5 30t-30.5 12t-30 -12t-12 -30t12 -30t30 -12z" />
    <glyph glyph-name="tildecomb.case" 
d="M-298 710l-73 21q2 49 31.5 81.5t76.5 32.5q30 0 71.5 -17t60.5 -17q16 0 28 11t12 28l2 2l73 -22q-2 -50 -31.5 -81t-76.5 -31q-24 0 -67.5 17t-63.5 17q-18 0 -29.5 -11.5t-11.5 -28.5z" />
    <glyph glyph-name="uni0304.case" 
d="M-323 743v86h303v-86h-303z" />
    <glyph glyph-name="uni0337.case" 
d="M-287 199v93l261 164h4v-96l-261 -163z" />
    <glyph glyph-name="uni0338.case" 
d="M-715 -15v11l585 684h105v-8l-590 -687h-100z" />
    <glyph glyph-name="caron.alt" horiz-adv-x="165" 
d="M33 431l8 236h79l10 -11l-35 -225h-62z" />
    <glyph glyph-name="acute.case" horiz-adv-x="300" 
d="M52 700l-24 61l191 122l58 -90l-6 -14z" />
    <glyph glyph-name="breve.case" horiz-adv-x="346" 
d="M171 709q-63 0 -106.5 40t-43.5 106l75 8q3 -34 23 -54t54 -20q36 0 57.5 20.5t23.5 53.5l71 -8q0 -66 -44 -106t-110 -40z" />
    <glyph glyph-name="caron.case" horiz-adv-x="362" 
d="M157 702l-129 118l40 52l117 -78l111 78l38 -52l-124 -118h-53z" />
    <glyph glyph-name="circumflex.case" horiz-adv-x="362" 
d="M66 701l-38 52l124 120h53l129 -120l-40 -52l-117 78z" />
    <glyph glyph-name="dieresis.case" horiz-adv-x="410" 
d="M94 723q-26 0 -44.5 18.5t-18.5 44.5t18.5 44.5t44.5 18.5t45 -18.5t19 -44.5t-19 -44.5t-45 -18.5zM317 723q-26 0 -44.5 18.5t-18.5 44.5t18.5 44.5t44.5 18.5t44.5 -18.5t18.5 -44.5t-18.5 -44.5t-44.5 -18.5z" />
    <glyph glyph-name="dotaccent.case" horiz-adv-x="256" 
d="M128 721q-29 0 -49.5 20.5t-20.5 50.5q0 29 20.5 49.5t49.5 20.5q28 0 49 -21t21 -49q0 -30 -20.5 -50.5t-49.5 -20.5z" />
    <glyph glyph-name="grave.case" horiz-adv-x="300" 
d="M244 700l-219 79l-6 14l58 90l190 -121z" />
    <glyph glyph-name="hungarumlaut.case" horiz-adv-x="430" 
d="M108 706l-58 25l71 166l90 -21l2 -16zM304 706l-59 25l72 166l89 -21l3 -16z" />
    <glyph glyph-name="macron.case" horiz-adv-x="383" 
d="M20 743v86h303v-86h-303z" />
    <glyph glyph-name="ring.case" horiz-adv-x="264" 
d="M132 685q-47 0 -77 28t-30 71t30 71.5t77 28.5t77 -28.5t30 -71.5q0 -42 -30 -70.5t-77 -28.5zM132 742q18 0 30.5 12t12.5 30t-12.5 30t-30.5 12t-30 -12t-12 -30t12 -30t30 -12z" />
    <glyph glyph-name="tilde.case" horiz-adv-x="388" 
d="M90 710l-73 21q2 49 31.5 81.5t76.5 32.5q30 0 71.5 -17t60.5 -17q16 0 28 11t12 28l2 2l73 -22q-2 -50 -31.5 -81t-76.5 -31q-24 0 -67.5 17t-63.5 17q-18 0 -29.5 -11.5t-11.5 -28.5z" />
    <glyph glyph-name="IJacute" horiz-adv-x="675" 
d="M71 695l-24 61l191 122l58 -90l-6 -14zM451 695l-24 61l191 122l58 -90l-6 -14zM89 0v662h118v-662h-118zM372 -3q-24 0 -56 3v99l4 2q16 -3 37 -3q119 0 119 146v418h118v-408q0 -257 -222 -257z" />
    <glyph glyph-name="ijacute" horiz-adv-x="541" 
d="M60 560l-39 57l160 150l76 -78l-3 -14zM353 560l-38 57l160 150l75 -78l-3 -14zM75 55v461h118v-461h-118zM255 -170q-60 0 -121 18v102l2 1q48 -15 106 -15q60 0 83.5 39t23.5 142v399h117v-420q0 -143 -54 -204.5t-157 -61.5z" />
    </font>
</defs>
</svg>
