<?xml version="1.0" standalone="no"?>
<!DOCTYPE svg PUBLIC "-//W3C//DTD SVG 1.1//EN" "http://www.w3.org/Graphics/SVG/1.1/DTD/svg11.dtd" >
<svg xmlns="http://www.w3.org/2000/svg" xmlns:xlink="http://www.w3.org/1999/xlink" version="1.1">
<metadata>
Created by FontForge 20170731 at Tue Mar  7 13:07:39 2017
 By Aleksey,,,
Copyright (c) 2017 by Alfonso Garci'a - Latinotype Team. All rights reserved.
</metadata>
<defs>
<font id="RawsonAlt-SemiBoldIt" horiz-adv-x="0" >
  <font-face 
    font-family="Rawson Alt SemiBold It"
    font-weight="600"
    font-style="italic"
    font-stretch="normal"
    units-per-em="1100"
    panose-1="0 0 7 0 0 0 0 0 0 0"
    ascent="880"
    descent="-220"
    x-height="519"
    cap-height="662"
    bbox="-663 -239 1323 928"
    underline-thickness="50"
    underline-position="-200"
    slope="-7.5"
    unicode-range="U+0020-FB02"
  />
<missing-glyph horiz-adv-x="481" 
 />
    <glyph glyph-name="fi" unicode="fi" horiz-adv-x="583" 
d="M515 748q31 0 50 -19t19 -47q0 -35 -22.5 -56.5t-54.5 -21.5q-30 0 -49.5 19t-19.5 48q0 35 23 56t54 21zM357 520l-14 -93h-101l-85 -593h-118l85 593h-68l14 93h67q15 96 73.5 148t138.5 52q35 0 63 -9l-15 -103l-2 -1q-18 8 -42 8q-82 0 -98 -95h102zM356 0l74 519
h118l-75 -519h-117z" />
    <glyph glyph-name="fl" unicode="fl" horiz-adv-x="530" 
d="M357 519l-14 -93h-101l-84 -592h-118l84 592h-68l14 93h67q14 96 72.5 148.5t139.5 52.5q39 0 63 -9l-15 -103l-2 -1q-19 8 -42 8q-83 0 -98 -96h102zM457 714h117l-101 -714h-118z" />
    <glyph glyph-name=".notdef" horiz-adv-x="481" 
 />
    <glyph glyph-name=".null" 
 />
    <glyph glyph-name="nonmarkingreturn" horiz-adv-x="366" 
 />
    <glyph glyph-name="space" unicode=" " horiz-adv-x="237" 
 />
    <glyph glyph-name="exclam" unicode="!" horiz-adv-x="269" 
d="M79 212l60 481h116l-76 -481h-100zM101 -12q-29 0 -44.5 16t-15.5 40q0 29 19 48.5t50 19.5q29 0 44.5 -16t15.5 -41q0 -28 -19 -47.5t-50 -19.5z" />
    <glyph glyph-name="quotedbl" unicode="&#x22;" horiz-adv-x="353" 
d="M92 424l29 241h91l9 -10l-60 -231h-69zM235 424l29 241h91l8 -10l-60 -231h-68z" />
    <glyph glyph-name="numbersign" unicode="#" horiz-adv-x="573" 
d="M535 360h-78l-38 -127h91l-11 -78h-104l-32 -107h-79l33 107h-130l-32 -107h-79l33 107h-72l12 78h83l39 127h-98l12 79h110l32 106h78l-32 -106h130l32 106h78l-32 -106h65zM340 233l39 127h-130l-38 -127h129z" />
    <glyph glyph-name="dollar" unicode="$" horiz-adv-x="479" 
d="M361 617q59 -4 103 -24l-14 -101l-1 -1q-53 30 -140 30q-107 0 -107 -66q0 -18 13.5 -30.5t30 -19t58.5 -20.5q127 -41 127 -138q0 -75 -43.5 -121.5t-120.5 -60.5l-13 -97h-106l13 94q-74 6 -134 36l14 100l2 1q71 -50 162 -50q118 0 118 76q0 27 -24 41.5t-89 34.5
q-66 20 -98 52.5t-32 83.5q0 72 47 118t126 59l14 99h108z" />
    <glyph glyph-name="percent" unicode="%" horiz-adv-x="765" 
d="M210 330q-65 0 -104 36.5t-39 105.5q0 90 52.5 143.5t132.5 53.5q66 0 106 -38t40 -107q0 -92 -53 -143t-135 -51zM85 12l525 644h94l-525 -644h-94zM220 406q40 0 63.5 29.5t23.5 80.5q0 37 -16.5 57t-46.5 20q-40 0 -63.5 -31t-23.5 -83q0 -73 63 -73zM531 -5
q-65 0 -104 36.5t-39 105.5q0 91 52.5 144t133.5 53q65 0 105 -37.5t40 -106.5q0 -92 -52.5 -143.5t-135.5 -51.5zM541 71q41 0 64 29t23 81q0 77 -63 77q-40 0 -63.5 -31t-23.5 -83q0 -35 16.5 -54t46.5 -19z" />
    <glyph glyph-name="ampersand" unicode="&#x26;" horiz-adv-x="652" 
d="M609 0h-130l-47 61q-89 -78 -208 -78q-86 0 -141 45t-55 127q0 147 165 226q-40 66 -40 125q0 80 59.5 131.5t148.5 51.5q76 0 128 -30l-13 -96h-2q-51 29 -114 29q-39 0 -67 -21.5t-28 -59.5q0 -26 16.5 -56t61.5 -92l100 -137q38 76 53 182h101q-24 -158 -94 -264z
M247 83q73 0 130 51l-125 164q-1 1 -5 6.5t-6 7.5q-98 -52 -98 -136q0 -45 27 -69t77 -24z" />
    <glyph glyph-name="quotesingle" unicode="'" horiz-adv-x="212" 
d="M92 424l29 241h91l9 -10l-60 -231h-69z" />
    <glyph glyph-name="parenleft" unicode="(" horiz-adv-x="315" 
d="M184 -179q-58 31 -101.5 128.5t-43.5 243.5q0 118 27 222t70 174t89.5 115.5t92.5 65.5l31 -86q-73 -45 -135 -173t-62 -314q0 -111 25.5 -187.5t61.5 -102.5z" />
    <glyph glyph-name="parenright" unicode=")" horiz-adv-x="315" 
d="M143 776q57 -27 101 -125t44 -246q0 -118 -28 -223t-72 -175t-90 -115.5t-89 -63.5l-31 86q73 45 135 173t62 313q0 111 -25.5 188t-61.5 103z" />
    <glyph glyph-name="asterisk" unicode="*" horiz-adv-x="473" 
d="M270 573l-8 5l-45 139l4 9l74 20l11 -8l-12 -153l-6 -7zM320 561l-9 2l-10 12l1 10l101 129l10 1l43 -53l-3 -14zM237 542l-143 11l-1 8l28 71l19 6l119 -65l-1 -9l-7 -17zM430 457l-122 66l-2 9l6 16l8 6l147 -13l5 -7l-29 -72zM153 382l-45 53l3 13l133 86l9 -1l11 -11
v-10l-101 -129zM267 350l-9 7l12 153l8 7l16 5l7 -4l47 -141l-6 -9z" />
    <glyph glyph-name="plus" unicode="+" horiz-adv-x="503" 
d="M476 336l-12 -84h-171l-26 -186h-85l26 186h-170l12 84h170l27 188h85l-27 -188h171z" />
    <glyph glyph-name="comma" unicode="," horiz-adv-x="220" 
d="M-16 -147q35 95 44 174q3 24 5 66l102 10l12 -16q-17 -128 -95 -234h-68z" />
    <glyph glyph-name="hyphen" unicode="-" horiz-adv-x="406" 
d="M62 243l15 96h276l-13 -96h-278z" />
    <glyph glyph-name="period" unicode="." horiz-adv-x="237" 
d="M85 -9q-31 0 -48 17.5t-17 44.5q0 32 20.5 53t54.5 21q31 0 48 -18t17 -45q0 -31 -20.5 -52t-54.5 -21z" />
    <glyph glyph-name="slash" unicode="/" horiz-adv-x="465" 
d="M-23 -120l422 873h106l-423 -873h-105z" />
    <glyph glyph-name="zero" unicode="0" horiz-adv-x="623" 
d="M284 -15q-109 0 -169.5 67t-60.5 200q0 197 89 312.5t216 115.5q111 0 171.5 -69t60.5 -203q0 -200 -88 -311.5t-219 -111.5zM295 85q75 0 123.5 87.5t48.5 238.5q0 78 -30 123t-84 45q-77 0 -126.5 -90.5t-49.5 -240.5q0 -76 30.5 -119.5t87.5 -43.5z" />
    <glyph glyph-name="one" unicode="1" horiz-adv-x="381" 
d="M141 0l73 510l-158 -62l-3 1l17 111l260 117h21l-95 -677h-115z" />
    <glyph glyph-name="two" unicode="2" horiz-adv-x="538" 
d="M4 0q11 83 69.5 157.5t164.5 155.5q91 70 121.5 106t30.5 79q0 79 -105 79q-59 0 -110.5 -21.5t-79.5 -45.5l-3 1l13 107q88 63 203 63q87 0 144 -42t57 -120q0 -42 -8 -71t-34.5 -61t-56.5 -58t-94 -77q-133 -106 -146 -152h300l-14 -100h-452z" />
    <glyph glyph-name="three" unicode="3" horiz-adv-x="521" 
d="M383 356q83 -42 83 -139q0 -109 -69.5 -170.5t-199.5 -61.5q-109 0 -182 45l16 106l3 1q57 -54 163 -54q72 0 115 31.5t43 91.5q0 48 -30 70t-95 24l-65 1l13 94h56q63 0 98.5 27t35.5 78q0 38 -27 59.5t-76 21.5q-92 0 -159 -41l-3 1l14 99q74 42 176 42q85 0 138 -39
t53 -115q0 -118 -101 -172z" />
    <glyph glyph-name="four" unicode="4" horiz-adv-x="582" 
d="M544 228l-13 -97h-98l-19 -131h-107l19 131h-310l-9 52l411 491h92l-64 -446h98zM164 228h176l37 260z" />
    <glyph glyph-name="five" unicode="5" horiz-adv-x="531" 
d="M212 -15q-106 0 -191 38l16 108l3 1q85 -45 174 -45q71 0 110.5 35t39.5 98q0 105 -118 105q-90 0 -172 -23l-3 2l73 365h370l-14 -99h-273l-31 -153q31 8 87 8q96 0 148.5 -46t52.5 -135q0 -69 -25.5 -121.5t-66.5 -81t-86.5 -42.5t-93.5 -14z" />
    <glyph glyph-name="six" unicode="6" horiz-adv-x="574" 
d="M341 429q83 0 134.5 -49t51.5 -145q0 -105 -71 -178t-188 -73q-102 0 -161.5 67t-59.5 185q0 206 102.5 325t266.5 119q77 0 120 -19l-13 -97l-4 -1q-45 18 -114 18q-97 0 -154.5 -62.5t-78.5 -163.5q64 74 169 74zM278 85q63 0 97.5 37.5t34.5 99.5q0 49 -24.5 77.5
t-74.5 28.5q-53 0 -93 -32.5t-56 -87.5q7 -59 37 -91t79 -32z" />
    <glyph glyph-name="seven" unicode="7" horiz-adv-x="487" 
d="M67 0l305 559h-304l15 107h420l13 -58l-327 -608h-122z" />
    <glyph glyph-name="eight" unicode="8" horiz-adv-x="576" 
d="M422 351q50 -30 72.5 -64.5t22.5 -85.5q0 -94 -70.5 -155t-190.5 -61q-104 0 -161 44t-57 123q0 123 133 203q-66 52 -66 134q0 86 67 139t169 53q89 0 146 -40.5t57 -116.5q0 -103 -122 -173zM336 580q-54 0 -82.5 -23.5t-28.5 -62.5q0 -30 26.5 -53.5t86.5 -48.5
q49 24 70 50.5t21 60.5t-24.5 55.5t-68.5 21.5zM271 83q59 0 94 27.5t35 70.5q0 38 -26.5 62t-90.5 51l-35 15q-91 -49 -91 -135q0 -45 30 -68t84 -23z" />
    <glyph glyph-name="nine" unicode="9" horiz-adv-x="573" 
d="M324 682q102 0 161 -67t59 -197q0 -201 -91.5 -315.5t-248.5 -114.5q-98 0 -154 25l16 104l3 2q59 -32 137 -32q176 0 213 212q-70 -67 -164 -67q-86 0 -138 51t-52 139q0 119 72.5 189.5t186.5 70.5zM284 332q85 0 144 74v7q0 82 -29.5 124.5t-84.5 42.5t-93 -36
t-38 -103q0 -52 27 -80.5t74 -28.5z" />
    <glyph glyph-name="colon" unicode=":" horiz-adv-x="258" 
d="M147 380q-29 0 -44 16t-15 40q0 29 19.5 49.5t54.5 20.5q28 0 43.5 -16.5t15.5 -40.5q0 -29 -19.5 -49t-54.5 -20zM92 -9q-28 0 -43.5 15t-15.5 39q0 30 19.5 50.5t54.5 20.5q29 0 44.5 -16t15.5 -40q0 -29 -20 -49t-55 -20z" />
    <glyph glyph-name="semicolon" unicode=";" horiz-adv-x="265" 
d="M160 381q-31 0 -48 17.5t-17 44.5q0 32 20.5 53t54.5 21q31 0 48 -18t17 -45q0 -31 -20.5 -52t-54.5 -21zM6 -147q36 100 44 174q3 25 5 66l102 10l12 -16q-17 -127 -94 -234h-69z" />
    <glyph glyph-name="less" unicode="&#x3c;" horiz-adv-x="463" 
d="M145 299l16 -8l234 -157l-54 -78l-306 202l11 79l363 202l32 -77l-278 -156z" />
    <glyph glyph-name="equal" unicode="=" horiz-adv-x="564" 
d="M80 358l12 85h433l-12 -85h-433zM48 138l13 86h433l-13 -86h-433z" />
    <glyph glyph-name="greater" unicode="&#x3e;" horiz-adv-x="463" 
d="M133 539l307 -202l-12 -78l-363 -203l-32 77l278 157l19 7l-17 8l-233 156z" />
    <glyph glyph-name="question" unicode="?" horiz-adv-x="424" 
d="M109 202q8 66 33 107t80 82q44 32 63.5 58t19.5 69q0 36 -22 57t-64 21q-73 0 -131 -42l-2 1l15 102q60 40 146 40q76 0 126 -40.5t50 -112.5q0 -51 -17.5 -90.5t-41.5 -64t-68 -58.5q-45 -34 -62.5 -63.5t-21.5 -63.5zM137 -8q-29 0 -44.5 15.5t-15.5 40.5q0 29 19 48.5
t50 19.5q30 0 45.5 -16t15.5 -42q0 -27 -19.5 -46.5t-50.5 -19.5z" />
    <glyph glyph-name="at" unicode="@" horiz-adv-x="790" 
d="M567 230l-6 -44q-4 -34 22 -34q35 0 58 47.5t23 134.5q0 95 -56.5 152.5t-160.5 57.5q-135 0 -222.5 -95.5t-87.5 -240.5q0 -112 63.5 -177t172.5 -65q114 0 189 65h4l35 -65q-97 -84 -240 -84q-149 0 -235 86t-86 230q0 185 118.5 307t300.5 122q140 0 221 -80t81 -205
q0 -69 -19.5 -128t-66 -100.5t-114.5 -41.5q-40 0 -62.5 17.5t-24.5 47.5q-42 -70 -123 -70q-58 0 -95 42.5t-37 110.5q0 102 58 163.5t143 61.5q58 0 96 -36l9 26h70zM383 147q59 0 92 63l19 128q-26 32 -72 32q-47 0 -79 -37.5t-32 -97.5q0 -43 19.5 -65.5t52.5 -22.5z
" />
    <glyph glyph-name="A" unicode="A" horiz-adv-x="616" 
d="M458 0l-34 134h-268l-71 -134h-116l370 672h51l190 -672h-122zM202 221h200l-57 223l-7 37l-17 -37z" />
    <glyph glyph-name="B" unicode="B" horiz-adv-x="573" 
d="M436 357q88 -38 88 -141q0 -97 -70 -156.5t-203 -59.5h-202l93 662q73 7 168 7q115 0 166 -42.5t51 -109.5q0 -115 -91 -160zM315 576q-39 0 -71 -3l-27 -192h70q62 0 95 30t33 83q0 82 -100 82zM254 87q156 0 156 124q0 41 -25.5 65t-78.5 24h-101l-31 -213h80z" />
    <glyph glyph-name="C" unicode="C" horiz-adv-x="596" 
d="M365 -12q-145 0 -229.5 77.5t-84.5 221.5q0 175 105.5 283t270.5 108q99 0 172 -33l-15 -109l-3 -2q-70 39 -159 39q-113 0 -181 -77.5t-68 -192.5q0 -101 58 -156.5t155 -55.5q77 0 144 37l4 -1l-16 -107q-67 -32 -153 -32z" />
    <glyph glyph-name="D" unicode="D" horiz-adv-x="702" 
d="M358 672q154 0 234 -74.5t80 -205.5q0 -184 -110.5 -289t-301.5 -105q-192 2 -211 3l93 661q99 10 216 10zM287 102q126 0 194 74t68 202q0 90 -53 138.5t-149 48.5q-70 0 -102 -4l-65 -456q42 -3 107 -3z" />
    <glyph glyph-name="E" unicode="E" horiz-adv-x="538" 
d="M522 560h-277l-24 -170h259l-15 -101h-258l-26 -186h286l-14 -103h-404l93 662h394z" />
    <glyph glyph-name="F" unicode="F" horiz-adv-x="503" 
d="M516 556h-271l-27 -192h231l-15 -104h-231l-37 -260h-117l93 662h389z" />
    <glyph glyph-name="G" unicode="G" horiz-adv-x="660" 
d="M350 -10q-139 0 -218.5 75.5t-79.5 209.5q0 181 112.5 292.5t292.5 111.5q105 0 178 -34l-16 -111l-3 -2q-69 41 -173 41q-121 0 -194.5 -78t-73.5 -204q0 -91 51 -143.5t144 -52.5q59 0 110 23l25 175h107l-36 -254q-104 -49 -226 -49z" />
    <glyph glyph-name="H" unicode="H" horiz-adv-x="716" 
d="M571 662h117l-94 -662h-117l40 285h-311l-40 -285h-117l93 662h117l-38 -271h312z" />
    <glyph glyph-name="I" unicode="I" horiz-adv-x="288" 
d="M49 0l92 662h117l-92 -662h-117z" />
    <glyph glyph-name="J" unicode="J" horiz-adv-x="362" 
d="M32 -3q-24 0 -54 3l15 99l3 2q15 -3 34 -3q112 0 133 147l60 417h118l-57 -407q-37 -258 -252 -258z" />
    <glyph glyph-name="K" unicode="K" horiz-adv-x="623" 
d="M664 658l-348 -325l276 -330l-2 -3h-142l-241 289l-41 -289h-117l93 662h117l-40 -286l307 286h137z" />
    <glyph glyph-name="L" unicode="L" horiz-adv-x="486" 
d="M181 98h269l-14 -98h-387l94 662h117z" />
    <glyph glyph-name="M" unicode="M" horiz-adv-x="814" 
d="M687 666h67l-35 -666h-111l27 410h-3l-239 -406h-39l-128 406h-2l-93 -410h-109l155 666h69l157 -473z" />
    <glyph glyph-name="N" unicode="N" horiz-adv-x="709" 
d="M49 0l94 666h51l310 -438h3l61 435h113l-95 -665h-50l-309 442h-3l-63 -440h-112z" />
    <glyph glyph-name="O" unicode="O" horiz-adv-x="751" 
d="M366 -13q-137 0 -224.5 85.5t-87.5 225.5q0 167 98 273.5t255 106.5q137 0 224.5 -86t87.5 -226q0 -167 -98 -273t-255 -106zM376 91q102 0 162 76t60 190q0 100 -54 158.5t-147 58.5q-102 0 -162 -76.5t-60 -190.5q0 -101 53.5 -158.5t147.5 -57.5z" />
    <glyph glyph-name="P" unicode="P" horiz-adv-x="556" 
d="M327 670q111 -1 170.5 -47.5t59.5 -137.5q0 -125 -78 -192.5t-205 -67.5q-26 0 -76 4l-33 -229h-116l93 662q106 8 185 8zM274 323q79 0 121.5 36.5t42.5 107.5q0 47 -30 74.5t-87 27.5q-45 0 -75 -2l-34 -239q40 -5 62 -5z" />
    <glyph glyph-name="Q" unicode="Q" horiz-adv-x="733" 
d="M778 -128l1 -3l-20 -95q-95 3 -175.5 25.5t-128 49t-113.5 55t-129 40.5l9 106q357 27 357 309q0 103 -53.5 158.5t-146.5 55.5q-87 0 -141 -58t-54 -146q0 -155 167 -154q23 0 49 8l3 -1l-4 -101q-35 -9 -73 -9q-124 1 -194 65t-70 180q0 140 92 231t237 91
q135 0 223 -80.5t88 -230.5q0 -144 -82 -247.5t-231 -135.5q49 -16 119 -48t126 -46.5t144 -18.5z" />
    <glyph glyph-name="R" unicode="R" horiz-adv-x="585" 
d="M554 490q0 -93 -43.5 -152t-113.5 -83l117 -252l-1 -3h-123l-106 238h-85l-34 -238h-116l93 662q81 8 186 8q103 0 164.5 -43t61.5 -137zM245 567l-34 -238h70q67 0 109.5 36.5t42.5 103.5q0 49 -28 75t-82 26q-51 0 -78 -3z" />
    <glyph glyph-name="S" unicode="S" horiz-adv-x="530" 
d="M209 -12q-113 0 -186 44l16 113l3 1q74 -56 166 -56q64 0 101 25t37 71q0 36 -22 59.5t-88 55.5q-66 33 -104 72.5t-38 101.5q0 98 70.5 151t177.5 53q96 0 162 -31l-14 -107l-4 -1q-58 36 -143 36q-59 0 -94 -20.5t-35 -60.5q0 -32 23 -50t91 -52q66 -35 101 -77
t35 -108q0 -101 -69.5 -160.5t-185.5 -59.5z" />
    <glyph glyph-name="T" unicode="T" horiz-adv-x="555" 
d="M598 662l-16 -105h-200l-79 -557h-118l80 557h-206l15 105h524z" />
    <glyph glyph-name="U" unicode="U" horiz-adv-x="688" 
d="M309 -14q-112 0 -173.5 56.5t-61.5 151.5q0 39 4 67l56 401h117l-55 -386q-4 -25 -4 -56q0 -64 35 -98.5t95 -34.5q80 0 122.5 45t56.5 144l54 386h114l-57 -401q-19 -136 -96.5 -205.5t-206.5 -69.5z" />
    <glyph glyph-name="V" unicode="V" horiz-adv-x="608" 
d="M659 662l1 -4l-359 -667h-73l-162 667l1 4h124l96 -453l5 -47l18 47l234 453h115z" />
    <glyph glyph-name="W" unicode="W" horiz-adv-x="924" 
d="M969 662l1 -4l-300 -665h-88l-81 445l-3 30l-12 -30l-211 -445h-91l-118 665l2 4h123l63 -461l3 -45l17 45l208 456h83l79 -445l4 -50l18 50l190 450h113z" />
    <glyph glyph-name="X" unicode="X" horiz-adv-x="618" 
d="M643 658l-252 -318l177 -337l-2 -3h-134l-127 250l-192 -250h-135l-1 3l267 341l-165 314l1 4h136l114 -231l177 231h135z" />
    <glyph glyph-name="Y" unicode="Y" horiz-adv-x="582" 
d="M197 0l40 272l-170 386l1 4h126l117 -281l197 281h119l1 -4l-276 -390l-38 -268h-117z" />
    <glyph glyph-name="Z" unicode="Z" horiz-adv-x="572" 
d="M13 0l-7 41l409 525h-333l12 96h484l4 -40l-413 -525h346l-13 -97h-489z" />
    <glyph glyph-name="bracketleft" unicode="[" horiz-adv-x="320" 
d="M344 673h-104l-105 -746h103l-12 -85h-204l130 916h204z" />
    <glyph glyph-name="backslash" unicode="\" horiz-adv-x="464" 
d="M382 -120h-106l-176 873h106z" />
    <glyph glyph-name="bracketright" unicode="]" horiz-adv-x="320" 
d="M106 758h203l-130 -916h-204l13 85h102l106 746h-103z" />
    <glyph glyph-name="asciicircum" unicode="^" horiz-adv-x="501" 
d="M347 686l126 -346l-81 -34l-89 265l-5 18l-10 -18l-163 -265l-73 34l223 346h72z" />
    <glyph glyph-name="underscore" unicode="_" horiz-adv-x="489" 
d="M-7 -94l13 93h404l-13 -93h-404z" />
    <glyph glyph-name="grave" unicode="`" horiz-adv-x="249" 
d="M259 569l-196 101l-2 14l72 88l163 -136z" />
    <glyph glyph-name="a" unicode="a" horiz-adv-x="554" 
d="M509 112l3 -1l-15 -101q-34 -16 -76 -16q-85 0 -88 73q-69 -79 -168 -79q-68 0 -108.5 38.5t-40.5 102.5q0 61 33.5 102t82 57.5t107.5 16.5q70 0 114 -18l2 13q4 24 4 33q0 100 -119 100q-74 0 -143 -46l-3 1l13 100q23 17 69.5 30.5t98.5 13.5q203 0 203 -175
q0 -27 -4 -52l-22 -156q-2 -14 -2 -17q0 -30 28 -30q20 0 31 10zM206 80q36 0 70.5 19t58.5 53l8 57q-38 16 -90 16q-53 0 -86 -20t-33 -62q0 -30 19.5 -46.5t52.5 -16.5z" />
    <glyph glyph-name="b" unicode="b" horiz-adv-x="599" 
d="M363 532q91 0 144.5 -57.5t53.5 -157.5q0 -150 -80.5 -240t-218.5 -90q-133 0 -223 48l95 679h118l-34 -239q57 57 145 57zM271 90q74 0 120.5 56t46.5 151q0 64 -30.5 96t-81.5 32q-47 0 -83.5 -30t-46.5 -79l-28 -205q42 -21 103 -21z" />
    <glyph glyph-name="c" unicode="c" horiz-adv-x="477" 
d="M272 -13q-103 0 -168 62t-65 170q0 142 82.5 227.5t213.5 85.5q74 0 134 -24l-15 -104l-3 -1q-58 26 -122 26q-78 0 -123.5 -55t-45.5 -137q0 -67 35.5 -107.5t101.5 -40.5q58 0 116 33l3 -2l-14 -106q-56 -27 -130 -27z" />
    <glyph glyph-name="d" unicode="d" horiz-adv-x="599" 
d="M474 714h118l-101 -714h-96l-2 58q-59 -71 -161 -71q-84 0 -139.5 58t-55.5 160q0 148 84 237.5t207 89.5q67 0 116 -27zM274 92q41 0 77.5 28t47.5 73l30 205q-40 31 -100 31q-71 0 -120 -56t-49 -150q0 -65 30 -98t84 -33z" />
    <glyph glyph-name="e" unicode="e" horiz-adv-x="555" 
d="M315 532q95 0 151 -54.5t56 -142.5q0 -50 -13 -102l-349 -1q0 -70 37.5 -107.5t100.5 -37.5q89 0 164 46l4 -1l-15 -103q-68 -42 -172 -42t-172 59.5t-68 178.5q0 137 79 222t197 85zM303 432q-46 0 -81.5 -32t-51.5 -88h238v14q0 106 -105 106z" />
    <glyph glyph-name="f" unicode="f" horiz-adv-x="347" 
d="M345 720q45 0 74 -10l-14 -102l-3 -1q-17 8 -49 8q-84 0 -98 -96h108l-13 -93h-108l-84 -591h-119l85 591h-68l14 93h67q16 99 72.5 150t135.5 51z" />
    <glyph glyph-name="g" unicode="g" horiz-adv-x="563" 
d="M570 519l-11 -84h-93q31 -33 31 -77q0 -79 -61.5 -127.5t-167.5 -48.5q-48 0 -85 12q-12 -12 -12 -26q0 -18 27.5 -27.5t106.5 -16.5q97 -10 141 -39.5t44 -87.5q0 -82 -72 -126t-204 -44q-217 0 -217 112q0 75 94 129q-35 22 -35 60q0 56 65 97q-50 42 -50 109
q0 85 65.5 135t170.5 50h263zM279 269q52 0 79 23.5t27 65.5q0 34 -23 54t-65 20q-50 0 -79.5 -23t-29.5 -65q0 -35 23.5 -55t67.5 -20zM377 -26q0 26 -25 37.5t-94 17.5q-52 5 -87 12q-63 -34 -63 -77q0 -55 127 -55q142 0 142 65z" />
    <glyph glyph-name="h" unicode="h" horiz-adv-x="599" 
d="M373 532q78 0 124.5 -46t46.5 -125q0 -23 -3 -48l-44 -313h-118l42 295q1 8 1 23q0 104 -97 104q-41 0 -75 -24t-50 -74l-46 -324h-119l102 714h118l-34 -244q57 62 152 62z" />
    <glyph glyph-name="i" unicode="i" horiz-adv-x="262" 
d="M186 604q-30 0 -49.5 19t-19.5 48q0 35 23 56t54 21t50 -19t19 -47q0 -35 -22.5 -56.5t-54.5 -21.5zM35 0l74 519h119l-74 -519h-119z" />
    <glyph glyph-name="j" unicode="j" horiz-adv-x="279" 
d="M203 604q-30 0 -49.5 19t-19.5 48q0 35 23 56t54 21t50 -19t19 -47q0 -35 -22.5 -56.5t-54.5 -21.5zM-36 -171q-17 0 -61 6l15 102l4 1q14 -3 32 -3q48 0 72.5 29t32.5 86l68 469h116l-70 -496q-14 -97 -68 -145.5t-141 -48.5z" />
    <glyph glyph-name="k" unicode="k" horiz-adv-x="542" 
d="M552 516l-256 -246l209 -267l-2 -3h-140l-177 227l-32 -227h-119l102 714h118l-57 -405l214 210h139z" />
    <glyph glyph-name="l" unicode="l" horiz-adv-x="291" 
d="M173 -10q-66 0 -99.5 35.5t-22.5 110.5l83 578h117l-78 -548q-5 -37 5 -53.5t37 -16.5q18 0 35 8l4 -1l-15 -101q-33 -12 -66 -12z" />
    <glyph glyph-name="m" unicode="m" horiz-adv-x="909" 
d="M694 532q70 0 115 -44t45 -130q0 -26 -3 -48l-43 -310h-119l39 277q3 27 3 59q0 44 -24 64.5t-60 20.5q-49 0 -82.5 -32t-41.5 -88v1l-42 -302h-119l39 277q3 27 3 59q0 44 -24 64.5t-60 20.5q-47 0 -80.5 -30.5t-42.5 -83.5l-43 -307h-119l74 519h96l1 -64q57 77 161 77
q53 0 93 -26t57 -77q58 103 177 103z" />
    <glyph glyph-name="n" unicode="n" horiz-adv-x="599" 
d="M373 532q76 0 124 -45t48 -132q0 -28 -4 -49l-43 -306h-118l38 277q3 27 3 41q1 56 -26.5 80t-68.5 24q-48 0 -83.5 -31t-45.5 -84l-43 -307h-119l74 519h97l1 -67q57 80 166 80z" />
    <glyph glyph-name="o" unicode="o" horiz-adv-x="608" 
d="M280 -12q-105 0 -173 62t-68 176q0 133 80.5 219t206.5 86q106 0 174 -62t68 -178q0 -131 -81 -217t-207 -86zM290 90q73 0 114.5 56.5t41.5 137.5q0 67 -34.5 106t-94.5 39q-73 0 -114.5 -57.5t-41.5 -137.5q0 -66 34.5 -105t94.5 -39z" />
    <glyph glyph-name="p" unicode="p" horiz-adv-x="600" 
d="M364 532q89 0 143 -56t54 -158q0 -151 -82 -241t-209 -90q-69 0 -115 23l-25 -175h-119l98 684h96l1 -51q56 64 158 64zM272 90q74 0 120 56t46 152q0 65 -30 97t-83 32q-41 0 -80 -29t-47 -80l-29 -202q41 -26 103 -26z" />
    <glyph glyph-name="q" unicode="q" horiz-adv-x="598" 
d="M468 519h97l-97 -684h-119l30 211q-59 -59 -155 -59q-85 0 -135.5 58t-50.5 161q0 145 84.5 235.5t200.5 90.5q90 0 136 -40zM271 92q38 0 72 21t54 57l32 226q-38 34 -100 34q-71 0 -119.5 -57.5t-48.5 -150.5q0 -64 29.5 -97t80.5 -33z" />
    <glyph glyph-name="r" unicode="r" horiz-adv-x="388" 
d="M352 530q33 0 53 -8l-16 -108l-3 -1q-23 9 -50 9q-23 0 -41 -5t-39 -19.5t-37 -45.5t-27 -79l-38 -273h-119l74 519h96l1 -66q52 77 146 77z" />
    <glyph glyph-name="s" unicode="s" horiz-adv-x="469" 
d="M182 -13q-102 0 -171 38l15 104l3 1q67 -50 168 -50q104 0 104 63q0 26 -22 41t-84 36q-68 23 -100 56t-32 86q0 79 63 124.5t172 45.5q89 0 143 -26l-14 -99l-2 -1q-56 28 -138 28q-107 0 -107 -57q0 -22 20 -35.5t77 -32.5q72 -24 105.5 -55.5t33.5 -84.5
q0 -87 -63 -134.5t-171 -47.5z" />
    <glyph glyph-name="t" unicode="t" horiz-adv-x="389" 
d="M245 426l-32 -228q-3 -21 -3 -40q0 -27 19.5 -43t56.5 -16q32 0 64 14l2 -1l-14 -100q-35 -18 -89 -18q-75 0 -118 36t-43 100q0 23 3 41l36 255h-92l13 93h93l17 122l119 22l1 -2l-20 -142h147l-13 -93h-147z" />
    <glyph glyph-name="u" unicode="u" horiz-adv-x="588" 
d="M436 519h118l-74 -519h-96l-2 63q-61 -75 -168 -75q-76 0 -118 41t-42 112q0 24 4 52l46 326h118l-43 -303q-3 -20 -3 -44q-1 -42 22 -63t63 -21t74 23.5t52 65.5z" />
    <glyph glyph-name="v" unicode="v" horiz-adv-x="536" 
d="M562 519l1 -3l-290 -520h-87l-138 520l2 3h127l78 -368l185 368h122z" />
    <glyph glyph-name="w" unicode="w" horiz-adv-x="774" 
d="M796 519l1 -3l-236 -516h-98l-51 364l-2 22l-8 -22l-160 -364h-99l-93 516l1 3h119l45 -348v-26l9 26l149 348h113l46 -347l3 -25l7 26l144 346h110z" />
    <glyph glyph-name="x" unicode="x" horiz-adv-x="527" 
d="M538 516l-207 -250l140 -263l-1 -3h-126l-93 185l-147 -185h-127l-1 3l217 262l-136 251l1 3h128l88 -174l137 174h126z" />
    <glyph glyph-name="y" unicode="y" horiz-adv-x="520" 
d="M546 516l-253 -480l-9 -18q-53 -103 -104 -146t-127 -43q-33 0 -63 11l15 94l4 2q16 -8 51 -8q70 0 122 103l3 6l-136 479l1 3h125l83 -351l167 351h119z" />
    <glyph glyph-name="z" unicode="z" horiz-adv-x="502" 
d="M481 459l-317 -363h283l-14 -96h-419l-4 56l310 365h-254l12 98h398z" />
    <glyph glyph-name="braceleft" unicode="{" horiz-adv-x="341" 
d="M336 770h42l-13 -87h-25q-32 0 -49 -13t-22 -48l-30 -203q-8 -53 -44 -84.5t-69 -31.5l-1 -5q33 0 61 -32t20 -85l-29 -204q-5 -35 8.5 -47.5t44.5 -12.5h26l-12 -88h-41q-151 0 -129 143l27 185q7 45 -17.5 70.5t-49.5 25.5l15 99q25 0 55.5 23.5t36.5 66.5l26 186
q20 142 169 142z" />
    <glyph glyph-name="bar" unicode="|" horiz-adv-x="269" 
d="M30 -105l118 835h107l-118 -835h-107z" />
    <glyph glyph-name="braceright" unicode="}" horiz-adv-x="341" 
d="M318 347l-14 -99q-25 0 -56 -24t-37 -68l-27 -185q-22 -142 -167 -142h-42l12 88h26q31 0 48.5 12.5t22.5 47.5l29 205q7 52 44 84t70 32l1 5q-33 0 -61 31.5t-20 84.5l29 204q5 35 -9 47.5t-46 12.5h-26l13 87h41q147 0 128 -141l-25 -186q-7 -46 17 -71t49 -25z" />
    <glyph glyph-name="asciitilde" unicode="~" horiz-adv-x="523" 
d="M131 228l-71 11q7 53 43 86.5t86 33.5q39 0 89 -19t76 -19q44 0 51 40l4 3l66 -14q-8 -51 -43.5 -83.5t-84.5 -32.5q-31 0 -83 19t-78 19q-21 0 -35.5 -11t-18.5 -30z" />
    <glyph glyph-name="exclamdown" unicode="&#xa1;" horiz-adv-x="257" 
d="M156 411q-29 0 -44.5 15.5t-15.5 40.5q0 29 19 48.5t50 19.5q29 0 44.5 -16.5t15.5 -41.5q0 -27 -19 -46.5t-50 -19.5zM9 -168l76 480h101l-61 -480h-116z" />
    <glyph glyph-name="cent" unicode="&#xa2;" horiz-adv-x="533" 
d="M411 610q60 -4 110 -26l-14 -99l-5 -3q-60 28 -123 28q-92 0 -148 -56.5t-56 -147.5q0 -69 39.5 -110t112.5 -41q69 0 137 32l4 -3l-14 -100q-57 -26 -124 -30l-13 -94h-110l14 101q-82 20 -126.5 77.5t-44.5 146.5q0 126 67.5 211t181.5 108l15 101h110z" />
    <glyph glyph-name="sterling" unicode="&#xa3;" horiz-adv-x="559" 
d="M401 679q89 0 150 -33l-15 -103l-4 -3q-59 37 -133 37q-60 0 -98 -32.5t-47 -96.5q-3 -23 -5 -67h183l-13 -96h-174q0 -8 -2 -22q-12 -91 -52 -165h300l-14 -98h-447l-2 7q89 121 100 278h-85l14 96h74q1 6 1 16q2 73 25 129t61 88.5t84 48.5t99 16z" />
    <glyph glyph-name="currency" unicode="&#xa4;" horiz-adv-x="686" 
d="M608 370q0 -101 -59 -184l63 -76l-89 -77l-61 74q-61 -36 -134 -36q-81 0 -139 41l-88 -79l-67 77l89 79q-25 52 -25 115q0 102 59 183l-59 72l89 78l58 -70q62 35 134 35q83 0 143 -44l87 79l67 -78l-90 -82q22 -49 22 -107zM198 315q0 -67 37 -106.5t103 -39.5
q78 0 123.5 56.5t45.5 133.5q0 67 -37 105.5t-102 38.5q-78 0 -124 -56t-46 -132z" />
    <glyph glyph-name="yen" unicode="&#xa5;" horiz-adv-x="634" 
d="M663 672l-232 -327h104l-13 -91h-146l-9 -59h147l-13 -91h-147l-15 -104h-115l15 104h-143l12 91h144l8 59h-143l12 91h102l-143 327h130l119 -299l204 299h122z" />
    <glyph glyph-name="brokenbar" unicode="&#xa6;" horiz-adv-x="276" 
d="M108 418l44 312h107l-44 -312h-107zM34 -105l45 316h107l-45 -316h-107z" />
    <glyph glyph-name="section" unicode="&#xa7;" horiz-adv-x="520" 
d="M338 425q69 -31 105 -66.5t36 -88.5q0 -84 -85 -149q29 -32 29 -77q0 -86 -70 -139.5t-172 -53.5q-100 0 -161 36l15 99l4 2q60 -42 151 -42q49 0 80 20t31 62q0 27 -24 44.5t-94 50.5q-69 32 -102 65t-33 86q0 86 88 147q-33 36 -33 85q0 88 68.5 139.5t170.5 51.5
q98 0 148 -31l-12 -99l-3 -1q-47 34 -135 34q-48 0 -83 -20.5t-35 -62.5q0 -28 25 -45.5t91 -46.5zM261 204q56 -25 82 -42q31 35 31 76q0 29 -25 51.5t-90 52.5q-37 18 -74 39q-33 -36 -33 -77q0 -28 24.5 -50.5t84.5 -49.5z" />
    <glyph glyph-name="dieresis" unicode="&#xa8;" horiz-adv-x="360" 
d="M129 607q-29 0 -47.5 18t-18.5 46q0 34 22 54t52 20q29 0 47 -18t18 -45q0 -34 -21.5 -54.5t-51.5 -20.5zM335 607q-29 0 -47.5 18t-18.5 46q0 34 22 54t52 20q29 0 47 -17.5t18 -45.5q0 -34 -21.5 -54.5t-51.5 -20.5z" />
    <glyph glyph-name="copyright" unicode="&#xa9;" horiz-adv-x="664" 
d="M294 -15q-115 0 -182 72.5t-67 185.5q0 144 95.5 243t239.5 99q114 0 180.5 -72t66.5 -186q0 -144 -95 -243t-238 -99zM302 49q114 0 183 78t69 194q0 90 -50 145t-135 55q-108 0 -178.5 -77.5t-70.5 -194.5q0 -89 48.5 -144.5t133.5 -55.5zM332 131q-62 0 -100.5 34
t-38.5 94q0 80 52 128.5t130 48.5q46 0 74 -14l-10 -69l-3 -1q-26 13 -60 13q-44 0 -70 -26t-26 -67q0 -32 20 -51.5t54 -19.5q36 0 65 16l2 -1l-10 -70q-30 -15 -79 -15z" />
    <glyph glyph-name="ordfeminine" unicode="&#xaa;" horiz-adv-x="456" 
d="M434 431l2 -1l-10 -74q-21 -11 -48 -11q-60 0 -67 52q-59 -57 -128 -57q-53 0 -83.5 28.5t-30.5 74.5q0 67 48.5 100t116.5 33q55 0 92 -14l1 6q13 94 -84 94q-62 0 -110 -23l-2 2l10 70q41 26 121 26q175 0 149 -165l-16 -112q-6 -35 18 -35q14 0 21 6zM211 410
q27 0 55 14t45 35l6 40q-35 11 -72 11q-84 0 -84 -56q0 -20 13.5 -32t36.5 -12z" />
    <glyph glyph-name="guillemotleft" unicode="&#xab;" horiz-adv-x="547" 
d="M220 95l-111 194l165 180h113l-1 -11l-158 -174l103 -180l-1 -9h-110zM438 95l-111 194l165 180h113l-1 -11l-158 -174l103 -180l-1 -9h-110z" />
    <glyph glyph-name="registered" unicode="&#xae;" horiz-adv-x="621" 
d="M380 739q104 0 163.5 -64.5t59.5 -167.5q0 -130 -85 -219.5t-215 -89.5q-105 0 -166 65t-61 168q0 130 86.5 219t217.5 89zM310 259q102 0 162.5 69.5t60.5 173.5q0 79 -43.5 127.5t-120.5 48.5q-96 0 -159 -69t-63 -171q0 -79 43.5 -129t119.5 -50zM458 524
q0 -70 -57 -98l42 -83h-78l-35 71h-39l-10 -71h-69l36 259q58 2 105 2q105 0 105 -80zM310 543l-11 -73h34q51 0 51 43q0 31 -39 31q-28 0 -35 -1z" />
    <glyph glyph-name="macron" unicode="&#xaf;" horiz-adv-x="343" 
d="M74 618l12 80h289l-12 -80h-289z" />
    <glyph glyph-name="degree" unicode="&#xb0;" horiz-adv-x="355" 
d="M221 402q-59 0 -98.5 38.5t-39.5 96.5t39.5 96.5t98.5 38.5t97.5 -38.5t38.5 -96.5t-39 -96.5t-97 -38.5zM221 467q29 0 47 20t18 50t-18 50.5t-47 20.5q-30 0 -49 -20.5t-19 -50.5t19 -50t49 -20z" />
    <glyph glyph-name="plusminus" unicode="&#xb1;" horiz-adv-x="536" 
d="M482 265h-170l-20 -145h163l-12 -85h-413l13 85h163l21 145h-171l12 83h171l25 176h84l-24 -176h170z" />
    <glyph glyph-name="acute" unicode="&#xb4;" horiz-adv-x="248" 
d="M105 565l-40 66l156 143l77 -85l-3 -14z" />
    <glyph glyph-name="paragraph" unicode="&#xb6;" horiz-adv-x="581" 
d="M581 604l-15 -105h-60l-87 -611h-31l87 611h-61l-86 -611h-112l45 319q-112 0 -166.5 45.5t-42.5 143.5q10 100 82 154t189 54h258z" />
    <glyph glyph-name="periodcentered" unicode="&#xb7;" horiz-adv-x="248" 
d="M114 181q-28 0 -43 14.5t-15 38.5q0 30 19.5 50.5t55.5 20.5q28 0 43 -15t15 -39q0 -31 -19.5 -50.5t-55.5 -19.5z" />
    <glyph glyph-name="cedilla" unicode="&#xb8;" horiz-adv-x="207" 
d="M7 -239q-30 0 -61 9l9 60l2 1q21 -7 42 -7q62 0 62 44q0 30 -37 30q-22 0 -42 -5l-1 1l8 51l41 55h70l-37 -47q10 2 20 1q34 -1 53.5 -20t19.5 -56q0 -61 -42.5 -89t-106.5 -28z" />
    <glyph glyph-name="ordmasculine" unicode="&#xba;" horiz-adv-x="483" 
d="M262 331q-82 0 -132.5 45.5t-50.5 133.5q0 107 63.5 172.5t161.5 65.5q79 0 130 -46.5t51 -133.5q0 -106 -65 -171.5t-158 -65.5zM272 416q49 0 80 41.5t31 104.5q0 49 -23 74.5t-63 25.5q-53 0 -84.5 -40.5t-31.5 -109.5q0 -44 23.5 -70t67.5 -26z" />
    <glyph glyph-name="guillemotright" unicode="&#xbb;" horiz-adv-x="547" 
d="M190 469l111 -194l-165 -180h-113l1 11l158 174l-103 180l1 9h110zM409 469l111 -194l-165 -180h-113l1 11l158 174l-103 180l1 9h110z" />
    <glyph glyph-name="onequarter" unicode="&#xbc;" horiz-adv-x="716" 
d="M110 302l37 254l-82 -27l13 93l164 55h10l-53 -375h-89zM537 666h87l-496 -678h-85zM667 122l-9 -59h-48l-9 -63h-82l9 63h-185l6 39l231 273h75l-36 -253h48zM447 122h90l21 141z" />
    <glyph glyph-name="onehalf" unicode="&#xbd;" horiz-adv-x="727" 
d="M118 302l37 254l-81 -27l13 93l164 55h9l-52 -375h-90zM24 -12l495 678h86l-495 -678h-86zM384 0q4 95 115 172q57 39 73.5 56.5t16.5 36.5q0 34 -53 34q-62 0 -114 -38l-1 1l12 77q49 37 127 37q53 0 89 -24t36 -70t-24 -78.5t-80 -67.5q-67 -41 -74 -63h161l-10 -73
h-274z" />
    <glyph glyph-name="threequarters" unicode="&#xbe;" horiz-adv-x="746" 
d="M326 429q0 -62 -45 -98.5t-123 -36.5q-65 0 -111 24l11 71l1 1q35 -25 104 -25q36 0 59 16t23 44q0 38 -51 38h-68l9 61h53q62 0 62 45q0 38 -62 38q-57 0 -93 -19h-1l9 72q50 19 101 19q59 0 95.5 -22.5t36.5 -69.5q0 -55 -52 -87q42 -23 42 -71zM591 666h87l-496 -678
h-85zM697 122l-9 -59h-48l-9 -63h-82l9 63h-185l5 39l232 273h75l-36 -253h48zM476 122h91l20 139z" />
    <glyph glyph-name="questiondown" unicode="&#xbf;" horiz-adv-x="417" 
d="M357 533q29 0 44.5 -15.5t15.5 -40.5q0 -29 -19 -48.5t-50 -19.5q-30 0 -45.5 16t-15.5 42q0 27 19.5 46.5t50.5 19.5zM385 323q-8 -66 -33 -107t-80 -82q-44 -32 -63.5 -58t-19.5 -69q0 -36 22 -57t64 -21q73 0 131 42l2 -1l-15 -102q-60 -40 -146 -40q-76 0 -126 40.5
t-50 112.5q0 51 17.5 90.5t41.5 64t68 58.5q45 34 62.5 63.5t21.5 63.5z" />
    <glyph glyph-name="Agrave" unicode="&#xc0;" horiz-adv-x="616" 
d="M457 700l-204 82l-7 14l64 89l175 -124zM458 0l-34 134h-268l-71 -134h-116l370 672h51l190 -672h-122zM202 221h200l-57 223l-7 37l-17 -37z" />
    <glyph glyph-name="Aacute" unicode="&#xc1;" horiz-adv-x="616" 
d="M490 774l-209 -74l-27 63l186 117l56 -92zM458 0l-34 134h-268l-71 -134h-116l370 672h51l190 -672h-122zM202 221h200l-57 223l-7 37l-17 -37z" />
    <glyph glyph-name="Acircumflex" unicode="&#xc2;" horiz-adv-x="616" 
d="M379 781l-118 -78l-35 51l138 121h53l107 -121l-45 -51zM458 0l-34 134h-268l-71 -134h-116l370 672h51l190 -672h-122zM202 221h200l-57 223l-7 37l-17 -37z" />
    <glyph glyph-name="Atilde" unicode="&#xc3;" horiz-adv-x="616" 
d="M275 713l-2 -2l-70 21q8 50 41 82.5t76 32.5q31 0 69 -17.5t56 -17.5q15 0 28 11t16 29l2 2l69 -22q-8 -50 -40 -81.5t-75 -31.5q-25 0 -66 17t-60 17q-17 0 -29.5 -11.5t-14.5 -28.5zM458 0l-34 134h-268l-71 -134h-116l370 672h51l190 -672h-122zM202 221h200l-57 223
l-7 37l-17 -37z" />
    <glyph glyph-name="Adieresis" unicode="&#xc4;" horiz-adv-x="616" 
d="M270 725q-26 0 -42.5 16.5t-16.5 41.5q0 31 20 49t47 18t43 -16.5t16 -41.5q0 -30 -19.5 -48.5t-47.5 -18.5zM486 725q-26 0 -42.5 16t-16.5 42q0 31 19.5 49t47.5 18q26 0 42 -16.5t16 -41.5q0 -30 -19.5 -48.5t-46.5 -18.5zM458 0l-34 134h-268l-71 -134h-116l370 672
h51l190 -672h-122zM202 221h200l-57 223l-7 37l-17 -37z" />
    <glyph glyph-name="Aring" unicode="&#xc5;" horiz-adv-x="616" 
d="M369 685q-43 0 -70.5 25t-27.5 66q0 49 32 79t82 30q44 0 71.5 -25t27.5 -66q0 -48 -32.5 -78.5t-82.5 -30.5zM380 828q-20 0 -33.5 -12.5t-13.5 -34.5q0 -18 12 -28.5t30 -10.5q20 0 33.5 12.5t13.5 34.5q0 18 -12 28.5t-30 10.5zM458 0l-34 134h-268l-71 -134h-116
l370 672h51l190 -672h-122zM202 221h200l-57 223l-7 37l-17 -37z" />
    <glyph glyph-name="AE" unicode="&#xc6;" horiz-adv-x="808" 
d="M794 566h-242l-25 -174h224l-14 -95h-223l-29 -201h252l-13 -96h-371l25 173h-196l-122 -173h-119l472 662h395zM240 256h150l39 275l-74 -112z" />
    <glyph glyph-name="Ccedilla" unicode="&#xc7;" horiz-adv-x="596" 
d="M427 678q99 0 172 -33l-15 -109l-3 -2q-70 39 -159 39q-113 0 -181 -77.5t-68 -192.5q0 -101 58 -156.5t155 -55.5q77 0 144 37l4 -1l-16 -107q-65 -31 -145 -32l-28 -35q10 2 20 1q34 -1 53.5 -20t19.5 -56q0 -61 -42.5 -89t-106.5 -28q-30 0 -61 9l9 60l2 1
q21 -7 42 -7q62 0 62 44q0 30 -37 30q-22 0 -42 -5l-1 1l8 51l35 47q-119 15 -187 91t-68 204q0 175 105.5 283t270.5 108z" />
    <glyph glyph-name="Egrave" unicode="&#xc8;" horiz-adv-x="538" 
d="M437 699l-204 82l-7 14l64 89l175 -124zM522 560h-277l-24 -170h259l-15 -101h-258l-26 -186h286l-14 -103h-404l93 662h394z" />
    <glyph glyph-name="Eacute" unicode="&#xc9;" horiz-adv-x="538" 
d="M470 773l-209 -74l-27 63l186 117l56 -92zM522 560h-277l-24 -170h259l-15 -101h-258l-26 -186h286l-14 -103h-404l93 662h394z" />
    <glyph glyph-name="Ecircumflex" unicode="&#xca;" horiz-adv-x="538" 
d="M359 780l-118 -78l-35 51l138 121h53l107 -121l-45 -51zM522 560h-277l-24 -170h259l-15 -101h-258l-26 -186h286l-14 -103h-404l93 662h394z" />
    <glyph glyph-name="Edieresis" unicode="&#xcb;" horiz-adv-x="538" 
d="M250 724q-26 0 -42.5 16.5t-16.5 41.5q0 31 20 49t47 18t43 -16.5t16 -41.5q0 -30 -19.5 -48.5t-47.5 -18.5zM466 724q-26 0 -42.5 16t-16.5 42q0 31 19.5 49t47.5 18q26 0 42 -16.5t16 -41.5q0 -30 -19.5 -48.5t-46.5 -18.5zM522 560h-277l-24 -170h259l-15 -101h-258
l-26 -186h286l-14 -103h-404l93 662h394z" />
    <glyph glyph-name="Igrave" unicode="&#xcc;" horiz-adv-x="288" 
d="M297 699l-204 82l-7 14l64 89l175 -124zM49 0l92 662h117l-92 -662h-117z" />
    <glyph glyph-name="Iacute" unicode="&#xcd;" horiz-adv-x="288" 
d="M121 699l-27 63l186 117l56 -92l-6 -14zM49 0l92 662h117l-92 -662h-117z" />
    <glyph glyph-name="Icircumflex" unicode="&#xce;" horiz-adv-x="288" 
d="M101 702l-35 51l138 121h53l107 -121l-45 -51l-100 78zM49 0l92 662h117l-92 -662h-117z" />
    <glyph glyph-name="Idieresis" unicode="&#xcf;" horiz-adv-x="288" 
d="M110 724q-26 0 -42.5 16.5t-16.5 41.5q0 31 20 49t47 18t43 -16.5t16 -41.5q0 -30 -19.5 -48.5t-47.5 -18.5zM326 724q-26 0 -42.5 16t-16.5 42q0 31 19.5 49t47.5 18q26 0 42 -16.5t16 -41.5q0 -30 -19.5 -48.5t-46.5 -18.5zM49 0l92 662h117l-92 -662h-117z" />
    <glyph glyph-name="Eth" unicode="&#xd0;" horiz-adv-x="702" 
d="M358 672q154 0 234 -74.5t80 -205.5q0 -184 -110.5 -289t-301.5 -105q-192 2 -211 3l41 289h-83l12 79h82l41 293q99 10 216 10zM287 102q126 0 194 74t68 202q0 90 -53 138.5t-149 48.5q-70 0 -102 -4l-28 -192h96l-12 -79h-95l-26 -185q42 -3 107 -3z" />
    <glyph glyph-name="Ntilde" unicode="&#xd1;" horiz-adv-x="709" 
d="M325 711l-70 21q8 50 41 82.5t76 32.5q31 0 69 -17.5t56 -17.5q15 0 28 11t16 29l2 2l69 -22q-8 -50 -40 -81.5t-75 -31.5q-25 0 -66 17t-60 17q-17 0 -29.5 -11.5t-14.5 -28.5zM49 0l94 666h51l310 -438h3l61 435h113l-95 -665h-50l-309 442h-3l-63 -440h-112z" />
    <glyph glyph-name="Ograve" unicode="&#xd2;" horiz-adv-x="751" 
d="M502 698l-204 82l-7 14l64 89l175 -124zM366 -13q-137 0 -224.5 85.5t-87.5 225.5q0 167 98 273.5t255 106.5q137 0 224.5 -86t87.5 -226q0 -167 -98 -273t-255 -106zM376 91q102 0 162 76t60 190q0 100 -54 158.5t-147 58.5q-102 0 -162 -76.5t-60 -190.5
q0 -101 53.5 -158.5t147.5 -57.5z" />
    <glyph glyph-name="Oacute" unicode="&#xd3;" horiz-adv-x="751" 
d="M326 698l-27 63l186 117l56 -92l-6 -14zM366 -13q-137 0 -224.5 85.5t-87.5 225.5q0 167 98 273.5t255 106.5q137 0 224.5 -86t87.5 -226q0 -167 -98 -273t-255 -106zM376 91q102 0 162 76t60 190q0 100 -54 158.5t-147 58.5q-102 0 -162 -76.5t-60 -190.5
q0 -101 53.5 -158.5t147.5 -57.5z" />
    <glyph glyph-name="Ocircumflex" unicode="&#xd4;" horiz-adv-x="751" 
d="M306 701l-35 51l138 121h53l107 -121l-45 -51l-100 78zM366 -13q-137 0 -224.5 85.5t-87.5 225.5q0 167 98 273.5t255 106.5q137 0 224.5 -86t87.5 -226q0 -167 -98 -273t-255 -106zM376 91q102 0 162 76t60 190q0 100 -54 158.5t-147 58.5q-102 0 -162 -76.5t-60 -190.5
q0 -101 53.5 -158.5t147.5 -57.5z" />
    <glyph glyph-name="Otilde" unicode="&#xd5;" horiz-adv-x="751" 
d="M318 709l-70 21q8 50 41 82.5t76 32.5q31 0 69 -17.5t56 -17.5q15 0 28 11t16 29l2 2l69 -22q-8 -50 -40 -81.5t-75 -31.5q-25 0 -66 17t-60 17q-17 0 -29.5 -11.5t-14.5 -28.5zM366 -13q-137 0 -224.5 85.5t-87.5 225.5q0 167 98 273.5t255 106.5q137 0 224.5 -86
t87.5 -226q0 -167 -98 -273t-255 -106zM376 91q102 0 162 76t60 190q0 100 -54 158.5t-147 58.5q-102 0 -162 -76.5t-60 -190.5q0 -101 53.5 -158.5t147.5 -57.5z" />
    <glyph glyph-name="Odieresis" unicode="&#xd6;" horiz-adv-x="751" 
d="M315 723q-26 0 -42.5 16.5t-16.5 41.5q0 31 20 49t47 18t43 -16.5t16 -41.5q0 -30 -19.5 -48.5t-47.5 -18.5zM531 723q-26 0 -42.5 16t-16.5 42q0 31 19.5 49t47.5 18q26 0 42 -16.5t16 -41.5q0 -30 -19.5 -48.5t-46.5 -18.5zM366 -13q-137 0 -224.5 85.5t-87.5 225.5
q0 167 98 273.5t255 106.5q137 0 224.5 -86t87.5 -226q0 -167 -98 -273t-255 -106zM376 91q102 0 162 76t60 190q0 100 -54 158.5t-147 58.5q-102 0 -162 -76.5t-60 -190.5q0 -101 53.5 -158.5t147.5 -57.5z" />
    <glyph glyph-name="multiply" unicode="&#xd7;" horiz-adv-x="502" 
d="M483 437l-166 -147l118 -145l-70 -57l-115 142l-161 -144l-60 67l164 147l-115 142l70 56l113 -139l162 145z" />
    <glyph glyph-name="Oslash" unicode="&#xd8;" horiz-adv-x="751" 
d="M628 596q91 -88 91 -230q0 -167 -98 -273t-255 -106q-87 0 -157 36l-56 -76h-87v10l80 111q-92 86 -92 230q0 167 98 273.5t255 106.5q88 0 157 -37l53 73h91v-9zM175 307q0 -89 41 -144l282 388q-43 23 -101 23q-102 0 -162 -76.5t-60 -190.5zM376 91q102 0 162 76
t60 190q0 87 -41 142l-282 -386q44 -22 101 -22z" />
    <glyph glyph-name="Ugrave" unicode="&#xd9;" horiz-adv-x="688" 
d="M493 699l-204 82l-7 14l64 89l175 -124zM309 -14q-112 0 -173.5 56.5t-61.5 151.5q0 39 4 67l56 401h117l-55 -386q-4 -25 -4 -56q0 -64 35 -98.5t95 -34.5q80 0 122.5 45t56.5 144l54 386h114l-57 -401q-19 -136 -96.5 -205.5t-206.5 -69.5z" />
    <glyph glyph-name="Uacute" unicode="&#xda;" horiz-adv-x="688" 
d="M317 699l-27 63l186 117l56 -92l-6 -14zM309 -14q-112 0 -173.5 56.5t-61.5 151.5q0 39 4 67l56 401h117l-55 -386q-4 -25 -4 -56q0 -64 35 -98.5t95 -34.5q80 0 122.5 45t56.5 144l54 386h114l-57 -401q-19 -136 -96.5 -205.5t-206.5 -69.5z" />
    <glyph glyph-name="Ucircumflex" unicode="&#xdb;" horiz-adv-x="688" 
d="M297 702l-35 51l138 121h53l107 -121l-45 -51l-100 78zM309 -14q-112 0 -173.5 56.5t-61.5 151.5q0 39 4 67l56 401h117l-55 -386q-4 -25 -4 -56q0 -64 35 -98.5t95 -34.5q80 0 122.5 45t56.5 144l54 386h114l-57 -401q-19 -136 -96.5 -205.5t-206.5 -69.5z" />
    <glyph glyph-name="Udieresis" unicode="&#xdc;" horiz-adv-x="688" 
d="M306 724q-26 0 -42.5 16.5t-16.5 41.5q0 31 20 49t47 18t43 -16.5t16 -41.5q0 -30 -19.5 -48.5t-47.5 -18.5zM522 724q-26 0 -42.5 16t-16.5 42q0 31 19.5 49t47.5 18q26 0 42 -16.5t16 -41.5q0 -30 -19.5 -48.5t-46.5 -18.5zM309 -14q-112 0 -173.5 56.5t-61.5 151.5
q0 39 4 67l56 401h117l-55 -386q-4 -25 -4 -56q0 -64 35 -98.5t95 -34.5q80 0 122.5 45t56.5 144l54 386h114l-57 -401q-19 -136 -96.5 -205.5t-206.5 -69.5z" />
    <glyph glyph-name="Yacute" unicode="&#xdd;" horiz-adv-x="582" 
d="M269 699l-27 63l186 117l56 -92l-6 -14zM197 0l40 272l-170 386l1 4h126l117 -281l197 281h119l1 -4l-276 -390l-38 -268h-117z" />
    <glyph glyph-name="Thorn" unicode="&#xde;" horiz-adv-x="560" 
d="M322 555q93 0 152 -45t59 -136q0 -123 -77.5 -191t-204.5 -68q-35 0 -69 3l-17 -118h-116l93 662h116l-16 -111q46 4 80 4zM253 210q78 0 119.5 37t41.5 106q0 49 -30.5 75.5t-88.5 26.5q-19 0 -67 -3l-33 -239q33 -3 58 -3z" />
    <glyph glyph-name="germandbls" unicode="&#xdf;" horiz-adv-x="612" 
d="M388 -13q-82 0 -131 33l14 100l3 2q38 -42 104 -42q36 0 56.5 16t20.5 47q0 21 -13 37.5t-50 45.5q-39 30 -56.5 53t-17.5 59q0 31 11 56.5t21.5 37.5t31.5 33q16 16 24.5 26t16 26.5t7.5 34.5q0 32 -22.5 47.5t-59.5 15.5q-107 0 -126 -137l-69 -478h-118l69 484
q17 115 85 175.5t170 60.5q79 0 134.5 -36.5t55.5 -109.5q0 -35 -13 -65t-23.5 -42.5t-33.5 -35.5q-36 -38 -36 -61q0 -20 13 -35.5t47 -43.5q36 -32 52.5 -59.5t16.5 -74.5q0 -77 -53.5 -123.5t-130.5 -46.5z" />
    <glyph glyph-name="agrave" unicode="&#xe0;" horiz-adv-x="554" 
d="M374 569l-196 101l-2 14l72 88l163 -136zM509 112l3 -1l-15 -101q-34 -16 -76 -16q-85 0 -88 73q-69 -79 -168 -79q-68 0 -108.5 38.5t-40.5 102.5q0 61 33.5 102t82 57.5t107.5 16.5q70 0 114 -18l2 13q4 24 4 33q0 100 -119 100q-74 0 -143 -46l-3 1l13 100
q23 17 69.5 30.5t98.5 13.5q203 0 203 -175q0 -27 -4 -52l-22 -156q-2 -14 -2 -17q0 -30 28 -30q20 0 31 10zM206 80q36 0 70.5 19t58.5 53l8 57q-38 16 -90 16q-53 0 -86 -20t-33 -62q0 -30 19.5 -46.5t52.5 -16.5z" />
    <glyph glyph-name="aacute" unicode="&#xe1;" horiz-adv-x="554" 
d="M429 675l-190 -110l-40 66l156 143l77 -85zM509 112l3 -1l-15 -101q-34 -16 -76 -16q-85 0 -88 73q-69 -79 -168 -79q-68 0 -108.5 38.5t-40.5 102.5q0 61 33.5 102t82 57.5t107.5 16.5q70 0 114 -18l2 13q4 24 4 33q0 100 -119 100q-74 0 -143 -46l-3 1l13 100
q23 17 69.5 30.5t98.5 13.5q203 0 203 -175q0 -27 -4 -52l-22 -156q-2 -14 -2 -17q0 -30 28 -30q20 0 31 10zM206 80q36 0 70.5 19t58.5 53l8 57q-38 16 -90 16q-53 0 -86 -20t-33 -62q0 -30 19.5 -46.5t52.5 -16.5z" />
    <glyph glyph-name="acircumflex" unicode="&#xe2;" horiz-adv-x="554" 
d="M311 659l-112 -88l-41 45l137 142h55l99 -142l-53 -45zM509 112l3 -1l-15 -101q-34 -16 -76 -16q-85 0 -88 73q-69 -79 -168 -79q-68 0 -108.5 38.5t-40.5 102.5q0 61 33.5 102t82 57.5t107.5 16.5q70 0 114 -18l2 13q4 24 4 33q0 100 -119 100q-74 0 -143 -46l-3 1
l13 100q23 17 69.5 30.5t98.5 13.5q203 0 203 -175q0 -27 -4 -52l-22 -156q-2 -14 -2 -17q0 -30 28 -30q20 0 31 10zM206 80q36 0 70.5 19t58.5 53l8 57q-38 16 -90 16q-53 0 -86 -20t-33 -62q0 -30 19.5 -46.5t52.5 -16.5z" />
    <glyph glyph-name="atilde" unicode="&#xe3;" horiz-adv-x="554" 
d="M208 603l-3 -2l-72 18q6 48 37.5 82t75.5 34q30 0 65 -18.5t55 -18.5q37 0 42 40l4 2l75 -18q-8 -56 -41 -86t-77 -30q-29 0 -65.5 18t-54.5 18q-16 0 -27 -10.5t-14 -28.5zM509 112l3 -1l-15 -101q-34 -16 -76 -16q-85 0 -88 73q-69 -79 -168 -79q-68 0 -108.5 38.5
t-40.5 102.5q0 61 33.5 102t82 57.5t107.5 16.5q70 0 114 -18l2 13q4 24 4 33q0 100 -119 100q-74 0 -143 -46l-3 1l13 100q23 17 69.5 30.5t98.5 13.5q203 0 203 -175q0 -27 -4 -52l-22 -156q-2 -14 -2 -17q0 -30 28 -30q20 0 31 10zM206 80q36 0 70.5 19t58.5 53l8 57
q-38 16 -90 16q-53 0 -86 -20t-33 -62q0 -30 19.5 -46.5t52.5 -16.5z" />
    <glyph glyph-name="adieresis" unicode="&#xe4;" horiz-adv-x="554" 
d="M202 607q-29 0 -47.5 18t-18.5 46q0 34 22 54t52 20q29 0 47 -18t18 -45q0 -34 -21.5 -54.5t-51.5 -20.5zM408 607q-29 0 -47.5 18t-18.5 46q0 34 22 54t52 20t47.5 -17.5t17.5 -45.5q0 -34 -21.5 -54.5t-51.5 -20.5zM509 112l3 -1l-15 -101q-34 -16 -76 -16
q-85 0 -88 73q-69 -79 -168 -79q-68 0 -108.5 38.5t-40.5 102.5q0 61 33.5 102t82 57.5t107.5 16.5q70 0 114 -18l2 13q4 24 4 33q0 100 -119 100q-74 0 -143 -46l-3 1l13 100q23 17 69.5 30.5t98.5 13.5q203 0 203 -175q0 -27 -4 -52l-22 -156q-2 -14 -2 -17q0 -30 28 -30
q20 0 31 10zM206 80q36 0 70.5 19t58.5 53l8 57q-38 16 -90 16q-53 0 -86 -20t-33 -62q0 -30 19.5 -46.5t52.5 -16.5z" />
    <glyph glyph-name="aring" unicode="&#xe5;" horiz-adv-x="554" 
d="M297 561q-44 0 -72 27.5t-28 70.5q0 51 33 83.5t84 32.5q44 0 72 -27t28 -70q0 -52 -33 -84.5t-84 -32.5zM308 716q-21 0 -34.5 -14.5t-13.5 -38.5q0 -20 12 -31.5t31 -11.5q21 0 34.5 14.5t13.5 38.5q0 20 -12 31.5t-31 11.5zM509 112l3 -1l-15 -101q-34 -16 -76 -16
q-85 0 -88 73q-69 -79 -168 -79q-68 0 -108.5 38.5t-40.5 102.5q0 61 33.5 102t82 57.5t107.5 16.5q70 0 114 -18l2 13q4 24 4 33q0 100 -119 100q-74 0 -143 -46l-3 1l13 100q23 17 69.5 30.5t98.5 13.5q203 0 203 -175q0 -27 -4 -52l-22 -156q-2 -14 -2 -17q0 -30 28 -30
q20 0 31 10zM206 80q36 0 70.5 19t58.5 53l8 57q-38 16 -90 16q-53 0 -86 -20t-33 -62q0 -30 19.5 -46.5t52.5 -16.5z" />
    <glyph glyph-name="ae" unicode="&#xe6;" horiz-adv-x="913" 
d="M673 532q95 0 151 -54t56 -143q0 -43 -13 -102l-350 -1q0 -70 38 -107.5t100 -37.5q89 0 165 46l3 -2l-14 -102q-68 -42 -172 -42q-74 0 -131 30t-86 90q-63 -120 -191 -120q-92 0 -147 57.5t-55 153.5q0 153 82 243.5t203 90.5q117 0 185 -65q73 65 176 65zM661 432
q-46 0 -82 -32t-52 -88h239v14q0 106 -105 106zM260 92q44 0 83 42t54 123q6 70 36 129q-43 43 -117 43q-72 0 -119 -58t-47 -155q0 -60 29.5 -92t80.5 -32z" />
    <glyph glyph-name="ccedilla" unicode="&#xe7;" horiz-adv-x="477" 
d="M335 532q74 0 134 -24l-15 -104l-3 -1q-58 26 -122 26q-78 0 -123.5 -55t-45.5 -137q0 -67 35.5 -107.5t101.5 -40.5q58 0 116 33l3 -2l-14 -106q-52 -24 -114 -27l-27 -34q10 2 20 1q34 -1 53.5 -20t19.5 -56q0 -61 -42.5 -89t-106.5 -28q-30 0 -61 9l9 60l2 1
q21 -7 42 -7q62 0 62 44q0 30 -37 30q-22 0 -42 -5l-1 1l8 51l34 46q-83 15 -132.5 74.5t-49.5 153.5q0 142 82.5 227.5t213.5 85.5z" />
    <glyph glyph-name="egrave" unicode="&#xe8;" horiz-adv-x="555" 
d="M397 569l-196 101l-2 14l72 88l163 -136zM315 532q95 0 151 -54.5t56 -142.5q0 -50 -13 -102l-349 -1q0 -70 37.5 -107.5t100.5 -37.5q89 0 164 46l4 -1l-15 -103q-68 -42 -172 -42t-172 59.5t-68 178.5q0 137 79 222t197 85zM303 432q-46 0 -81.5 -32t-51.5 -88h238v14
q0 106 -105 106z" />
    <glyph glyph-name="eacute" unicode="&#xe9;" horiz-adv-x="555" 
d="M452 675l-190 -110l-40 66l156 143l77 -85zM315 532q95 0 151 -54.5t56 -142.5q0 -50 -13 -102l-349 -1q0 -70 37.5 -107.5t100.5 -37.5q89 0 164 46l4 -1l-15 -103q-68 -42 -172 -42t-172 59.5t-68 178.5q0 137 79 222t197 85zM303 432q-46 0 -81.5 -32t-51.5 -88h238
v14q0 106 -105 106z" />
    <glyph glyph-name="ecircumflex" unicode="&#xea;" horiz-adv-x="555" 
d="M334 659l-112 -88l-41 45l137 142h55l99 -142l-53 -45zM315 532q95 0 151 -54.5t56 -142.5q0 -50 -13 -102l-349 -1q0 -70 37.5 -107.5t100.5 -37.5q89 0 164 46l4 -1l-15 -103q-68 -42 -172 -42t-172 59.5t-68 178.5q0 137 79 222t197 85zM303 432q-46 0 -81.5 -32
t-51.5 -88h238v14q0 106 -105 106z" />
    <glyph glyph-name="edieresis" unicode="&#xeb;" horiz-adv-x="555" 
d="M225 607q-29 0 -47.5 18t-18.5 46q0 34 22 54t52 20q29 0 47 -18t18 -45q0 -34 -21.5 -54.5t-51.5 -20.5zM431 607q-29 0 -47.5 18t-18.5 46q0 34 22 54t52 20q29 0 47 -17.5t18 -45.5q0 -34 -21.5 -54.5t-51.5 -20.5zM315 532q95 0 151 -54.5t56 -142.5q0 -50 -13 -102
l-349 -1q0 -70 37.5 -107.5t100.5 -37.5q89 0 164 46l4 -1l-15 -103q-68 -42 -172 -42t-172 59.5t-68 178.5q0 137 79 222t197 85zM303 432q-46 0 -81.5 -32t-51.5 -88h238v14q0 106 -105 106z" />
    <glyph glyph-name="igrave" unicode="&#xec;" horiz-adv-x="262" 
d="M247 561l-184 112l-3 14l79 84l151 -149zM35 0l74 519h118l-73 -519h-119z" />
    <glyph glyph-name="iacute" unicode="&#xed;" horiz-adv-x="262" 
d="M106 565l-40 66l156 143l77 -85l-3 -14zM35 0l74 519h119l-74 -519h-119z" />
    <glyph glyph-name="icircumflex" unicode="&#xee;" horiz-adv-x="262" 
d="M81 568l-39 44l136 143h54l98 -143l-51 -44l-89 87zM35 0l74 519h119l-74 -519h-119z" />
    <glyph glyph-name="idieresis" unicode="&#xef;" horiz-adv-x="267" 
d="M95 607q-29 0 -47.5 18t-18.5 46q0 34 22 54t52 20q29 0 47 -17.5t18 -45.5q0 -34 -21.5 -54.5t-51.5 -20.5zM272 607q-29 0 -48 18t-19 46q0 34 22 54t52 20t48 -18t18 -45q0 -34 -21.5 -54.5t-51.5 -20.5zM38 0l74 519h118l-74 -519h-118z" />
    <glyph glyph-name="eth" unicode="&#xf0;" horiz-adv-x="620" 
d="M489 670q96 -79 96 -263q0 -196 -88.5 -308t-238.5 -112q-102 0 -161.5 55t-59.5 154q0 125 81 205.5t192 80.5q106 0 158 -63q-6 118 -60 167l-66 -67l-47 46l51 53q-23 5 -47 5q-77 0 -133 -21l-2 3l13 99q53 20 140 20q63 0 114 -20l79 82l48 -46zM276 88
q68 0 115.5 47t65.5 138q-6 43 -41 77.5t-94 34.5q-72 0 -117 -49t-45 -123q0 -56 31 -90.5t85 -34.5z" />
    <glyph glyph-name="ntilde" unicode="&#xf1;" horiz-adv-x="599" 
d="M251 603l-3 -2l-72 18q6 48 37.5 82t75.5 34q30 0 65 -18.5t55 -18.5q37 0 42 40l4 2l75 -18q-8 -56 -41 -86t-77 -30q-29 0 -65.5 18t-54.5 18q-34 0 -41 -39zM373 532q76 0 124 -45t48 -132q0 -28 -4 -49l-43 -306h-118l38 277q3 27 3 41q1 56 -26.5 80t-68.5 24
q-48 0 -83.5 -31t-45.5 -84l-43 -307h-119l74 519h97l1 -67q57 80 166 80z" />
    <glyph glyph-name="ograve" unicode="&#xf2;" horiz-adv-x="608" 
d="M412 562l-196 101l-2 14l72 88l163 -136zM280 -12q-105 0 -173 62t-68 176q0 133 80.5 219t206.5 86q106 0 174 -62t68 -178q0 -131 -81 -217t-207 -86zM290 90q73 0 114.5 56.5t41.5 137.5q0 67 -34.5 106t-94.5 39q-73 0 -114.5 -57.5t-41.5 -137.5q0 -66 34.5 -105
t94.5 -39z" />
    <glyph glyph-name="oacute" unicode="&#xf3;" horiz-adv-x="608" 
d="M277 558l-40 66l156 143l77 -85l-3 -14zM280 -12q-105 0 -173 62t-68 176q0 133 80.5 219t206.5 86q106 0 174 -62t68 -178q0 -131 -81 -217t-207 -86zM290 90q73 0 114.5 56.5t41.5 137.5q0 67 -34.5 106t-94.5 39q-73 0 -114.5 -57.5t-41.5 -137.5q0 -66 34.5 -105
t94.5 -39z" />
    <glyph glyph-name="ocircumflex" unicode="&#xf4;" horiz-adv-x="608" 
d="M237 564l-41 45l137 142h55l99 -142l-53 -45l-85 88zM280 -12q-105 0 -173 62t-68 176q0 133 80.5 219t206.5 86q106 0 174 -62t68 -178q0 -131 -81 -217t-207 -86zM290 90q73 0 114.5 56.5t41.5 137.5q0 67 -34.5 106t-94.5 39q-73 0 -114.5 -57.5t-41.5 -137.5
q0 -66 34.5 -105t94.5 -39z" />
    <glyph glyph-name="otilde" unicode="&#xf5;" horiz-adv-x="608" 
d="M243 594l-72 18q6 48 37.5 82t75.5 34q30 0 65 -18.5t55 -18.5q37 0 42 40l4 2l75 -18q-8 -56 -41 -86t-77 -30q-29 0 -65.5 18t-54.5 18q-16 0 -27 -10.5t-14 -28.5zM280 -12q-105 0 -173 62t-68 176q0 133 80.5 219t206.5 86q106 0 174 -62t68 -178q0 -131 -81 -217
t-207 -86zM290 90q73 0 114.5 56.5t41.5 137.5q0 67 -34.5 106t-94.5 39q-73 0 -114.5 -57.5t-41.5 -137.5q0 -66 34.5 -105t94.5 -39z" />
    <glyph glyph-name="odieresis" unicode="&#xf6;" horiz-adv-x="608" 
d="M240 600q-29 0 -47.5 18t-18.5 46q0 34 22 54t52 20q29 0 47 -18t18 -45q0 -34 -21.5 -54.5t-51.5 -20.5zM446 600q-29 0 -47.5 18t-18.5 46q0 34 22 54t52 20t47.5 -18t17.5 -45q0 -34 -21.5 -54.5t-51.5 -20.5zM280 -12q-105 0 -173 62t-68 176q0 133 80.5 219
t206.5 86q106 0 174 -62t68 -178q0 -131 -81 -217t-207 -86zM290 90q73 0 114.5 56.5t41.5 137.5q0 67 -34.5 106t-94.5 39q-73 0 -114.5 -57.5t-41.5 -137.5q0 -66 34.5 -105t94.5 -39z" />
    <glyph glyph-name="divide" unicode="&#xf7;" horiz-adv-x="526" 
d="M282 401q-30 0 -45.5 16t-15.5 41q0 32 21.5 54.5t60.5 22.5q30 0 46 -16t16 -42q0 -33 -21.5 -54.5t-61.5 -21.5zM47 258l12 85h433l-12 -85h-433zM235 61q-30 0 -45.5 16t-15.5 41q0 32 21.5 55t58.5 23q30 0 46 -16.5t16 -42.5q0 -33 -21 -54.5t-60 -21.5z" />
    <glyph glyph-name="oslash" unicode="&#xf8;" horiz-adv-x="608" 
d="M491 477q77 -64 77 -186q0 -131 -81 -217t-207 -86q-53 0 -97 16l-41 -63l-79 1v11l56 86q-80 65 -80 187q0 133 80.5 219t206.5 86q52 0 100 -17l35 55h84v-8zM161 234q0 -56 24 -92l180 279q-22 8 -48 8q-73 0 -114.5 -57.5t-41.5 -137.5zM290 90q73 0 114.5 56.5
t41.5 137.5q0 52 -22 90l-180 -277q25 -7 46 -7z" />
    <glyph glyph-name="ugrave" unicode="&#xf9;" horiz-adv-x="588" 
d="M417 569l-196 101l-2 14l72 88l163 -136zM436 519h118l-74 -519h-96l-2 63q-61 -75 -168 -75q-76 0 -118 41t-42 112q0 24 4 52l46 326h118l-43 -303q-3 -20 -3 -44q-1 -42 22 -63t63 -21t74 23.5t52 65.5z" />
    <glyph glyph-name="uacute" unicode="&#xfa;" horiz-adv-x="588" 
d="M472 675l-190 -110l-40 66l156 143l77 -85zM436 519h118l-74 -519h-96l-2 63q-61 -75 -168 -75q-76 0 -118 41t-42 112q0 24 4 52l46 326h118l-43 -303q-3 -20 -3 -44q-1 -42 22 -63t63 -21t74 23.5t52 65.5z" />
    <glyph glyph-name="ucircumflex" unicode="&#xfb;" horiz-adv-x="588" 
d="M354 659l-112 -88l-41 45l137 142h55l99 -142l-53 -45zM436 519h118l-74 -519h-96l-2 63q-61 -75 -168 -75q-76 0 -118 41t-42 112q0 24 4 52l46 326h118l-43 -303q-3 -20 -3 -44q-1 -42 22 -63t63 -21t74 23.5t52 65.5z" />
    <glyph glyph-name="udieresis" unicode="&#xfc;" horiz-adv-x="588" 
d="M245 607q-29 0 -47.5 18t-18.5 46q0 34 22 54t52 20q29 0 47 -18t18 -45q0 -34 -21.5 -54.5t-51.5 -20.5zM451 607q-29 0 -47.5 18t-18.5 46q0 34 22 54t52 20q29 0 47 -17.5t18 -45.5q0 -34 -21.5 -54.5t-51.5 -20.5zM436 519h118l-74 -519h-96l-2 63q-61 -75 -168 -75
q-76 0 -118 41t-42 112q0 24 4 52l46 326h118l-43 -303q-3 -20 -3 -44q-1 -42 22 -63t63 -21t74 23.5t52 65.5z" />
    <glyph glyph-name="yacute" unicode="&#xfd;" horiz-adv-x="520" 
d="M444 675l-190 -110l-40 66l156 143l77 -85zM546 516l-253 -480l-9 -18q-53 -103 -104 -146t-127 -43q-33 0 -63 11l15 94l4 2q16 -8 51 -8q70 0 122 103l3 6l-136 479l1 3h125l83 -351l167 351h119z" />
    <glyph glyph-name="thorn" unicode="&#xfe;" horiz-adv-x="600" 
d="M360 532q95 0 148 -57t53 -157q0 -149 -84 -240t-207 -91q-72 0 -116 25l-25 -177h-118l124 879h118l-33 -235q57 53 140 53zM270 90q73 0 120.5 55t47.5 151q0 67 -29.5 99t-80.5 32q-41 0 -77.5 -24t-51.5 -72l-30 -216q39 -25 101 -25z" />
    <glyph glyph-name="ydieresis" unicode="&#xff;" horiz-adv-x="520" 
d="M217 607q-29 0 -47.5 18t-18.5 46q0 34 22 54t52 20q29 0 47 -18t18 -45q0 -34 -21.5 -54.5t-51.5 -20.5zM423 607q-29 0 -47.5 18t-18.5 46q0 34 22 54t52 20q29 0 47 -17.5t18 -45.5q0 -34 -21.5 -54.5t-51.5 -20.5zM546 516l-253 -480l-9 -18q-53 -103 -104 -146
t-127 -43q-33 0 -63 11l15 94l4 2q16 -8 51 -8q70 0 122 103l3 6l-136 479l1 3h125l83 -351l167 351h119z" />
    <glyph glyph-name="Amacron" unicode="&#x100;" horiz-adv-x="616" 
d="M533 831l-13 -86h-292l13 86h292zM458 0l-34 134h-268l-71 -134h-116l370 672h51l190 -672h-122zM202 221h200l-57 223l-7 37l-17 -37z" />
    <glyph glyph-name="amacron" unicode="&#x101;" horiz-adv-x="554" 
d="M459 698l-12 -80h-289l12 80h289zM509 112l3 -1l-15 -101q-34 -16 -76 -16q-85 0 -88 73q-69 -79 -168 -79q-68 0 -108.5 38.5t-40.5 102.5q0 61 33.5 102t82 57.5t107.5 16.5q70 0 114 -18l2 13q4 24 4 33q0 100 -119 100q-74 0 -143 -46l-3 1l13 100q23 17 69.5 30.5
t98.5 13.5q203 0 203 -175q0 -27 -4 -52l-22 -156q-2 -14 -2 -17q0 -30 28 -30q20 0 31 10zM206 80q36 0 70.5 19t58.5 53l8 57q-38 16 -90 16q-53 0 -86 -20t-33 -62q0 -30 19.5 -46.5t52.5 -16.5z" />
    <glyph glyph-name="Abreve" unicode="&#x102;" horiz-adv-x="616" 
d="M376 710q-66 0 -104 40.5t-28 106.5l76 8q-3 -75 63 -75q33 0 56.5 20.5t29.5 54.5l69 -8q-8 -66 -54.5 -106.5t-107.5 -40.5zM458 0l-34 134h-268l-71 -134h-116l370 672h51l190 -672h-122zM202 221h200l-57 223l-7 37l-17 -37z" />
    <glyph glyph-name="abreve" unicode="&#x103;" horiz-adv-x="554" 
d="M302 579q-63 0 -99.5 41t-26.5 111l75 8l3 -2q-3 -34 12.5 -54t45.5 -20q31 0 52.5 20t29.5 53l3 3l69 -8q-10 -71 -55 -111.5t-109 -40.5zM509 112l3 -1l-15 -101q-34 -16 -76 -16q-85 0 -88 73q-69 -79 -168 -79q-68 0 -108.5 38.5t-40.5 102.5q0 61 33.5 102t82 57.5
t107.5 16.5q70 0 114 -18l2 13q4 24 4 33q0 100 -119 100q-74 0 -143 -46l-3 1l13 100q23 17 69.5 30.5t98.5 13.5q203 0 203 -175q0 -27 -4 -52l-22 -156q-2 -14 -2 -17q0 -30 28 -30q20 0 31 10zM206 80q36 0 70.5 19t58.5 53l8 57q-38 16 -90 16q-53 0 -86 -20t-33 -62
q0 -30 19.5 -46.5t52.5 -16.5z" />
    <glyph glyph-name="Aogonek" unicode="&#x104;" horiz-adv-x="616" 
d="M554 0q-99 -60 -99 -127q0 -35 37 -35q18 0 29 4l3 -2l-8 -68q-29 -8 -63 -8q-46 0 -74.5 20t-28.5 58q0 88 123 158h-15l-34 134h-268l-71 -134h-116l370 672h51l190 -672h-26zM202 221h200l-57 223l-7 37l-17 -37z" />
    <glyph glyph-name="aogonek" unicode="&#x105;" horiz-adv-x="554" 
d="M512 111l-15 -101q-1 0 -4 -2t-5 -2h1q-99 -60 -99 -127q0 -35 37 -35q18 0 29 4l3 -2l-8 -68q-29 -8 -63 -8q-46 0 -74.5 20t-28.5 58q0 82 107 149q-56 11 -59 70q-69 -79 -168 -79q-68 0 -108.5 38.5t-40.5 102.5q0 61 33.5 102t82 57.5t107.5 16.5q70 0 114 -18l2 13
q4 24 4 33q0 100 -119 100q-74 0 -143 -46l-3 1l13 100q23 17 69.5 30.5t98.5 13.5q203 0 203 -175q0 -27 -4 -52l-22 -156q-2 -14 -2 -17q0 -30 28 -30q20 0 31 10zM206 80q36 0 70.5 19t58.5 53l8 57q-38 16 -90 16q-53 0 -86 -20t-33 -62q0 -30 19.5 -46.5t52.5 -16.5z
" />
    <glyph glyph-name="Cacute" unicode="&#x106;" horiz-adv-x="596" 
d="M331 699l-27 63l186 117l56 -92l-6 -14zM365 -12q-145 0 -229.5 77.5t-84.5 221.5q0 175 105.5 283t270.5 108q99 0 172 -33l-15 -109l-3 -2q-70 39 -159 39q-113 0 -181 -77.5t-68 -192.5q0 -101 58 -156.5t155 -55.5q77 0 144 37l4 -1l-16 -107q-67 -32 -153 -32z" />
    <glyph glyph-name="cacute" unicode="&#x107;" horiz-adv-x="477" 
d="M269 573l-40 66l156 143l77 -85l-3 -14zM272 -13q-103 0 -168 62t-65 170q0 142 82.5 227.5t213.5 85.5q74 0 134 -24l-15 -104l-3 -1q-58 26 -122 26q-78 0 -123.5 -55t-45.5 -137q0 -67 35.5 -107.5t101.5 -40.5q58 0 116 33l3 -2l-14 -106q-56 -27 -130 -27z" />
    <glyph glyph-name="Cdotaccent" unicode="&#x10a;" horiz-adv-x="596" 
d="M427 721q-30 0 -49.5 19t-19.5 48q0 35 23 56t54 21t50 -19t19 -47q0 -35 -22.5 -56.5t-54.5 -21.5zM365 -12q-145 0 -229.5 77.5t-84.5 221.5q0 175 105.5 283t270.5 108q99 0 172 -33l-15 -109l-3 -2q-70 39 -159 39q-113 0 -181 -77.5t-68 -192.5q0 -101 58 -156.5
t155 -55.5q77 0 144 37l4 -1l-16 -107q-67 -32 -153 -32z" />
    <glyph glyph-name="cdotaccent" unicode="&#x10b;" horiz-adv-x="477" 
d="M338 612q-30 0 -49.5 19t-19.5 48q0 35 23 56t54 21t50 -19t19 -47q0 -35 -22.5 -56.5t-54.5 -21.5zM272 -13q-103 0 -168 62t-65 170q0 142 82.5 227.5t213.5 85.5q74 0 134 -24l-15 -104l-3 -1q-58 26 -122 26q-78 0 -123.5 -55t-45.5 -137q0 -67 35.5 -107.5
t101.5 -40.5q58 0 116 33l3 -2l-14 -106q-56 -27 -130 -27z" />
    <glyph glyph-name="Ccaron" unicode="&#x10c;" horiz-adv-x="596" 
d="M396 702l-111 120l48 52l100 -78l113 78l37 -51l-134 -121h-53zM365 -12q-145 0 -229.5 77.5t-84.5 221.5q0 175 105.5 283t270.5 108q99 0 172 -33l-15 -109l-3 -2q-70 39 -159 39q-113 0 -181 -77.5t-68 -192.5q0 -101 58 -156.5t155 -55.5q77 0 144 37l4 -1l-16 -107
q-67 -32 -153 -32z" />
    <glyph glyph-name="ccaron" unicode="&#x10d;" horiz-adv-x="477" 
d="M302 579l-98 143l51 44l88 -87l111 87l38 -44l-135 -143h-55zM272 -13q-103 0 -168 62t-65 170q0 142 82.5 227.5t213.5 85.5q74 0 134 -24l-15 -104l-3 -1q-58 26 -122 26q-78 0 -123.5 -55t-45.5 -137q0 -67 35.5 -107.5t101.5 -40.5q58 0 116 33l3 -2l-14 -106
q-56 -27 -130 -27z" />
    <glyph glyph-name="Dcaron" unicode="&#x10e;" horiz-adv-x="702" 
d="M413 706h-53l-111 120l48 52l100 -78l113 78l37 -51zM358 672q154 0 234 -74.5t80 -205.5q0 -184 -110.5 -289t-301.5 -105q-192 2 -211 3l93 661q99 10 216 10zM287 102q126 0 194 74t68 202q0 90 -53 138.5t-149 48.5q-70 0 -102 -4l-65 -456q42 -3 107 -3z" />
    <glyph glyph-name="dcaron" unicode="&#x10f;" horiz-adv-x="644" 
d="M444 505l30 209h118l-101 -714h-96l-2 58q-59 -71 -161 -71q-84 0 -139.5 58t-55.5 160q0 148 84 237.5t207 89.5q67 0 116 -27zM732 714l9 -11l-66 -218h-69l40 229h86zM274 92q41 0 77.5 28t47.5 73l30 205q-40 31 -100 31q-71 0 -120 -56t-49 -150q0 -65 30 -98
t84 -33z" />
    <glyph glyph-name="Dcroat" unicode="&#x110;" horiz-adv-x="702" 
d="M358 672q154 0 234 -74.5t80 -205.5q0 -184 -110.5 -289t-301.5 -105q-192 2 -211 3l41 289h-83l12 79h82l41 293q99 10 216 10zM287 102q126 0 194 74t68 202q0 90 -53 138.5t-149 48.5q-70 0 -102 -4l-28 -192h96l-12 -79h-95l-26 -185q42 -3 107 -3z" />
    <glyph glyph-name="dcroat" unicode="&#x111;" horiz-adv-x="599" 
d="M659 662l-12 -79h-74l-82 -583h-96l-2 58q-59 -71 -161 -71q-84 0 -139.5 58t-55.5 160q0 148 84 237.5t207 89.5q67 0 116 -27l11 78h-102l12 79h102l7 52h118l-7 -52h74zM274 92q41 0 77.5 28t47.5 73l30 205q-40 31 -100 31q-71 0 -120 -56t-49 -150q0 -65 30 -98
t84 -33z" />
    <glyph glyph-name="Emacron" unicode="&#x112;" horiz-adv-x="538" 
d="M513 830l-13 -86h-292l13 86h292zM522 560h-277l-24 -170h259l-15 -101h-258l-26 -186h286l-14 -103h-404l93 662h394z" />
    <glyph glyph-name="emacron" unicode="&#x113;" horiz-adv-x="555" 
d="M482 698l-12 -80h-289l12 80h289zM315 532q95 0 151 -54.5t56 -142.5q0 -50 -13 -102l-349 -1q0 -70 37.5 -107.5t100.5 -37.5q89 0 164 46l4 -1l-15 -103q-68 -42 -172 -42t-172 59.5t-68 178.5q0 137 79 222t197 85zM303 432q-46 0 -81.5 -32t-51.5 -88h238v14
q0 106 -105 106z" />
    <glyph glyph-name="Edotaccent" unicode="&#x116;" horiz-adv-x="538" 
d="M357 721q-30 0 -49.5 19t-19.5 48q0 35 23 56t54 21t50 -19t19 -47q0 -35 -22.5 -56.5t-54.5 -21.5zM522 560h-277l-24 -170h259l-15 -101h-258l-26 -186h286l-14 -103h-404l93 662h394z" />
    <glyph glyph-name="edotaccent" unicode="&#x117;" horiz-adv-x="555" 
d="M331 604q-30 0 -49.5 19t-19.5 48q0 35 23 56t54 21t50 -19t19 -47q0 -35 -22.5 -56.5t-54.5 -21.5zM315 532q95 0 151 -54.5t56 -142.5q0 -50 -13 -102l-349 -1q0 -70 37.5 -107.5t100.5 -37.5q89 0 164 46l4 -1l-15 -103q-68 -42 -172 -42t-172 59.5t-68 178.5
q0 137 79 222t197 85zM303 432q-46 0 -81.5 -32t-51.5 -88h238v14q0 106 -105 106z" />
    <glyph glyph-name="Eogonek" unicode="&#x118;" horiz-adv-x="538" 
d="M522 560h-277l-24 -170h259l-15 -101h-258l-26 -186h286l-14 -103q-99 -60 -99 -127q0 -35 37 -35q18 0 29 4l3 -2l-8 -68q-29 -8 -63 -8q-46 0 -74.5 20t-28.5 58q0 88 123 158h-323l93 662h394z" />
    <glyph glyph-name="eogonek" unicode="&#x119;" horiz-adv-x="555" 
d="M315 532q95 0 151 -54.5t56 -142.5q0 -50 -13 -102l-349 -1q0 -70 37.5 -107.5t100.5 -37.5q89 0 164 46l4 -1l-15 -103q-28 -17 -56 -26q-94 -59 -94 -124q0 -35 37 -35q18 0 29 4l3 -2l-8 -68q-29 -8 -63 -8q-46 0 -74.5 20t-28.5 58q0 78 92 139h-9q-104 0 -172 59.5
t-68 178.5q0 137 79 222t197 85zM303 432q-46 0 -81.5 -32t-51.5 -88h238v14q0 106 -105 106z" />
    <glyph glyph-name="Ecaron" unicode="&#x11a;" horiz-adv-x="538" 
d="M379 702h-53l-111 120l48 52l100 -78l113 78l37 -51zM522 560h-277l-24 -170h259l-15 -101h-258l-26 -186h286l-14 -103h-404l93 662h394z" />
    <glyph glyph-name="ecaron" unicode="&#x11b;" horiz-adv-x="555" 
d="M350 571h-55l-98 143l51 44l88 -87l111 87l38 -44zM315 532q95 0 151 -54.5t56 -142.5q0 -50 -13 -102l-349 -1q0 -70 37.5 -107.5t100.5 -37.5q89 0 164 46l4 -1l-15 -103q-68 -42 -172 -42t-172 59.5t-68 178.5q0 137 79 222t197 85zM303 432q-46 0 -81.5 -32
t-51.5 -88h238v14q0 106 -105 106z" />
    <glyph glyph-name="Gbreve" unicode="&#x11e;" horiz-adv-x="660" 
d="M440 713q-66 0 -104 40.5t-28 106.5l76 8q-3 -75 63 -75q33 0 56.5 20.5t29.5 54.5l69 -8q-8 -66 -54.5 -106.5t-107.5 -40.5zM350 -10q-139 0 -218.5 75.5t-79.5 209.5q0 181 112.5 292.5t292.5 111.5q105 0 178 -34l-16 -111l-3 -2q-69 41 -173 41q-121 0 -194.5 -78
t-73.5 -204q0 -91 51 -143.5t144 -52.5q59 0 110 23l25 175h107l-36 -254q-104 -49 -226 -49z" />
    <glyph glyph-name="gbreve" unicode="&#x11f;" horiz-adv-x="563" 
d="M310 587q-63 0 -99.5 41t-26.5 111l75 8l3 -2q-3 -34 12.5 -54t45.5 -20q31 0 52.5 20t29.5 53l3 3l69 -8q-10 -71 -55 -111.5t-109 -40.5zM570 519l-11 -84h-93q31 -33 31 -77q0 -79 -61.5 -127.5t-167.5 -48.5q-48 0 -85 12q-12 -12 -12 -26q0 -18 27.5 -27.5
t106.5 -16.5q97 -10 141 -39.5t44 -87.5q0 -82 -72 -126t-204 -44q-217 0 -217 112q0 75 94 129q-35 22 -35 60q0 56 65 97q-50 42 -50 109q0 85 65.5 135t170.5 50h263zM279 269q52 0 79 23.5t27 65.5q0 34 -23 54t-65 20q-50 0 -79.5 -23t-29.5 -65q0 -35 23.5 -55
t67.5 -20zM377 -26q0 26 -25 37.5t-94 17.5q-52 5 -87 12q-63 -34 -63 -77q0 -55 127 -55q142 0 142 65z" />
    <glyph glyph-name="Gdotaccent" unicode="&#x120;" horiz-adv-x="660" 
d="M441 725q-30 0 -49.5 19t-19.5 48q0 35 23 56t54 21t50 -19t19 -47q0 -35 -22.5 -56.5t-54.5 -21.5zM350 -10q-139 0 -218.5 75.5t-79.5 209.5q0 181 112.5 292.5t292.5 111.5q105 0 178 -34l-16 -111l-3 -2q-69 41 -173 41q-121 0 -194.5 -78t-73.5 -204
q0 -91 51 -143.5t144 -52.5q59 0 110 23l25 175h107l-36 -254q-104 -49 -226 -49z" />
    <glyph glyph-name="gdotaccent" unicode="&#x121;" horiz-adv-x="563" 
d="M316 612q-30 0 -49.5 19t-19.5 48q0 35 23 56t54 21t50 -19t19 -47q0 -35 -22.5 -56.5t-54.5 -21.5zM570 519l-11 -84h-93q31 -33 31 -77q0 -79 -61.5 -127.5t-167.5 -48.5q-48 0 -85 12q-12 -12 -12 -26q0 -18 27.5 -27.5t106.5 -16.5q97 -10 141 -39.5t44 -87.5
q0 -82 -72 -126t-204 -44q-217 0 -217 112q0 75 94 129q-35 22 -35 60q0 56 65 97q-50 42 -50 109q0 85 65.5 135t170.5 50h263zM279 269q52 0 79 23.5t27 65.5q0 34 -23 54t-65 20q-50 0 -79.5 -23t-29.5 -65q0 -35 23.5 -55t67.5 -20zM377 -26q0 26 -25 37.5t-94 17.5
q-52 5 -87 12q-63 -34 -63 -77q0 -55 127 -55q142 0 142 65z" />
    <glyph glyph-name="Gcommaaccent" unicode="&#x122;" horiz-adv-x="660" 
d="M350 -10q-139 0 -218.5 75.5t-79.5 209.5q0 181 112.5 292.5t292.5 111.5q105 0 178 -34l-16 -111l-3 -2q-69 41 -173 41q-121 0 -194.5 -78t-73.5 -204q0 -91 51 -143.5t144 -52.5q59 0 110 23l25 175h107l-36 -254q-104 -49 -226 -49zM237 -238q25 61 36 137
q1 8 2.5 24.5t2.5 24.5l100 8l7 -14q-14 -96 -75 -180h-73z" />
    <glyph glyph-name="gcommaaccent" unicode="&#x123;" horiz-adv-x="563" 
d="M364 579l-100 -8l-7 14q14 96 75 180h73q-25 -61 -36 -137q-1 -8 -2.5 -24.5t-2.5 -24.5zM570 519l-11 -84h-93q31 -33 31 -77q0 -79 -61.5 -127.5t-167.5 -48.5q-48 0 -85 12q-12 -12 -12 -26q0 -18 27.5 -27.5t106.5 -16.5q97 -10 141 -39.5t44 -87.5q0 -82 -72 -126
t-204 -44q-217 0 -217 112q0 75 94 129q-35 22 -35 60q0 56 65 97q-50 42 -50 109q0 85 65.5 135t170.5 50h263zM279 269q52 0 79 23.5t27 65.5q0 34 -23 54t-65 20q-50 0 -79.5 -23t-29.5 -65q0 -35 23.5 -55t67.5 -20zM377 -26q0 26 -25 37.5t-94 17.5q-52 5 -87 12
q-63 -34 -63 -77q0 -55 127 -55q142 0 142 65z" />
    <glyph glyph-name="Hbar" unicode="&#x126;" horiz-adv-x="716" 
d="M733 561l-12 -82h-59l-68 -479h-117l40 285h-311l-40 -285h-117l67 479h-61l12 82h61l14 101h117l-14 -101h312l14 101h117l-14 -101h59zM533 391l12 88h-312l-12 -88h312z" />
    <glyph glyph-name="hbar" unicode="&#x127;" horiz-adv-x="598" 
d="M373 532q78 0 124.5 -46t46.5 -125q0 -23 -3 -48l-44 -313h-118l40 285q3 20 3 33q0 104 -97 104q-41 0 -75 -24t-50 -74l-46 -324h-119l82 573h-73l11 80h73l9 61h118l-9 -61h103l-11 -80h-103l-14 -103q57 62 152 62z" />
    <glyph glyph-name="Itilde" unicode="&#x128;" horiz-adv-x="288" 
d="M113 710l-70 21q8 50 41 82.5t76 32.5q31 0 69 -17.5t56 -17.5q15 0 28 11t16 29l2 2l69 -22q-8 -50 -40 -81.5t-75 -31.5q-25 0 -66 17t-60 17q-17 0 -29.5 -11.5t-14.5 -28.5zM49 0l92 662h117l-92 -662h-117z" />
    <glyph glyph-name="itilde" unicode="&#x129;" horiz-adv-x="262" 
d="M87 597l-70 18q6 47 38.5 81.5t77.5 34.5q30 0 69.5 -18.5t59.5 -18.5q17 0 29 11t14 29l3 2l71 -18q-7 -54 -41 -85t-79 -31q-27 0 -67 18.5t-59 18.5q-16 0 -27.5 -11t-15.5 -29zM35 0l74 519h119l-74 -519h-119z" />
    <glyph glyph-name="Imacron" unicode="&#x12a;" horiz-adv-x="288" 
d="M68 744l13 86h292l-13 -86h-292zM49 0l92 662h117l-92 -662h-117z" />
    <glyph glyph-name="imacron" unicode="&#x12b;" horiz-adv-x="262" 
d="M50 614l12 81h269l-12 -81h-269zM35 0l74 519h118l-73 -519h-119z" />
    <glyph glyph-name="Iogonek" unicode="&#x12e;" horiz-adv-x="288" 
d="M150 0q-89 -58 -89 -121q0 -35 37 -35q18 0 29 4l3 -2l-8 -68q-29 -8 -63 -8q-46 0 -74.5 20t-28.5 58q0 84 112 152h-19l92 662h117l-92 -662h-16z" />
    <glyph glyph-name="iogonek" unicode="&#x12f;" horiz-adv-x="262" 
d="M192 748q31 0 50 -19t19 -47q0 -35 -22.5 -56.5t-54.5 -21.5q-30 0 -49.5 19t-19.5 48q0 35 23 56t54 21zM35 0l73 519h119l-73 -519h-8q-99 -62 -99 -127q0 -35 37 -35q19 0 30 4l2 -3l-8 -67q-27 -8 -63 -8q-46 0 -74 19.5t-28 57.5q0 90 122 159h-30z" />
    <glyph glyph-name="Idotaccent" unicode="&#x130;" horiz-adv-x="288" 
d="M217 721q-30 0 -49.5 19t-19.5 48q0 35 23 56t54 21t50 -19t19 -47q0 -35 -22.5 -56.5t-54.5 -21.5zM49 0l92 662h117l-92 -662h-117z" />
    <glyph glyph-name="dotlessi" unicode="&#x131;" horiz-adv-x="262" 
d="M35 0l74 519h119l-74 -519h-119z" />
    <glyph glyph-name="IJ" unicode="&#x132;" horiz-adv-x="650" 
d="M49 0l92 662h117l-92 -662h-117zM320 -3q-24 0 -54 3l15 99l3 2q15 -3 34 -3q112 0 133 147l60 417h118l-57 -407q-37 -258 -252 -258z" />
    <glyph glyph-name="ij" unicode="&#x133;" horiz-adv-x="541" 
d="M186 604q-30 0 -49.5 19t-19.5 48q0 35 23 56t54 21t50 -19t19 -47q0 -35 -22.5 -56.5t-54.5 -21.5zM465 604q-30 0 -49.5 19t-19.5 48q0 35 23 56t54 21t50 -19t19 -47q0 -35 -22.5 -56.5t-54.5 -21.5zM35 0l74 519h119l-74 -519h-119zM226 -171q-17 0 -61 6l15 102l4 1
q14 -3 32 -3q48 0 72.5 29t32.5 86l68 469h116l-70 -496q-14 -97 -68 -145.5t-141 -48.5z" />
    <glyph glyph-name="Kcommaaccent" unicode="&#x136;" horiz-adv-x="623" 
d="M664 658l-348 -325l276 -330l-2 -3h-142l-241 289l-41 -289h-117l93 662h117l-40 -286l307 286h137zM219 -52l100 8l7 -14q-14 -96 -75 -180h-73q25 61 36 137q1 8 2.5 24.5t2.5 24.5z" />
    <glyph glyph-name="kcommaaccent" unicode="&#x137;" horiz-adv-x="542" 
d="M552 516l-256 -246l209 -267l-2 -3h-140l-177 227l-32 -227h-119l102 714h118l-57 -405l214 210h139zM180 -52l100 8l7 -14q-14 -96 -75 -180h-73q25 61 36 137q1 8 2.5 24.5t2.5 24.5z" />
    <glyph glyph-name="kgreenlandic" unicode="&#x138;" horiz-adv-x="542" 
d="M563 519l-264 -249l205 -270h-149l-170 224l-31 -224h-119l74 519h118l-30 -214l227 214h139z" />
    <glyph glyph-name="Lacute" unicode="&#x139;" horiz-adv-x="486" 
d="M336 773l-209 -74l-27 63l186 117l56 -92zM181 98h269l-14 -98h-387l94 662h117z" />
    <glyph glyph-name="lacute" unicode="&#x13a;" horiz-adv-x="291" 
d="M110 748l-27 63l186 117l56 -92l-6 -14zM173 -10q-66 0 -99.5 35.5t-22.5 110.5l83 578h117l-78 -548q-5 -37 5 -53.5t37 -16.5q18 0 35 8l4 -1l-15 -101q-33 -12 -66 -12z" />
    <glyph glyph-name="Lcommaaccent" unicode="&#x13b;" horiz-adv-x="486" 
d="M181 98h269l-14 -98h-387l94 662h117zM183 -52l100 8l7 -14q-14 -96 -75 -180h-73q25 61 36 137q1 8 2.5 24.5t2.5 24.5z" />
    <glyph glyph-name="lcommaaccent" unicode="&#x13c;" horiz-adv-x="291" 
d="M173 -10q-66 0 -99.5 35.5t-22.5 110.5l83 578h117l-78 -548q-5 -37 5 -53.5t37 -16.5q18 0 35 8l4 -1l-15 -101q-33 -12 -66 -12zM35 -238q25 61 36 137q1 8 2.5 24.5t2.5 24.5l100 8l7 -14q-14 -96 -75 -180h-73z" />
    <glyph glyph-name="Lcaron" unicode="&#x13d;" horiz-adv-x="490" 
d="M490 667l-65 -218h-69l40 230h87zM259 662l-79 -564h270l-14 -98h-387l93 662h117z" />
    <glyph glyph-name="lcaron" unicode="&#x13e;" horiz-adv-x="305" 
d="M276 489l40 229h86l9 -11l-66 -218h-69zM173 -10q-66 0 -99.5 35.5t-22.5 110.5l83 578h117l-78 -548q-5 -37 5 -53.5t37 -16.5q18 0 35 8l4 -1l-15 -101q-33 -12 -66 -12z" />
    <glyph glyph-name="Ldot" unicode="&#x13f;" horiz-adv-x="500" 
d="M260 662l-79 -564h269l-14 -98h-387l94 662h117zM415 451q28 0 42.5 -15.5t14.5 -39.5q0 -30 -19.5 -50t-55.5 -20q-28 0 -43 14.5t-15 37.5q0 30 20 51.5t56 21.5z" />
    <glyph glyph-name="ldot" unicode="&#x140;" horiz-adv-x="365" 
d="M173 -10q-66 0 -99.5 35.5t-22.5 110.5l83 578h117l-78 -548q-5 -37 5 -53.5t37 -16.5q18 0 35 8l4 -1l-15 -101q-33 -12 -66 -12zM317 298q-28 0 -43 14.5t-15 38.5q0 30 19.5 50.5t55.5 20.5q28 0 43 -15t15 -39q0 -31 -19.5 -50.5t-55.5 -19.5z" />
    <glyph glyph-name="Lslash" unicode="&#x141;" horiz-adv-x="486" 
d="M181 98h269l-14 -98h-387l35 246l-71 -42l-4 2l13 93l76 45l45 318h117l-34 -242l73 44h4l-13 -97l-78 -46z" />
    <glyph glyph-name="lslash" unicode="&#x142;" horiz-adv-x="337" 
d="M226 354l-27 -188q-5 -37 5 -53.5t37 -16.5q18 0 35 8l4 -1l-15 -101q-33 -12 -66 -12q-66 0 -99.5 35.5t-22.5 110.5l20 142l-70 -41l-5 1l13 91l76 45l49 340h117l-38 -265l74 43l3 -1l-13 -92z" />
    <glyph glyph-name="Nacute" unicode="&#x143;" horiz-adv-x="709" 
d="M333 700l-27 63l186 117l56 -92l-6 -14zM49 0l94 666h51l310 -438h3l61 435h113l-95 -665h-50l-309 442h-3l-63 -440h-112z" />
    <glyph glyph-name="nacute" unicode="&#x144;" horiz-adv-x="599" 
d="M472 675l-190 -110l-40 66l156 143l77 -85zM373 532q76 0 124 -45t48 -132q0 -28 -4 -49l-43 -306h-118l38 277q3 27 3 41q1 56 -26.5 80t-68.5 24q-48 0 -83.5 -31t-45.5 -84l-43 -307h-119l74 519h97l1 -67q57 80 166 80z" />
    <glyph glyph-name="Ncommaaccent" unicode="&#x145;" horiz-adv-x="709" 
d="M49 0l94 666h51l310 -438h3l61 435h113l-95 -665h-50l-309 442h-3l-63 -440h-112zM220 -238q25 61 36 137q1 8 2.5 24.5t2.5 24.5l100 8l7 -14q-14 -96 -75 -180h-73z" />
    <glyph glyph-name="ncommaaccent" unicode="&#x146;" horiz-adv-x="599" 
d="M373 532q76 0 124 -45t48 -132q0 -28 -4 -49l-43 -306h-118l38 277q3 27 3 41q1 56 -26.5 80t-68.5 24q-48 0 -83.5 -31t-45.5 -84l-43 -307h-119l74 519h97l1 -67q57 80 166 80zM213 -52l100 8l7 -14q-14 -96 -75 -180h-73q25 61 36 137q1 8 2.5 24.5t2.5 24.5z" />
    <glyph glyph-name="Ncaron" unicode="&#x147;" horiz-adv-x="709" 
d="M398 703l-111 120l48 52l100 -78l113 78l37 -51l-134 -121h-53zM49 0l94 666h51l310 -438h3l61 435h113l-95 -665h-50l-309 442h-3l-63 -440h-112z" />
    <glyph glyph-name="ncaron" unicode="&#x148;" horiz-adv-x="599" 
d="M370 571h-55l-98 143l51 44l88 -87l111 87l38 -44zM373 532q76 0 124 -45t48 -132q0 -28 -4 -49l-43 -306h-118l38 277q3 27 3 41q1 56 -26.5 80t-68.5 24q-48 0 -83.5 -31t-45.5 -84l-43 -307h-119l74 519h97l1 -67q57 80 166 80z" />
    <glyph glyph-name="Eng" unicode="&#x14a;" horiz-adv-x="708" 
d="M681 663l-76 -538l-7 -53q-37 -269 -251 -269q-29 0 -53 4l14 96l1 1q18 -3 37 -3q115 0 137 152l3 19l-259 368h-3l-63 -440h-112l94 666h51l311 -436h3l60 433h113z" />
    <glyph glyph-name="eng" unicode="&#x14b;" horiz-adv-x="599" 
d="M373 532q76 0 124 -45t48 -132q0 -28 -4 -49l-48 -334q-14 -93 -66.5 -138.5t-133.5 -45.5q-21 0 -43 3l13 96l2 2q14 -2 17 -2q43 0 65.5 24.5t30.5 82.5l40 283q3 27 3 41q1 56 -26.5 80t-68.5 24q-47 0 -82.5 -29.5t-45.5 -80.5l-44 -312h-119l74 519h97l1 -68
q57 81 166 81z" />
    <glyph glyph-name="Omacron" unicode="&#x14c;" horiz-adv-x="751" 
d="M273 743l13 86h292l-13 -86h-292zM366 -13q-137 0 -224.5 85.5t-87.5 225.5q0 167 98 273.5t255 106.5q137 0 224.5 -86t87.5 -226q0 -167 -98 -273t-255 -106zM376 91q102 0 162 76t60 190q0 100 -54 158.5t-147 58.5q-102 0 -162 -76.5t-60 -190.5q0 -101 53.5 -158.5
t147.5 -57.5z" />
    <glyph glyph-name="omacron" unicode="&#x14d;" horiz-adv-x="608" 
d="M196 611l12 80h289l-12 -80h-289zM280 -12q-105 0 -173 62t-68 176q0 133 80.5 219t206.5 86q106 0 174 -62t68 -178q0 -131 -81 -217t-207 -86zM290 90q73 0 114.5 56.5t41.5 137.5q0 67 -34.5 106t-94.5 39q-73 0 -114.5 -57.5t-41.5 -137.5q0 -66 34.5 -105t94.5 -39z
" />
    <glyph glyph-name="Ohungarumlaut" unicode="&#x150;" horiz-adv-x="751" 
d="M314 705l-54 25l76 169l90 -22v-17zM503 705l-54 25l76 169l89 -22l1 -17zM366 -13q-137 0 -224.5 85.5t-87.5 225.5q0 167 98 273.5t255 106.5q137 0 224.5 -86t87.5 -226q0 -167 -98 -273t-255 -106zM376 91q102 0 162 76t60 190q0 100 -54 158.5t-147 58.5
q-102 0 -162 -76.5t-60 -190.5q0 -101 53.5 -158.5t147.5 -57.5z" />
    <glyph glyph-name="ohungarumlaut" unicode="&#x151;" horiz-adv-x="608" 
d="M246 558l-53 30l94 173l83 -28l-1 -17zM419 558l-52 30l93 173l83 -28l-1 -17zM280 -12q-105 0 -173 62t-68 176q0 133 80.5 219t206.5 86q106 0 174 -62t68 -178q0 -131 -81 -217t-207 -86zM290 90q73 0 114.5 56.5t41.5 137.5q0 67 -34.5 106t-94.5 39
q-73 0 -114.5 -57.5t-41.5 -137.5q0 -66 34.5 -105t94.5 -39z" />
    <glyph glyph-name="OE" unicode="&#x152;" horiz-adv-x="968" 
d="M949 571h-298q63 -77 67 -184h188l-13 -92h-179q-18 -121 -92 -201h275l-13 -94h-418q-45 -13 -100 -13q-137 0 -224.5 85.5t-87.5 225.5q0 167 98 273.5t255 106.5q53 0 101 -14h454zM175 307q0 -101 53.5 -158.5t147.5 -57.5q102 0 162 76t60 190q0 100 -54 158.5
t-147 58.5q-102 0 -162 -76.5t-60 -190.5z" />
    <glyph glyph-name="oe" unicode="&#x153;" horiz-adv-x="925" 
d="M686 532q96 0 151 -54t55 -152q0 -45 -14 -94h-337v-7q0 -68 34.5 -104t97.5 -36q47 0 81 11t79 37l3 -2l-15 -102q-73 -42 -170 -42q-124 0 -180 92q-70 -92 -202 -92q-102 0 -166 62.5t-64 167.5q0 143 78.5 229t200.5 86q131 0 186 -96q72 96 182 96zM552 311h228v18
q0 51 -25.5 77.5t-76.5 25.5q-44 -1 -77.5 -32.5t-48.5 -88.5zM428 286q1 65 -28.5 104.5t-89.5 39.5q-64 0 -107 -55.5t-43 -147.5q0 -61 31.5 -100.5t88.5 -39.5q67 0 107.5 54.5t40.5 144.5z" />
    <glyph glyph-name="Racute" unicode="&#x154;" horiz-adv-x="585" 
d="M467 773l-209 -74l-27 63l186 117l56 -92zM554 490q0 -93 -43.5 -152t-113.5 -83l117 -252l-1 -3h-123l-106 238h-85l-34 -238h-116l93 662q81 8 186 8q103 0 164.5 -43t61.5 -137zM245 567l-34 -238h70q67 0 109.5 36.5t42.5 103.5q0 49 -28 75t-82 26q-51 0 -78 -3z
" />
    <glyph glyph-name="racute" unicode="&#x155;" horiz-adv-x="388" 
d="M399 675l-190 -110l-40 66l156 143l77 -85zM352 530q33 0 53 -8l-16 -108l-3 -1q-23 9 -50 9q-23 0 -41 -5t-39 -19.5t-37 -45.5t-27 -79l-38 -273h-119l74 519h96l1 -66q52 77 146 77z" />
    <glyph glyph-name="Rcommaaccent" unicode="&#x156;" horiz-adv-x="585" 
d="M554 490q0 -93 -43.5 -152t-113.5 -83l117 -252l-1 -3h-123l-106 238h-85l-34 -238h-116l93 662q81 8 186 8q103 0 164.5 -43t61.5 -137zM245 567l-34 -238h70q67 0 109.5 36.5t42.5 103.5q0 49 -28 75t-82 26q-51 0 -78 -3zM193 -52l100 8l7 -14q-14 -96 -75 -180h-73
q25 61 36 137q1 8 2.5 24.5t2.5 24.5z" />
    <glyph glyph-name="rcommaaccent" unicode="&#x157;" horiz-adv-x="388" 
d="M352 530q33 0 53 -8l-16 -108l-3 -1q-23 9 -50 9q-23 0 -41 -5t-39 -19.5t-37 -45.5t-27 -79l-38 -273h-119l74 519h96l1 -66q52 77 146 77zM35 -52l100 8l7 -14q-14 -96 -75 -180h-73q25 61 36 137q1 8 2.5 24.5t2.5 24.5z" />
    <glyph glyph-name="Rcaron" unicode="&#x158;" horiz-adv-x="585" 
d="M376 702h-53l-111 120l48 52l100 -78l113 78l37 -51zM554 490q0 -93 -43.5 -152t-113.5 -83l117 -252l-1 -3h-123l-106 238h-85l-34 -238h-116l93 662q81 8 186 8q103 0 164.5 -43t61.5 -137zM245 567l-34 -238h70q67 0 109.5 36.5t42.5 103.5q0 49 -28 75t-82 26
q-51 0 -78 -3z" />
    <glyph glyph-name="rcaron" unicode="&#x159;" horiz-adv-x="388" 
d="M297 571h-55l-98 143l51 44l88 -87l111 87l38 -44zM206 453q52 77 146 77q33 0 53 -8l-16 -108l-3 -1q-23 9 -50 9q-23 0 -41 -5t-39 -19.5t-37 -45.5t-27 -79l-38 -273h-119l74 519h96z" />
    <glyph glyph-name="Sacute" unicode="&#x15a;" horiz-adv-x="530" 
d="M255 700l-27 63l186 117l56 -92l-6 -14zM209 -12q-113 0 -186 44l16 113l3 1q74 -56 166 -56q64 0 101 25t37 71q0 36 -22 59.5t-88 55.5q-66 33 -104 72.5t-38 101.5q0 98 70.5 151t177.5 53q96 0 162 -31l-14 -107l-4 -1q-58 36 -143 36q-59 0 -94 -20.5t-35 -60.5
q0 -32 23 -50t91 -52q66 -35 101 -77t35 -108q0 -101 -69.5 -160.5t-185.5 -59.5z" />
    <glyph glyph-name="sacute" unicode="&#x15b;" horiz-adv-x="469" 
d="M222 573l-40 66l156 143l77 -85l-3 -14zM182 -13q-102 0 -171 38l15 104l3 1q67 -50 168 -50q104 0 104 63q0 26 -22 41t-84 36q-68 23 -100 56t-32 86q0 79 63 124.5t172 45.5q89 0 143 -26l-14 -99l-2 -1q-56 28 -138 28q-107 0 -107 -57q0 -22 20 -35.5t77 -32.5
q72 -24 105.5 -55.5t33.5 -84.5q0 -87 -63 -134.5t-171 -47.5z" />
    <glyph glyph-name="Scedilla" unicode="&#x15e;" horiz-adv-x="530" 
d="M342 679q96 0 162 -31l-14 -107l-4 -1q-58 36 -143 36q-59 0 -94 -20.5t-35 -60.5q0 -32 23 -50t91 -52q66 -35 101 -77t35 -108q0 -89 -54.5 -146t-148.5 -71l-30 -38q10 2 20 1q34 -1 53.5 -20t19.5 -56q0 -61 -42.5 -89t-106.5 -28q-30 0 -61 9l9 60l2 1q21 -7 42 -7
q62 0 62 44q0 30 -37 30q-22 0 -42 -5l-1 1l8 51l32 43q-99 4 -166 44l16 113l3 1q74 -56 166 -56q64 0 101 25t37 71q0 36 -22 59.5t-88 55.5q-66 33 -104 72.5t-38 101.5q0 98 70.5 151t177.5 53z" />
    <glyph glyph-name="scedilla" unicode="&#x15f;" horiz-adv-x="469" 
d="M298 532q89 0 143 -26l-14 -99l-2 -1q-56 28 -138 28q-107 0 -107 -57q0 -22 20 -35.5t77 -32.5q72 -24 105.5 -55.5t33.5 -84.5q0 -76 -49 -122t-135 -57l-29 -37q10 2 20 1q34 -1 53.5 -20t19.5 -56q0 -61 -42.5 -89t-106.5 -28q-30 0 -61 9l9 60l2 1q21 -7 42 -7
q62 0 62 44q0 30 -37 30q-22 0 -42 -5l-1 1l8 51l32 42q-87 4 -150 38l15 104l3 1q67 -50 168 -50q104 0 104 63q0 26 -22 41t-84 36q-68 23 -100 56t-32 86q0 79 63 124.5t172 45.5z" />
    <glyph glyph-name="Scaron" unicode="&#x160;" horiz-adv-x="530" 
d="M320 703l-111 120l48 52l100 -78l113 78l37 -51l-134 -121h-53zM209 -12q-113 0 -186 44l16 113l3 1q74 -56 166 -56q64 0 101 25t37 71q0 36 -22 59.5t-88 55.5q-66 33 -104 72.5t-38 101.5q0 98 70.5 151t177.5 53q96 0 162 -31l-14 -107l-4 -1q-58 36 -143 36
q-59 0 -94 -20.5t-35 -60.5q0 -32 23 -50t91 -52q66 -35 101 -77t35 -108q0 -101 -69.5 -160.5t-185.5 -59.5z" />
    <glyph glyph-name="scaron" unicode="&#x161;" horiz-adv-x="469" 
d="M255 579l-98 143l51 44l88 -87l111 87l38 -44l-135 -143h-55zM182 -13q-102 0 -171 38l15 104l3 1q67 -50 168 -50q104 0 104 63q0 26 -22 41t-84 36q-68 23 -100 56t-32 86q0 79 63 124.5t172 45.5q89 0 143 -26l-14 -99l-2 -1q-56 28 -138 28q-107 0 -107 -57
q0 -22 20 -35.5t77 -32.5q72 -24 105.5 -55.5t33.5 -84.5q0 -87 -63 -134.5t-171 -47.5z" />
    <glyph glyph-name="uni0162" unicode="&#x162;" horiz-adv-x="555" 
d="M303 0h-24l-37 -47q10 2 20 1q34 -1 53.5 -20t19.5 -56q0 -61 -42.5 -89t-106.5 -28q-30 0 -61 9l9 60l2 1q21 -7 42 -7q62 0 62 44q0 30 -37 30q-22 0 -42 -5l-1 1l8 51l41 55h-24l80 557h-206l15 105h524l-16 -105h-200z" />
    <glyph glyph-name="uni0163" unicode="&#x163;" horiz-adv-x="389" 
d="M245 426l-32 -228q-3 -21 -3 -40q0 -27 19.5 -43t56.5 -16q32 0 64 14l2 -1l-14 -100q-36 -18 -85 -18l-32 -41q10 2 20 1q34 -1 53.5 -20t19.5 -56q0 -61 -42.5 -89t-106.5 -28q-30 0 -61 9l9 60l2 1q21 -7 42 -7q62 0 62 44q0 30 -37 30q-22 0 -42 -5l-1 1l8 51l41 55
h6q-50 12 -78 46t-28 84q0 23 3 41l36 255h-92l13 93h93l17 122l119 22l1 -2l-20 -142h147l-13 -93h-147z" />
    <glyph glyph-name="Tcaron" unicode="&#x164;" horiz-adv-x="555" 
d="M372 702h-53l-111 120l48 52l100 -78l113 78l37 -51zM598 662l-16 -105h-200l-79 -557h-118l80 557h-206l15 105h524z" />
    <glyph glyph-name="tcaron" unicode="&#x165;" horiz-adv-x="389" 
d="M462 797l-66 -218h-69l40 229h86zM278 661l-20 -142h147l-13 -93h-147l-32 -228q-3 -21 -3 -40q0 -27 19.5 -43t56.5 -16q32 0 64 14l2 -1l-14 -100q-35 -18 -89 -18q-75 0 -118 36t-43 100q0 23 3 41l36 255h-92l13 93h93l17 122l119 22z" />
    <glyph glyph-name="Tbar" unicode="&#x166;" horiz-adv-x="558" 
d="M584 557h-200l-30 -214h88l-11 -80h-89l-37 -263h-118l38 263h-89l11 80h89l31 214h-206l15 105h524z" />
    <glyph glyph-name="tbar" unicode="&#x167;" horiz-adv-x="389" 
d="M393 426h-147l-15 -110h94l-12 -79h-94l-5 -39q-3 -21 -3 -40q0 -27 19.5 -43t56.5 -16q32 0 64 14l2 -1l-14 -100q-35 -18 -89 -18q-75 0 -118 36t-43 100q0 23 3 41l9 66h-82l12 79h82l15 110h-92l13 93h93l17 122l119 22l1 -2l-20 -142h147z" />
    <glyph glyph-name="Utilde" unicode="&#x168;" horiz-adv-x="688" 
d="M309 710l-70 21q8 50 41 82.5t76 32.5q31 0 69 -17.5t56 -17.5q15 0 28 11t16 29l2 2l69 -22q-8 -50 -40 -81.5t-75 -31.5q-25 0 -66 17t-60 17q-17 0 -29.5 -11.5t-14.5 -28.5zM309 -14q-112 0 -173.5 56.5t-61.5 151.5q0 39 4 67l56 401h117l-55 -386q-4 -25 -4 -56
q0 -64 35 -98.5t95 -34.5q80 0 122.5 45t56.5 144l54 386h114l-57 -401q-19 -136 -96.5 -205.5t-206.5 -69.5z" />
    <glyph glyph-name="utilde" unicode="&#x169;" horiz-adv-x="588" 
d="M251 603l-3 -2l-72 18q6 48 37.5 82t75.5 34q30 0 65 -18.5t55 -18.5q37 0 42 40l4 2l75 -18q-8 -56 -41 -86t-77 -30q-29 0 -65.5 18t-54.5 18q-34 0 -41 -39zM436 519h118l-74 -519h-96l-2 63q-61 -75 -168 -75q-76 0 -118 41t-42 112q0 24 4 52l46 326h118l-43 -303
q-3 -20 -3 -44q-1 -42 22 -63t63 -21t74 23.5t52 65.5z" />
    <glyph glyph-name="Umacron" unicode="&#x16a;" horiz-adv-x="688" 
d="M264 744l13 86h292l-13 -86h-292zM309 -14q-112 0 -173.5 56.5t-61.5 151.5q0 39 4 67l56 401h117l-55 -386q-4 -25 -4 -56q0 -64 35 -98.5t95 -34.5q80 0 122.5 45t56.5 144l54 386h114l-57 -401q-19 -136 -96.5 -205.5t-206.5 -69.5z" />
    <glyph glyph-name="umacron" unicode="&#x16b;" horiz-adv-x="588" 
d="M502 698l-12 -80h-289l12 80h289zM436 519h118l-74 -519h-96l-2 63q-61 -75 -168 -75q-76 0 -118 41t-42 112q0 24 4 52l46 326h118l-43 -303q-3 -20 -3 -44q-1 -42 22 -63t63 -21t74 23.5t52 65.5z" />
    <glyph glyph-name="Uring" unicode="&#x16e;" horiz-adv-x="688" 
d="M405 684q-43 0 -70.5 25t-27.5 66q0 49 32 79t82 30q44 0 71.5 -25t27.5 -66q0 -48 -32.5 -78.5t-82.5 -30.5zM411 741q20 0 33.5 12.5t13.5 34.5q0 18 -12 28.5t-30 10.5q-20 0 -33.5 -12.5t-13.5 -34.5q0 -18 12 -28.5t30 -10.5zM309 -14q-112 0 -173.5 56.5
t-61.5 151.5q0 39 4 67l56 401h117l-55 -386q-4 -25 -4 -56q0 -64 35 -98.5t95 -34.5q80 0 122.5 45t56.5 144l54 386h114l-57 -401q-19 -136 -96.5 -205.5t-206.5 -69.5z" />
    <glyph glyph-name="uring" unicode="&#x16f;" horiz-adv-x="588" 
d="M340 561q-44 0 -72 27.5t-28 70.5q0 51 33 83.5t84 32.5q44 0 72 -27t28 -70q0 -52 -33 -84.5t-84 -32.5zM351 716q-21 0 -34.5 -14.5t-13.5 -38.5q0 -20 12 -31.5t31 -11.5q21 0 34.5 14.5t13.5 38.5q0 20 -12 31.5t-31 11.5zM436 519h118l-74 -519h-96l-2 63
q-61 -75 -168 -75q-76 0 -118 41t-42 112q0 24 4 52l46 326h118l-43 -303q-3 -20 -3 -44q-1 -42 22 -63t63 -21t74 23.5t52 65.5z" />
    <glyph glyph-name="Uhungarumlaut" unicode="&#x170;" horiz-adv-x="688" 
d="M305 706l-54 25l76 169l90 -22v-17zM494 706l-54 25l76 169l89 -22l1 -17zM309 -14q-112 0 -173.5 56.5t-61.5 151.5q0 39 4 67l56 401h117l-55 -386q-4 -25 -4 -56q0 -64 35 -98.5t95 -34.5q80 0 122.5 45t56.5 144l54 386h114l-57 -401q-19 -136 -96.5 -205.5
t-206.5 -69.5z" />
    <glyph glyph-name="uhungarumlaut" unicode="&#x171;" horiz-adv-x="588" 
d="M374 723l-123 -158l-53 30l94 173l83 -28zM424 565l-52 30l93 173l83 -28l-1 -17zM436 519h118l-74 -519h-96l-2 63q-61 -75 -168 -75q-76 0 -118 41t-42 112q0 24 4 52l46 326h118l-43 -303q-3 -20 -3 -44q-1 -42 22 -63t63 -21t74 23.5t52 65.5z" />
    <glyph glyph-name="Uogonek" unicode="&#x172;" horiz-adv-x="688" 
d="M555 662h114l-57 -401q-31 -218 -208 -264q-85 -56 -85 -118q0 -35 37 -35q18 0 29 4l3 -2l-8 -68q-29 -8 -63 -8q-46 0 -74.5 20t-28.5 58q0 76 90 138q-109 1 -169.5 57.5t-60.5 150.5q0 39 4 67l56 401h117l-55 -386q-4 -25 -4 -56q0 -64 35 -98.5t95 -34.5
q80 0 122.5 45t56.5 144z" />
    <glyph glyph-name="uogonek" unicode="&#x173;" horiz-adv-x="588" 
d="M478 0q-97 -60 -97 -126q0 -35 37 -35q18 0 29 4l3 -2l-8 -68q-29 -8 -63 -8q-46 0 -74.5 20t-28.5 58q0 89 121 157h-13l-2 63q-61 -75 -168 -75q-76 0 -118 41t-42 112q0 24 4 52l46 326h118l-43 -303q-3 -20 -3 -44q-1 -42 22 -63t63 -21t74 23.5t52 65.5l49 342h118
l-74 -519h-2z" />
    <glyph glyph-name="Wcircumflex" unicode="&#x174;" horiz-adv-x="924" 
d="M538 782l-118 -78l-35 51l138 121h53l107 -121l-45 -51zM969 662l1 -4l-300 -665h-88l-81 445l-3 30l-12 -30l-211 -445h-91l-118 665l2 4h123l63 -461l3 -45l17 45l208 456h83l79 -445l4 -50l18 50l190 450h113z" />
    <glyph glyph-name="wcircumflex" unicode="&#x175;" horiz-adv-x="774" 
d="M448 668l-112 -88l-41 45l137 142h55l99 -142l-53 -45zM796 519l1 -3l-236 -516h-98l-51 364l-2 22l-8 -22l-160 -364h-99l-93 516l1 3h119l45 -348v-26l9 26l149 348h113l46 -347l3 -25l7 26l144 346h110z" />
    <glyph glyph-name="Ycircumflex" unicode="&#x176;" horiz-adv-x="582" 
d="M249 702l-35 51l138 121h53l107 -121l-45 -51l-100 78zM197 0l40 272l-170 386l1 4h126l117 -281l197 281h119l1 -4l-276 -390l-38 -268h-117z" />
    <glyph glyph-name="ycircumflex" unicode="&#x177;" horiz-adv-x="520" 
d="M326 659l-112 -88l-41 45l137 142h55l99 -142l-53 -45zM546 516l-253 -480l-9 -18q-53 -103 -104 -146t-127 -43q-33 0 -63 11l15 94l4 2q16 -8 51 -8q70 0 122 103l3 6l-136 479l1 3h125l83 -351l167 351h119z" />
    <glyph glyph-name="Ydieresis" unicode="&#x178;" horiz-adv-x="582" 
d="M258 724q-26 0 -42.5 16.5t-16.5 41.5q0 31 20 49t47 18t43 -16.5t16 -41.5q0 -30 -19.5 -48.5t-47.5 -18.5zM474 724q-26 0 -42.5 16t-16.5 42q0 31 19.5 49t47.5 18q26 0 42 -16.5t16 -41.5q0 -30 -19.5 -48.5t-46.5 -18.5zM197 0l40 272l-170 386l1 4h126l117 -281
l197 281h119l1 -4l-276 -390l-38 -268h-117z" />
    <glyph glyph-name="Zacute" unicode="&#x179;" horiz-adv-x="572" 
d="M260 703l-27 63l186 117l56 -92l-6 -14zM13 0l-7 41l409 525h-333l12 96h484l4 -40l-413 -525h346l-13 -97h-489z" />
    <glyph glyph-name="zacute" unicode="&#x17a;" horiz-adv-x="502" 
d="M425 675l-190 -110l-40 66l156 143l77 -85zM481 459l-317 -363h283l-14 -96h-419l-4 56l310 365h-254l12 98h398z" />
    <glyph glyph-name="Zdotaccent" unicode="&#x17b;" horiz-adv-x="572" 
d="M356 725q-30 0 -49.5 19t-19.5 48q0 35 23 56t54 21t50 -19t19 -47q0 -35 -22.5 -56.5t-54.5 -21.5zM13 0l-7 41l409 525h-333l12 96h484l4 -40l-413 -525h346l-13 -97h-489z" />
    <glyph glyph-name="zdotaccent" unicode="&#x17c;" horiz-adv-x="502" 
d="M304 604q-30 0 -49.5 19t-19.5 48q0 35 23 56t54 21t50 -19t19 -47q0 -35 -22.5 -56.5t-54.5 -21.5zM481 459l-317 -363h283l-14 -96h-419l-4 56l310 365h-254l12 98h398z" />
    <glyph glyph-name="Zcaron" unicode="&#x17d;" horiz-adv-x="572" 
d="M325 706l-111 120l48 52l100 -78l113 78l37 -51l-134 -121h-53zM13 0l-7 41l409 525h-333l12 96h484l4 -40l-413 -525h346l-13 -97h-489z" />
    <glyph glyph-name="zcaron" unicode="&#x17e;" horiz-adv-x="502" 
d="M323 571h-55l-98 143l51 44l88 -87l111 87l38 -44zM481 459l-317 -363h283l-14 -96h-419l-4 56l310 365h-254l12 98h398z" />
    <glyph glyph-name="uni01EA" unicode="&#x1ea;" horiz-adv-x="751" 
d="M457 -3q-86 -55 -86 -118q0 -35 37 -35q18 0 29 4l3 -2l-8 -68q-29 -8 -63 -8q-46 0 -74.5 20t-28.5 58q0 77 92 139q-134 3 -219 88t-85 223q0 167 98 273.5t255 106.5q137 0 224.5 -86t87.5 -226q0 -141 -71 -240.5t-191 -128.5zM175 307q0 -101 53.5 -158.5
t147.5 -57.5q102 0 162 76t60 190q0 100 -54 158.5t-147 58.5q-102 0 -162 -76.5t-60 -190.5z" />
    <glyph glyph-name="uni01EB" unicode="&#x1eb;" horiz-adv-x="608" 
d="M373 2q-93 -58 -93 -123q0 -35 37 -35q18 0 29 4l3 -2l-8 -68q-29 -8 -63 -8q-46 0 -74.5 20t-28.5 58q0 77 94 140q-102 4 -166 65.5t-64 172.5q0 133 80.5 219t206.5 86q106 0 174 -62t68 -178q0 -104 -53 -182t-142 -107zM161 234q0 -66 34.5 -105t94.5 -39
q73 0 114.5 56.5t41.5 137.5q0 67 -34.5 106t-94.5 39q-73 0 -114.5 -57.5t-41.5 -137.5z" />
    <glyph glyph-name="AEacute" unicode="&#x1fc;" horiz-adv-x="808" 
d="M661 773l-209 -74l-27 63l186 117l56 -92zM794 566h-242l-25 -174h224l-14 -95h-223l-29 -201h252l-13 -96h-371l25 173h-196l-122 -173h-119l472 662h395zM240 256h150l39 275l-74 -112z" />
    <glyph glyph-name="aeacute" unicode="&#x1fd;" horiz-adv-x="913" 
d="M634 675l-190 -110l-40 66l156 143l77 -85zM673 532q95 0 151 -54t56 -143q0 -43 -13 -102l-350 -1q0 -70 38 -107.5t100 -37.5q89 0 165 46l3 -2l-14 -102q-68 -42 -172 -42q-74 0 -131 30t-86 90q-63 -120 -191 -120q-92 0 -147 57.5t-55 153.5q0 153 82 243.5
t203 90.5q117 0 185 -65q73 65 176 65zM661 432q-46 0 -82 -32t-52 -88h239v14q0 106 -105 106zM260 92q44 0 83 42t54 123q6 70 36 129q-43 43 -117 43q-72 0 -119 -58t-47 -155q0 -60 29.5 -92t80.5 -32z" />
    <glyph glyph-name="Oslashacute" unicode="&#x1fe;" horiz-adv-x="751" 
d="M556 773l-209 -74l-27 63l186 117l56 -92zM628 596q91 -88 91 -230q0 -167 -98 -273t-255 -106q-87 0 -157 36l-56 -76h-87v10l80 111q-92 86 -92 230q0 167 98 273.5t255 106.5q88 0 157 -37l53 73h91v-9zM175 307q0 -89 41 -144l282 388q-43 23 -101 23
q-102 0 -162 -76.5t-60 -190.5zM376 91q102 0 162 76t60 190q0 87 -41 142l-282 -386q44 -22 101 -22z" />
    <glyph glyph-name="oslashacute" unicode="&#x1ff;" horiz-adv-x="608" 
d="M475 675l-190 -110l-40 66l156 143l77 -85zM491 477q77 -64 77 -186q0 -131 -81 -217t-207 -86q-53 0 -97 16l-41 -63l-79 1v11l56 86q-80 65 -80 187q0 133 80.5 219t206.5 86q52 0 100 -17l35 55h84v-8zM161 234q0 -56 24 -92l180 279q-22 8 -48 8q-73 0 -114.5 -57.5
t-41.5 -137.5zM290 90q73 0 114.5 56.5t41.5 137.5q0 52 -22 90l-180 -277q25 -7 46 -7z" />
    <glyph glyph-name="Scommaaccent" unicode="&#x218;" horiz-adv-x="530" 
d="M209 -12q-113 0 -186 44l16 113l3 1q74 -56 166 -56q64 0 101 25t37 71q0 36 -22 59.5t-88 55.5q-66 33 -104 72.5t-38 101.5q0 98 70.5 151t177.5 53q96 0 162 -31l-14 -107l-4 -1q-58 36 -143 36q-59 0 -94 -20.5t-35 -60.5q0 -32 23 -50t91 -52q66 -35 101 -77
t35 -108q0 -101 -69.5 -160.5t-185.5 -59.5zM125 -238q25 61 36 137q1 8 2.5 24.5t2.5 24.5l100 8l7 -14q-14 -96 -75 -180h-73z" />
    <glyph glyph-name="scommaaccent" unicode="&#x219;" horiz-adv-x="469" 
d="M182 -13q-102 0 -171 38l15 104l3 1q67 -50 168 -50q104 0 104 63q0 26 -22 41t-84 36q-68 23 -100 56t-32 86q0 79 63 124.5t172 45.5q89 0 143 -26l-14 -99l-2 -1q-56 28 -138 28q-107 0 -107 -57q0 -22 20 -35.5t77 -32.5q72 -24 105.5 -55.5t33.5 -84.5
q0 -87 -63 -134.5t-171 -47.5zM97 -238q25 61 36 137q1 8 2.5 24.5t2.5 24.5l100 8l7 -14q-14 -96 -75 -180h-73z" />
    <glyph glyph-name="uni021A" unicode="&#x21a;" horiz-adv-x="555" 
d="M598 662l-16 -105h-200l-79 -557h-118l80 557h-206l15 105h524zM177 -52l100 8l7 -14q-14 -96 -75 -180h-73q25 61 36 137q1 8 2.5 24.5t2.5 24.5z" />
    <glyph glyph-name="uni021B" unicode="&#x21b;" horiz-adv-x="389" 
d="M245 426l-32 -228q-3 -21 -3 -40q0 -27 19.5 -43t56.5 -16q32 0 64 14l2 -1l-14 -100q-35 -18 -89 -18q-75 0 -118 36t-43 100q0 23 3 41l36 255h-92l13 93h93l17 122l119 22l1 -2l-20 -142h147l-13 -93h-147zM156 -52l100 8l7 -14q-14 -96 -75 -180h-73q25 61 36 137
q1 8 2.5 24.5t2.5 24.5z" />
    <glyph glyph-name="uni0237" unicode="&#x237;" horiz-adv-x="279" 
d="M-36 -171q-17 0 -61 6l15 102l4 1q14 -3 32 -3q48 0 72.5 29t32.5 86l68 469h116l-70 -496q-14 -97 -68 -145.5t-141 -48.5z" />
    <glyph glyph-name="circumflex" unicode="&#x2c6;" horiz-adv-x="363" 
d="M128 571l-41 45l137 142h55l99 -142l-53 -45l-85 88z" />
    <glyph glyph-name="caron" unicode="&#x2c7;" horiz-adv-x="363" 
d="M201 571l-98 143l51 44l88 -87l111 87l38 -44l-135 -143h-55z" />
    <glyph glyph-name="breve" unicode="&#x2d8;" horiz-adv-x="336" 
d="M217 579q-63 0 -99.5 41t-26.5 111l75 8l3 -2q-3 -34 12.5 -54t45.5 -20q31 0 52.5 20t29.5 53l3 3l69 -8q-10 -71 -55 -111.5t-109 -40.5z" />
    <glyph glyph-name="dotaccent" unicode="&#x2d9;" horiz-adv-x="281" 
d="M196 604q-30 0 -49.5 19t-19.5 48q0 35 23 56t54 21t50 -19t19 -47q0 -35 -22.5 -56.5t-54.5 -21.5z" />
    <glyph glyph-name="ring" unicode="&#x2da;" horiz-adv-x="316" 
d="M187 561q-44 0 -72 27.5t-28 70.5q0 51 33 83.5t84 32.5q44 0 72 -27t28 -70q0 -52 -33 -84.5t-84 -32.5zM193 620q21 0 34.5 14.5t13.5 38.5q0 20 -12 31.5t-31 11.5q-21 0 -34.5 -14.5t-13.5 -38.5q0 -20 12 -31.5t31 -11.5z" />
    <glyph glyph-name="ogonek" unicode="&#x2db;" horiz-adv-x="203" 
d="M62 -230q-46 0 -74.5 20t-28.5 58q0 91 128 161l76 -3q-99 -60 -99 -127q0 -35 37 -35q18 0 29 4l3 -2l-8 -68q-29 -8 -63 -8z" />
    <glyph glyph-name="tilde" unicode="&#x2dc;" horiz-adv-x="370" 
d="M136 601l-72 18q6 48 37.5 82t75.5 34q30 0 65 -18.5t55 -18.5q37 0 42 40l4 2l75 -18q-8 -56 -41 -86t-77 -30q-29 0 -65.5 18t-54.5 18q-34 0 -41 -39z" />
    <glyph glyph-name="hungarumlaut" unicode="&#x2dd;" horiz-adv-x="385" 
d="M123 565l-53 30l94 173l83 -28l-1 -17zM296 565l-52 30l93 173l83 -28l-1 -17z" />
    <glyph glyph-name="gravecomb" unicode="&#x300;" 
d="M10 569l-196 101l-2 14l72 88l163 -136z" />
    <glyph glyph-name="acutecomb" unicode="&#x301;" 
d="M-143 565l-40 66l156 143l77 -85l-3 -14z" />
    <glyph glyph-name="uni0302" unicode="&#x302;" 
d="M-234 571l-41 45l137 142h55l99 -142l-53 -45l-85 88z" />
    <glyph glyph-name="tildecomb" unicode="&#x303;" 
d="M-234 601l-72 18q6 48 37.5 82t75.5 34q30 0 65 -18.5t55 -18.5q37 0 42 40l4 2l75 -18q-8 -56 -41 -86t-77 -30q-29 0 -65.5 18t-54.5 18q-34 0 -41 -39z" />
    <glyph glyph-name="uni0304" unicode="&#x304;" 
d="M-262 618l12 80h289l-12 -80h-289z" />
    <glyph glyph-name="uni0306" unicode="&#x306;" 
d="M-120 579q-63 0 -99.5 41t-26.5 111l75 8l3 -2q-3 -34 12.5 -54t45.5 -20q31 0 52.5 20t29.5 53l3 3l69 -8q-10 -71 -55 -111.5t-109 -40.5z" />
    <glyph glyph-name="uni0307" unicode="&#x307;" 
d="M-85 604q-30 0 -49.5 19t-19.5 48q0 35 23 56t54 21t50 -19t19 -47q0 -35 -22.5 -56.5t-54.5 -21.5z" />
    <glyph glyph-name="uni0308" unicode="&#x308;" 
d="M-231 607q-29 0 -47.5 18t-18.5 46q0 34 22 54t52 20q29 0 47 -18t18 -45q0 -34 -21.5 -54.5t-51.5 -20.5zM-25 607q-29 0 -47.5 18t-18.5 46q0 34 22 54t52 20q29 0 47 -17.5t18 -45.5q0 -34 -21.5 -54.5t-51.5 -20.5z" />
    <glyph glyph-name="uni030A" unicode="&#x30a;" 
d="M-98 561q-44 0 -72 27.5t-28 70.5q0 51 33 83.5t84 32.5q44 0 72 -27t28 -70q0 -52 -33 -84.5t-84 -32.5zM-92 620q21 0 34.5 14.5t13.5 38.5q0 20 -12 31.5t-31 11.5q-21 0 -34.5 -14.5t-13.5 -38.5q0 -20 12 -31.5t31 -11.5z" />
    <glyph glyph-name="uni030B" unicode="&#x30b;" 
d="M-263 565l-53 30l94 173l83 -28l-1 -17zM-90 565l-52 30l93 173l83 -28l-1 -17z" />
    <glyph glyph-name="uni030C" unicode="&#x30c;" 
d="M-162 571l-98 143l51 44l88 -87l111 87l38 -44l-135 -143h-55z" />
    <glyph glyph-name="uni0326" unicode="&#x326;" 
d="M-228 -238q25 61 36 137q1 8 2.5 24.5t2.5 24.5l100 8l7 -14q-14 -96 -75 -180h-73z" />
    <glyph glyph-name="uni0327" unicode="&#x327;" 
d="M-199 -239q-30 0 -61 9l9 60l2 1q21 -7 42 -7q62 0 62 44q0 30 -37 30q-22 0 -42 -5l-1 1l8 51l41 55h70l-37 -47q10 2 20 1q34 -1 53.5 -20t19.5 -56q0 -61 -42.5 -89t-106.5 -28z" />
    <glyph glyph-name="uni0328" unicode="&#x328;" 
d="M-156 -230q-46 0 -74.5 20t-28.5 58q0 91 128 161l76 -3q-99 -60 -99 -127q0 -35 37 -35q18 0 29 4l3 -2l-8 -68q-29 -8 -63 -8z" />
    <glyph glyph-name="uni0335" unicode="&#x335;" 
d="M-339 163l12 79h294l-12 -79h-294z" />
    <glyph glyph-name="uni0336" unicode="&#x336;" 
d="M-625 331l12 82h666l-12 -82h-666z" />
    <glyph glyph-name="uni0337" unicode="&#x337;" 
d="M-278 233l13 91l278 163l3 -1l-13 -92l-276 -162z" />
    <glyph glyph-name="uni0338" unicode="&#x338;" 
d="M-532 -48v11l398 616h84v-8l-403 -620z" />
    <glyph glyph-name="Wgrave" unicode="&#x1e80;" horiz-adv-x="924" 
d="M616 701l-204 82l-7 14l64 89l175 -124zM969 662l1 -4l-300 -665h-88l-81 445l-3 30l-12 -30l-211 -445h-91l-118 665l2 4h123l63 -461l3 -45l17 45l208 456h83l79 -445l4 -50l18 50l190 450h113z" />
    <glyph glyph-name="wgrave" unicode="&#x1e81;" horiz-adv-x="774" 
d="M511 578l-196 101l-2 14l72 88l163 -136zM796 519l1 -3l-236 -516h-98l-51 364l-2 22l-8 -22l-160 -364h-99l-93 516l1 3h119l45 -348v-26l9 26l149 348h113l46 -347l3 -25l7 26l144 346h110z" />
    <glyph glyph-name="Wacute" unicode="&#x1e82;" horiz-adv-x="924" 
d="M649 775l-209 -74l-27 63l186 117l56 -92zM969 662l1 -4l-300 -665h-88l-81 445l-3 30l-12 -30l-211 -445h-91l-118 665l2 4h123l63 -461l3 -45l17 45l208 456h83l79 -445l4 -50l18 50l190 450h113z" />
    <glyph glyph-name="wacute" unicode="&#x1e83;" horiz-adv-x="774" 
d="M566 684l-190 -110l-40 66l156 143l77 -85zM796 519l1 -3l-236 -516h-98l-51 364l-2 22l-8 -22l-160 -364h-99l-93 516l1 3h119l45 -348v-26l9 26l149 348h113l46 -347l3 -25l7 26l144 346h110z" />
    <glyph glyph-name="Wdieresis" unicode="&#x1e84;" horiz-adv-x="924" 
d="M429 726q-26 0 -42.5 16.5t-16.5 41.5q0 31 20 49t47 18t43 -16.5t16 -41.5q0 -30 -19.5 -48.5t-47.5 -18.5zM645 726q-26 0 -42.5 16t-16.5 42q0 31 19.5 49t47.5 18q26 0 42 -16.5t16 -41.5q0 -30 -19.5 -48.5t-46.5 -18.5zM969 662l1 -4l-300 -665h-88l-81 445l-3 30
l-12 -30l-211 -445h-91l-118 665l2 4h123l63 -461l3 -45l17 45l208 456h83l79 -445l4 -50l18 50l190 450h113z" />
    <glyph glyph-name="wdieresis" unicode="&#x1e85;" horiz-adv-x="774" 
d="M339 616q-29 0 -47.5 18t-18.5 46q0 34 22 54t52 20q29 0 47 -18t18 -45q0 -34 -21.5 -54.5t-51.5 -20.5zM545 616q-29 0 -47.5 18t-18.5 46q0 34 22 54t52 20q29 0 47 -18t18 -45q0 -34 -21.5 -54.5t-51.5 -20.5zM796 519l1 -3l-236 -516h-98l-51 364l-2 22l-8 -22
l-160 -364h-99l-93 516l1 3h119l45 -348v-26l9 26l149 348h113l46 -347l3 -25l7 26l144 346h110z" />
    <glyph glyph-name="Ygrave" unicode="&#x1ef2;" horiz-adv-x="582" 
d="M445 699l-204 82l-7 14l64 89l175 -124zM197 0l40 272l-170 386l1 4h126l117 -281l197 281h119l1 -4l-276 -390l-38 -268h-117z" />
    <glyph glyph-name="ygrave" unicode="&#x1ef3;" horiz-adv-x="520" 
d="M389 569l-196 101l-2 14l72 88l163 -136zM546 516l-253 -480l-9 -18q-53 -103 -104 -146t-127 -43q-33 0 -63 11l15 94l4 2q16 -8 51 -8q70 0 122 103l3 6l-136 479l1 3h125l83 -351l167 351h119z" />
    <glyph glyph-name="uni1EF8" unicode="&#x1ef8;" horiz-adv-x="582" 
d="M261 710l-70 21q8 50 41 82.5t76 32.5q31 0 69 -17.5t56 -17.5q15 0 28 11t16 29l2 2l69 -22q-8 -50 -40 -81.5t-75 -31.5q-25 0 -66 17t-60 17q-17 0 -29.5 -11.5t-14.5 -28.5zM197 0l40 272l-170 386l1 4h126l117 -281l197 281h119l1 -4l-276 -390l-38 -268h-117z" />
    <glyph glyph-name="uni1EF9" unicode="&#x1ef9;" horiz-adv-x="520" 
d="M223 603l-3 -2l-72 18q6 48 37.5 82t75.5 34q30 0 65 -18.5t55 -18.5q37 0 42 40l4 2l75 -18q-8 -56 -41 -86t-77 -30q-29 0 -65.5 18t-54.5 18q-34 0 -41 -39zM546 516l-253 -480l-9 -18q-53 -103 -104 -146t-127 -43q-33 0 -63 11l15 94l4 2q16 -8 51 -8q70 0 122 103
l3 6l-136 479l1 3h125l83 -351l167 351h119z" />
    <glyph glyph-name="endash" unicode="&#x2013;" horiz-adv-x="516" 
d="M61 233l14 96h386l-14 -96h-386z" />
    <glyph glyph-name="emdash" unicode="&#x2014;" horiz-adv-x="837" 
d="M61 233l14 96h707l-12 -96h-709z" />
    <glyph glyph-name="quoteleft" unicode="&#x2018;" horiz-adv-x="219" 
d="M238 703q-26 -89 -35 -150q-3 -16 -10 -86l-98 -17l-12 17q16 103 88 236h67z" />
    <glyph glyph-name="quoteright" unicode="&#x2019;" horiz-adv-x="210" 
d="M75 451q22 80 34 149q5 29 11 87l98 17l12 -17q-17 -108 -88 -236h-67z" />
    <glyph glyph-name="quotesinglbase" unicode="&#x201a;" horiz-adv-x="218" 
d="M-22 -161q10 36 34 148q5 28 11 86l98 17l12 -17q-16 -103 -88 -234h-67z" />
    <glyph glyph-name="quotedblleft" unicode="&#x201c;" horiz-adv-x="376" 
d="M238 703q-26 -89 -35 -150q-3 -16 -10 -86l-98 -17l-12 17q16 103 88 236h67zM395 703q-23 -78 -35 -150q-7 -36 -10 -86l-98 -17l-12 17q16 103 88 236h67z" />
    <glyph glyph-name="quotedblright" unicode="&#x201d;" horiz-adv-x="372" 
d="M75 451q22 80 34 149q5 29 11 87l98 17l12 -17q-17 -108 -88 -236h-67zM232 451q20 71 33 149q8 46 11 87l98 17l13 -17q-16 -100 -89 -236h-66z" />
    <glyph glyph-name="quotedblbase" unicode="&#x201e;" horiz-adv-x="372" 
d="M-22 -161q10 36 34 148q5 28 11 86l97 17l13 -17q-17 -106 -89 -234h-66zM134 -161q17 62 34 148q7 40 10 86l99 17l12 -17q-16 -103 -88 -234h-67z" />
    <glyph glyph-name="dagger" unicode="&#x2020;" horiz-adv-x="542" 
d="M347 512l177 17l-14 -108l-161 10l-85 -502h-80l57 505l-161 -14l15 109l172 -15l13 190l110 -1z" />
    <glyph glyph-name="daggerdbl" unicode="&#x2021;" horiz-adv-x="543" 
d="M169 -74l44 185l-181 -15l16 109l161 -15l31 126l3 124l-162 -15l16 111l172 -17l12 186h110l-42 -188l177 19l-15 -111l-160 16l-31 -125l-4 -125l161 14l-15 -109l-173 15l-9 -185h-111z" />
    <glyph glyph-name="bullet" unicode="&#x2022;" horiz-adv-x="381" 
d="M178 143q-46 0 -75 30t-29 76q0 55 39 94t92 39q46 0 75 -30.5t29 -75.5q0 -54 -38.5 -93.5t-92.5 -39.5z" />
    <glyph glyph-name="ellipsis" unicode="&#x2026;" horiz-adv-x="620" 
d="M85 -9q-31 0 -48 17.5t-17 44.5q0 32 20.5 53t54.5 21q31 0 48 -18t17 -45q0 -31 -20.5 -52t-54.5 -21zM284 -9q-31 0 -48 17.5t-17 44.5q0 32 20.5 53t54.5 21q31 0 48 -18t17 -45q0 -31 -20.5 -52t-54.5 -21zM480 -9q-31 0 -48 17.5t-17 44.5q0 32 20.5 53t54.5 21
q31 0 48 -18t17 -45q0 -31 -20.5 -52t-54.5 -21z" />
    <glyph glyph-name="perthousand" unicode="&#x2030;" horiz-adv-x="1099" 
d="M210 330q-64 0 -103.5 36.5t-39.5 106.5q0 90 53.5 143t133.5 53q65 0 105 -38t40 -107q0 -92 -53 -143t-136 -51zM80 12l524 644h94l-524 -644h-94zM221 406q40 0 64 29.5t24 80.5q0 37 -17 57t-47 20q-39 0 -63 -31t-24 -82q0 -36 16.5 -55t46.5 -19zM521 -5
q-65 0 -104 36.5t-39 105.5q0 91 52.5 144t133.5 53q66 0 106 -37.5t40 -106.5q0 -92 -53 -143.5t-136 -51.5zM869 -5q-65 0 -104.5 36.5t-39.5 105.5q0 91 53.5 144t134.5 53q65 0 104.5 -37.5t39.5 -106.5q0 -92 -52.5 -143.5t-135.5 -51.5zM532 71q40 0 63 29t23 81
q0 37 -16.5 57t-45.5 20q-40 0 -64 -31t-24 -83q0 -35 17 -54t47 -19zM880 71q40 0 63.5 29.5t23.5 80.5q0 37 -16.5 57t-45.5 20q-41 0 -65 -31t-24 -83q0 -35 17 -54t47 -19z" />
    <glyph glyph-name="guilsinglleft" unicode="&#x2039;" horiz-adv-x="330" 
d="M221 95l-111 194l165 180h113l-1 -11l-158 -174l103 -180l-1 -9h-110z" />
    <glyph glyph-name="guilsinglright" unicode="&#x203a;" horiz-adv-x="330" 
d="M190 469l111 -194l-165 -180h-113l1 11l158 174l-103 180l1 9h110z" />
    <glyph glyph-name="fraction" unicode="&#x2044;" horiz-adv-x="157" 
d="M-200 -12l495 678h86l-495 -678h-86z" />
    <glyph glyph-name="Euro" unicode="&#x20ac;" horiz-adv-x="651" 
d="M501 679q83 0 149 -22l-15 -108l-3 -2q-54 28 -130 28q-143 0 -212 -115h205l-26 -86h-211q-8 -35 -8 -70h197l-26 -85h-159q20 -59 67.5 -91.5t114.5 -32.5q65 0 129 29l2 -2l-13 -104q-61 -29 -133 -29q-119 0 -198 61.5t-98 168.5h-112l25 85h82q1 34 8 70h-68l27 86
h67q43 104 133 161.5t206 57.5z" />
    <glyph glyph-name="trademark" unicode="&#x2122;" horiz-adv-x="808" 
d="M376 576h-100l-33 -233h-90l32 233h-101l12 86h292zM686 662h88l-16 -319h-85l9 171h-1l-96 -171h-53l-46 174h-1l-40 -174h-86l75 319h92l53 -198z" />
    <glyph glyph-name="minus" unicode="&#x2212;" horiz-adv-x="544" 
d="M64 252l13 85h413l-12 -85h-414z" />
    <glyph glyph-name="approxequal" unicode="&#x2248;" horiz-adv-x="509" 
d="M146 324l-71 10q8 53 42.5 86t83.5 33q37 0 83.5 -18.5t72.5 -18.5q41 0 47 41l4 2l65 -13q-7 -52 -41 -84t-83 -32q-30 0 -78 19t-73 19q-20 0 -33.5 -11t-16.5 -31zM117 122l-71 10q8 54 43 87.5t84 33.5q37 0 83 -19t72 -19q40 0 47 40l5 3l64 -13q-7 -52 -41 -84.5
t-83 -32.5q-30 0 -78 18.5t-72 18.5q-44 0 -50 -40z" />
    <glyph glyph-name="notequal" unicode="&#x2260;" horiz-adv-x="564" 
d="M513 359h-124l-81 -137h186l-13 -84h-222l-70 -118h-99l69 118h-111l13 84h148l80 137h-209l12 84h247l65 111h100l-65 -111h86z" />
    <glyph glyph-name="uniF8FF" unicode="&#xf8ff;" horiz-adv-x="1461" 
d="M720 518q-26 0 -43.5 18t-17.5 43q0 26 17.5 44t43.5 18q27 0 45 -18t18 -44t-18 -43.5t-45 -17.5zM65 268q0 132 9 312h100q11 -220 11 -312h-120zM572 262q-83 0 -83 66q0 12 2 48.5t2 37.5h-22v79l120 29l1 -17h179q10 -63 10 -237h-119q0 90 3 146h-61l3 -65
q6 -3 15 -3q13 0 18 4v-73q-14 -15 -68 -15zM295 263q-93 0 -93 114q0 133 135 133q124 0 124 -116v-126h-83l-8 61q-6 -33 -23.5 -49.5t-51.5 -16.5zM803 268q0 174 10 237h80q6 -42 6 -75q1 10 4.5 20.5t11.5 25.5t25 24.5t40 9.5q43 0 59 -24.5t18 -80.5l3 -137h-114
q0 26 1 55.5t1 36.5q0 29 -15 29q-18 0 -18 -28q0 -7 1.5 -37t1.5 -56h-115zM1199 263q-62 0 -92.5 32.5t-30.5 90.5q0 124 125 124q122 0 122 -122q0 -125 -124 -125zM333 343q24 0 24 29q0 26 -24 26q-22 0 -22 -26q0 -29 22 -29zM1199 343q23 0 23 29q0 26 -23 26
q-21 0 -21 -26q0 -29 21 -29zM357 -50q-61 0 -88 17v83q24 -16 70 -16q21 0 34 6t16.5 11.5t3.5 10.5q-17 -11 -49 -11q-91 0 -91 82v13h-55l3 -64q6 -4 15 -4q13 0 18 5v-73q-19 -15 -68 -15q-45 0 -63.5 17t-18.5 54q0 38 3 80h-18v80l118 28l-1 -17h178v-119q0 -16 3 -21
t12 -5q16 0 16 26v119h105q10 -53 10 -138q0 -80 -34 -114.5t-119 -34.5zM526 -44q0 141 10 281h78q7 -42 7 -76q17 81 81 81q37 0 58.5 -29.5t21.5 -84.5q0 -133 -138 -133q1 -15 1 -39h-119zM940 -5q-142 0 -142 122q0 58 33 91.5t93 33.5q55 0 85.5 -30t30.5 -86
q0 -22 -3 -34h-124q11 -18 50 -18q34 0 55 12v-75q-23 -16 -78 -16zM908 108h40q3 27 -17 27q-23 0 -23 -27zM638 72q5 0 13 2.5t16.5 11t8.5 22.5q0 23 -21 23q-22 0 -22 -30q0 -14 5 -29zM1069 -10q-25 0 -25 23t25 23q24 0 24 -23t-24 -23zM1069 -5q18 0 18 18t-18 18
q-19 0 -19 -18t19 -18zM1058 2v23h12q10 0 10 -7t-7 -7l6 -9h-6l-4 9h-5v-9h-6zM1064 15h7q4 0 4 3t-4 3h-7v-6z" />
    <glyph glyph-name="i.loclTRK" horiz-adv-x="262" 
d="M186 604q-30 0 -49.5 19t-19.5 48q0 35 23 56t54 21t50 -19t19 -47q0 -35 -22.5 -56.5t-54.5 -21.5zM35 0l74 519h119l-74 -519h-119z" />
    <glyph glyph-name="caroncomb.alt" 
d="M-99 489l40 229h86l9 -11l-66 -218h-69z" />
    <glyph glyph-name="uni0308.case" 
d="M-237 728q-26 0 -42.5 16.5t-16.5 41.5q0 31 20 49t47 18t43 -16.5t16 -41.5q0 -30 -19.5 -48.5t-47.5 -18.5zM-21 728q-26 0 -42.5 16t-16.5 42q0 31 19.5 49t47.5 18q26 0 42 -16.5t16 -41.5q0 -30 -19.5 -48.5t-46.5 -18.5z" />
    <glyph glyph-name="uni0307.case" 
d="M-52 725q-30 0 -49.5 19t-19.5 48q0 35 23 56t54 21t50 -19t19 -47q0 -35 -22.5 -56.5t-54.5 -21.5z" />
    <glyph glyph-name="gravecomb.case" 
d="M8 703l-204 82l-7 14l64 89l175 -124z" />
    <glyph glyph-name="acutecomb.case" 
d="M-163 703l-27 63l186 117l56 -92l-6 -14z" />
    <glyph glyph-name="uni030B.case" 
d="M-244 710l-54 25l76 169l90 -22v-17zM-55 710l-54 25l76 169l89 -22l1 -17z" />
    <glyph glyph-name="uni0302.case" 
d="M-220 706l-35 51l138 121h53l107 -121l-45 -51l-100 78z" />
    <glyph glyph-name="uni030C.case" 
d="M-135 706l-111 120l48 52l100 -78l113 78l37 -51l-134 -121h-53z" />
    <glyph glyph-name="uni0306.case" 
d="M-99 713q-66 0 -104 40.5t-28 106.5l76 8q-3 -75 63 -75q33 0 56.5 20.5t29.5 54.5l69 -8q-8 -66 -54.5 -106.5t-107.5 -40.5z" />
    <glyph glyph-name="uni030A.case" 
d="M-66 688q-43 0 -70.5 25t-27.5 66q0 49 32 79t82 30q44 0 71.5 -25t27.5 -66q0 -48 -32.5 -78.5t-82.5 -30.5zM-60 745q20 0 33.5 12.5t13.5 34.5q0 18 -12 28.5t-30 10.5q-20 0 -33.5 -12.5t-13.5 -34.5q0 -18 12 -28.5t30 -10.5z" />
    <glyph glyph-name="tildecomb.case" 
d="M-222 714l-70 21q8 50 41 82.5t76 32.5q31 0 69 -17.5t56 -17.5q15 0 28 11t16 29l2 2l69 -22q-8 -50 -40 -81.5t-75 -31.5q-25 0 -66 17t-60 17q-17 0 -29.5 -11.5t-14.5 -28.5z" />
    <glyph glyph-name="uni0304.case" 
d="M-243 748l13 86h292l-13 -86h-292z" />
    <glyph glyph-name="uni0337.case" 
d="M-288 201l13 93l277 165h4l-13 -97l-277 -163z" />
    <glyph glyph-name="uni0338.case" 
d="M-663 -50v10l551 757h91v-9l-555 -758h-87z" />
    <glyph glyph-name="caron.alt" horiz-adv-x="164" 
d="M66 489l40 229h86l9 -11l-66 -218h-69z" />
    <glyph glyph-name="acute.case" horiz-adv-x="293" 
d="M130 703l-27 63l186 117l56 -92l-6 -14z" />
    <glyph glyph-name="breve.case" horiz-adv-x="337" 
d="M238 713q-66 0 -104 40.5t-28 106.5l76 8q-3 -75 63 -75q33 0 56.5 20.5t29.5 54.5l69 -8q-8 -66 -54.5 -106.5t-107.5 -40.5z" />
    <glyph glyph-name="caron.case" horiz-adv-x="352" 
d="M217 706l-111 120l48 52l100 -78l113 78l37 -51l-134 -121h-53z" />
    <glyph glyph-name="circumflex.case" horiz-adv-x="351" 
d="M132 706l-35 51l138 121h53l107 -121l-45 -51l-100 78z" />
    <glyph glyph-name="dieresis.case" horiz-adv-x="402" 
d="M165 728q-26 0 -42.5 16.5t-16.5 41.5q0 31 20 49t47 18t43 -16.5t16 -41.5q0 -30 -19.5 -48.5t-47.5 -18.5zM381 728q-26 0 -42.5 16t-16.5 42q0 31 19.5 49t47.5 18q26 0 42 -16.5t16 -41.5q0 -30 -19.5 -48.5t-46.5 -18.5z" />
    <glyph glyph-name="dotaccent.case" horiz-adv-x="248" 
d="M195 725q-30 0 -49.5 19t-19.5 48q0 35 23 56t54 21t50 -19t19 -47q0 -35 -22.5 -56.5t-54.5 -21.5z" />
    <glyph glyph-name="grave.case" horiz-adv-x="293" 
d="M301 703l-204 82l-7 14l64 89l175 -124z" />
    <glyph glyph-name="hungarumlaut.case" horiz-adv-x="420" 
d="M176 710l-54 25l76 169l90 -22v-17zM365 710l-54 25l76 169l89 -22l1 -17z" />
    <glyph glyph-name="macron.case" horiz-adv-x="369" 
d="M90 748l13 86h292l-13 -86h-292z" />
    <glyph glyph-name="ring.case" horiz-adv-x="259" 
d="M193 688q-43 0 -70.5 25t-27.5 66q0 49 32 79t82 30q44 0 71.5 -25t27.5 -66q0 -48 -32.5 -78.5t-82.5 -30.5zM199 745q20 0 33.5 12.5t13.5 34.5q0 18 -12 28.5t-30 10.5q-20 0 -33.5 -12.5t-13.5 -34.5q0 -18 12 -28.5t30 -10.5z" />
    <glyph glyph-name="tilde.case" horiz-adv-x="378" 
d="M156 714l-70 21q8 50 41 82.5t76 32.5q31 0 69 -17.5t56 -17.5q15 0 28 11t16 29l2 2l69 -22q-8 -50 -40 -81.5t-75 -31.5q-25 0 -66 17t-60 17q-17 0 -29.5 -11.5t-14.5 -28.5z" />
    <glyph glyph-name="IJacute" horiz-adv-x="647" 
d="M128 706l-27 63l186 117l56 -92l-6 -14zM492 706l-27 63l186 117l56 -92l-6 -14zM49 0l92 662h117l-92 -662h-117zM320 -3q-24 0 -54 3l15 99l3 2q15 -3 34 -3q112 0 133 147l60 417h118l-57 -407q-37 -258 -252 -258z" />
    <glyph glyph-name="ijacute" horiz-adv-x="538" 
d="M120 565l-42 56l150 149l76 -81l-2 -14zM397 565l-42 56l150 149l76 -81l-3 -14zM35 0l74 519h119l-74 -519h-119zM223 -171q-18 0 -60 6l14 102l2 1q17 -3 34 -3q48 0 72.5 29t32.5 86l68 469h116l-70 -496q-14 -97 -68 -145.5t-141 -48.5z" />
    </font>
</defs>
</svg>
