<?xml version="1.0" standalone="no"?>
<!DOCTYPE svg PUBLIC "-//W3C//DTD SVG 1.1//EN" "http://www.w3.org/Graphics/SVG/1.1/DTD/svg11.dtd" >
<svg xmlns="http://www.w3.org/2000/svg" xmlns:xlink="http://www.w3.org/1999/xlink" version="1.1">
<metadata>
Created by FontForge 20170731 at Thu Mar  2 15:41:40 2017
 By Aleksey,,,
Copyright (c) 2017 by Alfonso Garci'a - Latinotype Team. All rights reserved.
</metadata>
<defs>
<font id="RawsonAlt-Thin" horiz-adv-x="0" >
  <font-face 
    font-family="Rawson Alt Thin"
    font-weight="250"
    font-stretch="normal"
    units-per-em="1100"
    panose-1="0 0 3 0 0 0 0 0 0 0"
    ascent="880"
    descent="-220"
    x-height="516"
    cap-height="660"
    bbox="-691 -225 1351 853"
    underline-thickness="50"
    underline-position="-200"
    unicode-range="U+0020-FB02"
  />
<missing-glyph horiz-adv-x="500" 
 />
    <glyph glyph-name="fi" unicode="fi" horiz-adv-x="474" 
d="M112 566q0 73 38.5 109.5t95.5 36.5q39 0 60 -14v-12l-2 -1q-23 14 -58 14q-53 0 -86.5 -33.5t-33.5 -98.5v-51h148v-14h-148v-502h-14v502h-72v14h72v50zM369 682q7 0 12.5 -5t5.5 -12t-5.5 -12.5t-12.5 -5.5t-12 5.5t-5 12.5t5 12t12 5zM362 0v516h14v-516h-14z" />
    <glyph glyph-name="fl" unicode="fl" horiz-adv-x="472" 
d="M112 566q0 73 38.5 109.5t95.5 36.5q39 0 60 -14v-12l-2 -1q-23 14 -58 14q-53 0 -86.5 -33.5t-33.5 -98.5v-51h148v-14h-148v-502h-14v502h-72v14h72v50zM360 710h14v-710h-14v710z" />
    <glyph glyph-name=".notdef" horiz-adv-x="500" 
 />
    <glyph glyph-name=".null" 
 />
    <glyph glyph-name="nonmarkingreturn" horiz-adv-x="366" 
 />
    <glyph glyph-name="space" unicode=" " horiz-adv-x="284" 
 />
    <glyph glyph-name="exclam" unicode="!" horiz-adv-x="226" 
d="M107 164l-2 506h16l-2 -506h-12zM113 -10q-7 0 -12.5 5t-5.5 13t5.5 13t12.5 5t12.5 -5t5.5 -13t-5.5 -13t-12.5 -5z" />
    <glyph glyph-name="quotedbl" unicode="&#x22;" horiz-adv-x="276" 
d="M83 462l1 200h13l4 -4l-8 -196h-10zM180 462l1 200h13l4 -4l-8 -196h-10z" />
    <glyph glyph-name="numbersign" unicode="#" horiz-adv-x="528" 
d="M465 382h-78l-32 -186h90v-14h-93l-18 -104h-14l18 104h-186l-18 -104h-14l18 104h-75v14h78l32 186h-90v14h93l18 104h14l-18 -104h186l18 104h14l-18 -104h75v-14zM341 196l32 186h-186l-32 -186h186z" />
    <glyph glyph-name="dollar" unicode="$" horiz-adv-x="466" 
d="M409 206q0 -67 -45 -104.5t-120 -42.5v-91h-14v91h-4q-108 0 -168 42v16l2 1q64 -44 166 -44q77 0 122 32.5t45 99.5q0 59 -42 88t-119 47q-43 11 -65 18.5t-48.5 23.5t-38 40.5t-11.5 60.5q0 61 50 93.5t126 33.5v94h14v-94q78 -1 133 -26v-14l-2 -1q-67 27 -143 27
q-71 0 -117 -27.5t-46 -85.5q0 -32 11 -54.5t36.5 -37t47 -22t62.5 -17.5q37 -8 64 -18.5t52 -27t38.5 -42.5t13.5 -59z" />
    <glyph glyph-name="percent" unicode="%" horiz-adv-x="681" 
d="M192 367q-65 0 -104.5 39.5t-39.5 109.5t39.5 110t104.5 40q64 0 103.5 -40.5t39.5 -109.5t-39.5 -109t-103.5 -40zM110 9l436 645h16l-436 -645h-16zM192 380q57 0 92.5 36.5t35.5 99.5t-35.5 100t-92.5 37q-58 0 -93.5 -37t-35.5 -100t35.5 -99.5t93.5 -36.5zM493 -5
q-65 0 -104.5 39.5t-39.5 108.5q0 70 39.5 110.5t104.5 40.5q64 0 103 -40.5t39 -110.5q0 -69 -39 -108.5t-103 -39.5zM493 8q57 0 92 36t35 99q0 64 -35 101t-92 37q-59 0 -94 -37t-35 -101q0 -63 35 -99t94 -36z" />
    <glyph glyph-name="ampersand" unicode="&#x26;" horiz-adv-x="634" 
d="M637 367h-93q-7 -151 -57 -243l127 -124h-19l-114 112q-75 -127 -221 -127q-90 0 -145.5 46t-55.5 126q0 82 40 132t111 89q-67 76 -67 152q0 66 48 108t110 42q43 0 70 -7.5t58 -27.5v-15h-1q-33 21 -60 28.5t-67 7.5q-56 0 -100 -38t-44 -98q0 -54 31 -101t88 -99
l202 -197q45 88 52 234h-108v12h215v-12zM260 0q143 0 211 121l-206 201q-24 22 -46 46q-70 -39 -107.5 -86t-37.5 -125q0 -74 50.5 -115.5t135.5 -41.5z" />
    <glyph glyph-name="quotesingle" unicode="'" horiz-adv-x="180" 
d="M83 462l1 200h13l4 -4l-8 -196h-10z" />
    <glyph glyph-name="parenleft" unicode="(" horiz-adv-x="257" 
d="M225 -166q-62 29 -111 145.5t-49 304.5q0 184 49 302t111 150l6 -12q-59 -35 -106 -148.5t-47 -291.5t47.5 -294t105.5 -144z" />
    <glyph glyph-name="parenright" unicode=")" horiz-adv-x="257" 
d="M32 736q62 -29 111 -145.5t49 -304.5q0 -184 -49 -302t-111 -150l-6 12q59 35 106 148.5t47 291.5t-47.5 294t-105.5 144z" />
    <glyph glyph-name="asterisk" unicode="*" horiz-adv-x="443" 
d="M226 584l-2 2l-43 141l1 3l13 3l2 -1l34 -145l-1 -2zM236 582l-2 2v3l101 108h3l9 -9v-3l-108 -101h-3zM220 576l-144 34l-2 2l3 13l3 1l142 -43l1 -2l-1 -4zM380 529l-142 43l-1 2l1 4l2 1l145 -34l1 -2l-3 -13zM122 460l-9 9v3l108 101h3l2 -2v-3l-101 -108h-3z
M265 422l-2 1l-34 145l2 2l3 1l2 -2l44 -141l-2 -3z" />
    <glyph glyph-name="plus" unicode="+" horiz-adv-x="452" 
d="M397 300v-14h-164v-184h-14v184h-164v14h164v184h14v-184h164z" />
    <glyph glyph-name="comma" unicode="," horiz-adv-x="154" 
d="M47 -145q24 78 24 150q0 15 -1 21l14 2l3 -3q0 -82 -30 -170h-10z" />
    <glyph glyph-name="hyphen" unicode="-" horiz-adv-x="416" 
d="M82 282v14h252v-14h-252z" />
    <glyph glyph-name="period" unicode="." horiz-adv-x="168" 
d="M84 0q-8 0 -13 5t-5 13t5 13t13 5t13 -5t5 -13t-5 -13t-13 -5z" />
    <glyph glyph-name="slash" unicode="/" horiz-adv-x="409" 
d="M40 -116l314 862h15l-314 -862h-15z" />
    <glyph glyph-name="zero" unicode="0" horiz-adv-x="606" 
d="M304 -12q-107 0 -171.5 90.5t-64.5 247.5q0 160 64.5 252t171.5 92q105 0 169.5 -92.5t64.5 -251.5q0 -156 -64.5 -247t-169.5 -91zM304 2q99 0 159.5 87t60.5 237q0 152 -60.5 241t-159.5 89q-101 0 -161.5 -89t-60.5 -241q0 -150 60.5 -237t161.5 -87z" />
    <glyph glyph-name="one" unicode="1" horiz-adv-x="342" 
d="M213 0v648l-188 -117h-2v16l198 123h6v-670h-14z" />
    <glyph glyph-name="two" unicode="2" horiz-adv-x="507" 
d="M52 0q-2 51 48 122.5t135 141.5q96 76 137.5 129t41.5 108q0 68 -46 112.5t-125 44.5q-110 0 -179 -85h-1v18q26 35 73 58t107 23q85 0 135 -48.5t50 -122.5q0 -57 -43.5 -113t-139.5 -133q-82 -68 -128.5 -134t-48.5 -107h394v-14h-410z" />
    <glyph glyph-name="three" unicode="3" horiz-adv-x="517" 
d="M291 353q74 -11 117 -55.5t43 -121.5q0 -86 -57 -138.5t-144 -52.5q-122 0 -195 64v20l1 1q74 -71 194 -71q81 0 134 48.5t53 128.5q0 86 -56.5 126.5t-150.5 42.5l-59 1v12l59 1q81 2 130.5 41t49.5 114q0 63 -47 103.5t-124 40.5q-92 0 -159 -62l-1 1v16q63 59 160 59
q83 0 134 -44t51 -114q0 -65 -36 -107t-97 -54z" />
    <glyph glyph-name="four" unicode="4" horiz-adv-x="569" 
d="M537 183v-13h-135v-170h-14v170h-364v1l368 502h10v-490h135zM50 183h338v456h-3l-335 -455v-1z" />
    <glyph glyph-name="five" unicode="5" horiz-adv-x="519" 
d="M249 -15q-94 0 -185 53v18h1q50 -32 91 -44.5t93 -12.5q89 0 143.5 52t54.5 145q0 75 -52.5 128.5t-150.5 53.5q-86 0 -160 -23l-1 1l24 304h331v-14h-318l-21 -272q56 18 145 18q104 0 160.5 -57.5t56.5 -137.5q0 -100 -58.5 -156t-153.5 -56z" />
    <glyph glyph-name="six" unicode="6" horiz-adv-x="552" 
d="M295 392q94 0 147 -57t53 -141q0 -93 -59.5 -151t-146.5 -58q-102 0 -161 74t-59 224q0 173 70.5 280t195.5 107q74 0 127 -22v-12l-1 -1q-53 22 -126 22q-120 0 -185.5 -104.5t-65.5 -273.5q0 -20 2 -54q16 74 72.5 120.5t136.5 46.5zM289 -1q81 0 136.5 54.5
t55.5 140.5q0 78 -49.5 131t-136.5 53q-88 0 -146 -61t-57 -136q17 -92 68.5 -137t128.5 -45z" />
    <glyph glyph-name="seven" unicode="7" horiz-adv-x="456" 
d="M153 0l262 646h-393v14h414v-1l-268 -659h-15z" />
    <glyph glyph-name="eight" unicode="8" horiz-adv-x="572" 
d="M507 166q2 -79 -56.5 -130t-156.5 -51q-106 0 -167 46.5t-62 131.5q-1 128 147 217q-58 26 -85.5 59t-27.5 83q0 68 52 108.5t152 40.5q84 0 135.5 -39.5t51.5 -109.5q0 -106 -129 -183q74 -32 109.5 -70t36.5 -103zM113 522q0 -57 44.5 -92t129.5 -63l59 -22
q67 38 98.5 79.5t31.5 97.5q0 64 -47.5 99.5t-125.5 35.5q-94 0 -142 -36.5t-48 -98.5zM294 -1q92 0 146.5 46.5t52.5 120.5q-1 39 -14 67t-44 50t-63 36t-89 34q-21 7 -57 21q-148 -88 -147 -211q1 -79 58 -121.5t157 -42.5z" />
    <glyph glyph-name="nine" unicode="9" horiz-adv-x="549" 
d="M260 673q101 0 160.5 -78t59.5 -228q0 -178 -67 -276t-196 -98q-59 0 -120 20v13l1 1q64 -21 119 -21q124 0 186 94.5t63 270.5q0 32 -3 59q-18 -73 -73 -118.5t-134 -45.5q-90 0 -146 59t-56 139q0 93 59.5 151t146.5 58zM256 280q86 0 142.5 59t58.5 133
q-18 92 -70 139.5t-127 47.5q-81 0 -136.5 -54.5t-55.5 -140.5q0 -74 52.5 -129t135.5 -55z" />
    <glyph glyph-name="colon" unicode=":" horiz-adv-x="198" 
d="M99 425q-7 0 -12.5 5.5t-5.5 12.5t5.5 12.5t12.5 5.5t12.5 -5.5t5.5 -12.5t-5.5 -12.5t-12.5 -5.5zM99 0q-7 0 -12.5 5t-5.5 13t5.5 13t12.5 5t12.5 -5t5.5 -13t-5.5 -13t-12.5 -5z" />
    <glyph glyph-name="semicolon" unicode=";" horiz-adv-x="234" 
d="M123 426q-7 0 -12.5 5t-5.5 13t5.5 13t12.5 5t12.5 -5t5.5 -13t-5.5 -13t-12.5 -5zM87 -145q24 78 24 150q0 15 -1 21l14 2l3 -3q0 -82 -30 -170h-10z" />
    <glyph glyph-name="less" unicode="&#x3c;" horiz-adv-x="435" 
d="M64 289l7 -3l281 -161l-7 -13l-297 171v12l297 171l7 -13l-282 -161z" />
    <glyph glyph-name="equal" unicode="=" horiz-adv-x="514" 
d="M86 382v14h342v-14h-342zM86 182v14h342v-14h-342z" />
    <glyph glyph-name="greater" unicode="&#x3e;" horiz-adv-x="435" 
d="M90 466l297 -171v-12l-297 -171l-7 13l282 161l6 3l-7 3l-281 161z" />
    <glyph glyph-name="question" unicode="?" horiz-adv-x="413" 
d="M164 169q0 62 17 103t66 81q31 24 47.5 41.5t32 52.5t15.5 80q0 60 -40 100.5t-107 40.5q-91 0 -149 -64h-1v18q21 26 60.5 43t89.5 17q73 0 117 -44t44 -111q0 -47 -16.5 -84t-36.5 -58t-57 -50q-67 -53 -67 -166h-15zM174 -3q-8 0 -13 5.5t-5 12.5t5 12.5t13 5.5
t13 -5.5t5 -12.5t-5 -12.5t-13 -5.5z" />
    <glyph glyph-name="at" unicode="@" horiz-adv-x="781" 
d="M543 149v30q-49 -109 -159 -109q-66 0 -110 46.5t-44 131.5q0 86 49 138t124 52q43 0 80.5 -17.5t59.5 -45.5l2 52h12v-277q0 -62 53 -62q51 0 77 52t26 145q0 74 -31.5 141t-102.5 114t-170 47q-141 0 -236 -94.5t-95 -244.5q0 -149 95.5 -241.5t249.5 -92.5
q141 0 233 92h2l8 -8q-97 -97 -243 -97q-161 0 -260 96t-99 251t98.5 253.5t246.5 98.5q78 0 140.5 -28.5t100 -74.5t57.5 -100.5t20 -111.5q0 -101 -30 -155.5t-88 -54.5q-32 0 -49 20t-17 54zM384 84q108 0 159 120v151q-48 69 -141 69q-69 0 -113.5 -48t-44.5 -127
q0 -78 40.5 -121.5t99.5 -43.5z" />
    <glyph glyph-name="A" unicode="A" horiz-adv-x="622" 
d="M587 0l-105 243h-341l-102 -243h-15l285 676h1l292 -676h-15zM147 256h329l-161 372l-6 14l-6 -15z" />
    <glyph glyph-name="B" unicode="B" horiz-adv-x="562" 
d="M333 348q77 -7 123 -54t46 -112q0 -86 -58.5 -134t-198.5 -48h-130v660q86 6 140 6q101 0 151 -43.5t50 -116.5q0 -127 -123 -158zM254 652q-52 0 -125 -5v-296h143q76 0 122.5 41t46.5 114q0 146 -187 146zM245 14q132 0 187 44.5t55 122.5q0 69 -50 112.5t-139 43.5
h-169v-323h116z" />
    <glyph glyph-name="C" unicode="C" horiz-adv-x="654" 
d="M407 -12q-158 1 -250.5 93.5t-92.5 243.5q0 153 96 248t250 95q114 0 202 -46v-14l-2 -1q-84 48 -200 48q-149 0 -240 -91t-91 -239q0 -145 87.5 -233.5t240.5 -89.5q106 0 203 52l2 -1v-12q-95 -53 -205 -53z" />
    <glyph glyph-name="D" unicode="D" horiz-adv-x="732" 
d="M292 667q190 0 282.5 -88.5t92.5 -244.5q0 -161 -94 -248t-275 -87q-128 0 -183 4v657q85 7 177 7zM300 13q173 0 262.5 84t89.5 237q0 148 -90 233.5t-271 85.5q-100 0 -162 -6v-630q44 -4 171 -4z" />
    <glyph glyph-name="E" unicode="E" horiz-adv-x="539" 
d="M129 14h359v-14h-373v660h357v-14h-343v-295h324v-14h-324v-323z" />
    <glyph glyph-name="F" unicode="F" horiz-adv-x="497" 
d="M470 646h-341v-306h291v-14h-291v-326h-14v660h355v-14z" />
    <glyph glyph-name="G" unicode="G" horiz-adv-x="708" 
d="M390 -10q-156 0 -241 92.5t-85 246.5q0 147 94 242.5t245 95.5q117 0 207 -43v-13l-2 -1q-53 25 -97 34.5t-108 9.5q-146 0 -235 -91t-89 -234q0 -147 80.5 -236t230.5 -89q139 0 236 61v235h14v-242q-105 -68 -250 -68z" />
    <glyph glyph-name="H" unicode="H" horiz-adv-x="739" 
d="M610 660h14v-660h-14v332h-481v-332h-14v660h14v-315h481v315z" />
    <glyph glyph-name="I" unicode="I" horiz-adv-x="244" 
d="M115 0v660h14v-660h-14z" />
    <glyph glyph-name="J" unicode="J" horiz-adv-x="332" 
d="M59 -3q-21 0 -45 3v13l2 1q17 -3 43 -3q75 0 113.5 46t38.5 127v476h14v-478q0 -88 -42 -136.5t-124 -48.5z" />
    <glyph glyph-name="K" unicode="K" horiz-adv-x="573" 
d="M146 337l419 -335l-1 -2h-21l-414 333v-333h-14v660h14v-321l396 321h19l1 -2z" />
    <glyph glyph-name="L" unicode="L" horiz-adv-x="495" 
d="M129 14h351v-14h-365v660h14v-646z" />
    <glyph glyph-name="M" unicode="M" horiz-adv-x="861" 
d="M708 660l72 -660h-14l-69 623h-2l-261 -616h-4l-263 617h-2l-70 -624h-14l72 660h13l266 -619l263 619h13z" />
    <glyph glyph-name="N" unicode="N" horiz-adv-x="738" 
d="M115 0v668h4l488 -638h2v630h14v-671h-1l-491 640h-2v-629h-14z" />
    <glyph glyph-name="O" unicode="O" horiz-adv-x="794" 
d="M397 -15q-144 0 -238.5 93t-94.5 250q0 158 94.5 251t238.5 93t238.5 -93t94.5 -251q0 -157 -94.5 -250t-238.5 -93zM397 -2q138 0 228 89t90 241q0 153 -90 242t-228 89t-228 -89t-90 -242q0 -152 90 -241t228 -89z" />
    <glyph glyph-name="P" unicode="P" horiz-adv-x="518" 
d="M474 478q1 -89 -60.5 -139.5t-181.5 -50.5q-33 0 -103 5v-293h-14v660q65 5 135 5q118 0 170.5 -52t53.5 -135zM232 302q111 0 169.5 45.5t58.5 130.5q0 78 -50 125.5t-160 47.5q-85 0 -121 -4v-340q7 0 29 -1.5t42 -2.5t32 -1z" />
    <glyph glyph-name="Q" unicode="Q" horiz-adv-x="794" 
d="M730 328q0 -150 -86.5 -242t-220.5 -100q24 -79 66.5 -110t116.5 -37l1 -2l-2 -9q-78 4 -124.5 39t-72.5 118h-11q-144 0 -238.5 93t-94.5 250q0 158 94.5 251t238.5 93t238.5 -93t94.5 -251zM397 -2q138 0 228 89t90 241q0 153 -90 242t-228 89t-228 -89t-90 -242
q0 -152 90 -241t228 -89z" />
    <glyph glyph-name="R" unicode="R" horiz-adv-x="545" 
d="M309 297l187 -295l-1 -2h-14l-186 295q-21 -4 -48 -4h-118v-291h-14v660q80 5 140 5q104 0 156.5 -48.5t52.5 -138.5q0 -73 -43 -119.5t-112 -61.5zM239 303q92 0 151.5 45t59.5 130q0 173 -195 173q-46 0 -126 -4v-344h110z" />
    <glyph glyph-name="S" unicode="S" horiz-adv-x="511" 
d="M247 -15q-117 0 -196 57v16l2 1q41 -30 85 -44.5t109 -14.5q87 0 139 42t52 110q0 39 -13.5 69t-40.5 52t-55.5 37t-70.5 31q-86 32 -134 70.5t-48 104.5q0 75 55.5 115.5t139.5 40.5q97 0 163 -39v-14l-2 -1q-63 40 -161 40q-78 0 -129 -36.5t-51 -105.5q0 -26 10.5 -48
t25 -37.5t40.5 -31t47 -24.5t53 -22q43 -17 71.5 -32t57.5 -38.5t43 -56t14 -74.5q0 -76 -57.5 -121.5t-148.5 -45.5z" />
    <glyph glyph-name="T" unicode="T" horiz-adv-x="525" 
d="M508 660v-13h-238v-647h-14v647h-239v13h491z" />
    <glyph glyph-name="U" unicode="U" horiz-adv-x="708" 
d="M354 -15q-118 0 -183.5 68t-65.5 192v415h14v-414q0 -119 62 -182.5t173 -63.5t173 63.5t62 182.5v414h14v-415q0 -124 -65.5 -192t-183.5 -68z" />
    <glyph glyph-name="V" unicode="V" horiz-adv-x="613" 
d="M584 660l1 -2l-276 -680h-1l-285 680l1 2h13l267 -635l5 -11l4 11l258 635h13z" />
    <glyph glyph-name="W" unicode="W" horiz-adv-x="963" 
d="M931 660l1 -2l-223 -677h-7l-217 634l-4 12l-4 -11l-216 -635h-6l-224 677l1 2h13l208 -629l5 -19l6 20l213 628h8l215 -630l5 -19l6 19l207 630h13z" />
    <glyph glyph-name="X" unicode="X" horiz-adv-x="576" 
d="M298 342l256 -340l-1 -2h-14l-252 333l-250 -333h-14l-1 2l257 342l-236 314l1 2h14l232 -308l227 308h14l1 -2z" />
    <glyph glyph-name="Y" unicode="Y" horiz-adv-x="566" 
d="M276 0v288l-249 370l1 2h13l242 -358l241 358h13l1 -2l-248 -370v-288h-14z" />
    <glyph glyph-name="Z" unicode="Z" horiz-adv-x="565" 
d="M35 0v6l468 641h-462v13h486v-5l-470 -642h471v-13h-493z" />
    <glyph glyph-name="bracketleft" unicode="[" horiz-adv-x="265" 
d="M232 724h-112v-872h112v-12h-125v896h125v-12z" />
    <glyph glyph-name="backslash" unicode="\" horiz-adv-x="409" 
d="M370 -116h-15l-314 862h15z" />
    <glyph glyph-name="bracketright" unicode="]" horiz-adv-x="265" 
d="M33 736h125v-896h-125v12h112v872h-112v12z" />
    <glyph glyph-name="asciicircum" unicode="^" horiz-adv-x="456" 
d="M234 661l161 -296l-12 -7l-152 281l-3 8l-4 -8l-151 -281l-12 7l161 296h12z" />
    <glyph glyph-name="underscore" unicode="_" horiz-adv-x="430" 
d="M29 -15v14h372v-14h-372z" />
    <glyph glyph-name="grave" unicode="`" horiz-adv-x="214" 
d="M178 568l-151 123l-1 5l11 10l147 -131z" />
    <glyph glyph-name="a" unicode="a" horiz-adv-x="611" 
d="M588 26l2 -1v-14q-16 -18 -43 -18q-34 0 -48 18.5t-14 56.5v34q-62 -113 -198 -113q-101 0 -163 65.5t-62 190.5q0 127 71 204.5t183 77.5q52 0 97 -18t72 -47l2 54h12v-438q0 -39 10.5 -55t38.5 -16q22 0 40 19zM287 3q134 0 198 120v321q-60 69 -170 69
q-103 0 -170.5 -74t-67.5 -193q0 -118 58.5 -180.5t151.5 -62.5z" />
    <glyph glyph-name="b" unicode="b" horiz-adv-x="596" 
d="M310 527q98 0 161 -67t63 -190q0 -133 -69.5 -207t-178.5 -74q-120 0 -190 46v675h14v-294q29 51 80.5 81t119.5 30zM287 3q101 0 166.5 70t65.5 196q0 116 -60 180t-149 64q-67 0 -119 -32t-81 -89v-348q65 -41 177 -41z" />
    <glyph glyph-name="c" unicode="c" horiz-adv-x="504" 
d="M322 -11q-118 0 -190 74.5t-72 196.5q0 118 75 193t189 75q78 0 134 -23v-13l-2 -1q-56 23 -132 23q-109 0 -179 -70.5t-70 -182.5q0 -116 67.5 -186.5t180.5 -71.5q73 0 137 36l2 -1v-13q-62 -36 -140 -36z" />
    <glyph glyph-name="d" unicode="d" horiz-adv-x="619" 
d="M589 26l2 -1v-14q-17 -18 -43 -18q-34 0 -48 18.5t-14 56.5v34q-62 -113 -198 -113q-101 0 -163.5 67.5t-62.5 192.5q0 126 71 202t183 76q107 0 170 -61v244h14v-632q0 -39 10.5 -55t38.5 -16q22 0 40 19zM288 3q134 0 198 120v324q-29 31 -75 48.5t-96 17.5
q-104 0 -171 -72.5t-67 -190.5t59.5 -182.5t151.5 -64.5z" />
    <glyph glyph-name="e" unicode="e" horiz-adv-x="568" 
d="M297 527q102 0 160 -68t58 -182v-10h-439v-8q0 -124 69 -191t178 -67q94 0 165 47l2 -1v-14q-74 -46 -167 -46q-115 0 -188.5 70.5t-73.5 201.5q0 123 67.5 195.5t168.5 72.5zM297 513q-91 0 -152.5 -62t-67.5 -170h423q-1 106 -54 169t-149 63z" />
    <glyph glyph-name="f" unicode="f" horiz-adv-x="296" 
d="M246 712q39 0 60 -14v-12l-2 -1q-23 14 -58 14q-53 0 -86.5 -33.5t-33.5 -98.5v-51h148v-14h-148v-502h-14v502h-72v14h72v50q0 73 38.5 109.5t95.5 36.5z" />
    <glyph glyph-name="g" unicode="g" horiz-adv-x="596" 
d="M486 516h12v-479q0 -99 -55 -151.5t-166 -52.5q-114 0 -179 52v16l2 1q64 -55 177 -55q105 0 156 49.5t51 141.5v82q-61 -111 -198 -111q-100 0 -162.5 66t-62.5 184q0 122 70.5 195t182.5 73q51 0 97 -17t73 -44zM484 143v304q-28 31 -74 48.5t-97 17.5
q-103 0 -170 -69.5t-67 -183.5q0 -111 59 -174t151 -63q134 0 198 120z" />
    <glyph glyph-name="h" unicode="h" horiz-adv-x="599" 
d="M303 527q94 0 150 -55t56 -175v-297h-14v297q0 111 -52 163.5t-140 52.5q-65 0 -115 -35t-76 -100v-378h-14v710h14v-305q24 55 74.5 88.5t116.5 33.5z" />
    <glyph glyph-name="i" unicode="i" horiz-adv-x="210" 
d="M105 647q-7 0 -12 5.5t-5 12.5t5 12t12 5t12.5 -5t5.5 -12t-5.5 -12.5t-12.5 -5.5zM98 0v516h14v-516h-14z" />
    <glyph glyph-name="j" unicode="j" horiz-adv-x="226" 
d="M121 647q-7 0 -12 5.5t-5 12.5t5 12t12 5t12.5 -5t5.5 -12t-5.5 -12.5t-12.5 -5.5zM-7 -167q-19 0 -31 3v13l2 1q12 -3 29 -3q121 0 121 151v518h14v-519q0 -164 -135 -164z" />
    <glyph glyph-name="k" unicode="k" horiz-adv-x="477" 
d="M128 267l329 -265l-1 -2h-21l-323 261v-261h-14v710h14v-438l312 244h20l1 -2z" />
    <glyph glyph-name="l" unicode="l" horiz-adv-x="229" 
d="M169 -7q-40 0 -56.5 18.5t-16.5 56.5v642h14v-632q0 -39 13 -55t47 -16q22 0 40 15l2 -1v-14q-17 -14 -43 -14z" />
    <glyph glyph-name="m" unicode="m" horiz-adv-x="930" 
d="M655 527q84 0 134.5 -53.5t50.5 -166.5v-307h-14v307q0 104 -47 155t-124 51q-63 0 -111.5 -35t-74.5 -97q7 -31 7 -74v-307h-14v307q0 104 -47 155t-124 51q-61 0 -108 -35t-71 -95v-383h-14v516h12l2 -105q23 51 69.5 83.5t109.5 32.5q137 0 174 -128q23 56 72.5 92
t117.5 36z" />
    <glyph glyph-name="n" unicode="n" horiz-adv-x="601" 
d="M307 527q89 0 146.5 -57.5t57.5 -182.5v-287h-14v287q0 115 -54 170.5t-136 55.5q-65 0 -117.5 -37.5t-77.5 -101.5v-374h-14v516h12l2 -113q24 54 76.5 89t118.5 35z" />
    <glyph glyph-name="o" unicode="o" horiz-adv-x="627" 
d="M312 -13q-109 0 -180.5 73.5t-71.5 198.5q0 123 71.5 195.5t180.5 72.5q110 0 182.5 -73t72.5 -196q0 -124 -72.5 -197.5t-182.5 -73.5zM312 1q105 0 172.5 69.5t67.5 188.5q0 117 -67.5 185.5t-172.5 68.5q-103 0 -170 -68.5t-67 -185.5q0 -119 67 -188.5t170 -69.5z
" />
    <glyph glyph-name="p" unicode="p" horiz-adv-x="598" 
d="M312 527q99 0 161.5 -69t62.5 -193q0 -133 -69.5 -204.5t-177.5 -71.5q-109 0 -177 57v-210h-14v680h12l2 -100q63 111 200 111zM290 3q100 0 165.5 67.5t65.5 193.5q0 117 -59 183t-150 66q-68 0 -119.5 -32t-80.5 -89v-328q68 -61 178 -61z" />
    <glyph glyph-name="q" unicode="q" horiz-adv-x="598" 
d="M488 516h12v-680h-14v266q-62 -113 -198 -113q-102 0 -164 67.5t-62 192.5q0 126 71 202t183 76q52 0 97.5 -17.5t72.5 -46.5zM288 3q134 0 198 120v322q-60 68 -171 68q-104 0 -171 -72.5t-67 -190.5t59 -182.5t152 -64.5z" />
    <glyph glyph-name="r" unicode="r" horiz-adv-x="351" 
d="M268 527q43 0 69 -14v-13l-2 -1q-24 14 -65 14q-56 0 -96.5 -30.5t-61.5 -114.5v-368h-14v516h12l2 -109q37 120 156 120z" />
    <glyph glyph-name="s" unicode="s" horiz-adv-x="463" 
d="M212 -12q-103 0 -161 42v16l2 1q62 -44 159 -44q84 0 135 32.5t51 94.5q0 56 -37.5 82.5t-125.5 47.5q-39 9 -65 18t-52.5 24.5t-39.5 38t-13 52.5q0 62 51 97.5t132 35.5q80 0 138 -26v-14l-2 -1q-64 27 -136 27q-74 0 -121 -31.5t-47 -87.5q0 -27 12.5 -47t38 -33.5
t49.5 -21.5t62 -18q92 -23 131.5 -52.5t39.5 -90.5q0 -69 -55 -105.5t-146 -36.5z" />
    <glyph glyph-name="t" unicode="t" horiz-adv-x="378" 
d="M372 38l2 -1v-13q-37 -28 -96 -28q-64 0 -95 31.5t-31 97.5v377h-119v14h119v129l12 3l2 -1v-131h202v-14h-202v-376q0 -59 27 -87.5t85 -28.5q57 0 94 28z" />
    <glyph glyph-name="u" unicode="u" horiz-adv-x="584" 
d="M472 516h14v-516h-12l-2 97q-25 -48 -74 -78t-115 -30q-87 0 -139.5 53.5t-52.5 165.5v308h14v-308q0 -103 49 -154t129 -51q64 0 113 32t76 88v393z" />
    <glyph glyph-name="v" unicode="v" horiz-adv-x="532" 
d="M501 516l1 -2l-231 -524h-7l-237 524l1 2h15l225 -503l219 503h14z" />
    <glyph glyph-name="w" unicode="w" horiz-adv-x="795" 
d="M759 516l1 -2l-170 -514h-13l-173 476l-6 19l-5 -18l-174 -477h-13l-173 514l1 2h13l162 -480l4 -13l5 13l174 480h13l174 -479l4 -13l4 13l160 479h12z" />
    <glyph glyph-name="x" unicode="x" horiz-adv-x="498" 
d="M259 266l211 -264l-1 -2h-14l-205 256l-208 -256h-13l-1 2l214 264l-202 248l1 2h14l196 -241l194 241h13l1 -3z" />
    <glyph glyph-name="y" unicode="y" horiz-adv-x="504" 
d="M476 516l1 -2l-222 -519l-69 -155h-15l-1 2l73 160l-213 512l1 2h15l205 -495l211 495h14z" />
    <glyph glyph-name="z" unicode="z" horiz-adv-x="492" 
d="M62 13h395v-13h-420v4l390 499h-386v13h409v-4z" />
    <glyph glyph-name="braceleft" unicode="{" horiz-adv-x="272" 
d="M233 721q-50 0 -71 -17t-20 -72v-248q0 -46 -31 -71t-59 -25v-1q28 0 59 -25t31 -71v-248q0 -56 20.5 -73t70.5 -17h6v-13h-11q-55 0 -77.5 19.5t-22.5 83.5v246q0 41 -28.5 65t-58.5 24v19q30 0 58.5 24t28.5 64v247q0 63 22.5 83t77.5 20h11v-14h-6z" />
    <glyph glyph-name="bar" unicode="|" horiz-adv-x="228" 
d="M107 -104v830h14v-830h-14z" />
    <glyph glyph-name="braceright" unicode="}" horiz-adv-x="272" 
d="M144 385q0 -40 28.5 -64t58.5 -24v-19q-30 0 -58.5 -24.5t-28.5 -64.5v-246q0 -64 -22 -83.5t-77 -19.5h-12v13h7q50 0 70.5 17t20.5 73v248q0 46 31 71t59 25v1q-28 0 -59 25t-31 71v248q0 55 -20.5 72t-70.5 17h-7v14h12q54 0 76.5 -20t22.5 -83v-247z" />
    <glyph glyph-name="asciitilde" unicode="~" horiz-adv-x="504" 
d="M97 255l-12 2q0 29 23 47t56 18q36 0 93 -24.5t83 -24.5q27 0 46.5 13t19.5 39l1 1l12 -1q0 -30 -23 -48t-56 -18q-32 0 -88.5 24.5t-87.5 24.5q-28 0 -47 -13.5t-19 -38.5z" />
    <glyph glyph-name="exclamdown" unicode="&#xa1;" horiz-adv-x="206" 
d="M103 497q-7 0 -12.5 5.5t-5.5 12.5t5.5 12.5t12.5 5.5t12.5 -5.5t5.5 -12.5t-5.5 -12.5t-12.5 -5.5zM95 -147l2 506h12l2 -506h-16z" />
    <glyph glyph-name="cent" unicode="&#xa2;" horiz-adv-x="597" 
d="M530 120l2 -1v-13q-83 -50 -187 -50h-4v-92h-14v92q-124 6 -196 81t-72 193q0 119 75 195t196 82v94h14v-94h4q94 0 173 -36v-13l-2 -2q-77 37 -171 37q-123 0 -198 -72t-75 -190q0 -117 72.5 -189t198.5 -72q103 0 184 50z" />
    <glyph glyph-name="sterling" unicode="&#xa3;" horiz-adv-x="572" 
d="M113 14h407v-14h-437v4q39 33 56.5 76t17.5 114q0 30 -22 140h-97v12h94q-14 76 -14 120q0 94 57 148.5t146 54.5q103 0 170 -45v-15h-1q-68 46 -169 46q-83 0 -136 -51t-53 -138q0 -44 14 -120h260v-12h-257q22 -108 22 -139q0 -130 -58 -181z" />
    <glyph glyph-name="currency" unicode="&#xa4;" horiz-adv-x="706" 
d="M624 332q0 -109 -75 -187l72 -73l-10 -10l-72 73q-78 -75 -187 -75q-106 0 -183 71l-69 -69l-10 10l68 68q-79 81 -79 192q0 109 74 188l-63 63l10 10l63 -63q80 75 189 75q111 0 192 -79l67 67l10 -10l-68 -68q71 -77 71 -183zM352 72q107 0 183 76t76 184
q0 107 -76 183t-183 76t-182.5 -76t-75.5 -183q0 -108 75.5 -184t182.5 -76z" />
    <glyph glyph-name="yen" unicode="&#xa5;" horiz-adv-x="590" 
d="M551 665l-241 -359h194v-13h-203v-137h203v-13h-203v-143h-12v143h-203v13h203v137h-203v13h194l-242 359h15l242 -358l241 358h15z" />
    <glyph glyph-name="brokenbar" unicode="&#xa6;" horiz-adv-x="236" 
d="M111 421v305h14v-305h-14zM111 -104v312h14v-312h-14z" />
    <glyph glyph-name="section" unicode="&#xa7;" horiz-adv-x="503" 
d="M386 90q41 -38 41 -88q0 -72 -53 -110.5t-135 -38.5q-96 0 -161 41v15l1 1q65 -43 160 -43q76 0 125 34.5t49 100.5q0 17 -4 31.5t-16 27.5t-20.5 22t-30.5 21.5t-32 18t-40.5 20t-40.5 19.5q-88 44 -129 80t-41 90q0 70 61 112q-42 37 -42 90q0 71 52.5 108.5
t132.5 37.5q96 0 159 -41v-15h-1q-64 42 -158 42q-74 0 -122.5 -34t-48.5 -98q0 -15 4.5 -29t9.5 -24.5t18.5 -22t21.5 -18.5t29 -18.5t30 -16t36 -17t36 -17.5q87 -44 128 -80t41 -90q0 -71 -60 -111zM74 332q0 -48 39 -81.5t125 -76.5q13 -6 38 -18.5t38.5 -19.5
t31.5 -17.5t30 -20.5q55 37 55 103q0 49 -38.5 82t-124.5 76q-11 6 -37.5 19t-39.5 19.5t-31 17t-30 20.5q-56 -37 -56 -103z" />
    <glyph glyph-name="dieresis" unicode="&#xa8;" horiz-adv-x="229" 
d="M34 646q-7 0 -12 5.5t-5 12.5t5 12t12 5t12.5 -5t5.5 -12q0 -8 -5 -13t-13 -5zM194 646q-7 0 -12 5.5t-5 12.5t5 12t12 5t12.5 -5t5.5 -12q0 -8 -5 -13t-13 -5z" />
    <glyph glyph-name="copyright" unicode="&#xa9;" horiz-adv-x="699" 
d="M349 -7q-122 0 -204 81.5t-82 209.5t82 209.5t204 81.5t204.5 -81.5t82.5 -209.5t-82.5 -209.5t-204.5 -81.5zM349 7q116 0 193.5 77.5t77.5 199.5t-77.5 199.5t-193.5 77.5t-193 -77.5t-77 -199.5t77 -199.5t193 -77.5zM357 132q-70 0 -112 41t-42 108q0 68 42.5 109.5
t111.5 41.5q52 0 92 -17v-16l-2 -1q-41 19 -88 19q-64 0 -102 -37t-38 -98q0 -60 37 -97t103 -37q51 0 94 24l1 -1v-15q-45 -24 -97 -24z" />
    <glyph glyph-name="ordfeminine" unicode="&#xaa;" horiz-adv-x="467" 
d="M412 371h2v-13q-11 -11 -33 -11q-43 0 -43 55v23q-25 -37 -70 -60t-91 -23q-51 0 -84.5 26t-33.5 77q0 55 42 82t103 27q86 0 134 -22v53q0 66 -39 99t-103 33q-67 0 -103 -27l-2 1v12q33 27 106 27q70 0 112 -36t42 -109v-174q0 -51 32 -51q17 0 29 11zM178 354
q45 0 90 24t70 66v75q-47 22 -134 22q-56 0 -93.5 -23.5t-37.5 -71.5q0 -44 30 -68t75 -24z" />
    <glyph glyph-name="guillemotleft" unicode="&#xab;" horiz-adv-x="514" 
d="M235 83l-188 186l189 184h18v-4l-183 -180l182 -181v-5h-18zM423 83l-188 186l189 184h18v-4l-183 -180l182 -181v-5h-18z" />
    <glyph glyph-name="registered" unicode="&#xae;" horiz-adv-x="625" 
d="M313 713q104 0 173.5 -69t69.5 -178t-69.5 -178t-173.5 -69q-105 0 -174.5 69t-69.5 178t69.5 178t174.5 69zM313 232q98 0 163 65.5t65 168.5t-65 168.5t-163 65.5q-99 0 -164 -65.5t-65 -168.5t65 -168.5t164 -65.5zM399 519q0 -57 -49 -71l73 -97h-19l-71 93
q-6 -1 -20 -1h-68v-92h-15v242q20 2 83 2q86 0 86 -76zM245 458h87q24 0 37.5 16t13.5 45q0 32 -17 46t-53 14q-59 0 -68 -1v-120z" />
    <glyph glyph-name="macron" unicode="&#xaf;" horiz-adv-x="337" 
d="M30 631v14h257v-14h-257z" />
    <glyph glyph-name="degree" unicode="&#xb0;" horiz-adv-x="337" 
d="M169 460q-46 0 -75.5 30t-29.5 75t29.5 74.5t75.5 29.5t75 -29.5t29 -74.5t-29 -75t-75 -30zM169 473q39 0 64.5 26.5t25.5 65.5t-25.5 65.5t-64.5 26.5q-40 0 -65.5 -26.5t-25.5 -65.5t25.5 -65.5t65.5 -26.5z" />
    <glyph glyph-name="plusminus" unicode="&#xb1;" horiz-adv-x="512" 
d="M427 286h-164v-170h164v-14h-342v14h164v170h-164v14h164v184h14v-184h164v-14z" />
    <glyph glyph-name="acute" unicode="&#xb4;" horiz-adv-x="214" 
d="M32 568l-6 7l147 131l11 -10l-1 -5z" />
    <glyph glyph-name="paragraph" unicode="&#xb6;" horiz-adv-x="541" 
d="M493 600v-13h-67v-697h-14v697h-76v-697h-14v348q-150 -1 -218 42t-67 143q2 177 253 177h203z" />
    <glyph glyph-name="periodcentered" unicode="&#xb7;" horiz-adv-x="200" 
d="M100 226q-8 0 -13 5t-5 13t5 13t13 5t13 -5t5 -13t-5 -13t-13 -5z" />
    <glyph glyph-name="cedilla" unicode="&#xb8;" horiz-adv-x="190" 
d="M68 -216q-33 0 -58 11v13l2 1q23 -11 56 -11q38 0 61 17.5t23 53.5q0 29 -16.5 44t-43.5 15q-31 0 -56 -11l-1 2v12l39 69h14l-35 -63q17 5 39 5q34 0 54 -18.5t20 -54.5q0 -42 -26.5 -63.5t-71.5 -21.5z" />
    <glyph glyph-name="ordmasculine" unicode="&#xba;" horiz-adv-x="500" 
d="M250 333q-83 0 -137.5 55.5t-54.5 149.5q0 93 54.5 148.5t137.5 55.5t137.5 -55t54.5 -149t-54.5 -149.5t-137.5 -55.5zM250 346q78 0 128 51.5t50 140.5q0 88 -50 139.5t-128 51.5q-77 0 -127.5 -51.5t-50.5 -139.5t50.5 -140t127.5 -52z" />
    <glyph glyph-name="guillemotright" unicode="&#xbb;" horiz-adv-x="515" 
d="M92 453l188 -186l-189 -184h-18v4l183 180l-182 181v5h18zM280 453l188 -186l-189 -184h-18v4l183 180l-182 181v5h18z" />
    <glyph glyph-name="onequarter" unicode="&#xbc;" horiz-adv-x="729" 
d="M117 300v350l-91 -47v17l103 52h3v-372h-15zM561 660h17l-455 -672h-18zM694 103v-12h-79v-91h-14v91h-217v4l225 285h6v-277h79zM406 103h195v244h-1z" />
    <glyph glyph-name="onehalf" unicode="&#xbd;" horiz-adv-x="715" 
d="M134 300v350l-91 -47v17l103 52h3v-372h-15zM69 -12l456 672h17l-455 -672h-18zM423 0q-1 29 29 69.5t82 78.5q56 42 80.5 71t24.5 59q0 36 -26.5 59t-73.5 23q-66 0 -108 -46l-1 1v16q39 43 110 43q52 0 82.5 -26.5t30.5 -68.5q0 -34 -25.5 -65t-82.5 -75
q-48 -36 -74.5 -70t-28.5 -55h231v-14h-250z" />
    <glyph glyph-name="threequarters" unicode="&#xbe;" horiz-adv-x="771" 
d="M282 398q0 -47 -35 -76.5t-88 -29.5q-73 0 -117 34v17h1q43 -38 115 -38q47 0 78 25.5t31 68.5q0 46 -31 68.5t-77 22.5h-31v12h31q37 0 64 21.5t27 58.5t-26.5 57.5t-71.5 20.5q-56 0 -95 -32h-1v15q38 31 97 31q51 0 81.5 -23.5t30.5 -66.5q0 -32 -18 -54.5t-47 -32.5
q82 -18 82 -99zM625 660h17l-455 -672h-18zM735 103v-12h-79v-91h-14v91h-217v4l225 285h6v-277h79zM447 103h195v244h-1z" />
    <glyph glyph-name="questiondown" unicode="&#xbf;" horiz-adv-x="406" 
d="M233 528q7 0 12.5 -5t5.5 -13t-5.5 -13t-12.5 -5t-12.5 5t-5.5 13t5.5 13t12.5 5zM243 356q0 -62 -17 -103t-66 -81q-31 -24 -47.5 -41.5t-32 -52.5t-15.5 -80q0 -60 40 -100.5t107 -40.5q91 0 149 64h1v-18q-21 -26 -60.5 -43t-89.5 -17q-74 0 -117.5 43.5t-43.5 111.5
q0 47 16.5 84t36.5 58t57 50q67 53 67 166h15z" />
    <glyph glyph-name="Agrave" unicode="&#xc0;" horiz-adv-x="622" 
d="M383 702l-172 95l-2 5l5 11l173 -102zM587 0l-105 243h-341l-102 -243h-15l285 676h1l292 -676h-15zM147 256h329l-161 372l-6 14l-6 -15z" />
    <glyph glyph-name="Aacute" unicode="&#xc1;" horiz-adv-x="622" 
d="M395 797l-171 -95l-5 9l173 102l5 -11zM587 0l-105 243h-341l-102 -243h-15l285 676h1l292 -676h-15zM147 256h329l-161 372l-6 14l-6 -15z" />
    <glyph glyph-name="Acircumflex" unicode="&#xc2;" horiz-adv-x="622" 
d="M306 799l-114 -99l-7 8l118 108h7l121 -108l-7 -8zM587 0l-105 243h-341l-102 -243h-15l285 676h1l292 -676h-15zM147 256h329l-161 372l-6 14l-6 -15z" />
    <glyph glyph-name="Atilde" unicode="&#xc3;" horiz-adv-x="622" 
d="M194 725l-1 -1l-12 2q0 28 17 45.5t42 17.5q26 0 71 -22.5t65 -22.5q19 0 32.5 12.5t13.5 37.5l1 1l12 -1q0 -30 -17 -47t-42 -17q-23 0 -68.5 22.5t-67.5 22.5q-19 0 -32.5 -13t-13.5 -37zM587 0l-105 243h-341l-102 -243h-15l285 676h1l292 -676h-15zM147 256h329
l-161 372l-6 14l-6 -15z" />
    <glyph glyph-name="Adieresis" unicode="&#xc4;" horiz-adv-x="622" 
d="M219 747q-7 0 -12 5.5t-5 12.5t5 12t12 5t12.5 -5t5.5 -12t-5.5 -12.5t-12.5 -5.5zM397 747q-7 0 -12 5.5t-5 12.5t5 12t12 5t12.5 -5t5.5 -12t-5.5 -12.5t-12.5 -5.5zM587 0l-105 243h-341l-102 -243h-15l285 676h1l292 -676h-15zM147 256h329l-161 372l-6 14l-6 -15z
" />
    <glyph glyph-name="Aring" unicode="&#xc5;" horiz-adv-x="622" 
d="M308 677q-30 0 -50 20t-20 50t19.5 50t50.5 20t50.5 -20t19.5 -50t-19.5 -50t-50.5 -20zM308 805q-24 0 -40.5 -17t-16.5 -41t16.5 -40.5t40.5 -16.5q25 0 41 16.5t16 40.5t-16 41t-41 17zM587 0l-105 243h-341l-102 -243h-15l285 676h1l292 -676h-15zM147 256h329
l-161 372l-6 14l-6 -15z" />
    <glyph glyph-name="AE" unicode="&#xc6;" horiz-adv-x="802" 
d="M441 14h310v-14h-324v245h-256l-159 -245h-17l432 660h308v-14h-294v-296h275v-14h-275v-322zM180 259h247v379z" />
    <glyph glyph-name="Ccedilla" unicode="&#xc7;" horiz-adv-x="654" 
d="M410 655q-149 0 -240 -91t-91 -239q0 -145 87.5 -233.5t240.5 -89.5q106 0 203 52l2 -1v-12q-93 -52 -197 -53l-28 -51q17 5 39 5q34 0 54 -18.5t20 -54.5q0 -42 -26.5 -63.5t-71.5 -21.5q-33 0 -58 11v13l2 1q23 -11 56 -11q38 0 61 17.5t23 53.5q0 29 -16.5 44
t-43.5 15q-31 0 -56 -11l-1 2v12l32 57q-156 2 -246.5 95t-90.5 242q0 153 96 248t250 95q114 0 202 -46v-14l-2 -1q-84 48 -200 48z" />
    <glyph glyph-name="Egrave" unicode="&#xc8;" horiz-adv-x="539" 
d="M374 702l-172 95l-2 5l5 11l173 -102zM129 14h359v-14h-373v660h357v-14h-343v-295h324v-14h-324v-323z" />
    <glyph glyph-name="Eacute" unicode="&#xc9;" horiz-adv-x="539" 
d="M386 797l-171 -95l-5 9l173 102l5 -11zM129 14h359v-14h-373v660h357v-14h-343v-295h324v-14h-324v-323z" />
    <glyph glyph-name="Ecircumflex" unicode="&#xca;" horiz-adv-x="539" 
d="M297 799l-114 -99l-7 8l118 108h7l121 -108l-7 -8zM129 14h359v-14h-373v660h357v-14h-343v-295h324v-14h-324v-323z" />
    <glyph glyph-name="Edieresis" unicode="&#xcb;" horiz-adv-x="539" 
d="M210 747q-7 0 -12 5.5t-5 12.5t5 12t12 5t12.5 -5t5.5 -12t-5 -12.5t-13 -5.5zM388 747q-7 0 -12 5.5t-5 12.5t5 12t12 5t12.5 -5t5.5 -12t-5 -12.5t-13 -5.5zM129 14h359v-14h-373v660h357v-14h-343v-295h324v-14h-324v-323z" />
    <glyph glyph-name="Igrave" unicode="&#xcc;" horiz-adv-x="244" 
d="M197 702l-172 95l-2 5l5 11l173 -102zM115 0v660h14v-660h-14z" />
    <glyph glyph-name="Iacute" unicode="&#xcd;" horiz-adv-x="244" 
d="M38 702l-5 9l173 102l5 -11l-2 -5zM115 0v660h14v-660h-14z" />
    <glyph glyph-name="Icircumflex" unicode="&#xce;" horiz-adv-x="244" 
d="M6 700l-7 8l118 108h7l121 -108l-7 -8l-118 99zM115 0v660h14v-660h-14z" />
    <glyph glyph-name="Idieresis" unicode="&#xcf;" horiz-adv-x="244" 
d="M33 747q-7 0 -12 5.5t-5 12.5t5 12t12 5t12.5 -5t5.5 -12t-5.5 -12.5t-12.5 -5.5zM211 747q-7 0 -12 5.5t-5 12.5t5 12t12 5t12.5 -5t5.5 -12t-5.5 -12.5t-12.5 -5.5zM115 0v660h14v-660h-14z" />
    <glyph glyph-name="Eth" unicode="&#xd0;" horiz-adv-x="733" 
d="M293 667q190 0 282.5 -88.5t92.5 -244.5q0 -161 -94 -248t-275 -87q-128 0 -183 4v321h-92v13h92v323q85 7 177 7zM301 13q173 0 262.5 84t89.5 237q0 148 -90 233.5t-271 85.5q-100 0 -162 -6v-310h121v-13h-121v-307q44 -4 171 -4z" />
    <glyph glyph-name="Ntilde" unicode="&#xd1;" horiz-adv-x="738" 
d="M260 724l-12 2q0 28 17 45.5t42 17.5t71 -22.5t65 -22.5t32.5 12.5t13.5 37.5l1 1l12 -1q0 -30 -17 -47t-42 -17q-23 0 -68.5 22.5t-67.5 22.5q-19 0 -32.5 -13t-13.5 -37zM115 0v668h4l488 -638h2v630h14v-671h-1l-491 640h-2v-629h-14z" />
    <glyph glyph-name="Ograve" unicode="&#xd2;" horiz-adv-x="794" 
d="M472 702l-172 95l-2 5l5 11l173 -102zM397 -15q-144 0 -238.5 93t-94.5 250q0 158 94.5 251t238.5 93t238.5 -93t94.5 -251q0 -157 -94.5 -250t-238.5 -93zM397 -2q138 0 228 89t90 241q0 153 -90 242t-228 89t-228 -89t-90 -242q0 -152 90 -241t228 -89z" />
    <glyph glyph-name="Oacute" unicode="&#xd3;" horiz-adv-x="794" 
d="M313 702l-5 9l173 102l5 -11l-2 -5zM397 -15q-144 0 -238.5 93t-94.5 250q0 158 94.5 251t238.5 93t238.5 -93t94.5 -251q0 -157 -94.5 -250t-238.5 -93zM397 -2q138 0 228 89t90 241q0 153 -90 242t-228 89t-228 -89t-90 -242q0 -152 90 -241t228 -89z" />
    <glyph glyph-name="Ocircumflex" unicode="&#xd4;" horiz-adv-x="794" 
d="M281 700l-7 8l118 108h7l121 -108l-7 -8l-118 99zM397 -15q-144 0 -238.5 93t-94.5 250q0 158 94.5 251t238.5 93t238.5 -93t94.5 -251q0 -157 -94.5 -250t-238.5 -93zM397 -2q138 0 228 89t90 241q0 153 -90 242t-228 89t-228 -89t-90 -242q0 -152 90 -241t228 -89z" />
    <glyph glyph-name="Otilde" unicode="&#xd5;" horiz-adv-x="794" 
d="M282 724l-12 2q0 28 17 45.5t42 17.5t71 -22.5t65 -22.5t32.5 12.5t13.5 37.5l1 1l12 -1q0 -30 -17 -47t-42 -17q-23 0 -68.5 22.5t-67.5 22.5q-19 0 -32.5 -13t-13.5 -37zM397 -15q-144 0 -238.5 93t-94.5 250q0 158 94.5 251t238.5 93t238.5 -93t94.5 -251
q0 -157 -94.5 -250t-238.5 -93zM397 -2q138 0 228 89t90 241q0 153 -90 242t-228 89t-228 -89t-90 -242q0 -152 90 -241t228 -89z" />
    <glyph glyph-name="Odieresis" unicode="&#xd6;" horiz-adv-x="794" 
d="M308 747q-7 0 -12 5.5t-5 12.5t5 12t12 5t12.5 -5t5.5 -12t-5 -12.5t-13 -5.5zM486 747q-7 0 -12 5.5t-5 12.5t5 12t12 5t12.5 -5t5.5 -12t-5 -12.5t-13 -5.5zM397 -15q-144 0 -238.5 93t-94.5 250q0 158 94.5 251t238.5 93t238.5 -93t94.5 -251q0 -157 -94.5 -250
t-238.5 -93zM397 -2q138 0 228 89t90 241q0 153 -90 242t-228 89t-228 -89t-90 -242q0 -152 90 -241t228 -89z" />
    <glyph glyph-name="multiply" unicode="&#xd7;" horiz-adv-x="495" 
d="M413 446l-155 -155l155 -156l-10 -10l-155 156l-156 -156l-10 10l156 156l-156 155l10 10l156 -155l155 155z" />
    <glyph glyph-name="Oslash" unicode="&#xd8;" horiz-adv-x="794" 
d="M730 677v-3l-92 -98q92 -95 92 -248q0 -157 -94.5 -250t-238.5 -93q-140 0 -232 87l-84 -90h-17v3l91 97q-91 93 -91 246q0 158 94.5 251t238.5 93q140 0 232 -87l87 92h14zM79 328q0 -146 85 -236l456 483q-87 84 -223 84q-138 0 -228 -89t-90 -242zM715 328
q0 149 -86 238l-455 -484q87 -84 223 -84q138 0 228 89t90 241z" />
    <glyph glyph-name="Ugrave" unicode="&#xd9;" horiz-adv-x="708" 
d="M429 702l-172 95l-2 5l5 11l173 -102zM354 -15q-118 0 -183.5 68t-65.5 192v415h14v-414q0 -119 62 -182.5t173 -63.5t173 63.5t62 182.5v414h14v-415q0 -124 -65.5 -192t-183.5 -68z" />
    <glyph glyph-name="Uacute" unicode="&#xda;" horiz-adv-x="708" 
d="M270 702l-5 9l173 102l5 -11l-2 -5zM354 -15q-118 0 -183.5 68t-65.5 192v415h14v-414q0 -119 62 -182.5t173 -63.5t173 63.5t62 182.5v414h14v-415q0 -124 -65.5 -192t-183.5 -68z" />
    <glyph glyph-name="Ucircumflex" unicode="&#xdb;" horiz-adv-x="708" 
d="M238 700l-7 8l118 108h7l121 -108l-7 -8l-118 99zM354 -15q-118 0 -183.5 68t-65.5 192v415h14v-414q0 -119 62 -182.5t173 -63.5t173 63.5t62 182.5v414h14v-415q0 -124 -65.5 -192t-183.5 -68z" />
    <glyph glyph-name="Udieresis" unicode="&#xdc;" horiz-adv-x="708" 
d="M265 747q-7 0 -12 5.5t-5 12.5t5 12t12 5t12.5 -5t5.5 -12t-5.5 -12.5t-12.5 -5.5zM443 747q-7 0 -12 5.5t-5 12.5t5 12t12 5t12.5 -5t5.5 -12t-5.5 -12.5t-12.5 -5.5zM354 -15q-118 0 -183.5 68t-65.5 192v415h14v-414q0 -119 62 -182.5t173 -63.5t173 63.5t62 182.5
v414h14v-415q0 -124 -65.5 -192t-183.5 -68z" />
    <glyph glyph-name="Yacute" unicode="&#xdd;" horiz-adv-x="566" 
d="M199 702l-5 9l173 102l5 -11l-2 -5zM276 0v288l-249 370l1 2h13l242 -358l241 358h13l1 -2l-248 -370v-288h-14z" />
    <glyph glyph-name="Thorn" unicode="&#xde;" horiz-adv-x="530" 
d="M472 337q1 -90 -60 -141t-181 -51q-55 0 -102 5v-150h-14v660h14v-145q56 7 110 7q121 0 176.5 -50t56.5 -135zM231 159q112 0 169.5 46.5t57.5 131.5q0 79 -52.5 125t-166.5 46q-73 0 -110 -6v-338q57 -5 102 -5z" />
    <glyph glyph-name="germandbls" unicode="&#xdf;" horiz-adv-x="592" 
d="M441 260q60 -31 85 -60.5t25 -84.5q0 -60 -42 -93.5t-106 -33.5q-82 0 -128 42v16l2 1q48 -44 126 -44q57 0 95 29.5t38 82.5q0 50 -23 76t-79 55q-27 13 -42 21.5t-32.5 22.5t-25.5 31.5t-8 39.5q0 32 18 58t40 42t40 45t18 67q0 58 -48.5 91.5t-109.5 33.5
q-78 0 -125 -43.5t-47 -132.5v-522h-14v523q0 96 50.5 142.5t135.5 46.5q68 0 120 -37t52 -102q0 -34 -12 -60t-29 -42t-33.5 -30.5t-28.5 -34.5t-12 -45q0 -35 25 -56.5t75 -44.5z" />
    <glyph glyph-name="agrave" unicode="&#xe0;" horiz-adv-x="611" 
d="M363 568l-151 123l-1 5l11 10l147 -131zM588 26l2 -1v-14q-16 -18 -43 -18q-34 0 -48 18.5t-14 56.5v34q-62 -113 -198 -113q-101 0 -163 65.5t-62 190.5q0 127 71 204.5t183 77.5q52 0 97 -18t72 -47l2 54h12v-438q0 -39 10.5 -55t38.5 -16q22 0 40 19zM287 3
q134 0 198 120v321q-60 69 -170 69q-103 0 -170.5 -74t-67.5 -193q0 -118 58.5 -180.5t151.5 -62.5z" />
    <glyph glyph-name="aacute" unicode="&#xe1;" horiz-adv-x="611" 
d="M394 691l-151 -123l-6 7l147 131l11 -10zM588 26l2 -1v-14q-16 -18 -43 -18q-34 0 -48 18.5t-14 56.5v34q-62 -113 -198 -113q-101 0 -163 65.5t-62 190.5q0 127 71 204.5t183 77.5q52 0 97 -18t72 -47l2 54h12v-438q0 -39 10.5 -55t38.5 -16q22 0 40 19zM287 3
q134 0 198 120v321q-60 69 -170 69q-103 0 -170.5 -74t-67.5 -193q0 -118 58.5 -180.5t151.5 -62.5z" />
    <glyph glyph-name="acircumflex" unicode="&#xe2;" horiz-adv-x="611" 
d="M305 686l-106 -117l-7 7l110 128h7l112 -128l-7 -7zM588 26l2 -1v-14q-16 -18 -43 -18q-34 0 -48 18.5t-14 56.5v34q-62 -113 -198 -113q-101 0 -163 65.5t-62 190.5q0 127 71 204.5t183 77.5q52 0 97 -18t72 -47l2 54h12v-438q0 -39 10.5 -55t38.5 -16q22 0 40 19z
M287 3q134 0 198 120v321q-60 69 -170 69q-103 0 -170.5 -74t-67.5 -193q0 -118 58.5 -180.5t151.5 -62.5z" />
    <glyph glyph-name="atilde" unicode="&#xe3;" horiz-adv-x="611" 
d="M182 611l-1 -1l-12 1q0 29 17 46.5t42 17.5q29 0 81.5 -22.5t74.5 -22.5q19 0 32.5 12.5t13.5 37.5l1 1l12 -1q0 -30 -17 -47t-42 -17q-27 0 -78.5 22.5t-77.5 22.5q-19 0 -32.5 -13t-13.5 -37zM588 26l2 -1v-14q-16 -18 -43 -18q-34 0 -48 18.5t-14 56.5v34
q-62 -113 -198 -113q-101 0 -163 65.5t-62 190.5q0 127 71 204.5t183 77.5q52 0 97 -18t72 -47l2 54h12v-438q0 -39 10.5 -55t38.5 -16q22 0 40 19zM287 3q134 0 198 120v321q-60 69 -170 69q-103 0 -170.5 -74t-67.5 -193q0 -118 58.5 -180.5t151.5 -62.5z" />
    <glyph glyph-name="adieresis" unicode="&#xe4;" horiz-adv-x="611" 
d="M225 646q-7 0 -12 5.5t-5 12.5t5 12t12 5t12.5 -5t5.5 -12q0 -8 -5.5 -13t-12.5 -5zM385 646q-7 0 -12 5.5t-5 12.5t5 12t12 5t12.5 -5t5.5 -12q0 -8 -5.5 -13t-12.5 -5zM588 26l2 -1v-14q-16 -18 -43 -18q-34 0 -48 18.5t-14 56.5v34q-62 -113 -198 -113
q-101 0 -163 65.5t-62 190.5q0 127 71 204.5t183 77.5q52 0 97 -18t72 -47l2 54h12v-438q0 -39 10.5 -55t38.5 -16q22 0 40 19zM287 3q134 0 198 120v321q-60 69 -170 69q-103 0 -170.5 -74t-67.5 -193q0 -118 58.5 -180.5t151.5 -62.5z" />
    <glyph glyph-name="aring" unicode="&#xe5;" horiz-adv-x="611" 
d="M306 569q-30 0 -49.5 20t-19.5 50t19.5 50t49.5 20q31 0 50.5 -20t19.5 -50t-19.5 -50t-50.5 -20zM306 696q-24 0 -40 -16.5t-16 -40.5t16 -40.5t40 -16.5q25 0 41 16.5t16 40.5t-16 40.5t-41 16.5zM588 26l2 -1v-14q-16 -18 -43 -18q-34 0 -48 18.5t-14 56.5v34
q-62 -113 -198 -113q-101 0 -163 65.5t-62 190.5q0 127 71 204.5t183 77.5q52 0 97 -18t72 -47l2 54h12v-438q0 -39 10.5 -55t38.5 -16q22 0 40 19zM287 3q134 0 198 120v321q-60 69 -170 69q-103 0 -170.5 -74t-67.5 -193q0 -118 58.5 -180.5t151.5 -62.5z" />
    <glyph glyph-name="ae" unicode="&#xe6;" horiz-adv-x="912" 
d="M645 527q100 0 157 -69t57 -187v-10h-428v-2q0 -124 67 -191t173 -67q91 0 161 47l2 -1v-14q-72 -46 -163 -46q-79 0 -140.5 37t-91.5 107q-32 -66 -93 -104t-142 -38q-64 0 -110 34.5t-46 101.5q0 39 21 67.5t53 44t83.5 24.5t98.5 11.5t112 2.5v52q0 92 -49.5 139
t-131.5 47q-94 0 -143 -37l-2 1v13q45 37 145 37q81 0 133.5 -42t60.5 -129q23 81 81.5 126t134.5 45zM645 513q-89 0 -149.5 -64t-64.5 -174h412q-1 110 -53 174t-145 64zM433 147q-17 51 -17 112v2q-63 0 -107.5 -2t-94.5 -10t-80.5 -22.5t-50.5 -40t-20 -61.5
q0 -59 41.5 -90.5t98.5 -31.5q78 0 137.5 36.5t92.5 107.5z" />
    <glyph glyph-name="ccedilla" unicode="&#xe7;" horiz-adv-x="504" 
d="M462 25q-61 -35 -135 -36l-29 -52q17 5 39 5q34 0 54 -18.5t20 -54.5q0 -42 -26.5 -63.5t-71.5 -21.5q-33 0 -58 11v13l2 1q23 -11 56 -11q38 0 61 17.5t23 53.5q0 29 -16.5 44t-43.5 15q-31 0 -56 -11l-1 2v12l33 58q-115 3 -184 77.5t-69 193.5q0 118 75 193t189 75
q78 0 134 -23v-13l-2 -1q-56 23 -132 23q-109 0 -179 -70.5t-70 -182.5q0 -116 67.5 -186.5t180.5 -71.5q73 0 137 36l2 -1v-13z" />
    <glyph glyph-name="egrave" unicode="&#xe8;" horiz-adv-x="568" 
d="M349 568l-151 123l-1 5l11 10l147 -131zM297 527q102 0 160 -68t58 -182v-10h-439v-8q0 -124 69 -191t178 -67q94 0 165 47l2 -1v-14q-74 -46 -167 -46q-115 0 -188.5 70.5t-73.5 201.5q0 123 67.5 195.5t168.5 72.5zM297 513q-91 0 -152.5 -62t-67.5 -170h423
q-1 106 -54 169t-149 63z" />
    <glyph glyph-name="eacute" unicode="&#xe9;" horiz-adv-x="568" 
d="M380 691l-151 -123l-6 7l147 131l11 -10zM297 527q102 0 160 -68t58 -182v-10h-439v-8q0 -124 69 -191t178 -67q94 0 165 47l2 -1v-14q-74 -46 -167 -46q-115 0 -188.5 70.5t-73.5 201.5q0 123 67.5 195.5t168.5 72.5zM297 513q-91 0 -152.5 -62t-67.5 -170h423
q-1 106 -54 169t-149 63z" />
    <glyph glyph-name="ecircumflex" unicode="&#xea;" horiz-adv-x="568" 
d="M291 686l-106 -117l-7 7l110 128h7l112 -128l-7 -7zM297 527q102 0 160 -68t58 -182v-10h-439v-8q0 -124 69 -191t178 -67q94 0 165 47l2 -1v-14q-74 -46 -167 -46q-115 0 -188.5 70.5t-73.5 201.5q0 123 67.5 195.5t168.5 72.5zM297 513q-91 0 -152.5 -62t-67.5 -170
h423q-1 106 -54 169t-149 63z" />
    <glyph glyph-name="edieresis" unicode="&#xeb;" horiz-adv-x="568" 
d="M211 646q-7 0 -12 5.5t-5 12.5t5 12t12 5t12.5 -5t5.5 -12q0 -8 -5.5 -13t-12.5 -5zM371 646q-7 0 -12 5.5t-5 12.5t5 12t12 5t12.5 -5t5.5 -12q0 -8 -5.5 -13t-12.5 -5zM297 527q102 0 160 -68t58 -182v-10h-439v-8q0 -124 69 -191t178 -67q94 0 165 47l2 -1v-14
q-74 -46 -167 -46q-115 0 -188.5 70.5t-73.5 201.5q0 123 67.5 195.5t168.5 72.5zM297 513q-91 0 -152.5 -62t-67.5 -170h423q-1 106 -54 169t-149 63z" />
    <glyph glyph-name="igrave" unicode="&#xec;" horiz-adv-x="210" 
d="M162 568l-151 123l-1 5l11 10l147 -131zM98 0v516h14v-516h-14z" />
    <glyph glyph-name="iacute" unicode="&#xed;" horiz-adv-x="210" 
d="M42 568l-6 7l147 131l11 -10l-1 -5zM98 0v516h14v-516h-14z" />
    <glyph glyph-name="icircumflex" unicode="&#xee;" horiz-adv-x="210" 
d="M-2 569l-7 7l110 128h7l112 -128l-7 -7l-109 117zM98 0v516h14v-516h-14z" />
    <glyph glyph-name="idieresis" unicode="&#xef;" horiz-adv-x="210" 
d="M26 647q-7 0 -12 5.5t-5 12.5t5 12t12 5t12.5 -5t5.5 -12t-5 -12.5t-13 -5.5zM166 647q-7 0 -12 5.5t-5 12.5t5 12t12 5t12.5 -5t5.5 -12t-5 -12.5t-13 -5.5zM98 0v516h14v-516h-14z" />
    <glyph glyph-name="eth" unicode="&#xf0;" horiz-adv-x="635" 
d="M387 696q85 -39 128.5 -140t43.5 -251q0 -152 -68 -235t-189 -83q-101 0 -171 70.5t-70 180.5q0 111 67.5 180t178.5 69q90 0 149.5 -40t87.5 -94q-14 266 -166 334l-96 -96l-10 10l91 91q-41 15 -90 15q-81 0 -146 -30l-1 1v12q65 30 147 30q57 0 100 -18l81 81l10 -10z
M302 1q113 0 178 78t65 223v22q-21 54 -82 101.5t-156 47.5q-104 0 -167.5 -65t-63.5 -170q0 -104 65.5 -170.5t160.5 -66.5z" />
    <glyph glyph-name="ntilde" unicode="&#xf1;" horiz-adv-x="601" 
d="M171 611l-1 -1l-12 1q0 29 17 46.5t42 17.5q29 0 81.5 -22.5t74.5 -22.5q19 0 32.5 12.5t13.5 37.5l1 1l12 -1q0 -30 -17 -47t-42 -17q-27 0 -78.5 22.5t-77.5 22.5q-19 0 -32.5 -13t-13.5 -37zM307 527q89 0 146.5 -57.5t57.5 -182.5v-287h-14v287q0 115 -54 170.5
t-136 55.5q-65 0 -117.5 -37.5t-77.5 -101.5v-374h-14v516h12l2 -113q24 54 76.5 89t118.5 35z" />
    <glyph glyph-name="ograve" unicode="&#xf2;" horiz-adv-x="627" 
d="M371 568l-151 123l-1 5l11 10l147 -131zM312 -13q-109 0 -180.5 73.5t-71.5 198.5q0 123 71.5 195.5t180.5 72.5q110 0 182.5 -73t72.5 -196q0 -124 -72.5 -197.5t-182.5 -73.5zM312 1q105 0 172.5 69.5t67.5 188.5q0 117 -67.5 185.5t-172.5 68.5q-103 0 -170 -68.5
t-67 -185.5q0 -119 67 -188.5t170 -69.5z" />
    <glyph glyph-name="oacute" unicode="&#xf3;" horiz-adv-x="627" 
d="M251 568l-6 7l147 131l11 -10l-1 -5zM312 -13q-109 0 -180.5 73.5t-71.5 198.5q0 123 71.5 195.5t180.5 72.5q110 0 182.5 -73t72.5 -196q0 -124 -72.5 -197.5t-182.5 -73.5zM312 1q105 0 172.5 69.5t67.5 188.5q0 117 -67.5 185.5t-172.5 68.5q-103 0 -170 -68.5
t-67 -185.5q0 -119 67 -188.5t170 -69.5z" />
    <glyph glyph-name="ocircumflex" unicode="&#xf4;" horiz-adv-x="627" 
d="M207 569l-7 7l110 128h7l112 -128l-7 -7l-109 117zM312 -13q-109 0 -180.5 73.5t-71.5 198.5q0 123 71.5 195.5t180.5 72.5q110 0 182.5 -73t72.5 -196q0 -124 -72.5 -197.5t-182.5 -73.5zM312 1q105 0 172.5 69.5t67.5 188.5q0 117 -67.5 185.5t-172.5 68.5
q-103 0 -170 -68.5t-67 -185.5q0 -119 67 -188.5t170 -69.5z" />
    <glyph glyph-name="otilde" unicode="&#xf5;" horiz-adv-x="627" 
d="M189 610l-12 1q0 29 17 46.5t42 17.5q29 0 81.5 -22.5t74.5 -22.5q19 0 32.5 12.5t13.5 37.5l1 1l12 -1q0 -30 -17 -47t-42 -17q-27 0 -78.5 22.5t-77.5 22.5q-19 0 -32.5 -13t-13.5 -37zM312 -13q-109 0 -180.5 73.5t-71.5 198.5q0 123 71.5 195.5t180.5 72.5
q110 0 182.5 -73t72.5 -196q0 -124 -72.5 -197.5t-182.5 -73.5zM312 1q105 0 172.5 69.5t67.5 188.5q0 117 -67.5 185.5t-172.5 68.5q-103 0 -170 -68.5t-67 -185.5q0 -119 67 -188.5t170 -69.5z" />
    <glyph glyph-name="odieresis" unicode="&#xf6;" horiz-adv-x="627" 
d="M233 646q-7 0 -12 5.5t-5 12.5t5 12t12 5t12.5 -5t5.5 -12q0 -8 -5.5 -13t-12.5 -5zM393 646q-7 0 -12 5.5t-5 12.5t5 12t12 5t12.5 -5t5.5 -12q0 -8 -5.5 -13t-12.5 -5zM312 -13q-109 0 -180.5 73.5t-71.5 198.5q0 123 71.5 195.5t180.5 72.5q110 0 182.5 -73t72.5 -196
q0 -124 -72.5 -197.5t-182.5 -73.5zM312 1q105 0 172.5 69.5t67.5 188.5q0 117 -67.5 185.5t-172.5 68.5q-103 0 -170 -68.5t-67 -185.5q0 -119 67 -188.5t170 -69.5z" />
    <glyph glyph-name="divide" unicode="&#xf7;" horiz-adv-x="512" 
d="M256 415q-8 0 -13 5.5t-5 12.5t5 12.5t13 5.5t13 -5.5t5 -12.5t-5 -12.5t-13 -5.5zM85 286v14h342v-14h-342zM256 128q-8 0 -13 5t-5 13t5 13t13 5t13 -5t5 -13t-5 -13t-13 -5z" />
    <glyph glyph-name="oslash" unicode="&#xf8;" horiz-adv-x="629" 
d="M496 454q72 -74 72 -196q0 -124 -72.5 -197.5t-182.5 -73.5q-101 0 -170 63l-54 -62h-15v3l60 68q-73 76 -73 200q0 123 71.5 195.5t180.5 72.5q104 0 173 -64l55 63h15v-3zM76 259q0 -117 67 -189l334 383q-65 60 -164 60q-103 0 -170 -68.5t-67 -185.5zM313 1
q105 0 172.5 69.5t67.5 188.5q0 115 -66 184l-334 -382q63 -60 160 -60z" />
    <glyph glyph-name="ugrave" unicode="&#xf9;" horiz-adv-x="584" 
d="M348 568l-151 123l-1 5l11 10l147 -131zM472 516h14v-516h-12l-2 97q-25 -48 -74 -78t-115 -30q-87 0 -139.5 53.5t-52.5 165.5v308h14v-308q0 -103 49 -154t129 -51q64 0 113 32t76 88v393z" />
    <glyph glyph-name="uacute" unicode="&#xfa;" horiz-adv-x="584" 
d="M379 691l-151 -123l-6 7l147 131l11 -10zM472 516h14v-516h-12l-2 97q-25 -48 -74 -78t-115 -30q-87 0 -139.5 53.5t-52.5 165.5v308h14v-308q0 -103 49 -154t129 -51q64 0 113 32t76 88v393z" />
    <glyph glyph-name="ucircumflex" unicode="&#xfb;" horiz-adv-x="584" 
d="M290 686l-106 -117l-7 7l110 128h7l112 -128l-7 -7zM472 516h14v-516h-12l-2 97q-25 -48 -74 -78t-115 -30q-87 0 -139.5 53.5t-52.5 165.5v308h14v-308q0 -103 49 -154t129 -51q64 0 113 32t76 88v393z" />
    <glyph glyph-name="udieresis" unicode="&#xfc;" horiz-adv-x="584" 
d="M210 646q-7 0 -12 5.5t-5 12.5t5 12t12 5t12.5 -5t5.5 -12q0 -8 -5 -13t-13 -5zM370 646q-7 0 -12 5.5t-5 12.5t5 12t12 5t12.5 -5t5.5 -12q0 -8 -5 -13t-13 -5zM472 516h14v-516h-12l-2 97q-25 -48 -74 -78t-115 -30q-87 0 -139.5 53.5t-52.5 165.5v308h14v-308
q0 -103 49 -154t129 -51q64 0 113 32t76 88v393z" />
    <glyph glyph-name="yacute" unicode="&#xfd;" horiz-adv-x="504" 
d="M345 691l-151 -123l-6 7l147 131l11 -10zM476 516l1 -2l-222 -519l-69 -155h-15l-1 2l73 160l-213 512l1 2h15l205 -495l211 495h14z" />
    <glyph glyph-name="thorn" unicode="&#xfe;" horiz-adv-x="598" 
d="M312 527q99 0 161.5 -69.5t62.5 -187.5q0 -135 -68.5 -208t-177.5 -73q-112 0 -178 57v-210h-14v874h14v-294q63 111 200 111zM291 3q101 0 165.5 69t64.5 197q0 111 -59 177.5t-150 66.5q-68 0 -119.5 -32t-80.5 -89v-328q64 -61 179 -61z" />
    <glyph glyph-name="ydieresis" unicode="&#xff;" horiz-adv-x="504" 
d="M176 646q-7 0 -12 5.5t-5 12.5t5 12t12 5t12.5 -5t5.5 -12q0 -8 -5 -13t-13 -5zM336 646q-7 0 -12 5.5t-5 12.5t5 12t12 5t12.5 -5t5.5 -12q0 -8 -5 -13t-13 -5zM476 516l1 -2l-222 -519l-69 -155h-15l-1 2l73 160l-213 512l1 2h15l205 -495l211 495h14z" />
    <glyph glyph-name="Amacron" unicode="&#x100;" horiz-adv-x="622" 
d="M431 769v-13h-247v13h247zM587 0l-105 243h-341l-102 -243h-15l285 676h1l292 -676h-15zM147 256h329l-161 372l-6 14l-6 -15z" />
    <glyph glyph-name="amacron" unicode="&#x101;" horiz-adv-x="611" 
d="M434 645v-14h-257v14h257zM588 26l2 -1v-14q-16 -18 -43 -18q-34 0 -48 18.5t-14 56.5v34q-62 -113 -198 -113q-101 0 -163 65.5t-62 190.5q0 127 71 204.5t183 77.5q52 0 97 -18t72 -47l2 54h12v-438q0 -39 10.5 -55t38.5 -16q22 0 40 19zM287 3q134 0 198 120v321
q-60 69 -170 69q-103 0 -170.5 -74t-67.5 -193q0 -118 58.5 -180.5t151.5 -62.5z" />
    <glyph glyph-name="Abreve" unicode="&#x102;" horiz-adv-x="622" 
d="M308 703q-51 0 -82 29.5t-31 80.5l9 1q4 -44 32.5 -70.5t71.5 -26.5q46 0 75 26t30 71l9 -1q0 -51 -31.5 -80.5t-82.5 -29.5zM587 0l-105 243h-341l-102 -243h-15l285 676h1l292 -676h-15zM147 256h329l-161 372l-6 14l-6 -15z" />
    <glyph glyph-name="abreve" unicode="&#x103;" horiz-adv-x="611" 
d="M306 579q-51 0 -82 32t-31 88l10 1l1 -1q2 -49 30.5 -77.5t71.5 -28.5q45 0 73.5 28.5t29.5 76.5l1 2l10 -1q0 -56 -31.5 -88t-82.5 -32zM588 26l2 -1v-14q-16 -18 -43 -18q-34 0 -48 18.5t-14 56.5v34q-62 -113 -198 -113q-101 0 -163 65.5t-62 190.5q0 127 71 204.5
t183 77.5q52 0 97 -18t72 -47l2 54h12v-438q0 -39 10.5 -55t38.5 -16q22 0 40 19zM287 3q134 0 198 120v321q-60 69 -170 69q-103 0 -170.5 -74t-67.5 -193q0 -118 58.5 -180.5t151.5 -62.5z" />
    <glyph glyph-name="Aogonek" unicode="&#x104;" horiz-adv-x="622" 
d="M564 -201q18 0 30 4l2 -1v-11q-16 -6 -33 -6q-42 0 -62.5 20t-20.5 55q0 76 106 143l-104 240h-341l-102 -243h-15l285 676h1l292 -676q-106 -70 -106 -140q0 -27 16.5 -44t51.5 -17zM147 256h329l-161 372l-6 14l-6 -15z" />
    <glyph glyph-name="aogonek" unicode="&#x105;" horiz-adv-x="611" 
d="M588 26l2 -1v-14q-8 -7 -18 -12q-104 -69 -104 -139q0 -27 16.5 -44t51.5 -17q18 0 30 4l2 -1v-11q-16 -6 -33 -6q-42 0 -62.5 20t-20.5 55q0 70 91 133q-32 1 -45 19.5t-13 55.5v34q-62 -113 -198 -113q-101 0 -163 65.5t-62 190.5q0 127 71 204.5t183 77.5q52 0 97 -18
t72 -47l2 54h12v-438q0 -39 10.5 -55t38.5 -16q22 0 40 19zM287 3q134 0 198 120v321q-60 69 -170 69q-103 0 -170.5 -74t-67.5 -193q0 -118 58.5 -180.5t151.5 -62.5z" />
    <glyph glyph-name="Cacute" unicode="&#x106;" horiz-adv-x="654" 
d="M304 702l-5 9l173 102l5 -11l-2 -5zM407 -12q-158 1 -250.5 93.5t-92.5 243.5q0 153 96 248t250 95q114 0 202 -46v-14l-2 -1q-84 48 -200 48q-149 0 -240 -91t-91 -239q0 -145 87.5 -233.5t240.5 -89.5q106 0 203 52l2 -1v-12q-95 -53 -205 -53z" />
    <glyph glyph-name="cacute" unicode="&#x107;" horiz-adv-x="504" 
d="M243 568l-6 7l147 131l11 -10l-1 -5zM322 -11q-118 0 -190 74.5t-72 196.5q0 118 75 193t189 75q78 0 134 -23v-13l-2 -1q-56 23 -132 23q-109 0 -179 -70.5t-70 -182.5q0 -116 67.5 -186.5t180.5 -71.5q73 0 137 36l2 -1v-13q-62 -36 -140 -36z" />
    <glyph glyph-name="Cdotaccent" unicode="&#x10a;" horiz-adv-x="654" 
d="M387 747q-7 0 -12 5.5t-5 12.5t5 12t12 5t12.5 -5t5.5 -12t-5.5 -12.5t-12.5 -5.5zM407 -12q-158 1 -250.5 93.5t-92.5 243.5q0 153 96 248t250 95q114 0 202 -46v-14l-2 -1q-84 48 -200 48q-149 0 -240 -91t-91 -239q0 -145 87.5 -233.5t240.5 -89.5q106 0 203 52l2 -1
v-12q-95 -53 -205 -53z" />
    <glyph glyph-name="cdotaccent" unicode="&#x10b;" horiz-adv-x="504" 
d="M306 647q-7 0 -12 5.5t-5 12.5t5 12t12 5t12.5 -5t5.5 -12t-5 -12.5t-13 -5.5zM322 -11q-118 0 -190 74.5t-72 196.5q0 118 75 193t189 75q78 0 134 -23v-13l-2 -1q-56 23 -132 23q-109 0 -179 -70.5t-70 -182.5q0 -116 67.5 -186.5t180.5 -71.5q73 0 137 36l2 -1v-13
q-62 -36 -140 -36z" />
    <glyph glyph-name="Ccaron" unicode="&#x10c;" horiz-adv-x="654" 
d="M386 701l-121 107l7 8l118 -99l114 99l7 -8l-118 -107h-7zM407 -12q-158 1 -250.5 93.5t-92.5 243.5q0 153 96 248t250 95q114 0 202 -46v-14l-2 -1q-84 48 -200 48q-149 0 -240 -91t-91 -239q0 -145 87.5 -233.5t240.5 -89.5q106 0 203 52l2 -1v-12q-95 -53 -205 -53z
" />
    <glyph glyph-name="ccaron" unicode="&#x10d;" horiz-adv-x="504" 
d="M304 570l-112 128l7 6l109 -116l106 116l7 -6l-111 -128h-6zM322 -11q-118 0 -190 74.5t-72 196.5q0 118 75 193t189 75q78 0 134 -23v-13l-2 -1q-56 23 -132 23q-109 0 -179 -70.5t-70 -182.5q0 -116 67.5 -186.5t180.5 -71.5q73 0 137 36l2 -1v-13q-62 -36 -140 -36z
" />
    <glyph glyph-name="Dcaron" unicode="&#x10e;" horiz-adv-x="732" 
d="M331 701h-7l-121 107l7 8l118 -99l114 99l7 -8zM292 667q190 0 282.5 -88.5t92.5 -244.5q0 -161 -94 -248t-275 -87q-128 0 -183 4v657q85 7 177 7zM300 13q173 0 262.5 84t89.5 237q0 148 -90 233.5t-271 85.5q-100 0 -162 -6v-630q44 -4 171 -4z" />
    <glyph glyph-name="dcaron" unicode="&#x10f;" horiz-adv-x="619" 
d="M607 714l5 -6l-15 -182h-9l9 188h10zM549 7q22 0 40 19l2 -1v-14q-17 -18 -43 -18q-34 0 -48 18.5t-14 56.5v34q-62 -113 -198 -113q-101 0 -163.5 67.5t-62.5 192.5q0 126 71 202t183 76q107 0 170 -61v244h14v-632q0 -39 10.5 -55t38.5 -16zM288 3q134 0 198 120v324
q-29 31 -75 48.5t-96 17.5q-104 0 -171 -72.5t-67 -190.5t59.5 -182.5t151.5 -64.5z" />
    <glyph glyph-name="Dcroat" unicode="&#x110;" horiz-adv-x="733" 
d="M292 667q190 0 282.5 -88.5t92.5 -244.5q0 -161 -94 -248t-275 -87q-128 0 -183 4v321h-91v13h91v323q85 7 177 7zM300 13q173 0 262.5 84t89.5 237q0 148 -90 233.5t-271 85.5q-100 0 -162 -6v-310h122v-13h-122v-307q44 -4 171 -4z" />
    <glyph glyph-name="dcroat" unicode="&#x111;" horiz-adv-x="619" 
d="M500 78q0 -39 10.5 -55t38.5 -16q22 0 40 19l2 -1v-14q-17 -18 -43 -18q-34 0 -48 18.5t-14 56.5v34q-62 -113 -198 -113q-101 0 -163.5 67.5t-62.5 192.5q0 126 71 202t183 76q107 0 170 -61v139h-112v13h112v92h14v-92h101v-13h-101v-527zM288 3q134 0 198 120v324
q-29 31 -75 48.5t-96 17.5q-104 0 -171 -72.5t-67 -190.5t59.5 -182.5t151.5 -64.5z" />
    <glyph glyph-name="Emacron" unicode="&#x112;" horiz-adv-x="539" 
d="M422 769v-13h-247v13h247zM129 14h359v-14h-373v660h357v-14h-343v-295h324v-14h-324v-323z" />
    <glyph glyph-name="emacron" unicode="&#x113;" horiz-adv-x="568" 
d="M420 645v-14h-257v14h257zM297 527q102 0 160 -68t58 -182v-10h-439v-8q0 -124 69 -191t178 -67q94 0 165 47l2 -1v-14q-74 -46 -167 -46q-115 0 -188.5 70.5t-73.5 201.5q0 123 67.5 195.5t168.5 72.5zM297 513q-91 0 -152.5 -62t-67.5 -170h423q-1 106 -54 169t-149 63
z" />
    <glyph glyph-name="Edotaccent" unicode="&#x116;" horiz-adv-x="539" 
d="M298 747q-7 0 -12 5.5t-5 12.5t5 12t12 5t12.5 -5t5.5 -12t-5 -12.5t-13 -5.5zM129 14h359v-14h-373v660h357v-14h-343v-295h324v-14h-324v-323z" />
    <glyph glyph-name="edotaccent" unicode="&#x117;" horiz-adv-x="568" 
d="M292 647q-7 0 -12 5.5t-5 12.5t5 12t12 5t12.5 -5t5.5 -12t-5 -12.5t-13 -5.5zM297 527q102 0 160 -68t58 -182v-10h-439v-8q0 -124 69 -191t178 -67q94 0 165 47l2 -1v-14q-74 -46 -167 -46q-115 0 -188.5 70.5t-73.5 201.5q0 123 67.5 195.5t168.5 72.5zM297 513
q-91 0 -152.5 -62t-67.5 -170h423q-1 106 -54 169t-149 63z" />
    <glyph glyph-name="Eogonek" unicode="&#x118;" horiz-adv-x="539" 
d="M488 0q-106 -70 -106 -140q0 -27 16.5 -44t51.5 -17q18 0 30 4l2 -1v-11q-16 -6 -33 -6q-42 0 -62.5 20t-20.5 55q0 74 102 140h-353v660h357v-14h-343v-295h324v-14h-324v-323h359v-14z" />
    <glyph glyph-name="eogonek" unicode="&#x119;" horiz-adv-x="568" 
d="M297 527q102 0 160 -68t58 -182v-10h-439v-8q0 -124 69 -191t178 -67q94 0 165 47l2 -1v-14q-36 -23 -72 -33q-106 -70 -106 -140q0 -27 16.5 -44t51.5 -17q18 0 30 4l2 -1v-11q-16 -6 -33 -6q-42 0 -62.5 20t-20.5 55q0 69 90 132q-35 -5 -63 -5q-115 0 -188.5 70.5
t-73.5 201.5q0 123 67.5 195.5t168.5 72.5zM297 513q-91 0 -152.5 -62t-67.5 -170h423q-1 106 -54 169t-149 63z" />
    <glyph glyph-name="Ecaron" unicode="&#x11a;" horiz-adv-x="539" 
d="M304 701h-7l-121 107l7 8l118 -99l114 99l7 -8zM129 14h359v-14h-373v660h357v-14h-343v-295h324v-14h-324v-323z" />
    <glyph glyph-name="ecaron" unicode="&#x11b;" horiz-adv-x="568" 
d="M296 570h-6l-112 128l7 6l109 -116l106 116l7 -6zM297 527q102 0 160 -68t58 -182v-10h-439v-8q0 -124 69 -191t178 -67q94 0 165 47l2 -1v-14q-74 -46 -167 -46q-115 0 -188.5 70.5t-73.5 201.5q0 123 67.5 195.5t168.5 72.5zM297 513q-91 0 -152.5 -62t-67.5 -170h423
q-1 106 -54 169t-149 63z" />
    <glyph glyph-name="Gbreve" unicode="&#x11e;" horiz-adv-x="708" 
d="M392 703q-51 0 -82 29.5t-31 80.5l9 1q4 -44 32.5 -70.5t71.5 -26.5q46 0 75 26t30 71l9 -1q0 -51 -31.5 -80.5t-82.5 -29.5zM390 -10q-156 0 -241 92.5t-85 246.5q0 147 94 242.5t245 95.5q117 0 207 -43v-13l-2 -1q-53 25 -97 34.5t-108 9.5q-146 0 -235 -91t-89 -234
q0 -147 80.5 -236t230.5 -89q139 0 236 61v235h14v-242q-105 -68 -250 -68z" />
    <glyph glyph-name="gbreve" unicode="&#x11f;" horiz-adv-x="596" 
d="M301 579q-51 0 -82 32t-31 88l10 1l1 -1q2 -49 30.5 -77.5t71.5 -28.5q45 0 73.5 28.5t29.5 76.5l1 2l10 -1q0 -56 -31.5 -88t-82.5 -32zM486 516h12v-479q0 -99 -55 -151.5t-166 -52.5q-114 0 -179 52v16l2 1q64 -55 177 -55q105 0 156 49.5t51 141.5v82
q-61 -111 -198 -111q-100 0 -162.5 66t-62.5 184q0 122 70.5 195t182.5 73q51 0 97 -17t73 -44zM484 143v304q-28 31 -74 48.5t-97 17.5q-103 0 -170 -69.5t-67 -183.5q0 -111 59 -174t151 -63q134 0 198 120z" />
    <glyph glyph-name="Gdotaccent" unicode="&#x120;" horiz-adv-x="708" 
d="M391 747q-7 0 -12 5.5t-5 12.5t5 12t12 5t12.5 -5t5.5 -12t-5.5 -12.5t-12.5 -5.5zM390 -10q-156 0 -241 92.5t-85 246.5q0 147 94 242.5t245 95.5q117 0 207 -43v-13l-2 -1q-53 25 -97 34.5t-108 9.5q-146 0 -235 -91t-89 -234q0 -147 80.5 -236t230.5 -89q139 0 236 61
v235h14v-242q-105 -68 -250 -68z" />
    <glyph glyph-name="gdotaccent" unicode="&#x121;" horiz-adv-x="596" 
d="M301 647q-7 0 -12 5.5t-5 12.5t5 12t12 5t12.5 -5t5.5 -12t-5.5 -12.5t-12.5 -5.5zM486 516h12v-479q0 -99 -55 -151.5t-166 -52.5q-114 0 -179 52v16l2 1q64 -55 177 -55q105 0 156 49.5t51 141.5v82q-61 -111 -198 -111q-100 0 -162.5 66t-62.5 184q0 122 70.5 195
t182.5 73q51 0 97 -17t73 -44zM484 143v304q-28 31 -74 48.5t-97 17.5q-103 0 -170 -69.5t-67 -183.5q0 -111 59 -174t151 -63q134 0 198 120z" />
    <glyph glyph-name="Gcommaaccent" unicode="&#x122;" horiz-adv-x="708" 
d="M390 -10q-156 0 -241 92.5t-85 246.5q0 147 94 242.5t245 95.5q117 0 207 -43v-13l-2 -1q-53 25 -97 34.5t-108 9.5q-146 0 -235 -91t-89 -234q0 -147 80.5 -236t230.5 -89q139 0 236 61v235h14v-242q-105 -68 -250 -68zM362 -207q21 66 21 131q0 4 -0.5 12t-0.5 12l14 2
l3 -3q0 -79 -28 -154h-9z" />
    <glyph glyph-name="gcommaaccent" unicode="&#x123;" horiz-adv-x="596" 
d="M317 568l-14 -2l-3 3q0 79 28 154h9q-21 -66 -21 -131q0 -4 0.5 -12t0.5 -12zM486 516h12v-479q0 -99 -55 -151.5t-166 -52.5q-114 0 -179 52v16l2 1q64 -55 177 -55q105 0 156 49.5t51 141.5v82q-61 -111 -198 -111q-100 0 -162.5 66t-62.5 184q0 122 70.5 195t182.5 73
q51 0 97 -17t73 -44zM484 143v304q-28 31 -74 48.5t-97 17.5q-103 0 -170 -69.5t-67 -183.5q0 -111 59 -174t151 -63q134 0 198 120z" />
    <glyph glyph-name="Hbar" unicode="&#x126;" horiz-adv-x="739" 
d="M702 503v-13h-78v-490h-14v332h-481v-332h-14v490h-77v13h77v157h14v-157h481v157h14v-157h78zM610 345v145h-481v-145h481z" />
    <glyph glyph-name="hbar" unicode="&#x127;" horiz-adv-x="599" 
d="M303 527q94 0 150 -55t56 -175v-297h-14v297q0 111 -52 163.5t-140 52.5q-65 0 -115 -35t-76 -100v-378h-14v605h-90v13h90v92h14v-92h123v-13h-123v-200q24 55 74.5 88.5t116.5 33.5z" />
    <glyph glyph-name="Itilde" unicode="&#x128;" horiz-adv-x="244" 
d="M7 724l-12 2q0 28 17 45.5t42 17.5q26 0 71 -22.5t65 -22.5q19 0 32.5 12.5t13.5 37.5l1 1l12 -1q0 -30 -17 -47t-42 -17q-23 0 -68.5 22.5t-67.5 22.5q-19 0 -32.5 -13t-13.5 -37zM115 0v660h14v-660h-14z" />
    <glyph glyph-name="itilde" unicode="&#x129;" horiz-adv-x="210" 
d="M-20 610l-12 1q0 29 17 46.5t42 17.5q29 0 81.5 -22.5t74.5 -22.5q19 0 32.5 12.5t13.5 37.5l1 1l12 -1q0 -30 -17 -47t-42 -17q-27 0 -78.5 22.5t-77.5 22.5q-19 0 -32.5 -13t-13.5 -37zM98 0v516h14v-516h-14z" />
    <glyph glyph-name="Imacron" unicode="&#x12a;" horiz-adv-x="244" 
d="M23 756v13h198v-13h-198zM115 0v660h14v-660h-14z" />
    <glyph glyph-name="imacron" unicode="&#x12b;" horiz-adv-x="210" 
d="M2 631v14h206v-14h-206zM98 0v516h14v-516h-14z" />
    <glyph glyph-name="Iogonek" unicode="&#x12e;" horiz-adv-x="244" 
d="M129 0q-106 -70 -106 -140q0 -27 16.5 -44t51.5 -17q18 0 30 4l2 -1v-11q-17 -6 -33 -6q-42 0 -62.5 20t-20.5 55q0 76 108 144v656h14v-660z" />
    <glyph glyph-name="iogonek" unicode="&#x12f;" horiz-adv-x="210" 
d="M105 682q7 0 12.5 -5t5.5 -12t-5.5 -12.5t-12.5 -5.5t-12 5.5t-5 12.5t5 12t12 5zM98 4v512h14v-516q-106 -70 -106 -140q0 -27 16.5 -44t51.5 -17q18 0 30 4l2 -1v-11q-16 -6 -33 -6q-42 0 -62.5 20t-20.5 55q0 76 108 144z" />
    <glyph glyph-name="Idotaccent" unicode="&#x130;" horiz-adv-x="244" 
d="M121 747q-7 0 -12 5.5t-5 12.5t5 12t12 5t12.5 -5t5.5 -12t-5.5 -12.5t-12.5 -5.5zM115 0v660h14v-660h-14z" />
    <glyph glyph-name="dotlessi" unicode="&#x131;" horiz-adv-x="210" 
d="M98 0v516h14v-516h-14z" />
    <glyph glyph-name="IJ" unicode="&#x132;" horiz-adv-x="576" 
d="M115 0v660h14v-660h-14zM303 -3q-21 0 -45 3v13l2 1q16 -3 43 -3q75 0 113.5 46t38.5 127v476h14v-478q0 -88 -42 -136.5t-124 -48.5z" />
    <glyph glyph-name="ij" unicode="&#x133;" horiz-adv-x="436" 
d="M105 647q-7 0 -12 5.5t-5 12.5t5 12t12 5t12.5 -5t5.5 -12t-5.5 -12.5t-12.5 -5.5zM331 647q-7 0 -12 5.5t-5 12.5t5 12t12 5t12.5 -5t5.5 -12t-5.5 -12.5t-12.5 -5.5zM98 0v516h14v-516h-14zM191 -167q-45 0 -79 13v13l2 1q37 -13 77 -13q72 0 102.5 43t30.5 138v488h14
v-489q0 -101 -34.5 -147.5t-112.5 -46.5z" />
    <glyph glyph-name="Kcommaaccent" unicode="&#x136;" horiz-adv-x="573" 
d="M146 337l419 -335l-1 -2h-21l-414 333v-333h-14v660h14v-321l396 321h19l1 -2zM292 -52l14 2l3 -3q0 -79 -28 -154h-9q21 66 21 131q0 4 -0.5 12t-0.5 12z" />
    <glyph glyph-name="kcommaaccent" unicode="&#x137;" horiz-adv-x="477" 
d="M128 267l329 -265l-1 -2h-21l-323 261v-261h-14v710h14v-438l312 244h20l1 -2zM250 -52l14 2l3 -3q0 -79 -28 -154h-9q21 66 21 131q0 4 -0.5 12t-0.5 12z" />
    <glyph glyph-name="kgreenlandic" unicode="&#x138;" horiz-adv-x="476" 
d="M128 267l328 -265l-1 -2h-21l-322 261v-261h-14v516h14v-244l311 244h20l1 -2z" />
    <glyph glyph-name="Lacute" unicode="&#x139;" horiz-adv-x="495" 
d="M218 802l-2 -5l-171 -95l-5 9l173 102zM129 14h351v-14h-365v660h14v-646z" />
    <glyph glyph-name="lacute" unicode="&#x13a;" horiz-adv-x="229" 
d="M19 742l-5 9l173 102l5 -11l-2 -5zM169 -7q-40 0 -56.5 18.5t-16.5 56.5v642h14v-632q0 -39 13 -55t47 -16q22 0 40 15l2 -1v-14q-17 -14 -43 -14z" />
    <glyph glyph-name="Lcommaaccent" unicode="&#x13b;" horiz-adv-x="495" 
d="M129 14h351v-14h-365v660h14v-646zM299 -52l14 2l3 -3q0 -79 -28 -154h-9q21 66 21 131q0 4 -0.5 12t-0.5 12z" />
    <glyph glyph-name="lcommaaccent" unicode="&#x13c;" horiz-adv-x="229" 
d="M169 -7q-40 0 -56.5 18.5t-16.5 56.5v642h14v-632q0 -39 13 -55t47 -16q22 0 40 15l2 -1v-14q-17 -14 -43 -14zM127 -207q21 66 21 131q0 4 -0.5 12t-0.5 12l14 2l3 -3q0 -79 -28 -154h-9z" />
    <glyph glyph-name="Lcaron" unicode="&#x13d;" horiz-adv-x="496" 
d="M363 678l-15 -182h-9l9 188h10zM129 14h351v-14h-365v660h14v-646z" />
    <glyph glyph-name="lcaron" unicode="&#x13e;" horiz-adv-x="229" 
d="M188 526l9 188h10l5 -6l-15 -182h-9zM169 -7q-40 0 -56.5 18.5t-16.5 56.5v642h14v-632q0 -39 13 -55t47 -16q22 0 40 15l2 -1v-14q-17 -14 -43 -14z" />
    <glyph glyph-name="Ldot" unicode="&#x13f;" horiz-adv-x="496" 
d="M129 14h351v-14h-365v660h14v-646zM366 342q-8 0 -13 5t-5 13t5 13t13 5t13 -5t5 -13t-5 -13t-13 -5z" />
    <glyph glyph-name="ldot" unicode="&#x140;" horiz-adv-x="238" 
d="M169 -7q-40 0 -56.5 18.5t-16.5 56.5v642h14v-632q0 -39 13 -55t47 -16q22 0 40 15l2 -1v-14q-17 -14 -43 -14zM222 341q-8 0 -13 5.5t-5 12.5t5 12.5t13 5.5t13 -5.5t5 -12.5t-5 -12.5t-13 -5.5z" />
    <glyph glyph-name="Lslash" unicode="&#x141;" horiz-adv-x="496" 
d="M130 14h351v-14h-365v319l-78 -47l-2 1v13l80 48v326h14v-317l80 48h3v-14l-83 -50v-313z" />
    <glyph glyph-name="lslash" unicode="&#x142;" horiz-adv-x="279" 
d="M237 22l2 -1v-14q-17 -14 -43 -14q-40 0 -56.5 18.5t-16.5 56.5v280l-79 -48h-3v12l82 49v349h14v-340l78 47h3v-12l-81 -49v-278q0 -39 13 -55t47 -16q22 0 40 15z" />
    <glyph glyph-name="Nacute" unicode="&#x143;" horiz-adv-x="738" 
d="M291 702l-5 9l173 102l5 -11l-2 -5zM115 0v668h4l488 -638h2v630h14v-671h-1l-491 640h-2v-629h-14z" />
    <glyph glyph-name="nacute" unicode="&#x144;" horiz-adv-x="601" 
d="M383 691l-151 -123l-6 7l147 131l11 -10zM307 527q89 0 146.5 -57.5t57.5 -182.5v-287h-14v287q0 115 -54 170.5t-136 55.5q-65 0 -117.5 -37.5t-77.5 -101.5v-374h-14v516h12l2 -113q24 54 76.5 89t118.5 35z" />
    <glyph glyph-name="Ncommaaccent" unicode="&#x145;" horiz-adv-x="738" 
d="M115 0v668h4l488 -638h2v630h14v-671h-1l-491 640h-2v-629h-14zM343 -207q21 66 21 131q0 4 -0.5 12t-0.5 12l14 2l3 -3q0 -79 -28 -154h-9z" />
    <glyph glyph-name="ncommaaccent" unicode="&#x146;" horiz-adv-x="601" 
d="M307 527q89 0 146.5 -57.5t57.5 -182.5v-287h-14v287q0 115 -54 170.5t-136 55.5q-65 0 -117.5 -37.5t-77.5 -101.5v-374h-14v516h12l2 -113q24 54 76.5 89t118.5 35zM279 -52l14 2l3 -3q0 -79 -28 -154h-9q21 66 21 131q0 4 -0.5 12t-0.5 12z" />
    <glyph glyph-name="Ncaron" unicode="&#x147;" horiz-adv-x="738" 
d="M373 701l-121 107l7 8l118 -99l114 99l7 -8l-118 -107h-7zM115 0v668h4l488 -638h2v630h14v-671h-1l-491 640h-2v-629h-14z" />
    <glyph glyph-name="ncaron" unicode="&#x148;" horiz-adv-x="601" 
d="M299 570h-6l-112 128l7 6l109 -116l106 116l7 -6zM307 527q89 0 146.5 -57.5t57.5 -182.5v-287h-14v287q0 115 -54 170.5t-136 55.5q-65 0 -117.5 -37.5t-77.5 -101.5v-374h-14v516h12l2 -113q24 54 76.5 89t118.5 35z" />
    <glyph glyph-name="Eng" unicode="&#x14a;" horiz-adv-x="738" 
d="M609 660h14v-663q0 -88 -42 -136.5t-124 -48.5q-21 0 -45 3v13l1 1q18 -3 44 -3q75 0 113.5 46t38.5 127v7l-478 621h-2v-627h-14v668h4l488 -639h2v631z" />
    <glyph glyph-name="eng" unicode="&#x14b;" horiz-adv-x="601" 
d="M304 527q93 0 150 -59t57 -182v-289q0 -164 -135 -164q-19 0 -31 3v13l2 1q12 -3 29 -3q121 0 121 151v288q0 113 -53 170t-140 57q-63 0 -115 -38t-77 -101v-374h-14v516h12l2 -113q25 54 76.5 89t115.5 35z" />
    <glyph glyph-name="Omacron" unicode="&#x14c;" horiz-adv-x="794" 
d="M273 756v13h247v-13h-247zM397 -15q-144 0 -238.5 93t-94.5 250q0 158 94.5 251t238.5 93t238.5 -93t94.5 -251q0 -157 -94.5 -250t-238.5 -93zM397 -2q138 0 228 89t90 241q0 153 -90 242t-228 89t-228 -89t-90 -242q0 -152 90 -241t228 -89z" />
    <glyph glyph-name="omacron" unicode="&#x14d;" horiz-adv-x="627" 
d="M185 631v14h257v-14h-257zM312 -13q-109 0 -180.5 73.5t-71.5 198.5q0 123 71.5 195.5t180.5 72.5q110 0 182.5 -73t72.5 -196q0 -124 -72.5 -197.5t-182.5 -73.5zM312 1q105 0 172.5 69.5t67.5 188.5q0 117 -67.5 185.5t-172.5 68.5q-103 0 -170 -68.5t-67 -185.5
q0 -119 67 -188.5t170 -69.5z" />
    <glyph glyph-name="Ohungarumlaut" unicode="&#x150;" horiz-adv-x="794" 
d="M305 719l-8 5l68 126l11 -8v-5zM466 719l-8 6l68 125l11 -8v-5zM397 -15q-144 0 -238.5 93t-94.5 250q0 158 94.5 251t238.5 93t238.5 -93t94.5 -251q0 -157 -94.5 -250t-238.5 -93zM397 -2q138 0 228 89t90 241q0 153 -90 242t-228 89t-228 -89t-90 -242q0 -152 90 -241
t228 -89z" />
    <glyph glyph-name="ohungarumlaut" unicode="&#x151;" horiz-adv-x="627" 
d="M227 568l-8 6l99 139l10 -8v-5zM374 568l-8 6l99 139l10 -8v-5zM312 -13q-109 0 -180.5 73.5t-71.5 198.5q0 123 71.5 195.5t180.5 72.5q110 0 182.5 -73t72.5 -196q0 -124 -72.5 -197.5t-182.5 -73.5zM312 1q105 0 172.5 69.5t67.5 188.5q0 117 -67.5 185.5t-172.5 68.5
q-103 0 -170 -68.5t-67 -185.5q0 -119 67 -188.5t170 -69.5z" />
    <glyph glyph-name="OE" unicode="&#x152;" horiz-adv-x="919" 
d="M869 14v-14h-382q-47 -15 -99 -15q-139 0 -231 94.5t-92 253.5t92 253.5t231 94.5q49 0 96 -14h369v-14h-332q80 -36 128 -114.5t52 -188.5h130v-14h-130v-3q0 -115 -48 -197.5t-130 -121.5h346zM80 333q0 -154 87 -244.5t221 -90.5q49 0 94 14v642q-45 14 -94 14
q-134 0 -221 -90.5t-87 -244.5zM686 350q-4 113 -55 190t-135 109v-299h190zM686 333v3h-190v-319q87 32 138.5 114.5t51.5 201.5z" />
    <glyph glyph-name="oe" unicode="&#x153;" horiz-adv-x="1013" 
d="M752 527q97 0 152 -69t55 -187v-10h-416v-2q0 -124 65 -191t168 -67q90 0 157 47l2 -1v-14q-70 -46 -159 -46q-90 0 -155.5 50t-85.5 144q-21 -91 -84.5 -142.5t-150.5 -51.5q-103 0 -171 73.5t-68 198.5q0 123 68 195.5t171 72.5q86 0 150 -51t85 -140q18 89 77.5 140
t139.5 51zM300 1q99 0 163 69.5t64 188.5q0 117 -64 185.5t-163 68.5q-97 0 -160.5 -68.5t-63.5 -185.5q0 -119 63.5 -188.5t160.5 -69.5zM752 513q-87 0 -146 -64t-63 -174h401q-1 110 -51.5 174t-140.5 64z" />
    <glyph glyph-name="Racute" unicode="&#x154;" horiz-adv-x="545" 
d="M353 797l-171 -95l-5 9l173 102l5 -11zM309 297l187 -295l-1 -2h-14l-186 295q-21 -4 -48 -4h-118v-291h-14v660q80 5 140 5q104 0 156.5 -48.5t52.5 -138.5q0 -73 -43 -119.5t-112 -61.5zM239 303q92 0 151.5 45t59.5 130q0 173 -195 173q-46 0 -126 -4v-344h110z" />
    <glyph glyph-name="racute" unicode="&#x155;" horiz-adv-x="351" 
d="M297 691l-151 -123l-6 7l147 131l11 -10zM268 527q43 0 69 -14v-13l-2 -1q-24 14 -65 14q-56 0 -96.5 -30.5t-61.5 -114.5v-368h-14v516h12l2 -109q37 120 156 120z" />
    <glyph glyph-name="Rcommaaccent" unicode="&#x156;" horiz-adv-x="545" 
d="M309 297l187 -295l-1 -2h-14l-186 295q-21 -4 -48 -4h-118v-291h-14v660q80 5 140 5q104 0 156.5 -48.5t52.5 -138.5q0 -73 -43 -119.5t-112 -61.5zM239 303q92 0 151.5 45t59.5 130q0 173 -195 173q-46 0 -126 -4v-344h110zM279 -52l14 2l3 -3q0 -79 -28 -154h-9
q21 66 21 131q0 4 -0.5 12t-0.5 12z" />
    <glyph glyph-name="rcommaaccent" unicode="&#x157;" horiz-adv-x="351" 
d="M268 527q43 0 69 -14v-13l-2 -1q-24 14 -65 14q-56 0 -96.5 -30.5t-61.5 -114.5v-368h-14v516h12l2 -109q37 120 156 120zM98 -52l14 2l3 -3q0 -79 -28 -154h-9q21 66 21 131q0 4 -0.5 12t-0.5 12z" />
    <glyph glyph-name="Rcaron" unicode="&#x158;" horiz-adv-x="545" 
d="M271 701h-7l-121 107l7 8l118 -99l114 99l7 -8zM309 297l187 -295l-1 -2h-14l-186 295q-21 -4 -48 -4h-118v-291h-14v660q80 5 140 5q104 0 156.5 -48.5t52.5 -138.5q0 -73 -43 -119.5t-112 -61.5zM239 303q92 0 151.5 45t59.5 130q0 173 -195 173q-46 0 -126 -4v-344
h110z" />
    <glyph glyph-name="rcaron" unicode="&#x159;" horiz-adv-x="351" 
d="M213 570h-6l-112 128l7 6l109 -116l106 116l7 -6zM268 527q43 0 69 -14v-13l-2 -1q-24 14 -65 14q-56 0 -96.5 -30.5t-61.5 -114.5v-368h-14v516h12l2 -109q37 120 156 120z" />
    <glyph glyph-name="Sacute" unicode="&#x15a;" horiz-adv-x="511" 
d="M184 702l-5 9l173 102l5 -11l-2 -5zM247 -15q-117 0 -196 57v16l2 1q41 -30 85 -44.5t109 -14.5q87 0 139 42t52 110q0 39 -13.5 69t-40.5 52t-55.5 37t-70.5 31q-86 32 -134 70.5t-48 104.5q0 75 55.5 115.5t139.5 40.5q97 0 163 -39v-14l-2 -1q-63 40 -161 40
q-78 0 -129 -36.5t-51 -105.5q0 -26 10.5 -48t25 -37.5t40.5 -31t47 -24.5t53 -22q43 -17 71.5 -32t57.5 -38.5t43 -56t14 -74.5q0 -76 -57.5 -121.5t-148.5 -45.5z" />
    <glyph glyph-name="sacute" unicode="&#x15b;" horiz-adv-x="463" 
d="M169 568l-6 7l147 131l11 -10l-1 -5zM212 -12q-103 0 -161 42v16l2 1q62 -44 159 -44q84 0 135 32.5t51 94.5q0 56 -37.5 82.5t-125.5 47.5q-39 9 -65 18t-52.5 24.5t-39.5 38t-13 52.5q0 62 51 97.5t132 35.5q80 0 138 -26v-14l-2 -1q-64 27 -136 27q-74 0 -121 -31.5
t-47 -87.5q0 -27 12.5 -47t38 -33.5t49.5 -21.5t62 -18q92 -23 131.5 -52.5t39.5 -90.5q0 -69 -55 -105.5t-146 -36.5z" />
    <glyph glyph-name="Scedilla" unicode="&#x15e;" horiz-adv-x="511" 
d="M453 152q0 -73 -53.5 -118t-139.5 -49l-27 -48q17 5 39 5q34 0 54 -18.5t20 -54.5q0 -42 -26.5 -63.5t-71.5 -21.5q-33 0 -58 11v13l2 1q23 -11 56 -11q38 0 61 17.5t23 53.5q0 29 -16.5 44t-43.5 15q-31 0 -56 -11l-1 2v12l31 54q-116 0 -195 57v16l2 1q41 -30 85 -44.5
t109 -14.5q87 0 139 42t52 110q0 39 -13.5 69t-40.5 52t-55.5 37t-70.5 31q-86 32 -134 70.5t-48 104.5q0 75 55.5 115.5t139.5 40.5q97 0 163 -39v-14l-2 -1q-63 40 -161 40q-78 0 -129 -36.5t-51 -105.5q0 -26 10.5 -48t25 -37.5t40.5 -31t47 -24.5t53 -22
q43 -17 71.5 -32t57.5 -38.5t43 -56t14 -74.5z" />
    <glyph glyph-name="scedilla" unicode="&#x15f;" horiz-adv-x="463" 
d="M413 130q0 -64 -48 -100t-129 -41l-29 -52q17 5 39 5q34 0 54 -18.5t20 -54.5q0 -42 -26.5 -63.5t-71.5 -21.5q-33 0 -58 11v13l2 1q23 -11 56 -11q38 0 61 17.5t23 53.5q0 29 -16.5 44t-43.5 15q-31 0 -56 -11l-1 2v12l32 57h-9q-103 0 -161 42v16l2 1q62 -44 159 -44
q84 0 135 32.5t51 94.5q0 56 -37.5 82.5t-125.5 47.5q-39 9 -65 18t-52.5 24.5t-39.5 38t-13 52.5q0 62 51 97.5t132 35.5q80 0 138 -26v-14l-2 -1q-64 27 -136 27q-74 0 -121 -31.5t-47 -87.5q0 -27 12.5 -47t38 -33.5t49.5 -21.5t62 -18q92 -23 131.5 -52.5t39.5 -90.5z
" />
    <glyph glyph-name="Scaron" unicode="&#x160;" horiz-adv-x="511" 
d="M266 701l-121 107l7 8l118 -99l114 99l7 -8l-118 -107h-7zM247 -15q-117 0 -196 57v16l2 1q41 -30 85 -44.5t109 -14.5q87 0 139 42t52 110q0 39 -13.5 69t-40.5 52t-55.5 37t-70.5 31q-86 32 -134 70.5t-48 104.5q0 75 55.5 115.5t139.5 40.5q97 0 163 -39v-14l-2 -1
q-63 40 -161 40q-78 0 -129 -36.5t-51 -105.5q0 -26 10.5 -48t25 -37.5t40.5 -31t47 -24.5t53 -22q43 -17 71.5 -32t57.5 -38.5t43 -56t14 -74.5q0 -76 -57.5 -121.5t-148.5 -45.5z" />
    <glyph glyph-name="scaron" unicode="&#x161;" horiz-adv-x="463" 
d="M230 570l-112 128l7 6l109 -116l106 116l7 -6l-111 -128h-6zM212 -12q-103 0 -161 42v16l2 1q62 -44 159 -44q84 0 135 32.5t51 94.5q0 56 -37.5 82.5t-125.5 47.5q-39 9 -65 18t-52.5 24.5t-39.5 38t-13 52.5q0 62 51 97.5t132 35.5q80 0 138 -26v-14l-2 -1
q-64 27 -136 27q-74 0 -121 -31.5t-47 -87.5q0 -27 12.5 -47t38 -33.5t49.5 -21.5t62 -18q92 -23 131.5 -52.5t39.5 -90.5q0 -69 -55 -105.5t-146 -36.5z" />
    <glyph glyph-name="uni0162" unicode="&#x162;" horiz-adv-x="525" 
d="M270 647v-647l-35 -63q17 5 39 5q34 0 54 -18.5t20 -54.5q0 -42 -26.5 -63.5t-71.5 -21.5q-33 0 -58 11v13l2 1q23 -11 56 -11q38 0 61 17.5t23 53.5q0 29 -16.5 44t-43.5 15q-31 0 -56 -11l-1 2v12l39 69v647h-239v13h491v-13h-238z" />
    <glyph glyph-name="uni0163" unicode="&#x163;" horiz-adv-x="378" 
d="M278 -4h-12l-33 -59q17 5 39 5q34 0 54 -18.5t20 -54.5q0 -42 -26.5 -63.5t-71.5 -21.5q-33 0 -58 11v13l2 1q23 -11 56 -11q38 0 61 17.5t23 53.5q0 29 -16.5 44t-43.5 15q-31 0 -56 -11l-1 2v12l38 66q-101 12 -101 128v377h-119v14h119v129l12 3l2 -1v-131h202v-14
h-202v-376q0 -59 27 -87.5t85 -28.5q57 0 94 28l2 -1v-13q-37 -28 -96 -28z" />
    <glyph glyph-name="Tcaron" unicode="&#x164;" horiz-adv-x="525" 
d="M268 701h-7l-121 107l7 8l118 -99l114 99l7 -8zM508 660v-13h-238v-647h-14v647h-239v13h491z" />
    <glyph glyph-name="tcaron" unicode="&#x165;" horiz-adv-x="325" 
d="M279 769l-15 -153h-9l9 159h10zM372 38l2 -1v-13q-37 -28 -96 -28q-64 0 -95 31.5t-31 97.5v377h-119v14h119v129l12 3l2 -1v-131h202v-14h-202v-376q0 -59 27 -87.5t85 -28.5q57 0 94 28z" />
    <glyph glyph-name="Tbar" unicode="&#x166;" horiz-adv-x="533" 
d="M512 647h-238v-310h106v-13h-106v-324h-14v324h-107v13h107v310h-239v13h491v-13z" />
    <glyph glyph-name="tbar" unicode="&#x167;" horiz-adv-x="378" 
d="M372 38l2 -1v-13q-37 -28 -96 -28q-64 0 -95 31.5t-31 97.5v167h-97v13h97v197h-119v14h119v129l12 3l2 -1v-131h202v-14h-202v-197h116v-13h-116v-166q0 -59 27 -87.5t85 -28.5q57 0 94 28z" />
    <glyph glyph-name="Utilde" unicode="&#x168;" horiz-adv-x="708" 
d="M239 724l-12 2q0 28 17 45.5t42 17.5q26 0 71 -22.5t65 -22.5q19 0 32.5 12.5t13.5 37.5l1 1l12 -1q0 -30 -17 -47t-42 -17q-23 0 -68.5 22.5t-67.5 22.5q-19 0 -32.5 -13t-13.5 -37zM354 -15q-118 0 -183.5 68t-65.5 192v415h14v-414q0 -119 62 -182.5t173 -63.5
t173 63.5t62 182.5v414h14v-415q0 -124 -65.5 -192t-183.5 -68z" />
    <glyph glyph-name="utilde" unicode="&#x169;" horiz-adv-x="584" 
d="M167 611l-1 -1l-12 1q0 29 17 46.5t42 17.5q29 0 81.5 -22.5t74.5 -22.5q19 0 32.5 12.5t13.5 37.5l1 1l12 -1q0 -30 -17 -47t-42 -17q-27 0 -78.5 22.5t-77.5 22.5q-19 0 -32.5 -13t-13.5 -37zM472 516h14v-516h-12l-2 97q-25 -48 -74 -78t-115 -30q-87 0 -139.5 53.5
t-52.5 165.5v308h14v-308q0 -103 49 -154t129 -51q64 0 113 32t76 88v393z" />
    <glyph glyph-name="Umacron" unicode="&#x16a;" horiz-adv-x="708" 
d="M230 756v13h247v-13h-247zM354 -15q-118 0 -183.5 68t-65.5 192v415h14v-414q0 -119 62 -182.5t173 -63.5t173 63.5t62 182.5v414h14v-415q0 -124 -65.5 -192t-183.5 -68z" />
    <glyph glyph-name="umacron" unicode="&#x16b;" horiz-adv-x="584" 
d="M419 645v-14h-257v14h257zM472 516h14v-516h-12l-2 97q-25 -48 -74 -78t-115 -30q-87 0 -139.5 53.5t-52.5 165.5v308h14v-308q0 -103 49 -154t129 -51q64 0 113 32t76 88v393z" />
    <glyph glyph-name="Uring" unicode="&#x16e;" horiz-adv-x="708" 
d="M354 677q-30 0 -50 20t-20 50t19.5 50t50.5 20t50.5 -20t19.5 -50t-19.5 -50t-50.5 -20zM354 690q25 0 41 16.5t16 40.5t-16 41t-41 17q-24 0 -40.5 -17t-16.5 -41t16.5 -40.5t40.5 -16.5zM354 -15q-118 0 -183.5 68t-65.5 192v415h14v-414q0 -119 62 -182.5t173 -63.5
t173 63.5t62 182.5v414h14v-415q0 -124 -65.5 -192t-183.5 -68z" />
    <glyph glyph-name="uring" unicode="&#x16f;" horiz-adv-x="584" 
d="M291 569q-30 0 -49.5 20t-19.5 50t19.5 50t49.5 20q31 0 50.5 -20t19.5 -50t-19.5 -50t-50.5 -20zM291 696q-24 0 -40 -16.5t-16 -40.5t16 -40.5t40 -16.5q25 0 41 16.5t16 40.5t-16 40.5t-41 16.5zM472 516h14v-516h-12l-2 97q-25 -48 -74 -78t-115 -30
q-87 0 -139.5 53.5t-52.5 165.5v308h14v-308q0 -103 49 -154t129 -51q64 0 113 32t76 88v393z" />
    <glyph glyph-name="Uhungarumlaut" unicode="&#x170;" horiz-adv-x="708" 
d="M262 719l-8 5l68 126l11 -8v-5zM423 719l-8 6l68 125l11 -8v-5zM354 -15q-118 0 -183.5 68t-65.5 192v415h14v-414q0 -119 62 -182.5t173 -63.5t173 63.5t62 182.5v414h14v-415q0 -124 -65.5 -192t-183.5 -68z" />
    <glyph glyph-name="uhungarumlaut" unicode="&#x171;" horiz-adv-x="584" 
d="M305 700l-101 -132l-8 6l99 139l10 -8v-5zM452 700l-101 -132l-8 6l99 139l10 -8v-5zM472 516h14v-516h-12l-2 97q-25 -48 -74 -78t-115 -30q-87 0 -139.5 53.5t-52.5 165.5v308h14v-308q0 -103 49 -154t129 -51q64 0 113 32t76 88v393z" />
    <glyph glyph-name="Uogonek" unicode="&#x172;" horiz-adv-x="708" 
d="M589 660h14v-415q0 -99 -41.5 -162.5t-119.5 -85.5q-101 -68 -101 -137q0 -27 16.5 -44t51.5 -17q18 0 30 4l2 -1v-11q-17 -6 -33 -6q-42 0 -62.5 20t-20.5 55q0 68 86 130q-30 -5 -57 -5q-118 0 -183.5 68t-65.5 192v415h14v-414q0 -119 62 -182.5t173 -63.5t173 63.5
t62 182.5v414z" />
    <glyph glyph-name="uogonek" unicode="&#x173;" horiz-adv-x="584" 
d="M486 0q-106 -70 -106 -140q0 -27 16.5 -44t51.5 -17q18 0 30 4l2 -1v-11q-16 -6 -33 -6q-42 0 -62.5 20t-20.5 55q0 77 110 145l-2 92q-25 -48 -74 -78t-115 -30q-87 0 -139.5 53.5t-52.5 165.5v308h14v-308q0 -103 49 -154t129 -51q64 0 113 32t76 88v393h14v-516z" />
    <glyph glyph-name="Wcircumflex" unicode="&#x174;" horiz-adv-x="963" 
d="M478 799l-114 -99l-7 8l118 108h7l121 -108l-7 -8zM931 660l1 -2l-223 -677h-7l-217 634l-4 12l-4 -11l-216 -635h-6l-224 677l1 2h13l208 -629l5 -19l6 20l213 628h8l215 -630l5 -19l6 19l207 630h13z" />
    <glyph glyph-name="wcircumflex" unicode="&#x175;" horiz-adv-x="795" 
d="M396 686l-106 -117l-7 7l110 128h7l112 -128l-7 -7zM759 516l1 -2l-170 -514h-13l-173 476l-6 19l-5 -18l-174 -477h-13l-173 514l1 2h13l162 -480l4 -13l5 13l174 480h13l174 -479l4 -13l4 13l160 479h12z" />
    <glyph glyph-name="Ycircumflex" unicode="&#x176;" horiz-adv-x="566" 
d="M167 700l-7 8l118 108h7l121 -108l-7 -8l-118 99zM276 0v288l-249 370l1 2h13l242 -358l241 358h13l1 -2l-248 -370v-288h-14z" />
    <glyph glyph-name="ycircumflex" unicode="&#x177;" horiz-adv-x="504" 
d="M256 686l-106 -117l-7 7l110 128h7l112 -128l-7 -7zM476 516l1 -2l-222 -519l-69 -155h-15l-1 2l73 160l-213 512l1 2h15l205 -495l211 495h14z" />
    <glyph glyph-name="Ydieresis" unicode="&#x178;" horiz-adv-x="566" 
d="M194 747q-7 0 -12 5.5t-5 12.5t5 12t12 5t12.5 -5t5.5 -12t-5 -12.5t-13 -5.5zM372 747q-7 0 -12 5.5t-5 12.5t5 12t12 5t12.5 -5t5.5 -12t-5 -12.5t-13 -5.5zM276 0v288l-249 370l1 2h13l242 -358l241 358h13l1 -2l-248 -370v-288h-14z" />
    <glyph glyph-name="Zacute" unicode="&#x179;" horiz-adv-x="565" 
d="M199 702l-5 9l173 102l5 -11l-2 -5zM35 0v6l468 641h-462v13h486v-5l-470 -642h471v-13h-493z" />
    <glyph glyph-name="zacute" unicode="&#x17a;" horiz-adv-x="492" 
d="M334 691l-151 -123l-6 7l147 131l11 -10zM62 13h395v-13h-420v4l390 499h-386v13h409v-4z" />
    <glyph glyph-name="Zdotaccent" unicode="&#x17b;" horiz-adv-x="565" 
d="M282 747q-7 0 -12 5.5t-5 12.5t5 12t12 5t12.5 -5t5.5 -12t-5 -12.5t-13 -5.5zM35 0v6l468 641h-462v13h486v-5l-470 -642h471v-13h-493z" />
    <glyph glyph-name="zdotaccent" unicode="&#x17c;" horiz-adv-x="492" 
d="M246 647q-7 0 -12 5.5t-5 12.5t5 12t12 5t12.5 -5t5.5 -12t-5 -12.5t-13 -5.5zM62 13h395v-13h-420v4l390 499h-386v13h409v-4z" />
    <glyph glyph-name="Zcaron" unicode="&#x17d;" horiz-adv-x="565" 
d="M281 701l-121 107l7 8l118 -99l114 99l7 -8l-118 -107h-7zM35 0v6l468 641h-462v13h486v-5l-470 -642h471v-13h-493z" />
    <glyph glyph-name="zcaron" unicode="&#x17e;" horiz-adv-x="492" 
d="M250 570h-6l-112 128l7 6l109 -116l106 116l7 -6zM62 13h395v-13h-420v4l390 499h-386v13h409v-4z" />
    <glyph glyph-name="uni01EA" unicode="&#x1ea;" horiz-adv-x="794" 
d="M454 -11q-105 -69 -105 -139q0 -27 16.5 -44t51.5 -17q18 0 30 4l2 -1v-11q-17 -6 -33 -6q-42 0 -62.5 20t-20.5 55q0 71 96 136q-11 -1 -32 -1q-144 0 -238.5 93t-94.5 250q0 158 94.5 251t238.5 93t238.5 -93t94.5 -251q0 -141 -77 -230.5t-199 -108.5zM79 328
q0 -152 90 -241t228 -89t228 89t90 241q0 153 -90 242t-228 89t-228 -89t-90 -242z" />
    <glyph glyph-name="uni01EB" unicode="&#x1eb;" horiz-adv-x="627" 
d="M386 -3q-101 -68 -101 -137q0 -27 16.5 -44t51.5 -17q18 0 30 4l2 -1v-11q-17 -6 -33 -6q-42 0 -62.5 20t-20.5 55q0 67 87 130q-21 -3 -44 -3q-109 0 -180.5 73.5t-71.5 198.5q0 123 71.5 195.5t180.5 72.5q110 0 182.5 -73t72.5 -196q0 -101 -49.5 -170t-131.5 -91z
M75 259q0 -119 67 -188.5t170 -69.5q105 0 172.5 69.5t67.5 188.5q0 117 -67.5 185.5t-172.5 68.5q-103 0 -170 -68.5t-67 -185.5z" />
    <glyph glyph-name="AEacute" unicode="&#x1fc;" horiz-adv-x="802" 
d="M587 797l-171 -95l-5 9l173 102l5 -11zM441 14h310v-14h-324v245h-256l-159 -245h-17l432 660h308v-14h-294v-296h275v-14h-275v-322zM180 259h247v379z" />
    <glyph glyph-name="aeacute" unicode="&#x1fd;" horiz-adv-x="912" 
d="M536 691l-151 -123l-6 7l147 131l11 -10zM645 527q100 0 157 -69t57 -187v-10h-428v-2q0 -124 67 -191t173 -67q91 0 161 47l2 -1v-14q-72 -46 -163 -46q-79 0 -140.5 37t-91.5 107q-32 -66 -93 -104t-142 -38q-64 0 -110 34.5t-46 101.5q0 39 21 67.5t53 44t83.5 24.5
t98.5 11.5t112 2.5v52q0 92 -49.5 139t-131.5 47q-94 0 -143 -37l-2 1v13q45 37 145 37q81 0 133.5 -42t60.5 -129q23 81 81.5 126t134.5 45zM645 513q-89 0 -149.5 -64t-64.5 -174h412q-1 110 -53 174t-145 64zM433 147q-17 51 -17 112v2q-63 0 -107.5 -2t-94.5 -10
t-80.5 -22.5t-50.5 -40t-20 -61.5q0 -59 41.5 -90.5t98.5 -31.5q78 0 137.5 36.5t92.5 107.5z" />
    <glyph glyph-name="Oslashacute" unicode="&#x1fe;" horiz-adv-x="794" 
d="M487 797l-171 -95l-5 9l173 102l5 -11zM730 677v-3l-92 -98q92 -95 92 -248q0 -157 -94.5 -250t-238.5 -93q-140 0 -232 87l-84 -90h-17v3l91 97q-91 93 -91 246q0 158 94.5 251t238.5 93q140 0 232 -87l87 92h14zM79 328q0 -146 85 -236l456 483q-87 84 -223 84
q-138 0 -228 -89t-90 -242zM715 328q0 149 -86 238l-455 -484q87 -84 223 -84q138 0 228 89t90 241z" />
    <glyph glyph-name="oslashacute" unicode="&#x1ff;" horiz-adv-x="629" 
d="M403 691l-151 -123l-6 7l147 131l11 -10zM496 454q72 -74 72 -196q0 -124 -72.5 -197.5t-182.5 -73.5q-101 0 -170 63l-54 -62h-15v3l60 68q-73 76 -73 200q0 123 71.5 195.5t180.5 72.5q104 0 173 -64l55 63h15v-3zM76 259q0 -117 67 -189l334 383q-65 60 -164 60
q-103 0 -170 -68.5t-67 -185.5zM313 1q105 0 172.5 69.5t67.5 188.5q0 115 -66 184l-334 -382q63 -60 160 -60z" />
    <glyph glyph-name="Scommaaccent" unicode="&#x218;" horiz-adv-x="511" 
d="M247 -15q-117 0 -196 57v16l2 1q41 -30 85 -44.5t109 -14.5q87 0 139 42t52 110q0 39 -13.5 69t-40.5 52t-55.5 37t-70.5 31q-86 32 -134 70.5t-48 104.5q0 75 55.5 115.5t139.5 40.5q97 0 163 -39v-14l-2 -1q-63 40 -161 40q-78 0 -129 -36.5t-51 -105.5q0 -26 10.5 -48
t25 -37.5t40.5 -31t47 -24.5t53 -22q43 -17 71.5 -32t57.5 -38.5t43 -56t14 -74.5q0 -76 -57.5 -121.5t-148.5 -45.5zM232 -207q21 66 21 131q0 4 -0.5 12t-0.5 12l14 2l3 -3q0 -79 -28 -154h-9z" />
    <glyph glyph-name="scommaaccent" unicode="&#x219;" horiz-adv-x="463" 
d="M212 -12q-103 0 -161 42v16l2 1q62 -44 159 -44q84 0 135 32.5t51 94.5q0 56 -37.5 82.5t-125.5 47.5q-39 9 -65 18t-52.5 24.5t-39.5 38t-13 52.5q0 62 51 97.5t132 35.5q80 0 138 -26v-14l-2 -1q-64 27 -136 27q-74 0 -121 -31.5t-47 -87.5q0 -27 12.5 -47t38 -33.5
t49.5 -21.5t62 -18q92 -23 131.5 -52.5t39.5 -90.5q0 -69 -55 -105.5t-146 -36.5zM206 -207q21 66 21 131q0 4 -0.5 12t-0.5 12l14 2l3 -3q0 -79 -28 -154h-9z" />
    <glyph glyph-name="uni021A" unicode="&#x21a;" horiz-adv-x="525" 
d="M17 660h491v-13h-238v-647h-14v647h-239v13zM254 -52l14 2l3 -3q0 -79 -28 -154h-9q21 66 21 131q0 4 -0.5 12t-0.5 12z" />
    <glyph glyph-name="uni021B" unicode="&#x21b;" horiz-adv-x="378" 
d="M372 38l2 -1v-13q-37 -28 -96 -28q-64 0 -95 31.5t-31 97.5v377h-119v14h119v129l12 3l2 -1v-131h202v-14h-202v-376q0 -59 27 -87.5t85 -28.5q57 0 94 28zM252 -52l14 2l3 -3q0 -79 -28 -154h-9q21 66 21 131q0 4 -0.5 12t-0.5 12z" />
    <glyph glyph-name="uni0237" unicode="&#x237;" horiz-adv-x="226" 
d="M-7 -167q-19 0 -31 3v13l2 1q12 -3 29 -3q121 0 121 151v518h14v-519q0 -164 -135 -164z" />
    <glyph glyph-name="circumflex" unicode="&#x2c6;" horiz-adv-x="277" 
d="M31 569l-7 7l110 128h7l112 -128l-7 -7l-109 117z" />
    <glyph glyph-name="caron" unicode="&#x2c7;" horiz-adv-x="277" 
d="M136 531l-111 128l6 6l108 -115l107 115l6 -6l-110 -128h-6z" />
    <glyph glyph-name="breve" unicode="&#x2d8;" horiz-adv-x="277" 
d="M138 579q-51 0 -82 32t-31 88l10 1l1 -1q2 -49 30.5 -77.5t71.5 -28.5q45 0 73.5 28.5t29.5 76.5l1 2l10 -1q0 -56 -31.5 -88t-82.5 -32z" />
    <glyph glyph-name="dotaccent" unicode="&#x2d9;" horiz-adv-x="249" 
d="M124 647q-7 0 -12 5.5t-5 12.5t5 12t12 5t12.5 -5t5.5 -12t-5 -12.5t-13 -5.5z" />
    <glyph glyph-name="ring" unicode="&#x2da;" horiz-adv-x="328" 
d="M134 569q-30 0 -49.5 20t-19.5 50t19.5 50t49.5 20q31 0 50.5 -20t19.5 -50t-19.5 -50t-50.5 -20zM134 582q25 0 41 16.5t16 40.5t-16 40.5t-41 16.5q-24 0 -40 -16.5t-16 -40.5t16 -40.5t40 -16.5z" />
    <glyph glyph-name="ogonek" unicode="&#x2db;" horiz-adv-x="164" 
d="M104 -215q-42 0 -62.5 20t-20.5 55q0 77 111 146l11 -6q-106 -70 -106 -140q0 -27 16.5 -44t51.5 -17q18 0 30 4l2 -1v-11q-17 -6 -33 -6z" />
    <glyph glyph-name="tilde" unicode="&#x2dc;" horiz-adv-x="304" 
d="M27 610l-12 1q0 29 17 46.5t42 17.5q29 0 81.5 -22.5t74.5 -22.5q19 0 32.5 12.5t13.5 37.5l1 1l12 -1q0 -30 -17 -47t-42 -17q-27 0 -78.5 22.5t-77.5 22.5q-19 0 -32.5 -13t-13.5 -37z" />
    <glyph glyph-name="hungarumlaut" unicode="&#x2dd;" horiz-adv-x="296" 
d="M28 568l-8 6l99 139l10 -8v-5zM175 568l-8 6l99 139l10 -8v-5z" />
    <glyph glyph-name="gravecomb" unicode="&#x300;" 
d="M-36 568l-151 123l-1 5l11 10l147 -131z" />
    <glyph glyph-name="acutecomb" unicode="&#x301;" 
d="M-182 568l-6 7l147 131l11 -10l-1 -5z" />
    <glyph glyph-name="uni0302" unicode="&#x302;" 
d="M-246 569l-7 7l110 128h7l112 -128l-7 -7l-109 117z" />
    <glyph glyph-name="tildecomb" unicode="&#x303;" 
d="M-277 610l-12 1q0 29 17 46.5t42 17.5q29 0 81.5 -22.5t74.5 -22.5q19 0 32.5 12.5t13.5 37.5l1 1l12 -1q0 -30 -17 -47t-42 -17q-27 0 -78.5 22.5t-77.5 22.5q-19 0 -32.5 -13t-13.5 -37z" />
    <glyph glyph-name="uni0304" unicode="&#x304;" 
d="M-287 631v14h257v-14h-257z" />
    <glyph glyph-name="uni0306" unicode="&#x306;" 
d="M-139 579q-51 0 -82 32t-31 88l10 1l1 -1q2 -49 30.5 -77.5t71.5 -28.5q45 0 73.5 28.5t29.5 76.5l1 2l10 -1q0 -56 -31.5 -88t-82.5 -32z" />
    <glyph glyph-name="uni0307" unicode="&#x307;" 
d="M-125 647q-7 0 -12 5.5t-5 12.5t5 12t12 5t12.5 -5t5.5 -12t-5.5 -12.5t-12.5 -5.5z" />
    <glyph glyph-name="uni0308" unicode="&#x308;" 
d="M-195 646q-7 0 -12 5.5t-5 12.5t5 12t12 5t12.5 -5t5.5 -12q0 -8 -5.5 -13t-12.5 -5zM-35 646q-7 0 -12 5.5t-5 12.5t5 12t12 5t12.5 -5t5.5 -12q0 -8 -5.5 -13t-12.5 -5z" />
    <glyph glyph-name="uni030A" unicode="&#x30a;" 
d="M-134 569q-30 0 -49.5 20t-19.5 50t19.5 50t49.5 20q31 0 50.5 -20t19.5 -50t-19.5 -50t-50.5 -20zM-134 582q25 0 41 16.5t16 40.5t-16 40.5t-41 16.5q-24 0 -40 -16.5t-16 -40.5t16 -40.5t40 -16.5z" />
    <glyph glyph-name="uni030B" unicode="&#x30b;" 
d="M-268 568l-8 6l99 139l10 -8v-5zM-121 568l-8 6l99 139l10 -8v-5z" />
    <glyph glyph-name="uni030C" unicode="&#x30c;" 
d="M-141 570l-112 128l7 6l109 -116l106 116l7 -6l-111 -128h-6z" />
    <glyph glyph-name="uni0326" unicode="&#x326;" 
d="M-98 -207q21 66 21 131q0 4 -0.5 12t-0.5 12l14 2l3 -3q0 -79 -28 -154h-9z" />
    <glyph glyph-name="uni0327" unicode="&#x327;" 
d="M-122 -216q-33 0 -58 11v13l2 1q23 -11 56 -11q38 0 61 17.5t23 53.5q0 29 -16.5 44t-43.5 15q-31 0 -56 -11l-1 2v12l39 69h14l-35 -63q17 5 39 5q34 0 54 -18.5t20 -54.5q0 -42 -26.5 -63.5t-71.5 -21.5z" />
    <glyph glyph-name="uni0328" unicode="&#x328;" 
d="M-60 -215q-42 0 -62.5 20t-20.5 55q0 77 111 146l11 -6q-106 -70 -106 -140q0 -27 16.5 -44t51.5 -17q18 0 30 4l2 -1v-11q-17 -6 -33 -6z" />
    <glyph glyph-name="uni0335" unicode="&#x335;" 
d="M-252 240v13h227v-13h-227z" />
    <glyph glyph-name="uni0336" unicode="&#x336;" 
d="M-536 330v13h511v-13h-511z" />
    <glyph glyph-name="uni0337" unicode="&#x337;" 
d="M-202 300v12l174 105h3v-12l-174 -105h-3z" />
    <glyph glyph-name="uni0338" unicode="&#x338;" 
d="M-540 -13v3l467 535h15v-3l-467 -535h-15z" />
    <glyph glyph-name="Wgrave" unicode="&#x1e80;" horiz-adv-x="963" 
d="M555 702l-172 95l-2 5l5 11l173 -102zM931 660l1 -2l-223 -677h-7l-217 634l-4 12l-4 -11l-216 -635h-6l-224 677l1 2h13l208 -629l5 -19l6 20l213 628h8l215 -630l5 -19l6 19l207 630h13z" />
    <glyph glyph-name="wgrave" unicode="&#x1e81;" horiz-adv-x="795" 
d="M454 568l-151 123l-1 5l11 10l147 -131zM759 516l1 -2l-170 -514h-13l-173 476l-6 19l-5 -18l-174 -477h-13l-173 514l1 2h13l162 -480l4 -13l5 13l174 480h13l174 -479l4 -13l4 13l160 479h12z" />
    <glyph glyph-name="Wacute" unicode="&#x1e82;" horiz-adv-x="963" 
d="M567 797l-171 -95l-5 9l173 102l5 -11zM931 660l1 -2l-223 -677h-7l-217 634l-4 12l-4 -11l-216 -635h-6l-224 677l1 2h13l208 -629l5 -19l6 20l213 628h8l215 -630l5 -19l6 19l207 630h13z" />
    <glyph glyph-name="wacute" unicode="&#x1e83;" horiz-adv-x="795" 
d="M485 691l-151 -123l-6 7l147 131l11 -10zM759 516l1 -2l-170 -514h-13l-173 476l-6 19l-5 -18l-174 -477h-13l-173 514l1 2h13l162 -480l4 -13l5 13l174 480h13l174 -479l4 -13l4 13l160 479h12z" />
    <glyph glyph-name="Wdieresis" unicode="&#x1e84;" horiz-adv-x="963" 
d="M391 747q-7 0 -12 5.5t-5 12.5t5 12t12 5t12.5 -5t5.5 -12t-5.5 -12.5t-12.5 -5.5zM569 747q-7 0 -12 5.5t-5 12.5t5 12t12 5t12.5 -5t5.5 -12t-5.5 -12.5t-12.5 -5.5zM931 660l1 -2l-223 -677h-7l-217 634l-4 12l-4 -11l-216 -635h-6l-224 677l1 2h13l208 -629l5 -19
l6 20l213 628h8l215 -630l5 -19l6 19l207 630h13z" />
    <glyph glyph-name="wdieresis" unicode="&#x1e85;" horiz-adv-x="795" 
d="M316 646q-7 0 -12 5.5t-5 12.5t5 12t12 5t12.5 -5t5.5 -12q0 -8 -5 -13t-13 -5zM476 646q-7 0 -12 5.5t-5 12.5t5 12t12 5t12.5 -5t5.5 -12q0 -8 -5 -13t-13 -5zM759 516l1 -2l-170 -514h-13l-173 476l-6 19l-5 -18l-174 -477h-13l-173 514l1 2h13l162 -480l4 -13l5 13
l174 480h13l174 -479l4 -13l4 13l160 479h12z" />
    <glyph glyph-name="Ygrave" unicode="&#x1ef2;" horiz-adv-x="566" 
d="M358 702l-172 95l-2 5l5 11l173 -102zM276 0v288l-249 370l1 2h13l242 -358l241 358h13l1 -2l-248 -370v-288h-14z" />
    <glyph glyph-name="ygrave" unicode="&#x1ef3;" horiz-adv-x="504" 
d="M314 568l-151 123l-1 5l11 10l147 -131zM476 516l1 -2l-222 -519l-69 -155h-15l-1 2l73 160l-213 512l1 2h15l205 -495l211 495h14z" />
    <glyph glyph-name="uni1EF8" unicode="&#x1ef8;" horiz-adv-x="566" 
d="M168 724l-12 2q0 28 17 45.5t42 17.5q26 0 71.5 -22.5t64.5 -22.5t32.5 12.5t13.5 37.5l1 1l12 -1q0 -30 -17 -47t-42 -17q-23 0 -68.5 22.5t-67.5 22.5q-19 0 -32.5 -13t-13.5 -37zM276 0v288l-249 370l1 2h13l242 -358l241 358h13l1 -2l-248 -370v-288h-14z" />
    <glyph glyph-name="uni1EF9" unicode="&#x1ef9;" horiz-adv-x="504" 
d="M133 611l-1 -1l-12 1q0 29 17 46.5t42 17.5q29 0 81.5 -22.5t74.5 -22.5q19 0 32.5 12.5t13.5 37.5l1 1l12 -1q0 -30 -17 -47t-42 -17q-27 0 -78.5 22.5t-77.5 22.5q-19 0 -32.5 -13t-13.5 -37zM476 516l1 -2l-222 -519l-69 -155h-15l-1 2l73 160l-213 512l1 2h15
l205 -495l211 495h14z" />
    <glyph glyph-name="endash" unicode="&#x2013;" horiz-adv-x="492" 
d="M82 272v14h328v-14h-328z" />
    <glyph glyph-name="emdash" unicode="&#x2014;" horiz-adv-x="842" 
d="M82 272v14h678v-14h-678z" />
    <glyph glyph-name="quoteleft" unicode="&#x2018;" horiz-adv-x="175" 
d="M120 687q-14 -82 -14 -150q0 -16 1 -21l-13 -2l-3 3q0 84 19 170h10z" />
    <glyph glyph-name="quoteright" unicode="&#x2019;" horiz-adv-x="159" 
d="M59 513q14 82 14 150q0 16 -1 21l13 2l3 -3q0 -84 -19 -170h-10z" />
    <glyph glyph-name="quotesinglbase" unicode="&#x201a;" horiz-adv-x="163" 
d="M48 -122q14 82 14 150q0 16 -1 21l13 2l3 -3q0 -84 -19 -170h-10z" />
    <glyph glyph-name="quotedblleft" unicode="&#x201c;" horiz-adv-x="287" 
d="M120 687q-14 -82 -14 -150q0 -16 1 -21l-13 -2l-3 3q0 84 19 170h10zM232 687q-14 -82 -14 -150q0 -16 1 -21l-13 -2l-3 3q0 84 19 170h10z" />
    <glyph glyph-name="quotedblright" unicode="&#x201d;" horiz-adv-x="284" 
d="M59 513q14 82 14 150q0 16 -1 21l13 2l3 -3q0 -84 -19 -170h-10zM171 513q14 82 14 150q0 16 -1 21l13 2l3 -3q0 -84 -19 -170h-10z" />
    <glyph glyph-name="quotedblbase" unicode="&#x201e;" horiz-adv-x="274" 
d="M48 -122q14 82 14 150q0 16 -1 21l13 2l3 -3q0 -84 -19 -170h-10zM160 -122q14 82 14 150q0 16 -1 21l13 2l3 -3q0 -84 -19 -170h-10z" />
    <glyph glyph-name="dagger" unicode="&#x2020;" horiz-adv-x="454" 
d="M233 504l156 2v-15l-154 2l-3 -529h-10l-3 529l-155 -2v15l157 -2l-2 166h16z" />
    <glyph glyph-name="daggerdbl" unicode="&#x2021;" horiz-adv-x="454" 
d="M219 -36l2 167l-156 -2v15l155 -3l2 176l-2 176l-156 -2v15l157 -2l-2 166h16l-2 -166l156 2v-15l-155 2l-2 -176l2 -176l156 3v-15l-157 2l2 -167h-16z" />
    <glyph glyph-name="bullet" unicode="&#x2022;" horiz-adv-x="350" 
d="M175 217q-29 0 -49.5 20.5t-20.5 49.5t20.5 49.5t49.5 20.5t49.5 -20.5t20.5 -49.5t-20.5 -49.5t-49.5 -20.5z" />
    <glyph glyph-name="ellipsis" unicode="&#x2026;" horiz-adv-x="468" 
d="M84 0q-8 0 -13 5t-5 13t5 13t13 5t13 -5t5 -13t-5 -13t-13 -5zM234 0q-8 0 -13 5t-5 13t5 13t13 5t13 -5t5 -13t-5 -13t-13 -5zM385 0q-7 0 -12.5 5t-5.5 13t5.5 13t12.5 5t12.5 -5t5.5 -13t-5.5 -13t-12.5 -5z" />
    <glyph glyph-name="perthousand" unicode="&#x2030;" horiz-adv-x="990" 
d="M192 367q-65 0 -104.5 39.5t-39.5 109.5t39.5 110t104.5 40q64 0 103.5 -40.5t39.5 -109.5t-39.5 -109t-103.5 -40zM110 9l436 645h16l-436 -645h-16zM192 380q57 0 92.5 36.5t35.5 99.5t-35.5 100t-92.5 37q-58 0 -93.5 -37t-35.5 -100t35.5 -99.5t93.5 -36.5zM493 -5
q-65 0 -104.5 39.5t-39.5 108.5q0 70 39.5 110.5t104.5 40.5q64 0 103 -40.5t39 -110.5q0 -69 -39 -108.5t-103 -39.5zM810 -5q-65 0 -104.5 39.5t-39.5 108.5q0 70 39.5 110.5t104.5 40.5q64 0 103.5 -40.5t39.5 -110.5q0 -69 -39.5 -108.5t-103.5 -39.5zM493 8q57 0 92 36
t35 99q0 64 -35 101t-92 37q-59 0 -94 -37t-35 -101q0 -63 35 -99t94 -36zM810 8q58 0 93 36t35 99q0 64 -35 101t-93 37t-93.5 -37t-35.5 -101q0 -63 35 -99t94 -36z" />
    <glyph glyph-name="guilsinglleft" unicode="&#x2039;" horiz-adv-x="327" 
d="M235 83l-188 186l189 184h18v-4l-183 -180l182 -181v-5h-18z" />
    <glyph glyph-name="guilsinglright" unicode="&#x203a;" horiz-adv-x="327" 
d="M93 453l188 -186l-189 -184h-18v4l183 180l-182 181v5h18z" />
    <glyph glyph-name="fraction" unicode="&#x2044;" horiz-adv-x="130" 
d="M-172 -12l456 672h17l-455 -672h-18z" />
    <glyph glyph-name="Euro" unicode="&#x20ac;" horiz-adv-x="710" 
d="M641 50l2 -1l-4 -14q-45 -20 -82 -28t-96 -8q-128 0 -211 69.5t-104 187.5h-108l2 13h104q-5 35 -5 66q0 37 6 70h-78l2 13h78q24 115 108.5 182.5t206.5 67.5q106 0 179 -31l-3 -11l-2 -1q-69 30 -174 30q-116 0 -196.5 -64t-103.5 -173h325l-2 -13h-325q-6 -33 -6 -70
q0 -31 5 -66h299l-2 -13h-295q21 -112 99.5 -177.5t200.5 -65.5q94 0 180 37z" />
    <glyph glyph-name="trademark" unicode="&#x2122;" horiz-adv-x="771" 
d="M41 635v15h251v-15h-117v-285h-15v285h-119zM656 650l34 -300h-15l-31 259h-1l-124 -256h-5l-128 263h-1l-29 -266h-15l34 300h9l133 -269l130 269h9z" />
    <glyph glyph-name="minus" unicode="&#x2212;" horiz-adv-x="514" 
d="M86 286v14h342v-14h-342z" />
    <glyph glyph-name="approxequal" unicode="&#x2248;" horiz-adv-x="497" 
d="M99 340l-12 2q0 29 18.5 46t50.5 17q39 0 98 -22.5t88 -22.5q56 0 56 50l1 1l12 -1q0 -30 -18.5 -47t-50.5 -17q-35 0 -93.5 22.5t-92.5 22.5q-56 0 -56 -50zM99 166l-12 2q0 30 18.5 46.5t50.5 16.5q39 0 98 -22.5t88 -22.5q56 0 56 50l1 1l12 -1q0 -30 -18.5 -47
t-50.5 -17q-35 0 -93.5 22.5t-92.5 22.5q-56 0 -56 -50z" />
    <glyph glyph-name="notequal" unicode="&#x2260;" horiz-adv-x="514" 
d="M429 380h-110l-88 -186h198v-14h-205l-75 -160h-16l75 160h-121v14h128l88 186h-216v14h222l74 156h16l-74 -156h104v-14z" />
    <glyph glyph-name="uniF8FF" unicode="&#xf8ff;" horiz-adv-x="1451" 
d="M752 522q-26 0 -43.5 18t-17.5 43q0 26 17.5 44t43.5 18t44 -18t18 -44t-18 -43.5t-44 -17.5zM100 270q0 134 9 314h100q10 -200 10 -314h-119zM604 264q-82 0 -82 66q0 12 2 49t2 38h-22v79l119 30l1 -17h178q10 -64 10 -239h-118q0 92 3 147h-61l3 -65q4 -4 15 -4
q13 0 18 5v-74q-14 -15 -68 -15zM328 265q-92 0 -92 114q0 135 134 135q124 0 124 -117v-127h-83l-8 61q-6 -33 -23.5 -49.5t-51.5 -16.5zM834 270q0 175 10 239h80q6 -44 6 -76q2 15 6.5 30t24 33t49.5 18q42 0 58.5 -25t18.5 -81l3 -138h-114q0 26 1 56t1 37q0 29 -15 29
q-18 0 -18 -29q0 -7 1.5 -37t1.5 -56h-114zM1228 265q-122 0 -122 124q0 125 124 125q121 0 121 -123q0 -126 -123 -126zM366 345q24 0 24 30q0 26 -24 26q-22 0 -22 -26q0 -30 22 -30zM1228 345q23 0 23 30q0 26 -23 26q-21 0 -21 -26q0 -30 21 -30zM390 -50q-61 0 -88 17
v83q24 -16 70 -16q21 0 34 6t16.5 11.5t3.5 10.5q-16 -11 -49 -11q-90 0 -90 83v13h-55l3 -65q6 -4 15 -4q13 0 18 5v-73q-19 -15 -68 -15q-45 0 -63 17t-18 54q0 39 3 81h-18v80l117 29l-1 -18h177v-119q0 -16 3 -21.5t12 -5.5q16 0 16 27v119h104q10 -52 10 -138
q0 -81 -33.5 -115.5t-118.5 -34.5zM558 -44q0 142 10 282h78q7 -42 7 -76q17 81 80 81q37 0 58.5 -29t21.5 -84q0 -135 -137 -135q1 -15 1 -39h-119zM970 -5q-141 0 -141 122q0 59 32.5 92.5t92.5 33.5q55 0 85.5 -30t30.5 -86q0 -21 -3 -35h-124q11 -18 50 -18q34 0 55 12
v-75q-23 -16 -78 -16zM938 109h40q3 27 -17 27q-23 0 -23 -27zM670 72q5 0 12.5 2.5t16 11.5t8.5 23q0 23 -20 23q-22 0 -22 -31q0 -14 5 -29zM1098 -10q-24 0 -24 23t24 23t24 -23t-24 -23zM1098 -5q18 0 18 18t-18 18t-18 -18t18 -18zM1088 2v23h11q10 0 10 -7t-7 -7l6 -9
h-6l-4 9h-5v-9h-5zM1093 15h7q4 0 4 3t-4 3h-7v-6z" />
    <glyph glyph-name="i.loclTRK" horiz-adv-x="210" 
d="M105 647q-7 0 -12 5.5t-5 12.5t5 12t12 5t12.5 -5t5.5 -12t-5.5 -12.5t-12.5 -5.5zM98 0v516h14v-516h-14z" />
    <glyph glyph-name="caroncomb.alt" 
d="M-59 526l9 188h10l5 -6l-15 -182h-9z" />
    <glyph glyph-name="uni0308.case" 
d="M-221 747q-7 0 -12 5.5t-5 12.5t5 12t12 5t12.5 -5t5.5 -12t-5.5 -12.5t-12.5 -5.5zM-43 747q-7 0 -12 5.5t-5 12.5t5 12t12 5t12.5 -5t5.5 -12t-5.5 -12.5t-12.5 -5.5z" />
    <glyph glyph-name="uni0307.case" 
d="M-125 747q-7 0 -12 5.5t-5 12.5t5 12t12 5t12.5 -5t5.5 -12t-5.5 -12.5t-12.5 -5.5z" />
    <glyph glyph-name="gravecomb.case" 
d="M-29 702l-172 95l-2 5l5 11l173 -102z" />
    <glyph glyph-name="acutecomb.case" 
d="M-198 702l-5 9l173 102l5 -11l-2 -5z" />
    <glyph glyph-name="uni030B.case" 
d="M-265 719l-8 5l68 126l11 -8v-5zM-104 719l-8 6l68 125l11 -8v-5z" />
    <glyph glyph-name="uni0302.case" 
d="M-264 700l-7 8l118 108h7l121 -108l-7 -8l-118 99z" />
    <glyph glyph-name="uni030C.case" 
d="M-150 701l-121 107l7 8l118 -99l114 99l7 -8l-118 -107h-7z" />
    <glyph glyph-name="uni0306.case" 
d="M-139 703q-51 0 -82 29.5t-31 80.5l9 1q4 -44 32.5 -70.5t71.5 -26.5q46 0 75 26t30 71l9 -1q0 -51 -31.5 -80.5t-82.5 -29.5z" />
    <glyph glyph-name="uni030A.case" 
d="M-95 677q-30 0 -50 20t-20 50t19.5 50t50.5 20t50.5 -20t19.5 -50t-19.5 -50t-50.5 -20zM-95 690q25 0 41 16.5t16 40.5t-16 41t-41 17q-24 0 -40.5 -17t-16.5 -41t16.5 -40.5t40.5 -16.5z" />
    <glyph glyph-name="tildecomb.case" 
d="M-267 724l-12 2q0 28 17 45.5t42 17.5q26 0 71 -22.5t65 -22.5q19 0 32.5 12.5t13.5 37.5l1 1l12 -1q0 -30 -17 -47t-42 -17q-23 0 -68.5 22.5t-67.5 22.5q-19 0 -32.5 -13t-13.5 -37z" />
    <glyph glyph-name="uni0304.case" 
d="M-267 756v13h247v-13h-247z" />
    <glyph glyph-name="uni0337.case" 
d="M-202 263v11l174 105h3v-12l-175 -105z" />
    <glyph glyph-name="uni0338.case" 
d="M-691 -15v3l652 692h14v-3l-649 -692h-17z" />
    <glyph glyph-name="caron.alt" horiz-adv-x="89" 
d="M30 459l9 208h10l5 -6l-15 -202h-9z" />
    <glyph glyph-name="acute.case" horiz-adv-x="228" 
d="M30 702l-5 9l173 102l5 -11l-2 -5z" />
    <glyph glyph-name="breve.case" horiz-adv-x="277" 
d="M138 703q-51 0 -82 29.5t-31 80.5l9 1q4 -44 32.5 -70.5t71.5 -26.5q46 0 75 26t30 71l9 -1q0 -51 -31.5 -80.5t-82.5 -29.5z" />
    <glyph glyph-name="caron.case" horiz-adv-x="296" 
d="M146 701l-121 107l7 8l118 -99l114 99l7 -8l-118 -107h-7z" />
    <glyph glyph-name="circumflex.case" horiz-adv-x="296" 
d="M32 700l-7 8l118 108h7l121 -108l-7 -8l-118 99z" />
    <glyph glyph-name="dieresis.case" horiz-adv-x="263" 
d="M42 747q-7 0 -12 5.5t-5 12.5t5 12t12 5t12.5 -5t5.5 -12t-5 -12.5t-13 -5.5zM220 747q-7 0 -12 5.5t-5 12.5t5 12t12 5t12.5 -5t5.5 -12t-5 -12.5t-13 -5.5z" />
    <glyph glyph-name="dotaccent.case" horiz-adv-x="249" 
d="M124 747q-7 0 -12 5.5t-5 12.5t5 12t12 5t12.5 -5t5.5 -12t-5 -12.5t-13 -5.5z" />
    <glyph glyph-name="grave.case" horiz-adv-x="228" 
d="M199 702l-172 95l-2 5l5 11l173 -102z" />
    <glyph glyph-name="hungarumlaut.case" horiz-adv-x="316" 
d="M51 719l-8 5l68 126l11 -8v-5zM212 719l-8 6l68 125l11 -8v-5z" />
    <glyph glyph-name="macron.case" horiz-adv-x="357" 
d="M20 756v13h247v-13h-247z" />
    <glyph glyph-name="ring.case" horiz-adv-x="190" 
d="M95 677q-30 0 -50 20t-20 50t19.5 50t50.5 20t50.5 -20t19.5 -50t-19.5 -50t-50.5 -20zM95 690q25 0 41 16.5t16 40.5t-16 41t-41 17q-24 0 -40.5 -17t-16.5 -41t16.5 -40.5t40.5 -16.5z" />
    <glyph glyph-name="tilde.case" horiz-adv-x="304" 
d="M37 724l-12 2q0 28 17 45.5t42 17.5q26 0 71 -22.5t65 -22.5q19 0 32.5 12.5t13.5 37.5l1 1l12 -1q0 -30 -17 -47t-42 -17q-23 0 -68.5 22.5t-67.5 22.5q-19 0 -32.5 -13t-13.5 -37z" />
    <glyph glyph-name="IJacute" horiz-adv-x="579" 
d="M67 695l-5 9l173 102l5 -11l-2 -5zM405 695l-5 9l173 102l5 -11l-2 -5zM115 0v660h14v-660h-14zM307 -3q-21 0 -45 3v13l2 1q16 -3 43 -3q75 0 113.5 46t38.5 127v476h14v-478q0 -88 -42 -136.5t-124 -48.5z" />
    <glyph glyph-name="ijacute" horiz-adv-x="436" 
d="M43 568l-6 7l147 131l11 -10l-1 -5zM249 568l-6 7l147 131l11 -10l-1 -5zM98 0v516h14v-516h-14zM191 -167q-45 0 -79 13v13l2 1q37 -13 77 -13q72 0 102.5 43t30.5 138v488h14v-489q0 -101 -34.5 -147.5t-112.5 -46.5z" />
    </font>
</defs>
</svg>
