<?xml version="1.0" standalone="no"?>
<!DOCTYPE svg PUBLIC "-//W3C//DTD SVG 1.1//EN" "http://www.w3.org/Graphics/SVG/1.1/DTD/svg11.dtd" >
<svg xmlns="http://www.w3.org/2000/svg" xmlns:xlink="http://www.w3.org/1999/xlink" version="1.1">
<metadata>
Created by FontForge 20170731 at Tue Mar  7 13:07:32 2017
 By Aleksey,,,
Copyright (c) 2017 by Alfonso Garci'a - Latinotype Team. All rights reserved.
</metadata>
<defs>
<font id="RawsonAlt-ThinIt" horiz-adv-x="0" >
  <font-face 
    font-family="Rawson Alt Thin It"
    font-weight="250"
    font-style="italic"
    font-stretch="normal"
    units-per-em="1100"
    panose-1="0 0 3 0 0 0 0 0 0 0"
    ascent="880"
    descent="-220"
    x-height="516"
    cap-height="660"
    bbox="-648 -223 1320 853"
    underline-thickness="50"
    underline-position="-200"
    slope="-7.5"
    unicode-range="U+0020-FB02"
  />
<missing-glyph horiz-adv-x="485" 
 />
    <glyph glyph-name="fi" unicode="fi" horiz-adv-x="461" 
d="M169 567l-7 -51h140l-2 -14h-140l-93 -666h-14l93 666h-69l2 14h69l7 50q11 73 52 109.5t96 36.5q37 0 55 -14l-2 -12l-2 -1q-21 14 -53 14q-50 0 -86.5 -33.5t-45.5 -98.5zM414 682q16 0 16 -16q0 -9 -5.5 -14t-12.5 -5q-16 0 -16 16q0 9 5.5 14t12.5 5zM313 0l72 516
h15l-73 -516h-14z" />
    <glyph glyph-name="fl" unicode="fl" horiz-adv-x="387" 
d="M169 567l-7 -51h140l-2 -14h-140l-93 -666h-14l93 666h-69l2 14h69l7 50q10 73 51.5 109.5t96.5 36.5q37 0 55 -14l-2 -12l-2 -1q-21 14 -53 14q-50 0 -86.5 -33.5t-45.5 -98.5zM410 710h14l-98 -710h-15z" />
    <glyph glyph-name=".notdef" horiz-adv-x="485" 
 />
    <glyph glyph-name=".null" 
 />
    <glyph glyph-name="nonmarkingreturn" horiz-adv-x="366" 
 />
    <glyph glyph-name="space" unicode=" " horiz-adv-x="278" 
 />
    <glyph glyph-name="exclam" unicode="!" horiz-adv-x="225" 
d="M94 164l68 506h16l-72 -506h-12zM75 -10q-15 0 -15 16q0 8 6 14t14 6q15 0 15 -16q0 -8 -6 -14t-14 -6z" />
    <glyph glyph-name="quotedbl" unicode="&#x22;" horiz-adv-x="272" 
d="M112 462l28 200h13l4 -4l-35 -196h-10zM204 462l29 200h13l3 -4l-35 -196h-10z" />
    <glyph glyph-name="numbersign" unicode="#" horiz-adv-x="512" 
d="M464 382h-73l-58 -186h87l-2 -14h-89l-32 -104h-14l32 104h-176l-32 -104h-14l32 104h-71l2 14h73l58 186h-87l3 14h88l32 104h14l-32 -104h176l32 104h14l-32 -104h71zM319 196l58 186h-176l-58 -186h176z" />
    <glyph glyph-name="dollar" unicode="$" horiz-adv-x="453" 
d="M302 611q73 -1 122 -26l-3 -14l-2 -1q-58 27 -131 27q-75 0 -123.5 -32t-48.5 -99q0 -51 32.5 -74t98.5 -39q66 -17 104 -46t38 -84q0 -74 -50 -116.5t-129 -46.5l-13 -92h-14l13 91h-4q-102 0 -154 42l2 16l3 1q54 -44 151 -44q81 0 129.5 37t48.5 111q0 50 -35 75.5
t-100 43.5q-28 8 -43.5 13t-36.5 15.5t-31 22t-18 30t-8 42.5q0 71 54 108.5t133 38.5l13 94h14z" />
    <glyph glyph-name="percent" unicode="%" horiz-adv-x="658" 
d="M203 367q-54 0 -86 33t-32 91q0 79 45 127t115 48q54 0 85.5 -33.5t31.5 -91.5q0 -79 -45 -126.5t-114 -47.5zM75 9l505 645h15l-504 -645h-16zM205 380q61 0 101.5 43.5t40.5 114.5q0 54 -28 84.5t-76 30.5q-63 0 -103 -44t-40 -115q0 -54 28.5 -84t76.5 -30zM438 -5
q-55 0 -86.5 32.5t-31.5 90.5q0 80 45 128t115 48q53 0 84.5 -33.5t31.5 -92.5q0 -78 -44.5 -125.5t-113.5 -47.5zM440 8q61 0 101 43.5t40 114.5q0 54 -28 84.5t-75 30.5q-63 0 -103 -44.5t-40 -116.5q0 -53 27.5 -82.5t77.5 -29.5z" />
    <glyph glyph-name="ampersand" unicode="&#x26;" horiz-adv-x="604" 
d="M558 335q-45 -142 -100 -222l95 -113h-20l-84 101q-89 -116 -225 -116q-77 0 -128 41.5t-51 116.5q0 84 47.5 138.5t129.5 96.5q-45 68 -45 129q0 77 53.5 125t119.5 48q40 0 64.5 -7.5t52.5 -27.5l-2 -15h-1q-28 21 -53 28.5t-63 7.5q-58 0 -107.5 -43t-49.5 -113
q0 -80 86 -181l172 -205q55 79 94 211h15zM226 0q128 0 214 112l-175 210q-24 30 -36 46q-81 -44 -125 -94.5t-44 -129.5q0 -69 47 -106.5t119 -37.5z" />
    <glyph glyph-name="quotesingle" unicode="'" horiz-adv-x="181" 
d="M112 462l28 200h13l4 -4l-35 -196h-10z" />
    <glyph glyph-name="parenleft" unicode="(" horiz-adv-x="255" 
d="M160 -166q-41 22 -71 106t-30 217q0 120 22.5 225t57.5 175t73 115.5t74 63.5l4 -12q-34 -19 -70 -63.5t-70 -112.5t-55.5 -169t-21.5 -216q0 -127 28 -211.5t67 -105.5z" />
    <glyph glyph-name="parenright" unicode=")" horiz-adv-x="254" 
d="M102 736q41 -22 71 -106t30 -217q0 -120 -22.5 -225t-57.5 -175t-73 -115.5t-74 -63.5l-4 12q35 19 70.5 63t69.5 112t55.5 169t21.5 217q0 127 -28 211.5t-67 105.5z" />
    <glyph glyph-name="asterisk" unicode="*" horiz-adv-x="432" 
d="M265 584l-2 2l-20 141l1 3l13 3l1 -1l12 -145l-1 -2zM275 582l-2 2v3l110 108h4l7 -9l1 -3l-116 -101h-4zM259 576l-133 34l-1 2l4 13l3 1l130 -43l-1 -2l-1 -4zM405 529l-130 43v2l1 4l2 1l134 -34v-2l-5 -13zM150 460l-8 9v3l116 101h3l2 -2v-3l-110 -108h-3zM280 422
l-2 1l-12 145l2 2l3 1l2 -2l22 -141l-2 -3z" />
    <glyph glyph-name="plus" unicode="+" horiz-adv-x="440" 
d="M388 300l-1 -14h-157l-26 -184h-14l26 184h-155l1 14h156l26 184h14l-26 -184h156z" />
    <glyph glyph-name="comma" unicode="," horiz-adv-x="156" 
d="M-7 -145q18 36 31.5 84t13.5 76v11l15 2l2 -3q-3 -40 -19.5 -91.5t-32.5 -78.5h-10z" />
    <glyph glyph-name="hyphen" unicode="-" horiz-adv-x="405" 
d="M86 282l2 14h240l-2 -14h-240z" />
    <glyph glyph-name="period" unicode="." horiz-adv-x="170" 
d="M51 0q-16 0 -16 16q0 8 5.5 14t13.5 6q16 0 16 -16q0 -8 -5.5 -14t-13.5 -6z" />
    <glyph glyph-name="slash" unicode="/" horiz-adv-x="399" 
d="M-9 -116l418 862h15l-418 -862h-15z" />
    <glyph glyph-name="zero" unicode="0" horiz-adv-x="586" 
d="M266 -12q-92 0 -142.5 68.5t-50.5 186.5q0 194 76.5 310.5t201.5 116.5q84 0 132.5 -70t48.5 -189q0 -192 -74.5 -307.5t-191.5 -115.5zM268 2q110 0 180 111.5t70 295.5q0 113 -45.5 180t-123.5 67q-117 0 -189.5 -113t-72.5 -298q0 -112 47.5 -177.5t133.5 -65.5z" />
    <glyph glyph-name="one" unicode="1" horiz-adv-x="335" 
d="M171 0l90 648l-194 -117l-2 1l2 15l206 123h5l-93 -670h-14z" />
    <glyph glyph-name="two" unicode="2" horiz-adv-x="492" 
d="M18 0q7 56 63.5 125t148.5 139q113 86 158.5 140.5t45.5 117.5q0 60 -39 98t-113 38q-102 0 -170 -83h-1v16q28 36 74.5 58.5t97.5 22.5q80 0 122.5 -41t42.5 -107t-47.5 -124.5t-160.5 -144.5q-89 -67 -143.5 -134t-60.5 -107h374l-2 -14h-390z" />
    <glyph glyph-name="three" unicode="3" horiz-adv-x="502" 
d="M295 353q131 -22 131 -159q0 -93 -59.5 -151t-161.5 -58q-115 0 -177 64l3 19l2 1q62 -70 174 -70q95 0 149.5 53.5t54.5 138.5q0 150 -176 154l-55 1l1 12l56 1q85 2 140 46.5t55 126.5q0 56 -38.5 91t-104.5 35q-89 0 -159 -61l-2 1l2 15q68 59 160 59q72 0 114 -38.5
t42 -100.5q0 -71 -42 -119t-109 -61z" />
    <glyph glyph-name="four" unicode="4" horiz-adv-x="551" 
d="M505 183l-2 -13h-128l-24 -170h-14l24 170h-346l1 1l420 502h10l-69 -490h128zM42 183h320l64 456h-2l-381 -455z" />
    <glyph glyph-name="five" unicode="5" horiz-adv-x="503" 
d="M203 -15q-51 0 -88 12.5t-80 40.5l2 17l2 1q43 -31 80 -44t87 -13q93 0 155 60t62 160q0 67 -43 113t-126 46q-82 0 -156 -23l-1 1l66 304h315l-3 -14h-301l-58 -272q55 18 140 18q88 0 134.5 -49.5t46.5 -121.5q0 -107 -66.5 -171.5t-167.5 -64.5z" />
    <glyph glyph-name="six" unicode="6" horiz-adv-x="536" 
d="M381 670q74 0 118 -22l-1 -12l-2 -1q-45 22 -117 22q-130 0 -213.5 -116t-83.5 -322v-3q22 75 78.5 125.5t136.5 50.5q79 0 126 -46.5t47 -123.5q0 -101 -57.5 -169t-150.5 -68t-143.5 59.5t-50.5 168.5q0 216 87 336.5t226 120.5zM295 378q-83 0 -140 -61t-71 -135
q8 -86 53.5 -134.5t126.5 -48.5q83 0 137.5 64t54.5 157q0 72 -44 115t-117 43z" />
    <glyph glyph-name="seven" unicode="7" horiz-adv-x="444" 
d="M114 0l339 646h-373l2 14h390l2 -5l-345 -655h-15z" />
    <glyph glyph-name="eight" unicode="8" horiz-adv-x="554" 
d="M356 335q66 -32 93 -67.5t27 -92.5q0 -83 -62 -136.5t-168 -53.5q-93 0 -143.5 41.5t-50.5 115.5q0 73 44.5 135.5t126.5 101.5q-94 53 -94 125q0 75 53 121t139 46q83 0 130.5 -35t47.5 -96q0 -60 -33.5 -109t-109.5 -96zM144 508q0 -46 34.5 -80.5t112.5 -64.5
q23 -9 52 -22q75 45 108.5 92t33.5 105q0 56 -43.5 87.5t-122.5 31.5q-80 0 -127.5 -40.5t-47.5 -108.5zM248 -1q100 0 157 48.5t57 126.5q0 66 -37.5 102.5t-140.5 75.5q-27 10 -48 21q-82 -39 -126 -99.5t-44 -130.5q0 -68 47.5 -106t134.5 -38z" />
    <glyph glyph-name="nine" unicode="9" horiz-adv-x="532" 
d="M291 673q88 0 140 -58.5t52 -167.5q0 -203 -80 -328.5t-228 -125.5q-56 0 -112 20l1 13l2 1q58 -21 111 -21q96 0 162.5 59.5t96.5 151t33 207.5q-24 -69 -76 -113t-132 -44q-81 0 -129.5 52.5t-48.5 130.5q0 99 61.5 161t146.5 62zM262 280q89 0 141 56.5t65 132.5
q-5 92 -52.5 141t-126.5 49t-135.5 -57.5t-56.5 -149.5q0 -73 46 -122.5t119 -49.5z" />
    <glyph glyph-name="colon" unicode=":" horiz-adv-x="198" 
d="M123 425q-16 0 -16 16q0 8 5.5 14t13.5 6q16 0 16 -16q0 -8 -5.5 -14t-13.5 -6zM64 0q-16 0 -16 16q0 8 5.5 14t13.5 6q16 0 16 -16q0 -8 -5.5 -14t-13.5 -6z" />
    <glyph glyph-name="semicolon" unicode=";" horiz-adv-x="232" 
d="M145 426q-16 0 -16 16q0 8 5.5 14t13.5 6q16 0 16 -16q0 -8 -5.5 -14t-13.5 -6zM31 -145q46 105 46 166l-1 5l15 2l2 -3q-11 -83 -52 -170h-10z" />
    <glyph glyph-name="less" unicode="&#x3c;" horiz-adv-x="424" 
d="M71 289l7 -3l243 -161l-8 -13l-259 171l2 12l306 171l6 -13l-291 -161z" />
    <glyph glyph-name="equal" unicode="=" horiz-adv-x="498" 
d="M104 382l2 14h325l-2 -14h-325zM76 182l2 14h326l-2 -14h-326z" />
    <glyph glyph-name="greater" unicode="&#x3e;" horiz-adv-x="424" 
d="M120 466l259 -171l-2 -12l-306 -171l-6 13l291 161l6 3l-7 3l-243 161z" />
    <glyph glyph-name="question" unicode="?" horiz-adv-x="403" 
d="M148 169q9 62 31 103t74 81q37 28 58.5 49t40 58.5t18.5 81.5q0 56 -36 91t-95 35q-87 0 -141 -64h-1l2 18q53 60 142 60q61 0 102 -39t41 -98q0 -67 -32.5 -112.5t-92.5 -90.5q-49 -37 -68.5 -76.5t-28.5 -96.5h-14zM135 -3q-16 0 -16 16q0 8 5.5 14t13.5 6q16 0 16 -16
q0 -8 -5.5 -14t-13.5 -6z" />
    <glyph glyph-name="at" unicode="@" horiz-adv-x="753" 
d="M506 149l3 23l1 8q-60 -110 -166 -110q-55 0 -89.5 38t-34.5 108q0 98 56.5 160t137.5 62q83 0 123 -62l9 51h12l-35 -255l-3 -22q-8 -62 42 -62q60 0 94 69.5t34 165.5q0 68 -24.5 125.5t-83 98t-142.5 40.5q-150 0 -257.5 -110t-107.5 -277q0 -129 76.5 -207.5
t208.5 -78.5q133 0 233 92h2l7 -8q-105 -97 -244 -97q-137 0 -217.5 81.5t-80.5 216.5q0 173 112.5 287t269.5 114q66 0 117.5 -24t82.5 -64.5t46.5 -88t15.5 -99.5q0 -105 -38 -177t-107 -72q-31 0 -44.5 20t-8.5 54zM346 84q101 0 167 118l21 155q-37 67 -123 67
q-74 0 -125.5 -57.5t-51.5 -146.5q0 -65 31.5 -100.5t80.5 -35.5z" />
    <glyph glyph-name="A" unicode="A" horiz-adv-x="602" 
d="M527 0l-65 243h-323l-132 -243h-15l365 675h1l184 -675h-15zM146 256h312l-100 371l-3 15l-8 -15z" />
    <glyph glyph-name="B" unicode="B" horiz-adv-x="544" 
d="M337 347q64 -7 100.5 -47t36.5 -99q0 -42 -11.5 -75t-39.5 -63t-84 -46.5t-137 -16.5h-124l92 660q62 6 135 6q86 0 128.5 -37t42.5 -100q0 -71 -36.5 -117.5t-102.5 -64.5zM182 647l-41 -296h135q81 0 133 48t52 129q0 124 -159 124q-73 0 -120 -5zM204 14
q62 0 108.5 11t74 28t44 42.5t22.5 50.5t6 55q0 62 -41.5 99t-118.5 37h-160l-45 -323h110z" />
    <glyph glyph-name="C" unicode="C" horiz-adv-x="631" 
d="M365 -10q-136 0 -215 77.5t-79 203.5q0 185 100.5 292t259.5 107q114 0 196 -50l-2 -14l-2 -1q-77 52 -194 52q-150 0 -246.5 -104t-96.5 -281q0 -121 75.5 -195t206.5 -74q106 0 187 51l2 -1l-2 -12q-82 -51 -190 -51z" />
    <glyph glyph-name="D" unicode="D" horiz-adv-x="705" 
d="M330 667q154 0 239 -77t85 -210q0 -177 -105.5 -279.5t-296.5 -102.5q-99 0 -174 5l92 657q72 7 160 7zM254 13q182 0 283 98.5t101 263.5q0 129 -80.5 203.5t-230.5 74.5q-87 0 -145 -6l-88 -629q53 -5 160 -5z" />
    <glyph glyph-name="E" unicode="E" horiz-adv-x="522" 
d="M508 646h-326l-41 -295h307l-2 -14h-307l-45 -323h341l-2 -14h-355l92 660h340z" />
    <glyph glyph-name="F" unicode="F" horiz-adv-x="482" 
d="M506 646h-324l-43 -306h277l-2 -14h-277l-45 -326h-14l92 660h338z" />
    <glyph glyph-name="G" unicode="G" horiz-adv-x="682" 
d="M358 -10q-130 0 -208.5 78t-78.5 203q0 184 99.5 291.5t254.5 107.5q126 0 202 -51l-2 -13l-2 -1q-77 52 -199 52q-148 0 -243 -104.5t-95 -279.5q0 -121 75 -195.5t203 -74.5q121 0 208 61l33 240h14l-34 -246q-99 -68 -227 -68z" />
    <glyph glyph-name="H" unicode="H" horiz-adv-x="712" 
d="M640 660h14l-92 -660h-14l46 332h-456l-46 -332h-14l92 660h14l-44 -315h456z" />
    <glyph glyph-name="I" unicode="I" horiz-adv-x="242" 
d="M78 0l92 660h14l-92 -660h-14z" />
    <glyph glyph-name="J" unicode="J" horiz-adv-x="326" 
d="M25 -3q-20 0 -43 3l2 13l2 1q15 -3 40 -3q72 0 114.5 46t54.5 127l67 476h14l-67 -478q-12 -88 -58.5 -136.5t-125.5 -48.5z" />
    <glyph glyph-name="K" unicode="K" horiz-adv-x="554" 
d="M580 658l-424 -323l349 -333l-1 -2h-19l-347 333l-46 -333h-14l92 660h14l-45 -321l422 321h18z" />
    <glyph glyph-name="L" unicode="L" horiz-adv-x="480" 
d="M94 14h333l-2 -14h-347l92 660h14z" />
    <glyph glyph-name="M" unicode="M" horiz-adv-x="828" 
d="M721 660h13l-24 -660h-14l21 624h-2l-332 -617h-4l-164 617h-2l-153 -624h-14l161 660h12l167 -618z" />
    <glyph glyph-name="N" unicode="N" horiz-adv-x="711" 
d="M78 0l93 668h4l374 -638h2l88 630h14l-93 -671h-1l-377 640h-2l-88 -629h-14z" />
    <glyph glyph-name="O" unicode="O" horiz-adv-x="752" 
d="M372 -10q-137 0 -218 78t-81 218q0 178 95 281t239 103q132 0 212 -79.5t80 -220.5q0 -175 -94 -277.5t-233 -102.5zM374 3q132 0 221 98.5t89 268.5q0 136 -75.5 211.5t-202.5 75.5q-139 0 -228.5 -99t-89.5 -271q0 -135 77 -209.5t209 -74.5z" />
    <glyph glyph-name="P" unicode="P" horiz-adv-x="503" 
d="M299 665q100 0 145.5 -44t45.5 -115q0 -101 -66.5 -159.5t-192.5 -58.5q-31 0 -98 5l-41 -293h-14l93 660q62 5 128 5zM232 302q117 0 180.5 53.5t63.5 149.5q0 66 -42 106t-136 40q-81 0 -115 -4l-48 -340q2 0 42 -2.5t55 -2.5z" />
    <glyph glyph-name="Q" unicode="Q" horiz-adv-x="764" 
d="M782 -185l1 -2l-2 -9q-78 2 -147.5 21t-116.5 43.5t-121.5 53t-153.5 44.5l2 11q207 10 323 111t116 284q0 130 -75 207.5t-202 77.5q-131 0 -216.5 -87t-85.5 -229q0 -103 61.5 -169t172.5 -66q48 0 78 8l2 -1v-12q-32 -8 -80 -8q-117 0 -183 69.5t-66 177.5
q0 148 90 239t228 91q132 0 211.5 -81t79.5 -217q0 -179 -110 -282t-307 -121q86 -19 172 -57.5t161.5 -66t167.5 -30.5z" />
    <glyph glyph-name="R" unicode="R" horiz-adv-x="528" 
d="M482 515q0 -88 -49.5 -142.5t-127.5 -70.5l136 -300l-1 -2h-14l-135 299q-22 -3 -46 -3h-112l-41 -296h-14l93 665q77 5 134 5q89 0 133 -40.5t44 -114.5zM230 308q104 0 171 52t67 153q0 143 -165 143q-44 0 -120 -4l-48 -344h95z" />
    <glyph glyph-name="S" unicode="S" horiz-adv-x="496" 
d="M212 -15q-119 0 -188 57l2 16l2 1q72 -59 186 -59q89 0 141.5 45.5t52.5 120.5q0 67 -39 108t-106 72q-72 31 -111.5 66t-39.5 94q0 76 58 120t148 44q92 0 153 -39l-3 -13l-2 -1q-56 39 -150 39q-78 0 -133 -39t-55 -108q0 -30 11.5 -54t35 -42t44 -29.5t54.5 -26.5
q69 -32 109.5 -74.5t40.5 -113.5q0 -86 -57 -135t-154 -49z" />
    <glyph glyph-name="T" unicode="T" horiz-adv-x="509" 
d="M544 660l-2 -13h-226l-90 -647h-14l90 647h-227l2 13h467z" />
    <glyph glyph-name="U" unicode="U" horiz-adv-x="683" 
d="M313 -15q-103 0 -159 53.5t-56 151.5q0 30 4 55l57 415h15l-57 -414q-4 -25 -4 -53q0 -94 52.5 -143.5t149.5 -49.5q101 0 166 64t81 182l57 414h14l-57 -415q-17 -125 -84.5 -192.5t-178.5 -67.5z" />
    <glyph glyph-name="V" unicode="V" horiz-adv-x="592" 
d="M616 660l1 -2l-357 -680h-2l-175 680l1 2h13l163 -628l4 -17l8 16l330 629h14z" />
    <glyph glyph-name="W" unicode="W" horiz-adv-x="925" 
d="M946 660l1 -2l-306 -677h-7l-117 633l-2 13l-6 -14l-293 -632h-7l-118 677l1 2h13l109 -629l3 -19l8 19l290 629h8l116 -630l2 -18l8 18l284 630h13z" />
    <glyph glyph-name="X" unicode="X" horiz-adv-x="558" 
d="M567 658l-266 -317l195 -339l-1 -2h-13l-191 333l-285 -333h-14l-1 2l293 342l-181 314l1 2h13l177 -308l258 308h14z" />
    <glyph glyph-name="Y" unicode="Y" horiz-adv-x="548" 
d="M231 0l40 288l-184 370l1 2h13l179 -358l278 358h13l1 -2l-287 -370l-40 -288h-14z" />
    <glyph glyph-name="Z" unicode="Z" horiz-adv-x="547" 
d="M5 0l-2 6l534 641h-439l2 13h459l2 -5l-536 -642h458l-2 -13h-476z" />
    <glyph glyph-name="bracketleft" unicode="[" horiz-adv-x="263" 
d="M290 724h-106l-121 -872h107l-3 -12h-119l125 896h120z" />
    <glyph glyph-name="backslash" unicode="\" horiz-adv-x="399" 
d="M305 -116h-15l-178 862h15z" />
    <glyph glyph-name="bracketright" unicode="]" horiz-adv-x="263" 
d="M103 736h120l-126 -896h-119l2 12h106l121 872h-106z" />
    <glyph glyph-name="asciicircum" unicode="^" horiz-adv-x="444" 
d="M284 661l112 -296l-13 -7l-105 281l-2 8l-5 -8l-182 -281l-11 7l194 296h12z" />
    <glyph glyph-name="underscore" unicode="_" horiz-adv-x="420" 
d="M-5 -15l2 14h354l-2 -14h-354z" />
    <glyph glyph-name="grave" unicode="`" horiz-adv-x="214" 
d="M224 575l-142 106l-1 5l11 12l138 -114z" />
    <glyph glyph-name="a" unicode="a" horiz-adv-x="531" 
d="M473 25l2 -1l-2 -14q-17 -15 -44 -15q-50 0 -50 52q0 6 2 24l3 20l2 13q-77 -115 -201 -115q-66 0 -110 34t-44 94q0 84 61 124t149 40q48 0 95.5 -9.5t69.5 -21.5l11 77q3 20 3 38q0 73 -43.5 110.5t-118.5 37.5q-49 0 -93.5 -14.5t-66.5 -36.5l-2 1l2 14
q19 19 63.5 34.5t97.5 15.5q79 0 127 -41.5t48 -118.5q0 -19 -3 -40l-34 -246l-3 -22q-4 -50 39 -50q21 0 40 16zM185 3q127 0 204 125l15 108q-60 31 -165 31q-81 0 -137 -35.5t-56 -111.5q0 -54 40 -85.5t99 -31.5z" />
    <glyph glyph-name="b" unicode="b" horiz-adv-x="577" 
d="M332 527q83 0 134 -52.5t51 -150.5q0 -154 -76 -244.5t-196 -90.5q-105 0 -180 46l93 675h14l-44 -316q28 67 83 100t121 33zM248 3q109 0 181 86.5t72 230.5q0 93 -47 143t-123 50q-69 0 -127.5 -40t-81.5 -126l-42 -302q68 -42 168 -42z" />
    <glyph glyph-name="c" unicode="c" horiz-adv-x="489" 
d="M274 -11q-100 0 -157.5 61.5t-57.5 164.5q0 145 82.5 229t201.5 84q77 0 121 -28l-1 -13l-2 -1q-45 28 -120 28q-113 0 -190 -79t-77 -218q0 -99 53.5 -156.5t148.5 -57.5q71 0 135 36l2 -1l-2 -13q-63 -36 -137 -36z" />
    <glyph glyph-name="d" unicode="d" horiz-adv-x="576" 
d="M527 710h14l-98 -710h-12l12 107l2 11q-27 -65 -80.5 -97t-123.5 -32q-84 0 -134 55.5t-50 150.5q0 151 77.5 241.5t196.5 90.5q51 0 94 -18t68 -45zM242 3q72 0 128.5 39t79.5 118l40 285q-54 68 -162 68q-110 0 -182.5 -86t-72.5 -228q0 -90 46 -143t123 -53z" />
    <glyph glyph-name="e" unicode="e" horiz-adv-x="549" 
d="M313 527q97 0 141.5 -55.5t44.5 -134.5q0 -30 -8 -68h-414q-3 -24 -3 -51q0 -104 57.5 -160.5t147.5 -56.5q98 0 159 47l2 -1l-2 -14q-63 -46 -161 -46q-96 0 -157 60t-61 170q0 138 75 224t179 86zM79 283h401q5 30 5 55q0 71 -41 123t-132 52q-85 0 -150.5 -62
t-82.5 -168z" />
    <glyph glyph-name="f" unicode="f" horiz-adv-x="292" 
d="M303 712q43 0 65 -13l-2 -12l-2 -1q-26 13 -63 13q-114 0 -134 -146l-5 -37h140l-2 -14h-140l-93 -666h-14l93 666h-69l2 14h69l5 36q23 160 150 160z" />
    <glyph glyph-name="g" unicode="g" horiz-adv-x="521" 
d="M514 516l-2 -14l-144 1q81 -35 81 -128q0 -75 -54 -123.5t-138 -48.5q-58 0 -99 23q-15 -9 -23 -14t-16.5 -18t-8.5 -28q0 -27 30 -41.5t118 -25.5q99 -13 141.5 -38t42.5 -80q0 -75 -68.5 -112.5t-174.5 -37.5q-50 0 -89 8.5t-69.5 34.5t-30.5 69q0 98 153 158
q-37 10 -52 24.5t-15 38.5q0 41 50 69q-55 38 -55 109q0 76 55 125t140 49h228zM434 374q0 58 -40 93t-108 36h-2q-78 0 -128 -45.5t-50 -113.5q0 -58 41 -92t112 -35q77 -1 126 43t49 114zM428 -21q0 50 -40.5 72.5t-135.5 34.5q-56 8 -73 12q-79 -36 -117 -68t-38 -84
q0 -30 16.5 -51t44.5 -31.5t56 -14.5t60 -4q98 0 162.5 33.5t64.5 100.5z" />
    <glyph glyph-name="h" unicode="h" horiz-adv-x="579" 
d="M329 527q76 0 122.5 -42t46.5 -132q0 -29 -4 -56l-41 -297h-14l41 297q4 25 4 54q0 83 -42 122.5t-115 39.5q-70 0 -127.5 -43.5t-74.5 -120.5l-49 -349h-14l99 710h14l-43 -307q25 57 78.5 90.5t118.5 33.5z" />
    <glyph glyph-name="i" unicode="i" horiz-adv-x="210" 
d="M161 647q-16 0 -16 16q0 9 5.5 14t12.5 5q16 0 16 -16q0 -9 -5.5 -14t-12.5 -5zM62 0l72 516h14l-72 -516h-14z" />
    <glyph glyph-name="j" unicode="j" horiz-adv-x="225" 
d="M177 647q-16 0 -16 16q0 9 5.5 14t12.5 5q16 0 16 -16q0 -9 -5.5 -14t-12.5 -5zM-60 -167q-19 0 -30 3l2 13l2 1q12 -3 28 -3q114 0 135 151l72 518h14l-72 -519q-22 -164 -151 -164z" />
    <glyph glyph-name="k" unicode="k" horiz-adv-x="467" 
d="M457 514l-326 -248l285 -264l-1 -2h-20l-281 263l-37 -263h-15l99 710h15l-61 -439l321 245h20z" />
    <glyph glyph-name="l" unicode="l" horiz-adv-x="228" 
d="M129 -7q-70 0 -59 75l89 642h14l-88 -632q-5 -39 5 -55t42 -16q21 0 40 15l2 -1l-2 -14q-19 -14 -43 -14z" />
    <glyph glyph-name="m" unicode="m" horiz-adv-x="894" 
d="M657 527q66 0 110.5 -39t44.5 -123q0 -43 -5 -78l-40 -287h-14l40 287q5 32 5 77q0 76 -40.5 112.5t-101.5 36.5q-71 0 -124.5 -48t-65.5 -135q-2 -29 -4 -43l-40 -287h-14l40 287q5 32 5 77q0 77 -40 113t-101 36q-69 0 -121 -43.5t-67 -124.5l-48 -345h-14l72 516h12
l-14 -109q23 56 71.5 88t109.5 32q63 0 106.5 -36t47.5 -112q18 68 70.5 108t119.5 40z" />
    <glyph glyph-name="n" unicode="n" horiz-adv-x="581" 
d="M332 527q71 0 119.5 -41.5t48.5 -127.5q0 -36 -5 -71l-40 -287h-14l40 287q5 32 5 70q0 78 -44.5 117t-110.5 39q-74 0 -133.5 -47t-74.5 -124l-47 -342h-14l72 516h12l-15 -117q24 57 79.5 92.5t121.5 35.5z" />
    <glyph glyph-name="o" unicode="o" horiz-adv-x="606" 
d="M281 -12q-98 0 -159.5 63.5t-61.5 173.5q0 130 73.5 215.5t189.5 85.5q99 0 161 -63.5t62 -171.5q0 -131 -74 -217t-191 -86zM284 2q111 0 179 83t68 207q0 102 -58 161t-153 59q-110 0 -177.5 -83t-67.5 -204q0 -104 57.5 -163.5t151.5 -59.5z" />
    <glyph glyph-name="p" unicode="p" horiz-adv-x="579" 
d="M332 527q84 0 136 -54t52 -153q0 -152 -77 -241.5t-199 -89.5q-87 0 -163 40l-27 -193h-14l95 680h12l-14 -112l-1 -5q27 63 81 95.5t119 32.5zM246 3q113 0 185.5 85.5t72.5 226.5q0 98 -49.5 148t-125.5 50q-65 0 -124 -42t-80 -126l-42 -298q72 -44 163 -44z" />
    <glyph glyph-name="q" unicode="q" horiz-adv-x="579" 
d="M504 516h12l-96 -680h-14l40 286q-27 -68 -82 -100.5t-117 -32.5q-87 0 -138 53.5t-51 148.5q0 153 77 244.5t197 91.5q107 0 163 -66zM452 161l35 248l5 34q-56 70 -162 70q-111 0 -183.5 -87.5t-72.5 -230.5q0 -91 46.5 -141.5t127.5 -50.5q65 0 121.5 38t82.5 120z
" />
    <glyph glyph-name="r" unicode="r" horiz-adv-x="343" 
d="M297 527q35 0 55 -11l-2 -13l-2 -1q-18 11 -50 11q-27 0 -48 -5t-46 -20t-45 -48.5t-34 -83.5l-49 -356h-14l72 516h12l-14 -109q44 120 165 120z" />
    <glyph glyph-name="s" unicode="s" horiz-adv-x="450" 
d="M179 -12q-109 0 -157 42l2 16l2 1q49 -44 155 -44q82 0 134 35.5t52 102.5q0 49 -32 73.5t-106 46.5q-69 20 -107 46.5t-38 75.5q0 67 55 105t139 38q74 0 128 -26l-2 -14l-2 -1q-57 27 -126 27q-77 0 -127 -34t-50 -94q0 -44 34.5 -67.5t103.5 -43.5q76 -22 110.5 -50
t34.5 -80q0 -74 -57 -114.5t-146 -40.5z" />
    <glyph glyph-name="t" unicode="t" horiz-adv-x="332" 
d="M178 502l-49 -353q-3 -21 -3 -45q0 -44 27.5 -69t76.5 -25q40 0 70 19l1 -1l-2 -13q-28 -19 -71 -19q-53 0 -84.5 28.5t-31.5 76.5q0 17 4 50l48 351h-123l2 14h123l17 122l13 3l1 -1l-17 -124h172l-2 -14h-172z" />
    <glyph glyph-name="u" unicode="u" horiz-adv-x="565" 
d="M489 516h14l-72 -516h-12l12 97q-31 -48 -81 -78t-113 -30q-73 0 -115 40t-42 120q0 21 4 59l43 308h15l-44 -308q-4 -36 -4 -57q0 -72 38.5 -110t105.5 -38q60 0 111.5 32t84.5 87z" />
    <glyph glyph-name="v" unicode="v" horiz-adv-x="516" 
d="M518 516l1 -2l-293 -524h-7l-152 524l1 2h15l142 -503l279 503h14z" />
    <glyph glyph-name="w" unicode="w" horiz-adv-x="765" 
d="M762 516l1 -2l-233 -514h-14l-96 476l-3 19l-7 -18l-232 -477h-14l-93 514l1 2h14l87 -480l1 -13l7 13l232 480h13l98 -479l2 -14l6 14l218 479h12z" />
    <glyph glyph-name="x" unicode="x" horiz-adv-x="484" 
d="M479 514l-226 -248l164 -264l-1 -2h-14l-158 256l-233 -256h-15l-1 2l241 264l-157 248l1 2h15l151 -241l217 241h15z" />
    <glyph glyph-name="y" unicode="y" horiz-adv-x="508" 
d="M512 516l1 -2l-285 -526q-50 -87 -85 -121t-95 -34q-21 0 -48 6l2 13l2 1q26 -6 46 -6q55 0 88 32.5t77 110.5l7 12l-153 512l1 2h15l146 -495l267 495h14z" />
    <glyph glyph-name="z" unicode="z" horiz-adv-x="477" 
d="M467 512l-437 -499h375l-2 -13h-395l-2 6l437 497h-365l2 13h386z" />
    <glyph glyph-name="braceleft" unicode="{" horiz-adv-x="269" 
d="M289 735h10l-2 -14h-6q-47 0 -68.5 -17t-29.5 -72l-35 -248q-7 -46 -39.5 -71t-59.5 -25v-1q27 0 53 -25t19 -71l-35 -248q-8 -56 9.5 -73t65.5 -17h5l-2 -13h-10q-53 0 -71.5 19.5t-9.5 83.5l34 246q6 41 -17.5 65t-52.5 24l2 19q29 0 60 24t36 64l34 247q9 63 33 83
t77 20z" />
    <glyph glyph-name="bar" unicode="|" horiz-adv-x="228" 
d="M56 -104l117 830h14l-117 -830h-14z" />
    <glyph glyph-name="braceright" unicode="}" horiz-adv-x="269" 
d="M230 297l-2 -19q-28 0 -59 -24.5t-36 -64.5l-35 -246q-9 -64 -32.5 -83.5t-75.5 -19.5h-12l2 13h7q47 0 69 17t30 73l34 248q7 46 40 71t59 25v1q-27 0 -53.5 25t-19.5 71l35 248q8 55 -9 72t-64 17h-7l2 14h12q52 0 70 -20t9 -83l-34 -247q-5 -40 18.5 -64t51.5 -24z
" />
    <glyph glyph-name="asciitilde" unicode="~" horiz-adv-x="490" 
d="M98 255l-12 2q4 29 28.5 47t55.5 18q34 0 84.5 -24.5t76.5 -24.5t46 13t24 39l1 1l12 -1q-5 -30 -29.5 -48t-55.5 -18t-81 24.5t-79 24.5q-26 0 -46.5 -13.5t-23.5 -38.5z" />
    <glyph glyph-name="exclamdown" unicode="&#xa1;" horiz-adv-x="207" 
d="M136 497q-14 0 -14 16q0 8 6 14t14 6q6 0 10.5 -4.5t4.5 -11.5q0 -8 -6.5 -14t-14.5 -6zM39 -147l72 506h12l-68 -506h-16z" />
    <glyph glyph-name="cent" unicode="&#xa2;" horiz-adv-x="578" 
d="M385 607q89 0 159 -36l-2 -13l-2 -2q-67 37 -157 37q-130 0 -214.5 -84.5t-84.5 -216.5q0 -101 59 -161.5t165 -60.5q98 0 182 50l2 -1l-3 -13q-85 -50 -184 -50h-4l-13 -92h-14l13 92q-103 6 -161 69.5t-58 164.5q0 134 84.5 222t214.5 95l13 94h14l-13 -94h4z" />
    <glyph glyph-name="sterling" unicode="&#xa3;" horiz-adv-x="553" 
d="M368 669q98 0 155 -45l-2 -15h-1q-59 46 -154 46q-90 0 -150 -65t-60 -184q0 -20 2 -60h246l-2 -12h-244q5 -90 5 -100q0 -66 -22 -126.5t-61 -93.5h385l-2 -14h-415l1 4q57 44 78.5 97t21.5 134q0 29 -4 99h-93l2 12h90q-2 42 -2 61q0 125 64.5 193.5t161.5 68.5z" />
    <glyph glyph-name="currency" unicode="&#xa4;" horiz-adv-x="681" 
d="M611 365q0 -147 -92 -233l50 -60l-11 -10l-50 60q-73 -62 -174 -62q-118 0 -186 71l-75 -69l-9 10l76 69q-52 62 -52 158q0 145 89 231l-50 62l11 10l50 -62q74 65 178 65q125 0 192 -80l74 68l9 -10l-74 -69q44 -61 44 -149zM103 300q0 -100 60.5 -164t171.5 -64
q112 0 187.5 80t75.5 211q0 100 -61 164t-173 64q-111 0 -186 -80t-75 -211z" />
    <glyph glyph-name="yen" unicode="&#xa5;" horiz-adv-x="571" 
d="M586 665l-279 -359h183l-1 -13h-192l-20 -137h193l-2 -13h-193l-20 -143h-12l20 143h-192l2 13h192l19 137h-192l1 13h185l-180 359h15l179 -358l279 358h15z" />
    <glyph glyph-name="brokenbar" unicode="&#xa6;" horiz-adv-x="235" 
d="M132 421l44 305h14l-44 -305h-14zM59 -104l43 312h14l-43 -312h-14z" />
    <glyph glyph-name="section" unicode="&#xa7;" horiz-adv-x="488" 
d="M313 666q-77 0 -129.5 -38t-52.5 -107q0 -15 3.5 -28.5t13 -25.5t17.5 -20.5t25.5 -20t27 -17.5t33 -19t33.5 -19q71 -41 105 -75t34 -81q0 -79 -75 -126q29 -32 29 -72q0 -77 -58 -120.5t-143 -43.5q-92 0 -147 41l2 15l1 1q54 -43 145 -43q79 0 132 38.5t53 109.5
q0 15 -3.5 27.5t-13.5 25t-17 20.5t-25.5 19.5t-27 17t-33 19t-33.5 18.5q-71 41 -105 75t-34 81q0 77 76 126q-29 34 -29 75q0 77 56.5 119t141.5 42q91 0 145 -41l-3 -15q-55 42 -144 42zM273 359q-8 5 -32.5 19t-34.5 20t-25.5 16.5t-25.5 20.5q-69 -41 -69 -116
q0 -42 33 -74.5t101 -70.5q98 -55 120 -76q68 43 68 116q0 43 -32.5 74t-102.5 71z" />
    <glyph glyph-name="dieresis" unicode="&#xa8;" horiz-adv-x="228" 
d="M91 646q-16 0 -16 16q0 9 5.5 14t12.5 5q16 0 16 -16q0 -9 -5.5 -14t-12.5 -5zM243 646q-16 0 -16 16q0 9 5.5 14t12.5 5q16 0 16 -16q0 -9 -5.5 -14t-12.5 -5z" />
    <glyph glyph-name="copyright" unicode="&#xa9;" horiz-adv-x="674" 
d="M300 -7q-105 0 -170 69.5t-65 181.5q0 142 93.5 236.5t222.5 94.5q104 0 170 -69.5t66 -181.5q0 -143 -93.5 -237t-223.5 -94zM302 7q123 0 211 90t88 226q0 106 -62 172t-160 66q-122 0 -210 -90t-88 -226q0 -106 61.5 -172t159.5 -66zM326 132q-59 0 -93 34.5t-34 92.5
q0 76 48.5 124.5t121.5 48.5q48 0 85 -17l-2 -16l-3 -1q-37 19 -80 19q-68 0 -111 -43.5t-43 -111.5q0 -52 30 -83t85 -31q49 0 94 24l1 -1l-2 -15q-46 -24 -97 -24z" />
    <glyph glyph-name="ordfeminine" unicode="&#xaa;" horiz-adv-x="453" 
d="M412 371h2l-2 -13q-12 -11 -30 -11q-44 0 -36 55l3 21q-63 -81 -154 -81q-48 0 -79 24.5t-31 68.5q0 62 45 90.5t110 28.5q80 0 124 -22l7 54q9 65 -23.5 98t-93.5 33q-63 0 -101 -27l-2 1l2 12q35 27 105 27q67 0 101.5 -36t24.5 -109l-24 -174q-7 -51 22 -51
q16 0 30 11zM198 354q40 0 82.5 23.5t70.5 65.5l11 76q-41 22 -124 22q-59 0 -98.5 -24t-39.5 -79q0 -39 27.5 -61.5t70.5 -22.5z" />
    <glyph glyph-name="guillemotleft" unicode="&#xab;" horiz-adv-x="499" 
d="M275 83l-152 188l203 182h14v-4l-199 -179l147 -182l-1 -5h-12zM453 83l-152 188l203 182h14v-4l-199 -179l147 -182l-1 -5h-12z" />
    <glyph glyph-name="registered" unicode="&#xae;" horiz-adv-x="604" 
d="M366 713q89 0 144 -59t55 -153q0 -121 -79 -201.5t-189 -80.5q-89 0 -145 59t-56 154q0 121 79.5 201t190.5 80zM299 232q103 0 177 76t74 191q0 90 -51.5 145.5t-134.5 55.5q-104 0 -178 -76t-74 -191q0 -90 51.5 -145.5t135.5 -55.5zM422 533q0 -69 -58 -85l56 -97h-19
l-54 93q-6 -1 -19 -1h-64l-13 -92h-15l34 242q20 2 79 2q73 0 73 -62zM348 458q27 0 42.5 19.5t15.5 53.5q0 48 -59 48q-56 0 -64 -1l-17 -120h82z" />
    <glyph glyph-name="macron" unicode="&#xaf;" horiz-adv-x="330" 
d="M76 631l2 14h263l-2 -14h-263z" />
    <glyph glyph-name="degree" unicode="&#xb0;" horiz-adv-x="330" 
d="M209 460q-46 0 -75.5 30t-29.5 75t29.5 74.5t75.5 29.5t75 -29.5t29 -74.5t-29 -75t-75 -30zM209 473q39 0 64.5 26.5t25.5 65.5t-25.5 65.5t-64.5 26.5q-40 0 -65.5 -26.5t-25.5 -65.5t25.5 -65.5t65.5 -26.5z" />
    <glyph glyph-name="plusminus" unicode="&#xb1;" horiz-adv-x="496" 
d="M415 286h-156l-24 -170h156l-2 -14h-326l2 14h156l24 170h-156l2 14h156l26 184h14l-26 -184h155z" />
    <glyph glyph-name="acute" unicode="&#xb4;" horiz-adv-x="213" 
d="M93 571l-6 9l132 121l11 -11v-5z" />
    <glyph glyph-name="paragraph" unicode="&#xb6;" horiz-adv-x="525" 
d="M522 600l-3 -13h-63l-97 -697h-13l97 697h-73l-96 -697h-14l47 348q-141 -1 -198.5 42t-44.5 143q24 177 264 177h194z" />
    <glyph glyph-name="periodcentered" unicode="&#xb7;" horiz-adv-x="201" 
d="M97 226q-16 0 -16 16q0 8 5.5 14t13.5 6q16 0 16 -16q0 -8 -5.5 -14t-13.5 -6z" />
    <glyph glyph-name="cedilla" unicode="&#xb8;" horiz-adv-x="190" 
d="M18 -216q-37 0 -59 11l2 13l1 1q21 -11 57 -11q37 0 61.5 19t24.5 56q0 27 -15.5 41.5t-40.5 14.5q-34 0 -58 -12l-1 1l2 13l47 69h14l-42 -63q18 6 38 6q31 0 50.5 -17t19.5 -50q0 -44 -29 -68t-72 -24z" />
    <glyph glyph-name="ordmasculine" unicode="&#xba;" horiz-adv-x="485" 
d="M253 333q-70 0 -113.5 46.5t-43.5 126.5q0 105 63 170.5t151 65.5q70 0 113.5 -46t43.5 -126q0 -106 -62.5 -171.5t-151.5 -65.5zM255 346q82 0 139.5 61.5t57.5 161.5q0 74 -39.5 117t-104.5 43q-82 0 -140 -61t-58 -161q0 -75 40 -118t105 -43z" />
    <glyph glyph-name="guillemotright" unicode="&#xbb;" horiz-adv-x="499" 
d="M121 453l152 -188l-203 -182h-14v4l199 179l-147 182l1 5h12zM299 453l152 -188l-203 -182h-14v4l199 179l-147 182l1 5h12z" />
    <glyph glyph-name="onequarter" unicode="&#xbc;" horiz-adv-x="662" 
d="M101 300l50 350l-94 -47l3 17l105 52h3l-52 -372h-15zM581 660h17l-526 -672h-18zM623 103l-2 -12h-75l-13 -91h-14l13 91h-206l1 4l253 285h6l-39 -277h76zM351 103h183l34 244z" />
    <glyph glyph-name="onehalf" unicode="&#xbd;" horiz-adv-x="690" 
d="M138 300l50 350l-94 -47l3 17l105 52h3l-52 -372h-15zM40 -12l527 672h17l-526 -672h-18zM372 0q2 31 35 71.5t91 76.5q66 41 92.5 70.5t26.5 66.5q0 32 -22 53.5t-62 21.5q-65 0 -109 -46l-1 1l2 16q45 43 110 43q44 0 70 -24.5t26 -61.5q0 -42 -27 -73.5t-96 -75.5
q-107 -68 -117 -125h221l-2 -14h-238z" />
    <glyph glyph-name="threequarters" unicode="&#xbe;" horiz-adv-x="740" 
d="M293 413q0 -54 -38 -87.5t-95 -33.5q-69 0 -106 34l2 17h1q36 -38 104 -38q49 0 83 29.5t34 77.5q0 39 -25.5 58.5t-64.5 19.5h-30l2 12h30q38 0 67.5 24.5t29.5 66.5q0 31 -22 49t-60 18q-53 0 -95 -32h-1l2 15q42 31 96 31q44 0 70 -20.5t26 -57.5t-21 -63t-54 -36
q65 -16 65 -84zM661 660h17l-526 -672h-18zM680 103l-2 -12h-75l-13 -91h-14l13 91h-206l1 4l253 285h6l-39 -277h76zM408 103h183l34 244z" />
    <glyph glyph-name="questiondown" unicode="&#xbf;" horiz-adv-x="395" 
d="M335 528q16 0 16 -16q0 -8 -5.5 -14t-13.5 -6q-16 0 -16 16q0 8 5.5 14t13.5 6zM322 356q-9 -62 -31 -103t-74 -81q-37 -28 -58.5 -49t-40 -58.5t-18.5 -81.5q0 -56 36 -91t95 -35q87 0 141 64h1l-2 -18q-53 -60 -142 -60q-61 0 -102 39t-41 98q0 67 32.5 112.5
t92.5 90.5q49 37 68.5 76.5t28.5 96.5h14z" />
    <glyph glyph-name="Agrave" unicode="&#xc0;" horiz-adv-x="602" 
d="M431 702l-150 95l-1 5l6 11l151 -102zM527 0l-65 243h-323l-132 -243h-15l365 675h1l184 -675h-15zM146 256h312l-100 371l-3 15l-8 -15z" />
    <glyph glyph-name="Aacute" unicode="&#xc1;" horiz-adv-x="602" 
d="M456 797l-175 -95l-4 9l178 102l4 -11zM527 0l-65 243h-323l-132 -243h-15l365 675h1l184 -675h-15zM146 256h312l-100 371l-3 15l-8 -15z" />
    <glyph glyph-name="Acircumflex" unicode="&#xc2;" horiz-adv-x="602" 
d="M371 799l-122 -99l-6 8l127 108h7l100 -108l-8 -8zM527 0l-65 243h-323l-132 -243h-15l365 675h1l184 -675h-15zM146 256h312l-100 371l-3 15l-8 -15z" />
    <glyph glyph-name="Atilde" unicode="&#xc3;" horiz-adv-x="602" 
d="M254 725l-1 -1l-11 2q4 29 21.5 46t41.5 17q25 0 66 -22.5t59 -22.5t32.5 12.5t18.5 37.5l1 1l12 -1q-5 -30 -23 -47t-41 -17q-22 0 -63 22.5t-62 22.5q-19 0 -33 -13t-18 -37zM527 0l-65 243h-323l-132 -243h-15l365 675h1l184 -675h-15zM146 256h312l-100 371l-3 15
l-8 -15z" />
    <glyph glyph-name="Adieresis" unicode="&#xc4;" horiz-adv-x="602" 
d="M285 746q-16 0 -16 16q0 9 5.5 14t12.5 5q16 0 16 -16q0 -9 -5.5 -14t-12.5 -5zM450 746q-16 0 -16 16q0 9 5.5 14t12.5 5q16 0 16 -16q0 -9 -5.5 -14t-12.5 -5zM527 0l-65 243h-323l-132 -243h-15l365 675h1l184 -675h-15zM146 256h312l-100 371l-3 15l-8 -15z" />
    <glyph glyph-name="Aring" unicode="&#xc5;" horiz-adv-x="602" 
d="M363 677q-28 0 -45.5 17.5t-17.5 44.5q0 33 20.5 55.5t51.5 22.5q28 0 45.5 -17t17.5 -44q0 -34 -19 -56.5t-53 -22.5zM371 804q-25 0 -41 -18.5t-16 -44.5q0 -23 14 -37t37 -14q27 0 42 18.5t15 44.5q0 22 -14 36.5t-37 14.5zM527 0l-65 243h-323l-132 -243h-15l365 675
h1l184 -675h-15zM146 256h312l-100 371l-3 15l-8 -15z" />
    <glyph glyph-name="AE" unicode="&#xc6;" horiz-adv-x="772" 
d="M758 646h-279l-41 -296h260l-2 -14h-260l-45 -322h294l-2 -14h-309l35 246h-243l-186 -246h-16l502 660h294zM176 259h234l54 380l-32 -41z" />
    <glyph glyph-name="Ccedilla" unicode="&#xc7;" horiz-adv-x="631" 
d="M431 670q114 0 196 -50l-2 -14l-2 -1q-77 52 -194 52q-150 0 -246.5 -104t-96.5 -281q0 -121 75.5 -195t206.5 -74q106 0 187 51l2 -1l-2 -12q-82 -51 -190 -51h-2l-35 -53q18 6 38 6q31 0 50.5 -17t19.5 -50q0 -44 -29 -68t-72 -24q-37 0 -59 11l2 13l1 1q21 -11 57 -11
q37 0 61.5 19t24.5 56q0 27 -15.5 41.5t-40.5 14.5q-34 0 -58 -12l-1 1l2 13l40 59q-128 5 -203 82t-75 199q0 185 100.5 292t259.5 107z" />
    <glyph glyph-name="Egrave" unicode="&#xc8;" horiz-adv-x="522" 
d="M422 702l-150 95l-1 5l6 11l151 -102zM508 646h-326l-41 -295h307l-2 -14h-307l-45 -323h341l-2 -14h-355l92 660h340z" />
    <glyph glyph-name="Eacute" unicode="&#xc9;" horiz-adv-x="522" 
d="M447 797l-175 -95l-4 9l178 102l4 -11zM508 646h-326l-41 -295h307l-2 -14h-307l-45 -323h341l-2 -14h-355l92 660h340z" />
    <glyph glyph-name="Ecircumflex" unicode="&#xca;" horiz-adv-x="522" 
d="M362 799l-122 -99l-6 8l127 108h7l100 -108l-8 -8zM508 646h-326l-41 -295h307l-2 -14h-307l-45 -323h341l-2 -14h-355l92 660h340z" />
    <glyph glyph-name="Edieresis" unicode="&#xcb;" horiz-adv-x="522" 
d="M276 746q-16 0 -16 16q0 9 5.5 14t12.5 5q16 0 16 -16q0 -9 -5.5 -14t-12.5 -5zM441 746q-16 0 -16 16q0 9 5.5 14t12.5 5q16 0 16 -16q0 -9 -5.5 -14t-12.5 -5zM508 646h-326l-41 -295h307l-2 -14h-307l-45 -323h341l-2 -14h-355l92 660h340z" />
    <glyph glyph-name="Igrave" unicode="&#xcc;" horiz-adv-x="242" 
d="M254 702l-150 95l-1 5l6 11l151 -102zM78 0l92 660h14l-92 -660h-14z" />
    <glyph glyph-name="Iacute" unicode="&#xcd;" horiz-adv-x="242" 
d="M104 702l-4 9l178 102l4 -11l-3 -5zM78 0l92 660h14l-92 -660h-14z" />
    <glyph glyph-name="Icircumflex" unicode="&#xce;" horiz-adv-x="242" 
d="M72 700l-6 8l127 108h7l100 -108l-8 -8l-98 99zM78 0l92 660h14l-92 -660h-14z" />
    <glyph glyph-name="Idieresis" unicode="&#xcf;" horiz-adv-x="242" 
d="M108 746q-16 0 -16 16q0 9 5.5 14t12.5 5q16 0 16 -16q0 -9 -5.5 -14t-12.5 -5zM273 746q-16 0 -16 16q0 9 5.5 14t12.5 5q16 0 16 -16q0 -9 -5.5 -14t-12.5 -5zM78 0l92 660h14l-92 -660h-14z" />
    <glyph glyph-name="Eth" unicode="&#xd0;" horiz-adv-x="705" 
d="M330 667q154 0 239 -77t85 -210q0 -177 -105.5 -279.5t-296.5 -102.5q-99 0 -174 5l45 321h-88l1 13h89l45 323q72 7 160 7zM254 13q182 0 283 98.5t101 263.5q0 129 -80.5 203.5t-230.5 74.5q-87 0 -145 -6l-43 -310h113l-1 -13h-114l-43 -306q53 -5 160 -5z" />
    <glyph glyph-name="Ntilde" unicode="&#xd1;" horiz-adv-x="711" 
d="M316 724l-11 2q4 29 21.5 46t41.5 17t65 -22.5t60 -22.5q18 0 32.5 12.5t18.5 37.5l1 1l12 -1q-5 -30 -23 -47t-41 -17q-22 0 -63 22.5t-62 22.5q-19 0 -33 -13t-18 -37zM78 0l93 668h4l374 -638h2l88 630h14l-93 -671h-1l-377 640h-2l-88 -629h-14z" />
    <glyph glyph-name="Ograve" unicode="&#xd2;" horiz-adv-x="752" 
d="M509 702l-150 95l-1 5l6 11l151 -102zM372 -10q-137 0 -218 78t-81 218q0 178 95 281t239 103q132 0 212 -79.5t80 -220.5q0 -175 -94 -277.5t-233 -102.5zM374 3q132 0 221 98.5t89 268.5q0 136 -75.5 211.5t-202.5 75.5q-139 0 -228.5 -99t-89.5 -271q0 -135 77 -209.5
t209 -74.5z" />
    <glyph glyph-name="Oacute" unicode="&#xd3;" horiz-adv-x="752" 
d="M359 702l-4 9l178 102l4 -11l-3 -5zM372 -10q-137 0 -218 78t-81 218q0 178 95 281t239 103q132 0 212 -79.5t80 -220.5q0 -175 -94 -277.5t-233 -102.5zM374 3q132 0 221 98.5t89 268.5q0 136 -75.5 211.5t-202.5 75.5q-139 0 -228.5 -99t-89.5 -271q0 -135 77 -209.5
t209 -74.5z" />
    <glyph glyph-name="Ocircumflex" unicode="&#xd4;" horiz-adv-x="752" 
d="M327 700l-6 8l127 108h7l100 -108l-8 -8l-98 99zM372 -10q-137 0 -218 78t-81 218q0 178 95 281t239 103q132 0 212 -79.5t80 -220.5q0 -175 -94 -277.5t-233 -102.5zM374 3q132 0 221 98.5t89 268.5q0 136 -75.5 211.5t-202.5 75.5q-139 0 -228.5 -99t-89.5 -271
q0 -135 77 -209.5t209 -74.5z" />
    <glyph glyph-name="Otilde" unicode="&#xd5;" horiz-adv-x="752" 
d="M331 724l-11 2q4 29 21.5 46t41.5 17q25 0 65.5 -22.5t59.5 -22.5q18 0 32.5 12.5t18.5 37.5l1 1l12 -1q-5 -30 -23 -47t-41 -17q-22 0 -63 22.5t-62 22.5q-19 0 -33 -13t-18 -37zM372 -10q-137 0 -218 78t-81 218q0 178 95 281t239 103q132 0 212 -79.5t80 -220.5
q0 -175 -94 -277.5t-233 -102.5zM374 3q132 0 221 98.5t89 268.5q0 136 -75.5 211.5t-202.5 75.5q-139 0 -228.5 -99t-89.5 -271q0 -135 77 -209.5t209 -74.5z" />
    <glyph glyph-name="Odieresis" unicode="&#xd6;" horiz-adv-x="752" 
d="M363 746q-16 0 -16 16q0 9 5.5 14t12.5 5q16 0 16 -16q0 -9 -5.5 -14t-12.5 -5zM528 746q-16 0 -16 16q0 9 5.5 14t12.5 5q16 0 16 -16q0 -9 -5.5 -14t-12.5 -5zM372 -10q-137 0 -218 78t-81 218q0 178 95 281t239 103q132 0 212 -79.5t80 -220.5q0 -175 -94 -277.5
t-233 -102.5zM374 3q132 0 221 98.5t89 268.5q0 136 -75.5 211.5t-202.5 75.5q-139 0 -228.5 -99t-89.5 -271q0 -135 77 -209.5t209 -74.5z" />
    <glyph glyph-name="multiply" unicode="&#xd7;" horiz-adv-x="481" 
d="M441 453l-184 -163l136 -163l-10 -9l-137 163l-184 -163l-9 11l184 163l-138 164l11 9l137 -164l184 163z" />
    <glyph glyph-name="Oslash" unicode="&#xd8;" horiz-adv-x="752" 
d="M607 602q92 -81 92 -232q0 -175 -94 -277.5t-233 -102.5q-121 0 -200 62l-89 -112h-14v2l94 118q-90 79 -90 226q0 178 95 281t239 103q116 0 191 -61l88 111h12v-2zM88 287q0 -140 84 -216l418 527q-73 59 -184 59q-139 0 -228.5 -99t-89.5 -271zM374 3q132 0 221 98.5
t89 268.5q0 145 -86 221l-417 -527q73 -61 193 -61z" />
    <glyph glyph-name="Ugrave" unicode="&#xd9;" horiz-adv-x="683" 
d="M475 702l-150 95l-1 5l6 11l151 -102zM313 -15q-103 0 -159 53.5t-56 151.5q0 30 4 55l57 415h15l-57 -414q-4 -25 -4 -53q0 -94 52.5 -143.5t149.5 -49.5q101 0 166 64t81 182l57 414h14l-57 -415q-17 -125 -84.5 -192.5t-178.5 -67.5z" />
    <glyph glyph-name="Uacute" unicode="&#xda;" horiz-adv-x="683" 
d="M325 702l-4 9l178 102l4 -11l-3 -5zM313 -15q-103 0 -159 53.5t-56 151.5q0 30 4 55l57 415h15l-57 -414q-4 -25 -4 -53q0 -94 52.5 -143.5t149.5 -49.5q101 0 166 64t81 182l57 414h14l-57 -415q-17 -125 -84.5 -192.5t-178.5 -67.5z" />
    <glyph glyph-name="Ucircumflex" unicode="&#xdb;" horiz-adv-x="683" 
d="M293 700l-6 8l127 108h7l100 -108l-8 -8l-98 99zM313 -15q-103 0 -159 53.5t-56 151.5q0 30 4 55l57 415h15l-57 -414q-4 -25 -4 -53q0 -94 52.5 -143.5t149.5 -49.5q101 0 166 64t81 182l57 414h14l-57 -415q-17 -125 -84.5 -192.5t-178.5 -67.5z" />
    <glyph glyph-name="Udieresis" unicode="&#xdc;" horiz-adv-x="683" 
d="M329 746q-16 0 -16 16q0 9 5.5 14t12.5 5q16 0 16 -16q0 -9 -5.5 -14t-12.5 -5zM494 746q-16 0 -16 16q0 9 5.5 14t12.5 5q16 0 16 -16q0 -9 -5.5 -14t-12.5 -5zM313 -15q-103 0 -159 53.5t-56 151.5q0 30 4 55l57 415h15l-57 -414q-4 -25 -4 -53q0 -94 52.5 -143.5
t149.5 -49.5q101 0 166 64t81 182l57 414h14l-57 -415q-17 -125 -84.5 -192.5t-178.5 -67.5z" />
    <glyph glyph-name="Yacute" unicode="&#xdd;" horiz-adv-x="548" 
d="M259 702l-4 9l178 102l4 -11l-3 -5zM231 0l40 288l-184 370l1 2h13l179 -358l278 358h13l1 -2l-287 -370l-40 -288h-14z" />
    <glyph glyph-name="Thorn" unicode="&#xde;" horiz-adv-x="514" 
d="M260 522q106 0 157 -46.5t51 -124.5q0 -94 -66 -150t-193 -56q-53 0 -96 5l-21 -150h-14l92 660h14l-20 -145q49 7 96 7zM211 159q118 0 180 51t62 140q0 72 -47.5 115t-148.5 43q-62 0 -95 -6l-47 -338q53 -5 96 -5z" />
    <glyph glyph-name="germandbls" unicode="&#xdf;" horiz-adv-x="573" 
d="M354 -12q-83 0 -119 42l2 16l2 1q38 -44 117 -44q62 0 101 33.5t39 95.5q0 42 -19 66.5t-62 48.5q-21 12 -33.5 20t-27 20.5t-21 27.5t-6.5 34q0 26 10 47t22.5 33t42.5 36q67 56 67 125q0 51 -39.5 79.5t-92.5 28.5q-74 0 -125 -43.5t-63 -132.5l-73 -522h-14l73 523
q14 96 68.5 142.5t135.5 46.5q57 0 101 -32t44 -88q0 -78 -75 -138q-41 -34 -52 -50q-15 -23 -15 -53t19.5 -49.5t60.5 -41.5q46 -26 67.5 -53.5t21.5 -72.5q0 -70 -43.5 -108t-113.5 -38z" />
    <glyph glyph-name="agrave" unicode="&#xe0;" horiz-adv-x="531" 
d="M348 575l-142 106l-1 5l11 12l138 -114zM473 25l2 -1l-2 -14q-17 -15 -44 -15q-50 0 -50 52q0 6 2 24l3 20l2 13q-77 -115 -201 -115q-66 0 -110 34t-44 94q0 84 61 124t149 40q48 0 95.5 -9.5t69.5 -21.5l11 77q3 20 3 38q0 73 -43.5 110.5t-118.5 37.5
q-49 0 -93.5 -14.5t-66.5 -36.5l-2 1l2 14q19 19 63.5 34.5t97.5 15.5q79 0 127 -41.5t48 -118.5q0 -19 -3 -40l-34 -246l-3 -22q-4 -50 39 -50q21 0 40 16zM185 3q127 0 204 125l15 108q-60 31 -165 31q-81 0 -137 -35.5t-56 -111.5q0 -54 40 -85.5t99 -31.5z" />
    <glyph glyph-name="aacute" unicode="&#xe1;" horiz-adv-x="531" 
d="M378 685l-137 -114l-6 9l132 121l11 -11v-5zM473 25l2 -1l-2 -14q-17 -15 -44 -15q-50 0 -50 52q0 6 2 24l3 20l2 13q-77 -115 -201 -115q-66 0 -110 34t-44 94q0 84 61 124t149 40q48 0 95.5 -9.5t69.5 -21.5l11 77q3 20 3 38q0 73 -43.5 110.5t-118.5 37.5
q-49 0 -93.5 -14.5t-66.5 -36.5l-2 1l2 14q19 19 63.5 34.5t97.5 15.5q79 0 127 -41.5t48 -118.5q0 -19 -3 -40l-34 -246l-3 -22q-4 -50 39 -50q21 0 40 16zM185 3q127 0 204 125l15 108q-60 31 -165 31q-81 0 -137 -35.5t-56 -111.5q0 -54 40 -85.5t99 -31.5z" />
    <glyph glyph-name="acircumflex" unicode="&#xe2;" horiz-adv-x="531" 
d="M302 685l-119 -115l-6 6l123 128h7l88 -128l-8 -6zM473 25l2 -1l-2 -14q-17 -15 -44 -15q-50 0 -50 52q0 6 2 24l3 20l2 13q-77 -115 -201 -115q-66 0 -110 34t-44 94q0 84 61 124t149 40q48 0 95.5 -9.5t69.5 -21.5l11 77q3 20 3 38q0 73 -43.5 110.5t-118.5 37.5
q-49 0 -93.5 -14.5t-66.5 -36.5l-2 1l2 14q19 19 63.5 34.5t97.5 15.5q79 0 127 -41.5t48 -118.5q0 -19 -3 -40l-34 -246l-3 -22q-4 -50 39 -50q21 0 40 16zM185 3q127 0 204 125l15 108q-60 31 -165 31q-81 0 -137 -35.5t-56 -111.5q0 -54 40 -85.5t99 -31.5z" />
    <glyph glyph-name="atilde" unicode="&#xe3;" horiz-adv-x="531" 
d="M175 611l-1 -1l-12 1q4 30 21.5 47t42.5 17q28 0 75 -22.5t69 -22.5q17 0 32 12.5t19 37.5l1 1l12 -1q-5 -30 -23.5 -47t-41.5 -17q-26 0 -72.5 22.5t-70.5 22.5q-19 0 -33 -13t-18 -37zM473 25l2 -1l-2 -14q-17 -15 -44 -15q-50 0 -50 52q0 6 2 24l3 20l2 13
q-77 -115 -201 -115q-66 0 -110 34t-44 94q0 84 61 124t149 40q48 0 95.5 -9.5t69.5 -21.5l11 77q3 20 3 38q0 73 -43.5 110.5t-118.5 37.5q-49 0 -93.5 -14.5t-66.5 -36.5l-2 1l2 14q19 19 63.5 34.5t97.5 15.5q79 0 127 -41.5t48 -118.5q0 -19 -3 -40l-34 -246l-3 -22
q-4 -50 39 -50q21 0 40 16zM185 3q127 0 204 125l15 108q-60 31 -165 31q-81 0 -137 -35.5t-56 -111.5q0 -54 40 -85.5t99 -31.5z" />
    <glyph glyph-name="adieresis" unicode="&#xe4;" horiz-adv-x="531" 
d="M220 646q-16 0 -16 16q0 9 5.5 14t12.5 5q16 0 16 -16q0 -9 -5.5 -14t-12.5 -5zM372 646q-16 0 -16 16q0 9 5.5 14t12.5 5q16 0 16 -16q0 -9 -5.5 -14t-12.5 -5zM473 25l2 -1l-2 -14q-17 -15 -44 -15q-50 0 -50 52q0 6 2 24l3 20l2 13q-77 -115 -201 -115q-66 0 -110 34
t-44 94q0 84 61 124t149 40q48 0 95.5 -9.5t69.5 -21.5l11 77q3 20 3 38q0 73 -43.5 110.5t-118.5 37.5q-49 0 -93.5 -14.5t-66.5 -36.5l-2 1l2 14q19 19 63.5 34.5t97.5 15.5q79 0 127 -41.5t48 -118.5q0 -19 -3 -40l-34 -246l-3 -22q-4 -50 39 -50q21 0 40 16zM185 3
q127 0 204 125l15 108q-60 31 -165 31q-81 0 -137 -35.5t-56 -111.5q0 -54 40 -85.5t99 -31.5z" />
    <glyph glyph-name="aring" unicode="&#xe5;" horiz-adv-x="531" 
d="M291 569q-27 0 -44 17.5t-17 44.5q0 33 20.5 55.5t51.5 22.5q28 0 45.5 -17t17.5 -44q0 -34 -19.5 -56.5t-54.5 -22.5zM301 696q-25 0 -41 -18.5t-16 -44.5q0 -22 13 -36.5t36 -14.5q28 0 43.5 18.5t15.5 44.5q0 22 -14 36.5t-37 14.5zM473 25l2 -1l-2 -14
q-17 -15 -44 -15q-50 0 -50 52q0 6 2 24l3 20l2 13q-77 -115 -201 -115q-66 0 -110 34t-44 94q0 84 61 124t149 40q48 0 95.5 -9.5t69.5 -21.5l11 77q3 20 3 38q0 73 -43.5 110.5t-118.5 37.5q-49 0 -93.5 -14.5t-66.5 -36.5l-2 1l2 14q19 19 63.5 34.5t97.5 15.5
q79 0 127 -41.5t48 -118.5q0 -19 -3 -40l-34 -246l-3 -22q-4 -50 39 -50q21 0 40 16zM185 3q127 0 204 125l15 108q-60 31 -165 31q-81 0 -137 -35.5t-56 -111.5q0 -54 40 -85.5t99 -31.5z" />
    <glyph glyph-name="ae" unicode="&#xe6;" horiz-adv-x="914" 
d="M678 527q97 0 141.5 -55.5t44.5 -134.5q0 -30 -8 -68h-414q-3 -24 -3 -51q0 -104 57.5 -160.5t147.5 -56.5q98 0 159 47l2 -1l-2 -14q-63 -46 -161 -46q-92 0 -153 56t-65 160q-10 -40 -26 -75.5t-41 -68t-62 -51.5t-81 -19q-83 0 -127 53.5t-44 143.5q0 159 79 250
t192 91q74 0 114 -22t72 -62q73 84 178 84zM426 262q10 99 65 170q-31 40 -70.5 60.5t-108.5 20.5q-105 0 -179 -86.5t-74 -237.5q0 -84 39.5 -135t116.5 -51q46 0 84 23t62.5 62.5t40 82t24.5 91.5zM444 283h401q5 30 5 55q0 71 -41 123t-132 52q-85 0 -150.5 -62
t-82.5 -168z" />
    <glyph glyph-name="ccedilla" unicode="&#xe7;" horiz-adv-x="489" 
d="M343 528q77 0 121 -28l-1 -13l-2 -1q-45 28 -120 28q-113 0 -190 -79t-77 -218q0 -99 53.5 -156.5t148.5 -57.5q71 0 135 36l2 -1l-2 -13q-62 -35 -132 -36l-35 -52q18 6 38 6q31 0 50.5 -17t19.5 -50q0 -44 -29 -68t-72 -24q-37 0 -59 11l2 13l1 1q21 -11 57 -11
q37 0 61.5 19t24.5 56q0 27 -15.5 41.5t-40.5 14.5q-34 0 -58 -12l-1 1l2 13l40 58q-96 3 -151 64t-55 162q0 145 82.5 229t201.5 84z" />
    <glyph glyph-name="egrave" unicode="&#xe8;" horiz-adv-x="549" 
d="M383 575l-142 106l-1 5l11 12l138 -114zM313 527q97 0 141.5 -55.5t44.5 -134.5q0 -30 -8 -68h-414q-3 -24 -3 -51q0 -104 57.5 -160.5t147.5 -56.5q98 0 159 47l2 -1l-2 -14q-63 -46 -161 -46q-96 0 -157 60t-61 170q0 138 75 224t179 86zM79 283h401q5 30 5 55
q0 71 -41 123t-132 52q-85 0 -150.5 -62t-82.5 -168z" />
    <glyph glyph-name="eacute" unicode="&#xe9;" horiz-adv-x="549" 
d="M413 685l-137 -114l-6 9l132 121l11 -11v-5zM313 527q97 0 141.5 -55.5t44.5 -134.5q0 -30 -8 -68h-414q-3 -24 -3 -51q0 -104 57.5 -160.5t147.5 -56.5q98 0 159 47l2 -1l-2 -14q-63 -46 -161 -46q-96 0 -157 60t-61 170q0 138 75 224t179 86zM79 283h401q5 30 5 55
q0 71 -41 123t-132 52q-85 0 -150.5 -62t-82.5 -168z" />
    <glyph glyph-name="ecircumflex" unicode="&#xea;" horiz-adv-x="549" 
d="M337 685l-119 -115l-6 6l123 128h7l88 -128l-8 -6zM313 527q97 0 141.5 -55.5t44.5 -134.5q0 -30 -8 -68h-414q-3 -24 -3 -51q0 -104 57.5 -160.5t147.5 -56.5q98 0 159 47l2 -1l-2 -14q-63 -46 -161 -46q-96 0 -157 60t-61 170q0 138 75 224t179 86zM79 283h401
q5 30 5 55q0 71 -41 123t-132 52q-85 0 -150.5 -62t-82.5 -168z" />
    <glyph glyph-name="edieresis" unicode="&#xeb;" horiz-adv-x="549" 
d="M255 646q-16 0 -16 16q0 9 5.5 14t12.5 5q16 0 16 -16q0 -9 -5.5 -14t-12.5 -5zM407 646q-16 0 -16 16q0 9 5.5 14t12.5 5q16 0 16 -16q0 -9 -5.5 -14t-12.5 -5zM313 527q97 0 141.5 -55.5t44.5 -134.5q0 -30 -8 -68h-414q-3 -24 -3 -51q0 -104 57.5 -160.5t147.5 -56.5
q98 0 159 47l2 -1l-2 -14q-63 -46 -161 -46q-96 0 -157 60t-61 170q0 138 75 224t179 86zM79 283h401q5 30 5 55q0 71 -41 123t-132 52q-85 0 -150.5 -62t-82.5 -168z" />
    <glyph glyph-name="igrave" unicode="&#xec;" horiz-adv-x="210" 
d="M203 568l-127 123v5l12 10l122 -131zM62 0l72 516h14l-72 -516h-14z" />
    <glyph glyph-name="iacute" unicode="&#xed;" horiz-adv-x="210" 
d="M93 571l-6 9l132 121l11 -11v-5zM61 0l72 516h14l-72 -516h-14z" />
    <glyph glyph-name="icircumflex" unicode="&#xee;" horiz-adv-x="210" 
d="M47 570l-6 6l123 128h7l88 -128l-8 -6l-88 115zM62 0l72 516h14l-72 -516h-14z" />
    <glyph glyph-name="idieresis" unicode="&#xef;" horiz-adv-x="220" 
d="M91 646q-16 0 -16 16q0 9 5.5 14t12.5 5q16 0 16 -16q0 -9 -5.5 -14t-12.5 -5zM222 646q-16 0 -16 16q0 9 5.5 14t12.5 5q16 0 16 -16q0 -9 -5.5 -14t-12.5 -5zM65 0l72 516h14l-72 -516h-14z" />
    <glyph glyph-name="eth" unicode="&#xf0;" horiz-adv-x="614" 
d="M463 673q89 -80 89 -277t-78.5 -303t-209.5 -106q-93 0 -150 59.5t-57 156.5q0 124 75 204t197 80q85 0 137 -41t71 -95q1 14 1 44q0 193 -85 268l-113 -104l-9 10l112 102q-46 36 -116 36q-77 0 -143 -30l-1 1l2 12q66 30 144 30q73 0 124 -39l100 91l7 -10zM266 1
q109 0 181.5 81t87.5 237q-5 22 -18.5 46.5t-37.5 50t-63.5 41.5t-88.5 16q-115 0 -185 -75t-70 -193q0 -91 53.5 -147.5t140.5 -56.5z" />
    <glyph glyph-name="ntilde" unicode="&#xf1;" horiz-adv-x="581" 
d="M217 611l-1 -1l-12 1q4 30 21.5 47t42.5 17q28 0 75 -22.5t69 -22.5q17 0 32 12.5t19 37.5l1 1l12 -1q-5 -30 -23.5 -47t-41.5 -17q-26 0 -72.5 22.5t-70.5 22.5q-19 0 -33 -13t-18 -37zM332 527q71 0 119.5 -41.5t48.5 -127.5q0 -36 -5 -71l-40 -287h-14l40 287
q5 32 5 70q0 78 -44.5 117t-110.5 39q-74 0 -133.5 -47t-74.5 -124l-47 -342h-14l72 516h12l-15 -117q24 57 79.5 92.5t121.5 35.5z" />
    <glyph glyph-name="ograve" unicode="&#xf2;" horiz-adv-x="606" 
d="M389 575l-142 106l-1 5l11 12l138 -114zM281 -12q-98 0 -159.5 63.5t-61.5 173.5q0 130 73.5 215.5t189.5 85.5q99 0 161 -63.5t62 -171.5q0 -131 -74 -217t-191 -86zM284 2q111 0 179 83t68 207q0 102 -58 161t-153 59q-110 0 -177.5 -83t-67.5 -204q0 -104 57.5 -163.5
t151.5 -59.5z" />
    <glyph glyph-name="oacute" unicode="&#xf3;" horiz-adv-x="606" 
d="M282 571l-6 9l132 121l11 -11v-5zM281 -12q-98 0 -159.5 63.5t-61.5 173.5q0 130 73.5 215.5t189.5 85.5q99 0 161 -63.5t62 -171.5q0 -131 -74 -217t-191 -86zM284 2q111 0 179 83t68 207q0 102 -58 161t-153 59q-110 0 -177.5 -83t-67.5 -204q0 -104 57.5 -163.5
t151.5 -59.5z" />
    <glyph glyph-name="ocircumflex" unicode="&#xf4;" horiz-adv-x="606" 
d="M224 570l-6 6l123 128h7l88 -128l-8 -6l-85 115zM281 -12q-98 0 -159.5 63.5t-61.5 173.5q0 130 73.5 215.5t189.5 85.5q99 0 161 -63.5t62 -171.5q0 -131 -74 -217t-191 -86zM284 2q111 0 179 83t68 207q0 102 -58 161t-153 59q-110 0 -177.5 -83t-67.5 -204
q0 -104 57.5 -163.5t151.5 -59.5z" />
    <glyph glyph-name="otilde" unicode="&#xf5;" horiz-adv-x="606" 
d="M215 610l-12 1q4 30 21.5 47t42.5 17q27 0 75 -22.5t69 -22.5q17 0 32 12.5t19 37.5l1 1l12 -1q-5 -30 -23.5 -47t-41.5 -17q-26 0 -72.5 22.5t-70.5 22.5q-19 0 -33 -13t-18 -37zM281 -12q-98 0 -159.5 63.5t-61.5 173.5q0 130 73.5 215.5t189.5 85.5q99 0 161 -63.5
t62 -171.5q0 -131 -74 -217t-191 -86zM284 2q111 0 179 83t68 207q0 102 -58 161t-153 59q-110 0 -177.5 -83t-67.5 -204q0 -104 57.5 -163.5t151.5 -59.5z" />
    <glyph glyph-name="odieresis" unicode="&#xf6;" horiz-adv-x="606" 
d="M261 646q-16 0 -16 16q0 9 5.5 14t12.5 5q16 0 16 -16q0 -9 -5.5 -14t-12.5 -5zM413 646q-16 0 -16 16q0 9 5.5 14t12.5 5q16 0 16 -16q0 -9 -5.5 -14t-12.5 -5zM281 -12q-98 0 -159.5 63.5t-61.5 173.5q0 130 73.5 215.5t189.5 85.5q99 0 161 -63.5t62 -171.5
q0 -131 -74 -217t-191 -86zM284 2q111 0 179 83t68 207q0 102 -58 161t-153 59q-110 0 -177.5 -83t-67.5 -204q0 -104 57.5 -163.5t151.5 -59.5z" />
    <glyph glyph-name="divide" unicode="&#xf7;" horiz-adv-x="497" 
d="M271 415q-15 0 -15 16q0 8 5.5 14t13.5 6q16 0 16 -16q0 -8 -6 -14t-14 -6zM90 286l1 14h326l-1 -14h-326zM231 128q-16 0 -16 16q0 8 6.5 14t14.5 6q14 0 14 -16q0 -8 -5.5 -14t-13.5 -6z" />
    <glyph glyph-name="oslash" unicode="&#xf8;" horiz-adv-x="606" 
d="M466 479q80 -64 80 -188q0 -131 -74 -217t-191 -86q-71 0 -125 34l-50 -74h-14v3l53 79q-85 64 -85 195q0 130 73.5 215.5t189.5 85.5q76 0 132 -39l53 79h14l1 -3zM75 225q0 -122 79 -183l293 433q-54 37 -127 37q-110 0 -177.5 -83t-67.5 -204zM284 2q111 0 179 83
t68 207q0 115 -73 175l-293 -432q49 -33 119 -33z" />
    <glyph glyph-name="ugrave" unicode="&#xf9;" horiz-adv-x="565" 
d="M386 575l-142 106l-1 5l11 12l138 -114zM489 516h14l-72 -516h-12l12 97q-31 -48 -81 -78t-113 -30q-73 0 -115 40t-42 120q0 21 4 59l43 308h15l-44 -308q-4 -36 -4 -57q0 -72 38.5 -110t105.5 -38q60 0 111.5 32t84.5 87z" />
    <glyph glyph-name="uacute" unicode="&#xfa;" horiz-adv-x="565" 
d="M416 685l-137 -114l-6 9l132 121l11 -11v-5zM489 516h14l-72 -516h-12l12 97q-31 -48 -81 -78t-113 -30q-73 0 -115 40t-42 120q0 21 4 59l43 308h15l-44 -308q-4 -36 -4 -57q0 -72 38.5 -110t105.5 -38q60 0 111.5 32t84.5 87z" />
    <glyph glyph-name="ucircumflex" unicode="&#xfb;" horiz-adv-x="565" 
d="M340 685l-119 -115l-6 6l123 128h7l88 -128l-8 -6zM489 516h14l-72 -516h-12l12 97q-31 -48 -81 -78t-113 -30q-73 0 -115 40t-42 120q0 21 4 59l43 308h15l-44 -308q-4 -36 -4 -57q0 -72 38.5 -110t105.5 -38q60 0 111.5 32t84.5 87z" />
    <glyph glyph-name="udieresis" unicode="&#xfc;" horiz-adv-x="565" 
d="M258 646q-16 0 -16 16q0 9 5.5 14t12.5 5q16 0 16 -16q0 -9 -5.5 -14t-12.5 -5zM410 646q-16 0 -16 16q0 9 5.5 14t12.5 5q16 0 16 -16q0 -9 -5.5 -14t-12.5 -5zM489 516h14l-72 -516h-12l12 97q-31 -48 -81 -78t-113 -30q-73 0 -115 40t-42 120q0 21 4 59l43 308h15
l-44 -308q-4 -36 -4 -57q0 -72 38.5 -110t105.5 -38q60 0 111.5 32t84.5 87z" />
    <glyph glyph-name="yacute" unicode="&#xfd;" horiz-adv-x="508" 
d="M399 685l-137 -114l-6 9l132 121l11 -11v-5zM512 516l1 -2l-285 -526q-50 -87 -85 -121t-95 -34q-21 0 -48 6l2 13l2 1q26 -6 46 -6q55 0 88 32.5t77 110.5l7 12l-153 512l1 2h15l146 -495l267 495h14z" />
    <glyph glyph-name="thorn" unicode="&#xfe;" horiz-adv-x="579" 
d="M332 527q82 0 134.5 -53t52.5 -151q0 -161 -79 -247.5t-197 -86.5q-99 0 -163 41l-27 -194h-14l122 874h14l-44 -312q26 63 80.5 96t120.5 33zM244 3q110 0 184.5 81.5t74.5 234.5q0 95 -48.5 144.5t-123.5 49.5q-68 0 -126 -40.5t-80 -123.5l-42 -301q58 -45 161 -45z
" />
    <glyph glyph-name="ydieresis" unicode="&#xff;" horiz-adv-x="508" 
d="M241 646q-16 0 -16 16q0 9 5.5 14t12.5 5q16 0 16 -16q0 -9 -5.5 -14t-12.5 -5zM393 646q-16 0 -16 16q0 9 5.5 14t12.5 5q16 0 16 -16q0 -9 -5.5 -14t-12.5 -5zM512 516l1 -2l-285 -526q-50 -87 -85 -121t-95 -34q-21 0 -48 6l2 13l2 1q26 -6 46 -6q55 0 88 32.5
t77 110.5l7 12l-153 512l1 2h15l146 -495l267 495h14z" />
    <glyph glyph-name="Amacron" unicode="&#x100;" horiz-adv-x="602" 
d="M486 769l-1 -13h-235l1 13h235zM527 0l-65 243h-323l-132 -243h-15l365 675h1l184 -675h-15zM146 256h312l-100 371l-3 15l-8 -15z" />
    <glyph glyph-name="amacron" unicode="&#x101;" horiz-adv-x="531" 
d="M429 645l-2 -14h-263l2 14h263zM473 25l2 -1l-2 -14q-17 -15 -44 -15q-50 0 -50 52q0 6 2 24l3 20l2 13q-77 -115 -201 -115q-66 0 -110 34t-44 94q0 84 61 124t149 40q48 0 95.5 -9.5t69.5 -21.5l11 77q3 20 3 38q0 73 -43.5 110.5t-118.5 37.5q-49 0 -93.5 -14.5
t-66.5 -36.5l-2 1l2 14q19 19 63.5 34.5t97.5 15.5q79 0 127 -41.5t48 -118.5q0 -19 -3 -40l-34 -246l-3 -22q-4 -50 39 -50q21 0 40 16zM185 3q127 0 204 125l15 108q-60 31 -165 31q-81 0 -137 -35.5t-56 -111.5q0 -54 40 -85.5t99 -31.5z" />
    <glyph glyph-name="Abreve" unicode="&#x102;" horiz-adv-x="602" 
d="M362 703q-48 0 -74.5 29.5t-19.5 80.5l9 1q-3 -44 21 -70.5t64 -26.5q43 0 74.5 26.5t38.5 70.5l9 -1q-7 -52 -40 -81t-82 -29zM527 0l-65 243h-323l-132 -243h-15l365 675h1l184 -675h-15zM146 256h312l-100 371l-3 15l-8 -15z" />
    <glyph glyph-name="abreve" unicode="&#x103;" horiz-adv-x="531" 
d="M290 579q-46 0 -73 32.5t-19 87.5l10 1l1 -1q-5 -48 18 -77t64 -29q43 0 74 28.5t38 76.5l1 2l10 -1q-7 -57 -40 -88.5t-84 -31.5zM473 25l2 -1l-2 -14q-17 -15 -44 -15q-50 0 -50 52q0 6 2 24l3 20l2 13q-77 -115 -201 -115q-66 0 -110 34t-44 94q0 84 61 124t149 40
q48 0 95.5 -9.5t69.5 -21.5l11 77q3 20 3 38q0 73 -43.5 110.5t-118.5 37.5q-49 0 -93.5 -14.5t-66.5 -36.5l-2 1l2 14q19 19 63.5 34.5t97.5 15.5q79 0 127 -41.5t48 -118.5q0 -19 -3 -40l-34 -246l-3 -22q-4 -50 39 -50q21 0 40 16zM185 3q127 0 204 125l15 108
q-60 31 -165 31q-81 0 -137 -35.5t-56 -111.5q0 -54 40 -85.5t99 -31.5z" />
    <glyph glyph-name="Aogonek" unicode="&#x104;" horiz-adv-x="602" 
d="M541 0q-121 -74 -121 -149q0 -52 57 -52q17 0 28 4l2 -1l-2 -11q-15 -6 -31 -6q-70 0 -70 63q0 83 122 155l-64 240h-323l-132 -243h-15l365 675h1l184 -675h-1zM146 256h312l-100 371l-3 15l-8 -15z" />
    <glyph glyph-name="aogonek" unicode="&#x105;" horiz-adv-x="531" 
d="M454 -1q-120 -73 -120 -148q0 -52 57 -52q17 0 28 4l2 -1l-2 -11q-15 -6 -31 -6q-70 0 -70 63q0 79 109 147q-48 1 -48 52q0 6 2 24l3 20l2 13q-77 -115 -201 -115q-66 0 -110 34t-44 94q0 84 61 124t149 40q48 0 95.5 -9.5t69.5 -21.5l11 77q3 20 3 38q0 73 -43.5 110.5
t-118.5 37.5q-49 0 -93.5 -14.5t-66.5 -36.5l-2 1l2 14q19 19 63.5 34.5t97.5 15.5q79 0 127 -41.5t48 -118.5q0 -19 -3 -40l-34 -246l-3 -22q-4 -50 39 -50q21 0 40 16l2 -1l-2 -14q-5 -5 -19 -11zM185 3q127 0 204 125l15 108q-60 31 -165 31q-81 0 -137 -35.5t-56 -111.5
q0 -54 40 -85.5t99 -31.5z" />
    <glyph glyph-name="Cacute" unicode="&#x106;" horiz-adv-x="631" 
d="M350 702l-4 9l178 102l4 -11l-3 -5zM365 -10q-136 0 -215 77.5t-79 203.5q0 185 100.5 292t259.5 107q114 0 196 -50l-2 -14l-2 -1q-77 52 -194 52q-150 0 -246.5 -104t-96.5 -281q0 -121 75.5 -195t206.5 -74q106 0 187 51l2 -1l-2 -12q-82 -51 -190 -51z" />
    <glyph glyph-name="cacute" unicode="&#x107;" horiz-adv-x="489" 
d="M280 571l-6 9l132 121l11 -11v-5zM274 -11q-100 0 -157.5 61.5t-57.5 164.5q0 145 82.5 229t201.5 84q77 0 121 -28l-1 -13l-2 -1q-45 28 -120 28q-113 0 -190 -79t-77 -218q0 -99 53.5 -156.5t148.5 -57.5q71 0 135 36l2 -1l-2 -13q-63 -36 -137 -36z" />
    <glyph glyph-name="Cdotaccent" unicode="&#x10a;" horiz-adv-x="631" 
d="M436 747q-16 0 -16 16q0 9 5.5 14t12.5 5q16 0 16 -16q0 -9 -5.5 -14t-12.5 -5zM365 -10q-136 0 -215 77.5t-79 203.5q0 185 100.5 292t259.5 107q114 0 196 -50l-2 -14l-2 -1q-77 52 -194 52q-150 0 -246.5 -104t-96.5 -281q0 -121 75.5 -195t206.5 -74q106 0 187 51
l2 -1l-2 -12q-82 -51 -190 -51z" />
    <glyph glyph-name="cdotaccent" unicode="&#x10b;" horiz-adv-x="489" 
d="M339 647q-16 0 -16 16q0 9 5.5 14t12.5 5q16 0 16 -16q0 -9 -5.5 -14t-12.5 -5zM274 -11q-100 0 -157.5 61.5t-57.5 164.5q0 145 82.5 229t201.5 84q77 0 121 -28l-1 -13l-2 -1q-45 28 -120 28q-113 0 -190 -79t-77 -218q0 -99 53.5 -156.5t148.5 -57.5q71 0 135 36l2 -1
l-2 -13q-63 -36 -137 -36z" />
    <glyph glyph-name="Ccaron" unicode="&#x10c;" horiz-adv-x="631" 
d="M426 701l-100 107l8 8l98 -99l122 99l6 -8l-127 -107h-7zM365 -10q-136 0 -215 77.5t-79 203.5q0 185 100.5 292t259.5 107q114 0 196 -50l-2 -14l-2 -1q-77 52 -194 52q-150 0 -246.5 -104t-96.5 -281q0 -121 75.5 -195t206.5 -74q106 0 187 51l2 -1l-2 -12
q-82 -51 -190 -51z" />
    <glyph glyph-name="ccaron" unicode="&#x10d;" horiz-adv-x="489" 
d="M324 570l-88 128l8 6l86 -115l118 115l6 -6l-123 -128h-7zM274 -11q-100 0 -157.5 61.5t-57.5 164.5q0 145 82.5 229t201.5 84q77 0 121 -28l-1 -13l-2 -1q-45 28 -120 28q-113 0 -190 -79t-77 -218q0 -99 53.5 -156.5t148.5 -57.5q71 0 135 36l2 -1l-2 -13
q-63 -36 -137 -36z" />
    <glyph glyph-name="Dcaron" unicode="&#x10e;" horiz-adv-x="705" 
d="M381 701h-7l-100 107l8 8l98 -99l122 99l6 -8zM330 667q154 0 239 -77t85 -210q0 -177 -105.5 -279.5t-296.5 -102.5q-99 0 -174 5l92 657q72 7 160 7zM254 13q182 0 283 98.5t101 263.5q0 129 -80.5 203.5t-230.5 74.5q-87 0 -145 -6l-88 -629q53 -5 160 -5z" />
    <glyph glyph-name="dcaron" unicode="&#x10f;" horiz-adv-x="576" 
d="M623 714l4 -6l-40 -182h-9l35 188h10zM493 464l34 246h14l-98 -710h-12l12 107l2 11q-27 -65 -80.5 -97t-123.5 -32q-84 0 -134 55.5t-50 150.5q0 151 77.5 241.5t196.5 90.5q51 0 94 -18t68 -45zM242 3q72 0 128.5 39t79.5 118l40 285q-54 68 -162 68q-110 0 -182.5 -86
t-72.5 -228q0 -90 46 -143t123 -53z" />
    <glyph glyph-name="Dcroat" unicode="&#x110;" horiz-adv-x="705" 
d="M330 667q154 0 239 -77t85 -210q0 -177 -105.5 -279.5t-296.5 -102.5q-99 0 -174 5l45 321h-88l1 13h89l45 323q72 7 160 7zM254 13q182 0 283 98.5t101 263.5q0 129 -80.5 203.5t-230.5 74.5q-87 0 -145 -6l-43 -310h113l-1 -13h-114l-43 -306q53 -5 160 -5z" />
    <glyph glyph-name="dcroat" unicode="&#x111;" horiz-adv-x="576" 
d="M624 602l-1 -13h-99l-81 -589h-12l12 107l2 11q-27 -65 -80.5 -97t-123.5 -32q-84 0 -134 55.5t-50 150.5q0 151 77.5 241.5t196.5 90.5q51 0 94 -18t68 -45l17 125h-103l1 13h104l15 108h14l-15 -108h98zM242 3q72 0 128.5 39t79.5 118l40 285q-54 68 -162 68
q-110 0 -182.5 -86t-72.5 -228q0 -90 46 -143t123 -53z" />
    <glyph glyph-name="Emacron" unicode="&#x112;" horiz-adv-x="522" 
d="M477 769l-1 -13h-235l1 13h235zM508 646h-326l-41 -295h307l-2 -14h-307l-45 -323h341l-2 -14h-355l92 660h340z" />
    <glyph glyph-name="emacron" unicode="&#x113;" horiz-adv-x="549" 
d="M464 645l-2 -14h-263l2 14h263zM313 527q97 0 141.5 -55.5t44.5 -134.5q0 -30 -8 -68h-414q-3 -24 -3 -51q0 -104 57.5 -160.5t147.5 -56.5q98 0 159 47l2 -1l-2 -14q-63 -46 -161 -46q-96 0 -157 60t-61 170q0 138 75 224t179 86zM79 283h401q5 30 5 55q0 71 -41 123
t-132 52q-85 0 -150.5 -62t-82.5 -168z" />
    <glyph glyph-name="Edotaccent" unicode="&#x116;" horiz-adv-x="522" 
d="M358 747q-16 0 -16 16q0 9 5.5 14t12.5 5q16 0 16 -16q0 -9 -5.5 -14t-12.5 -5zM508 646h-326l-41 -295h307l-2 -14h-307l-45 -323h341l-2 -14h-355l92 660h340z" />
    <glyph glyph-name="edotaccent" unicode="&#x117;" horiz-adv-x="549" 
d="M335 647q-16 0 -16 16q0 9 5.5 14t12.5 5q16 0 16 -16q0 -9 -5.5 -14t-12.5 -5zM313 527q97 0 141.5 -55.5t44.5 -134.5q0 -30 -8 -68h-414q-3 -24 -3 -51q0 -104 57.5 -160.5t147.5 -56.5q98 0 159 47l2 -1l-2 -14q-63 -46 -161 -46q-96 0 -157 60t-61 170q0 138 75 224
t179 86zM79 283h401q5 30 5 55q0 71 -41 123t-132 52q-85 0 -150.5 -62t-82.5 -168z" />
    <glyph glyph-name="Eogonek" unicode="&#x118;" horiz-adv-x="522" 
d="M508 646h-326l-41 -295h307l-2 -14h-307l-45 -323h341l-2 -14q-121 -74 -121 -149q0 -52 57 -52q17 0 28 4l2 -1l-2 -11q-15 -6 -31 -6q-70 0 -70 63q0 82 117 152h-335l92 660h340z" />
    <glyph glyph-name="eogonek" unicode="&#x119;" horiz-adv-x="549" 
d="M313 527q97 0 141.5 -55.5t44.5 -134.5q0 -30 -8 -68h-414q-3 -24 -3 -51q0 -104 57.5 -160.5t147.5 -56.5q98 0 159 47l2 -1l-2 -14q-34 -24 -72 -35q-117 -73 -117 -147q0 -52 57 -52q17 0 28 4l2 -1l-2 -11q-15 -6 -31 -6q-70 0 -70 63q0 76 103 143q-27 -4 -59 -4
q-96 0 -157 60t-61 170q0 138 75 224t179 86zM79 283h401q5 30 5 55q0 71 -41 123t-132 52q-85 0 -150.5 -62t-82.5 -168z" />
    <glyph glyph-name="Ecaron" unicode="&#x11a;" horiz-adv-x="522" 
d="M355 701h-7l-100 107l8 8l98 -99l122 99l6 -8zM508 646h-326l-41 -295h307l-2 -14h-307l-45 -323h341l-2 -14h-355l92 660h340z" />
    <glyph glyph-name="ecaron" unicode="&#x11b;" horiz-adv-x="549" 
d="M327 570h-7l-88 128l8 6l86 -115l118 115l6 -6zM313 527q97 0 141.5 -55.5t44.5 -134.5q0 -30 -8 -68h-414q-3 -24 -3 -51q0 -104 57.5 -160.5t147.5 -56.5q98 0 159 47l2 -1l-2 -14q-63 -46 -161 -46q-96 0 -157 60t-61 170q0 138 75 224t179 86zM79 283h401q5 30 5 55
q0 71 -41 123t-132 52q-85 0 -150.5 -62t-82.5 -168z" />
    <glyph glyph-name="Gbreve" unicode="&#x11e;" horiz-adv-x="682" 
d="M431 703q-48 0 -74.5 29.5t-19.5 80.5l9 1q-3 -44 21 -70.5t64 -26.5q43 0 74.5 26.5t38.5 70.5l9 -1q-7 -52 -40 -81t-82 -29zM358 -10q-130 0 -208.5 78t-78.5 203q0 184 99.5 291.5t254.5 107.5q126 0 202 -51l-2 -13l-2 -1q-77 52 -199 52q-148 0 -243 -104.5
t-95 -279.5q0 -121 75 -195.5t203 -74.5q121 0 208 61l33 240h14l-34 -246q-99 -68 -227 -68z" />
    <glyph glyph-name="gbreve" unicode="&#x11f;" horiz-adv-x="521" 
d="M293 579q-46 0 -73 32.5t-19 87.5l10 1l1 -1q-5 -48 18 -77t64 -29q43 0 74 28.5t38 76.5l1 2l10 -1q-7 -57 -40 -88.5t-84 -31.5zM514 516l-2 -14l-144 1q81 -35 81 -128q0 -75 -54 -123.5t-138 -48.5q-58 0 -99 23q-15 -9 -23 -14t-16.5 -18t-8.5 -28q0 -27 30 -41.5
t118 -25.5q99 -13 141.5 -38t42.5 -80q0 -75 -68.5 -112.5t-174.5 -37.5q-50 0 -89 8.5t-69.5 34.5t-30.5 69q0 98 153 158q-37 10 -52 24.5t-15 38.5q0 41 50 69q-55 38 -55 109q0 76 55 125t140 49h228zM434 374q0 58 -40 93t-108 36h-2q-78 0 -128 -45.5t-50 -113.5
q0 -58 41 -92t112 -35q77 -1 126 43t49 114zM428 -21q0 50 -40.5 72.5t-135.5 34.5q-56 8 -73 12q-79 -36 -117 -68t-38 -84q0 -30 16.5 -51t44.5 -31.5t56 -14.5t60 -4q98 0 162.5 33.5t64.5 100.5z" />
    <glyph glyph-name="Gdotaccent" unicode="&#x120;" horiz-adv-x="682" 
d="M436 747q-16 0 -16 16q0 9 5.5 14t12.5 5q16 0 16 -16q0 -9 -5.5 -14t-12.5 -5zM358 -10q-130 0 -208.5 78t-78.5 203q0 184 99.5 291.5t254.5 107.5q126 0 202 -51l-2 -13l-2 -1q-77 52 -199 52q-148 0 -243 -104.5t-95 -279.5q0 -121 75 -195.5t203 -74.5q121 0 208 61
l33 240h14l-34 -246q-99 -68 -227 -68z" />
    <glyph glyph-name="gdotaccent" unicode="&#x121;" horiz-adv-x="521" 
d="M303 647q-16 0 -16 16q0 9 5.5 14t12.5 5q16 0 16 -16q0 -9 -5.5 -14t-12.5 -5zM514 516l-2 -14l-144 1q81 -35 81 -128q0 -75 -54 -123.5t-138 -48.5q-58 0 -99 23q-15 -9 -23 -14t-16.5 -18t-8.5 -28q0 -27 30 -41.5t118 -25.5q99 -13 141.5 -38t42.5 -80
q0 -75 -68.5 -112.5t-174.5 -37.5q-50 0 -89 8.5t-69.5 34.5t-30.5 69q0 98 153 158q-37 10 -52 24.5t-15 38.5q0 41 50 69q-55 38 -55 109q0 76 55 125t140 49h228zM434 374q0 58 -40 93t-108 36h-2q-78 0 -128 -45.5t-50 -113.5q0 -58 41 -92t112 -35q77 -1 126 43t49 114
zM428 -21q0 50 -40.5 72.5t-135.5 34.5q-56 8 -73 12q-79 -36 -117 -68t-38 -84q0 -30 16.5 -51t44.5 -31.5t56 -14.5t60 -4q98 0 162.5 33.5t64.5 100.5z" />
    <glyph glyph-name="Gcommaaccent" unicode="&#x122;" horiz-adv-x="682" 
d="M358 -10q-130 0 -208.5 78t-78.5 203q0 184 99.5 291.5t254.5 107.5q126 0 202 -51l-2 -13l-2 -1q-77 52 -199 52q-148 0 -243 -104.5t-95 -279.5q0 -121 75 -195.5t203 -74.5q121 0 208 61l33 240h14l-34 -246q-99 -68 -227 -68zM301 -207q28 63 38 132q1 4 1.5 11.5
t0.5 11.5l14 2l3 -3q-10 -77 -48 -154h-9z" />
    <glyph glyph-name="gcommaaccent" unicode="&#x123;" horiz-adv-x="521" 
d="M309 568l-14 -2l-3 3q10 77 48 154h9q-28 -63 -38 -132q-1 -4 -1.5 -11.5t-0.5 -11.5zM514 516l-2 -14l-144 1q81 -35 81 -128q0 -75 -54 -123.5t-138 -48.5q-58 0 -99 23q-15 -9 -23 -14t-16.5 -18t-8.5 -28q0 -27 30 -41.5t118 -25.5q99 -13 141.5 -38t42.5 -80
q0 -75 -68.5 -112.5t-174.5 -37.5q-50 0 -89 8.5t-69.5 34.5t-30.5 69q0 98 153 158q-37 10 -52 24.5t-15 38.5q0 41 50 69q-55 38 -55 109q0 76 55 125t140 49h228zM434 374q0 58 -40 93t-108 36h-2q-78 0 -128 -45.5t-50 -113.5q0 -58 41 -92t112 -35q77 -1 126 43t49 114
zM428 -21q0 50 -40.5 72.5t-135.5 34.5q-56 8 -73 12q-79 -36 -117 -68t-38 -84q0 -30 16.5 -51t44.5 -31.5t56 -14.5t60 -4q98 0 162.5 33.5t64.5 100.5z" />
    <glyph glyph-name="Hbar" unicode="&#x126;" horiz-adv-x="712" 
d="M673 503l-2 -13h-41l-68 -490h-14l46 332h-456l-46 -332h-14l68 490h-41l2 13h41l22 157h14l-22 -157h456l22 157h14l-22 -157h41zM596 345l20 145h-456l-20 -145h456z" />
    <glyph glyph-name="hbar" unicode="&#x127;" horiz-adv-x="579" 
d="M329 527q76 0 122.5 -42t46.5 -132q0 -29 -4 -56l-41 -297h-14l41 297q4 25 4 54q0 83 -42 122.5t-115 39.5q-70 0 -127.5 -43.5t-74.5 -120.5l-49 -349h-14l84 605h-85l1 13h86l13 92h14l-13 -92h116l-1 -13h-117l-28 -202q25 57 78.5 90.5t118.5 33.5z" />
    <glyph glyph-name="Itilde" unicode="&#x128;" horiz-adv-x="242" 
d="M76 724l-11 2q4 29 21.5 46t41.5 17t65 -22.5t60 -22.5q18 0 32.5 12.5t18.5 37.5l1 1l12 -1q-5 -30 -23 -47t-41 -17q-22 0 -63 22.5t-62 22.5q-19 0 -33 -13t-18 -37zM78 0l92 660h14l-92 -660h-14z" />
    <glyph glyph-name="itilde" unicode="&#x129;" horiz-adv-x="210" 
d="M35 610l-12 1q4 29 23 46.5t43 17.5q27 0 74 -22.5t68 -22.5q17 0 32 12.5t19 37.5l1 1l12 -1q-5 -30 -24 -47t-42 -17q-26 0 -72 22.5t-70 22.5q-19 0 -33 -13t-18 -37zM61 0l73 516h14l-72 -516h-15z" />
    <glyph glyph-name="Imacron" unicode="&#x12a;" horiz-adv-x="242" 
d="M73 756l1 13h235l-1 -13h-235zM78 0l92 660h14l-92 -660h-14z" />
    <glyph glyph-name="imacron" unicode="&#x12b;" horiz-adv-x="210" 
d="M51 631l2 14h211l-2 -14h-211zM62 0l72 516h14l-72 -516h-14z" />
    <glyph glyph-name="Iogonek" unicode="&#x12e;" horiz-adv-x="242" 
d="M92 0q-121 -74 -121 -149q0 -52 57 -52q17 0 28 4l2 -1l-2 -11q-15 -6 -31 -6q-70 0 -70 63q0 84 124 156l91 656h14z" />
    <glyph glyph-name="iogonek" unicode="&#x12f;" horiz-adv-x="209" 
d="M163 682q16 0 16 -16q0 -9 -5.5 -14t-12.5 -5q-16 0 -16 16q0 9 5.5 14t12.5 5zM63 4l71 512h14l-72 -516q-121 -74 -121 -149q0 -52 57 -52q17 0 28 4l2 -1l-2 -11q-15 -6 -31 -6q-70 0 -70 63q0 84 124 156z" />
    <glyph glyph-name="Idotaccent" unicode="&#x130;" horiz-adv-x="242" 
d="M190 747q-16 0 -16 16q0 9 5.5 14t12.5 5q16 0 16 -16q0 -9 -5.5 -14t-12.5 -5zM78 0l92 660h14l-92 -660h-14z" />
    <glyph glyph-name="dotlessi" unicode="&#x131;" horiz-adv-x="210" 
d="M62 0l72 516h14l-72 -516h-14z" />
    <glyph glyph-name="IJ" unicode="&#x132;" horiz-adv-x="568" 
d="M78 0l92 660h14l-92 -660h-14zM267 -3q-21 0 -43 3l2 13l2 1q15 -3 40 -3q72 0 114.5 46t54.5 127l67 476h14l-67 -478q-12 -88 -58.5 -136.5t-125.5 -48.5z" />
    <glyph glyph-name="ij" unicode="&#x133;" horiz-adv-x="435" 
d="M161 647q-16 0 -16 16q0 9 5.5 14t12.5 5q16 0 16 -16q0 -9 -5.5 -14t-12.5 -5zM387 647q-16 0 -16 16q0 9 5.5 14t12.5 5q16 0 16 -16q0 -9 -5.5 -14t-12.5 -5zM62 0l72 516h14l-72 -516h-14zM150 -167q-19 0 -30 3l2 13l2 1q12 -3 28 -3q114 0 135 151l72 518h14
l-72 -519q-22 -164 -151 -164z" />
    <glyph glyph-name="Kcommaaccent" unicode="&#x136;" horiz-adv-x="554" 
d="M580 658l-424 -323l349 -333l-1 -2h-19l-347 333l-46 -333h-14l92 660h14l-45 -321l422 321h18zM253 -52l14 2l3 -3q-10 -77 -48 -154h-9q28 63 38 132q1 4 1.5 11.5t0.5 11.5z" />
    <glyph glyph-name="kcommaaccent" unicode="&#x137;" horiz-adv-x="467" 
d="M457 514l-326 -248l285 -264l-1 -2h-20l-281 263l-37 -263h-15l99 710h15l-61 -439l321 245h20zM190 -52l14 2l3 -3q-10 -77 -48 -154h-9q28 63 38 132q1 4 1.5 11.5t0.5 11.5z" />
    <glyph glyph-name="kgreenlandic" unicode="&#x138;" horiz-adv-x="467" 
d="M469 516l-337 -249l277 -267h-24l-272 263l-36 -263h-15l71 516h15l-34 -245l333 245h22z" />
    <glyph glyph-name="Lacute" unicode="&#x139;" horiz-adv-x="480" 
d="M286 797l-175 -95l-4 9l178 102l4 -11zM94 14h333l-2 -14h-347l92 660h14z" />
    <glyph glyph-name="lacute" unicode="&#x13a;" horiz-adv-x="228" 
d="M92 742l-4 9l178 102l4 -11l-3 -5zM129 -7q-70 0 -59 75l89 642h14l-88 -632q-5 -39 5 -55t42 -16q21 0 40 15l2 -1l-2 -14q-19 -14 -43 -14z" />
    <glyph glyph-name="Lcommaaccent" unicode="&#x13b;" horiz-adv-x="480" 
d="M94 14h333l-2 -14h-347l92 660h14zM242 -52l14 2l3 -3q-10 -77 -48 -154h-9q28 63 38 132q1 4 1.5 11.5t0.5 11.5z" />
    <glyph glyph-name="lcommaaccent" unicode="&#x13c;" horiz-adv-x="228" 
d="M129 -7q-70 0 -59 75l89 642h14l-88 -632q-5 -39 5 -55t42 -16q21 0 40 15l2 -1l-2 -14q-19 -14 -43 -14zM58 -207q28 63 38 132q1 4 1.5 11.5t0.5 11.5l14 2l3 -3q-10 -77 -48 -154h-9z" />
    <glyph glyph-name="Lcaron" unicode="&#x13d;" horiz-adv-x="480" 
d="M409 678l-40 -182h-9l35 188h10zM94 14h333l-2 -14h-347l92 660h14z" />
    <glyph glyph-name="lcaron" unicode="&#x13e;" horiz-adv-x="228" 
d="M238 526l35 188h10l4 -6l-40 -182h-9zM129 -7q-70 0 -59 75l89 642h14l-88 -632q-5 -39 5 -55t42 -16q21 0 40 15l2 -1l-2 -14q-19 -14 -43 -14z" />
    <glyph glyph-name="Ldot" unicode="&#x13f;" horiz-adv-x="480" 
d="M94 14h333l-2 -14h-347l92 660h14zM366 342q-17 0 -17 17q0 8 5.5 13.5t13.5 5.5q17 0 17 -17q0 -8 -5.5 -13.5t-13.5 -5.5z" />
    <glyph glyph-name="ldot" unicode="&#x140;" horiz-adv-x="284" 
d="M129 -7q-70 0 -59 75l89 642h14l-88 -632q-5 -39 5 -55t42 -16q21 0 40 15l2 -1l-2 -14q-19 -14 -43 -14zM255 341q-16 0 -16 16q0 8 5.5 14t13.5 6q16 0 16 -16q0 -8 -5.5 -14t-13.5 -6z" />
    <glyph glyph-name="Lslash" unicode="&#x141;" horiz-adv-x="480" 
d="M94 14h333l-2 -14h-347l44 319l-81 -47l-1 1l1 11l83 48l46 328h14l-44 -319l82 48h3l-2 -12l-85 -49z" />
    <glyph glyph-name="lslash" unicode="&#x142;" horiz-adv-x="228" 
d="M124 356l-39 -278q-5 -39 5 -55t42 -16q21 0 40 15l2 -1l-2 -14q-19 -14 -43 -14q-70 0 -59 75l39 279l-82 -47h-3l2 12l85 49l48 349h14l-47 -340l81 47h3l-2 -12z" />
    <glyph glyph-name="Nacute" unicode="&#x143;" horiz-adv-x="711" 
d="M344 702l-4 9l178 102l4 -11l-3 -5zM78 0l93 668h4l374 -638h2l88 630h14l-93 -671h-1l-377 640h-2l-88 -629h-14z" />
    <glyph glyph-name="nacute" unicode="&#x144;" horiz-adv-x="581" 
d="M420 685l-137 -114l-6 9l132 121l11 -11v-5zM332 527q71 0 119.5 -41.5t48.5 -127.5q0 -36 -5 -71l-40 -287h-14l40 287q5 32 5 70q0 78 -44.5 117t-110.5 39q-74 0 -133.5 -47t-74.5 -124l-47 -342h-14l72 516h12l-15 -117q24 57 79.5 92.5t121.5 35.5z" />
    <glyph glyph-name="Ncommaaccent" unicode="&#x145;" horiz-adv-x="711" 
d="M78 0l93 668h4l374 -638h2l88 630h14l-93 -671h-1l-377 640h-2l-88 -629h-14zM263 -207q28 63 38 132q1 4 1.5 11.5t0.5 11.5l14 2l3 -3q-10 -77 -48 -154h-9z" />
    <glyph glyph-name="ncommaaccent" unicode="&#x146;" horiz-adv-x="581" 
d="M332 527q71 0 119.5 -41.5t48.5 -127.5q0 -36 -5 -71l-40 -287h-14l40 287q5 32 5 70q0 78 -44.5 117t-110.5 39q-74 0 -133.5 -47t-74.5 -124l-47 -342h-14l72 516h12l-15 -117q24 57 79.5 92.5t121.5 35.5zM246 -52l14 2l3 -3q-10 -77 -48 -154h-9q28 63 38 132
q1 4 1.5 11.5t0.5 11.5z" />
    <glyph glyph-name="Ncaron" unicode="&#x147;" horiz-adv-x="711" 
d="M420 701l-100 107l8 8l98 -99l122 99l6 -8l-127 -107h-7zM78 0l93 668h4l374 -638h2l88 630h14l-93 -671h-1l-377 640h-2l-88 -629h-14z" />
    <glyph glyph-name="ncaron" unicode="&#x148;" horiz-adv-x="581" 
d="M334 570h-7l-88 128l8 6l86 -115l118 115l6 -6zM332 527q71 0 119.5 -41.5t48.5 -127.5q0 -36 -5 -71l-40 -287h-14l40 287q5 32 5 70q0 78 -44.5 117t-110.5 39q-74 0 -133.5 -47t-74.5 -124l-47 -342h-14l72 516h12l-15 -117q24 57 79.5 92.5t121.5 35.5z" />
    <glyph glyph-name="Eng" unicode="&#x14a;" horiz-adv-x="711" 
d="M653 660l-82 -593l-10 -70q-12 -88 -59 -136.5t-126 -48.5q-20 0 -41 3l1 13l1 1q17 -3 41 -3q72 0 114.5 46t54.5 127l1 8l-366 620h-2l-88 -627h-14l93 668h4l374 -639h2l88 631h14z" />
    <glyph glyph-name="eng" unicode="&#x14b;" horiz-adv-x="582" 
d="M332 527q72 0 120.5 -42t48.5 -127q0 -19 -5 -71l-40 -290q-22 -164 -152 -164q-18 0 -30 3l2 13l2 1q12 -3 28 -3q114 0 135 151l40 289q5 32 5 70q0 78 -44.5 117t-110.5 39q-74 0 -133.5 -47t-74.5 -124l-47 -342h-14l72 516h12l-15 -117q24 57 79.5 92.5t121.5 35.5z
" />
    <glyph glyph-name="Omacron" unicode="&#x14c;" horiz-adv-x="752" 
d="M328 756l1 13h235l-1 -13h-235zM372 -10q-137 0 -218 78t-81 218q0 178 95 281t239 103q132 0 212 -79.5t80 -220.5q0 -175 -94 -277.5t-233 -102.5zM374 3q132 0 221 98.5t89 268.5q0 136 -75.5 211.5t-202.5 75.5q-139 0 -228.5 -99t-89.5 -271q0 -135 77 -209.5
t209 -74.5z" />
    <glyph glyph-name="omacron" unicode="&#x14d;" horiz-adv-x="606" 
d="M205 631l2 14h263l-2 -14h-263zM281 -12q-98 0 -159.5 63.5t-61.5 173.5q0 130 73.5 215.5t189.5 85.5q99 0 161 -63.5t62 -171.5q0 -131 -74 -217t-191 -86zM284 2q111 0 179 83t68 207q0 102 -58 161t-153 59q-110 0 -177.5 -83t-67.5 -204q0 -104 57.5 -163.5
t151.5 -59.5z" />
    <glyph glyph-name="Ohungarumlaut" unicode="&#x150;" horiz-adv-x="752" 
d="M339 719l-8 5l83 126l10 -8l-1 -5zM492 719l-8 6l83 125l10 -8l-1 -5zM372 -10q-137 0 -218 78t-81 218q0 178 95 281t239 103q132 0 212 -79.5t80 -220.5q0 -175 -94 -277.5t-233 -102.5zM374 3q132 0 221 98.5t89 268.5q0 136 -75.5 211.5t-202.5 75.5
q-139 0 -228.5 -99t-89.5 -271q0 -135 77 -209.5t209 -74.5z" />
    <glyph glyph-name="ohungarumlaut" unicode="&#x151;" horiz-adv-x="606" 
d="M241 568l-7 6l113 139l9 -8l-1 -5zM381 568l-7 6l113 139l9 -8l-1 -5zM281 -12q-98 0 -159.5 63.5t-61.5 173.5q0 130 73.5 215.5t189.5 85.5q99 0 161 -63.5t62 -171.5q0 -131 -74 -217t-191 -86zM284 2q111 0 179 83t68 207q0 102 -58 161t-153 59q-110 0 -177.5 -83
t-67.5 -204q0 -104 57.5 -163.5t151.5 -59.5z" />
    <glyph glyph-name="OE" unicode="&#x152;" horiz-adv-x="851" 
d="M840 667l-2 -14l-302 3q77 -32 120.5 -103t43.5 -174q0 -20 -1 -29h76l-2 -14h-75q-9 -127 -73 -211.5t-162 -112.5l301 2l-2 -14h-363q-9 -1 -26 -1q-137 0 -218 78t-81 218q0 178 95 281t239 103q50 0 94 -12h338zM89 296q0 -135 77 -209.5t209 -74.5q14 0 21 1l90 644
q-38 9 -79 9q-139 0 -228.5 -99t-89.5 -271zM685 379q0 108 -49.5 179.5t-136.5 95.5l-42 -304h227q1 9 1 29zM410 14q111 12 186.5 97t86.5 225h-228z" />
    <glyph glyph-name="oe" unicode="&#x153;" horiz-adv-x="980" 
d="M761 527q80 0 125 -48t45 -136q0 -37 -10 -82h-396q-3 -23 -3 -48q0 -102 52 -157t137 -55t156 47l2 -1l-3 -14q-71 -46 -157 -46q-82 0 -136 49t-63 141q-26 -93 -89 -141.5t-152 -48.5q-90 0 -149.5 63.5t-59.5 167.5q0 143 76 226t187 83q81 0 137 -55t64 -144
q27 92 92 145.5t145 53.5zM271 1q111 0 175 76.5t64 224.5q0 94 -53 152.5t-135 58.5q-106 0 -176.5 -78.5t-70.5 -215.5q0 -99 55.5 -158.5t140.5 -59.5zM526 275h383q8 36 8 63q0 86 -41 130.5t-116 44.5q-86 0 -152 -64.5t-82 -173.5z" />
    <glyph glyph-name="Racute" unicode="&#x154;" horiz-adv-x="528" 
d="M416 797l-175 -95l-4 9l178 102l4 -11zM482 515q0 -88 -49.5 -142.5t-127.5 -70.5l136 -300l-1 -2h-14l-135 299q-22 -3 -46 -3h-112l-41 -296h-14l93 665q77 5 134 5q89 0 133 -40.5t44 -114.5zM230 308q104 0 171 52t67 153q0 143 -165 143q-44 0 -120 -4l-48 -344h95z
" />
    <glyph glyph-name="racute" unicode="&#x155;" horiz-adv-x="343" 
d="M338 685l-137 -114l-6 9l132 121l11 -11v-5zM297 527q35 0 55 -11l-2 -13l-2 -1q-18 11 -50 11q-27 0 -48 -5t-46 -20t-45 -48.5t-34 -83.5l-49 -356h-14l72 516h12l-14 -109q44 120 165 120z" />
    <glyph glyph-name="Rcommaaccent" unicode="&#x156;" horiz-adv-x="528" 
d="M482 515q0 -88 -49.5 -142.5t-127.5 -70.5l136 -300l-1 -2h-14l-135 299q-22 -3 -46 -3h-112l-41 -296h-14l93 665q77 5 134 5q89 0 133 -40.5t44 -114.5zM230 308q104 0 171 52t67 153q0 143 -165 143q-44 0 -120 -4l-48 -344h95zM223 -52l14 2l3 -3q-10 -77 -48 -154
h-9q28 63 38 132q1 4 1.5 11.5t0.5 11.5z" />
    <glyph glyph-name="rcommaaccent" unicode="&#x157;" horiz-adv-x="343" 
d="M297 527q35 0 55 -11l-2 -13l-2 -1q-18 11 -50 11q-27 0 -48 -5t-46 -20t-45 -48.5t-34 -83.5l-49 -356h-14l72 516h12l-14 -109q44 120 165 120zM58 -52l14 2l3 -3q-10 -77 -48 -154h-9q28 63 38 132q1 4 1.5 11.5t0.5 11.5z" />
    <glyph glyph-name="Rcaron" unicode="&#x158;" horiz-adv-x="528" 
d="M324 701h-7l-100 107l8 8l98 -99l122 99l6 -8zM482 515q0 -88 -49.5 -142.5t-127.5 -70.5l136 -300l-1 -2h-14l-135 299q-22 -3 -46 -3h-112l-41 -296h-14l93 665q77 5 134 5q89 0 133 -40.5t44 -114.5zM230 308q104 0 171 52t67 153q0 143 -165 143q-44 0 -120 -4
l-48 -344h95z" />
    <glyph glyph-name="rcaron" unicode="&#x159;" horiz-adv-x="343" 
d="M252 570h-7l-88 128l8 6l86 -115l118 115l6 -6zM132 407q44 120 165 120q35 0 55 -11l-2 -13l-2 -1q-18 11 -50 11q-27 0 -48 -5t-46 -20t-45 -48.5t-34 -83.5l-49 -356h-14l72 516h12z" />
    <glyph glyph-name="Sacute" unicode="&#x15a;" horiz-adv-x="496" 
d="M243 702l-4 9l178 102l4 -11l-3 -5zM212 -15q-119 0 -188 57l2 16l2 1q72 -59 186 -59q89 0 141.5 45.5t52.5 120.5q0 67 -39 108t-106 72q-72 31 -111.5 66t-39.5 94q0 76 58 120t148 44q92 0 153 -39l-3 -13l-2 -1q-56 39 -150 39q-78 0 -133 -39t-55 -108
q0 -30 11.5 -54t35 -42t44 -29.5t54.5 -26.5q69 -32 109.5 -74.5t40.5 -113.5q0 -86 -57 -135t-154 -49z" />
    <glyph glyph-name="sacute" unicode="&#x15b;" horiz-adv-x="450" 
d="M223 571l-6 9l132 121l11 -11v-5zM179 -12q-109 0 -157 42l2 16l2 1q49 -44 155 -44q82 0 134 35.5t52 102.5q0 49 -32 73.5t-106 46.5q-69 20 -107 46.5t-38 75.5q0 67 55 105t139 38q74 0 128 -26l-2 -14l-2 -1q-57 27 -126 27q-77 0 -127 -34t-50 -94
q0 -44 34.5 -67.5t103.5 -43.5q76 -22 110.5 -50t34.5 -80q0 -74 -57 -114.5t-146 -40.5z" />
    <glyph glyph-name="Scedilla" unicode="&#x15e;" horiz-adv-x="496" 
d="M318 670q92 0 153 -39l-3 -13l-2 -1q-56 39 -150 39q-78 0 -133 -39t-55 -108q0 -30 11.5 -54t35 -42t44 -29.5t54.5 -26.5q69 -32 109.5 -74.5t40.5 -113.5q0 -84 -54.5 -133t-148.5 -51l-32 -48q18 6 38 6q31 0 50.5 -17t19.5 -50q0 -44 -29 -68t-72 -24q-37 0 -59 11
l2 13l1 1q21 -11 57 -11q37 0 61.5 19t24.5 56q0 27 -15.5 41.5t-40.5 14.5q-34 0 -58 -12l-1 1l2 13l37 54q-115 1 -182 57l2 16l2 1q72 -59 186 -59q89 0 141.5 45.5t52.5 120.5q0 67 -39 108t-106 72q-72 31 -111.5 66t-39.5 94q0 76 58 120t148 44z" />
    <glyph glyph-name="scedilla" unicode="&#x15f;" horiz-adv-x="450" 
d="M278 526q74 0 128 -26l-2 -14l-2 -1q-57 27 -126 27q-77 0 -127 -34t-50 -94q0 -44 34.5 -67.5t103.5 -43.5q76 -22 110.5 -50t34.5 -80q0 -71 -52.5 -111t-135.5 -44l-34 -51q18 6 38 6q31 0 50.5 -17t19.5 -50q0 -44 -29 -68t-72 -24q-37 0 -59 11l2 13l1 1
q21 -11 57 -11q37 0 61.5 19t24.5 56q0 27 -15.5 41.5t-40.5 14.5q-34 0 -58 -12l-1 1l2 13l39 57h-1q-109 0 -157 42l2 16l2 1q49 -44 155 -44q82 0 134 35.5t52 102.5q0 49 -32 73.5t-106 46.5q-69 20 -107 46.5t-38 75.5q0 67 55 105t139 38z" />
    <glyph glyph-name="Scaron" unicode="&#x160;" horiz-adv-x="496" 
d="M319 701l-100 107l8 8l98 -99l122 99l6 -8l-127 -107h-7zM212 -15q-119 0 -188 57l2 16l2 1q72 -59 186 -59q89 0 141.5 45.5t52.5 120.5q0 67 -39 108t-106 72q-72 31 -111.5 66t-39.5 94q0 76 58 120t148 44q92 0 153 -39l-3 -13l-2 -1q-56 39 -150 39q-78 0 -133 -39
t-55 -108q0 -30 11.5 -54t35 -42t44 -29.5t54.5 -26.5q69 -32 109.5 -74.5t40.5 -113.5q0 -86 -57 -135t-154 -49z" />
    <glyph glyph-name="scaron" unicode="&#x161;" horiz-adv-x="450" 
d="M267 570l-88 128l8 6l86 -115l118 115l6 -6l-123 -128h-7zM179 -12q-109 0 -157 42l2 16l2 1q49 -44 155 -44q82 0 134 35.5t52 102.5q0 49 -32 73.5t-106 46.5q-69 20 -107 46.5t-38 75.5q0 67 55 105t139 38q74 0 128 -26l-2 -14l-2 -1q-57 27 -126 27q-77 0 -127 -34
t-50 -94q0 -44 34.5 -67.5t103.5 -43.5q76 -22 110.5 -50t34.5 -80q0 -74 -57 -114.5t-146 -40.5z" />
    <glyph glyph-name="uni0162" unicode="&#x162;" horiz-adv-x="509" 
d="M316 647l-90 -647l-42 -63q18 6 38 6q31 0 50.5 -17t19.5 -50q0 -44 -29 -68t-72 -24q-37 0 -59 11l2 13l1 1q21 -11 57 -11q37 0 61.5 19t24.5 56q0 27 -15.5 41.5t-40.5 14.5q-34 0 -58 -12l-1 1l2 13l47 69l90 647h-227l2 13h467l-2 -13h-226z" />
    <glyph glyph-name="uni0163" unicode="&#x163;" horiz-adv-x="332" 
d="M178 502l-49 -353q-3 -21 -3 -45q0 -44 27.5 -69t76.5 -25q40 0 70 19l1 -1l-2 -13q-28 -19 -71 -19q-8 0 -24 2l-40 -61q18 6 38 6q31 0 50.5 -17t19.5 -50q0 -44 -29 -68t-72 -24q-37 0 -59 11l2 13l1 1q21 -11 57 -11q37 0 61.5 19t24.5 56q0 27 -15.5 41.5
t-40.5 14.5q-34 0 -58 -12l-1 1l2 13l47 69q-37 9 -58.5 35.5t-21.5 65.5q0 17 4 50l48 351h-123l2 14h123l17 122l13 3l1 -1l-17 -124h172l-2 -14h-172z" />
    <glyph glyph-name="Tcaron" unicode="&#x164;" horiz-adv-x="509" 
d="M321 701h-7l-100 107l8 8l98 -99l122 99l6 -8zM544 660l-2 -13h-226l-90 -647h-14l90 647h-227l2 13h467z" />
    <glyph glyph-name="tcaron" unicode="&#x165;" horiz-adv-x="332" 
d="M334 768l-40 -182h-9l35 188h10zM178 502l-49 -353q-3 -21 -3 -45q0 -44 27.5 -69t76.5 -25q40 0 70 19l1 -1l-2 -13q-28 -19 -71 -19q-53 0 -84.5 28.5t-31.5 76.5q0 17 4 50l48 351h-123l2 14h123l17 122l13 3l1 -1l-17 -124h172l-2 -14h-172z" />
    <glyph glyph-name="Tbar" unicode="&#x166;" horiz-adv-x="509" 
d="M542 647h-226l-43 -310h100l-1 -13h-101l-45 -324h-14l45 324h-101l1 13h102l43 310h-227l2 13h467z" />
    <glyph glyph-name="tbar" unicode="&#x167;" horiz-adv-x="332" 
d="M350 502h-172l-27 -197h109l-1 -13h-110l-20 -143q-3 -21 -3 -45q0 -44 27.5 -69t76.5 -25q40 0 70 19l1 -1l-2 -13q-28 -19 -71 -19q-53 0 -84.5 28.5t-31.5 76.5q0 17 4 50l19 141h-92l1 13h93l27 197h-123l2 14h123l17 122l13 3l1 -1l-17 -124h172z" />
    <glyph glyph-name="Utilde" unicode="&#x168;" horiz-adv-x="683" 
d="M297 724l-11 2q4 29 21.5 46t41.5 17q25 0 66 -22.5t59 -22.5t32.5 12.5t18.5 37.5l1 1l12 -1q-5 -30 -23 -47t-41 -17q-22 0 -63 22.5t-62 22.5q-19 0 -33 -13t-18 -37zM313 -15q-103 0 -159 53.5t-56 151.5q0 30 4 55l57 415h15l-57 -414q-4 -25 -4 -53
q0 -94 52.5 -143.5t149.5 -49.5q101 0 166 64t81 182l57 414h14l-57 -415q-17 -125 -84.5 -192.5t-178.5 -67.5z" />
    <glyph glyph-name="utilde" unicode="&#x169;" horiz-adv-x="565" 
d="M213 611l-1 -1l-12 1q4 30 21.5 47t42.5 17q28 0 75 -22.5t69 -22.5q17 0 32 12.5t19 37.5l1 1l12 -1q-5 -30 -23.5 -47t-41.5 -17q-26 0 -72.5 22.5t-70.5 22.5q-19 0 -33 -13t-18 -37zM489 516h14l-72 -516h-12l12 97q-31 -48 -81 -78t-113 -30q-73 0 -115 40t-42 120
q0 21 4 59l43 308h15l-44 -308q-4 -36 -4 -57q0 -72 38.5 -110t105.5 -38q60 0 111.5 32t84.5 87z" />
    <glyph glyph-name="Umacron" unicode="&#x16a;" horiz-adv-x="683" 
d="M294 756l1 13h235l-1 -13h-235zM313 -15q-103 0 -159 53.5t-56 151.5q0 30 4 55l57 415h15l-57 -414q-4 -25 -4 -53q0 -94 52.5 -143.5t149.5 -49.5q101 0 166 64t81 182l57 414h14l-57 -415q-17 -125 -84.5 -192.5t-178.5 -67.5z" />
    <glyph glyph-name="umacron" unicode="&#x16b;" horiz-adv-x="565" 
d="M467 645l-2 -14h-263l2 14h263zM489 516h14l-72 -516h-12l12 97q-31 -48 -81 -78t-113 -30q-73 0 -115 40t-42 120q0 21 4 59l43 308h15l-44 -308q-4 -36 -4 -57q0 -72 38.5 -110t105.5 -38q60 0 111.5 32t84.5 87z" />
    <glyph glyph-name="Uring" unicode="&#x16e;" horiz-adv-x="683" 
d="M407 677q-28 0 -45.5 17.5t-17.5 44.5q0 33 20.5 55.5t51.5 22.5q28 0 45.5 -17t17.5 -44q0 -34 -19 -56.5t-53 -22.5zM409 690q27 0 42 18.5t15 44.5q0 22 -14 36.5t-37 14.5q-25 0 -41 -18.5t-16 -44.5q0 -23 14 -37t37 -14zM313 -15q-103 0 -159 53.5t-56 151.5
q0 30 4 55l57 415h15l-57 -414q-4 -25 -4 -53q0 -94 52.5 -143.5t149.5 -49.5q101 0 166 64t81 182l57 414h14l-57 -415q-17 -125 -84.5 -192.5t-178.5 -67.5z" />
    <glyph glyph-name="uring" unicode="&#x16f;" horiz-adv-x="565" 
d="M329 569q-27 0 -44 17.5t-17 44.5q0 33 20.5 55.5t51.5 22.5q28 0 45.5 -17t17.5 -44q0 -34 -19.5 -56.5t-54.5 -22.5zM339 696q-25 0 -41 -18.5t-16 -44.5q0 -22 13 -36.5t36 -14.5q28 0 43.5 18.5t15.5 44.5q0 22 -14 36.5t-37 14.5zM489 516h14l-72 -516h-12l12 97
q-31 -48 -81 -78t-113 -30q-73 0 -115 40t-42 120q0 21 4 59l43 308h15l-44 -308q-4 -36 -4 -57q0 -72 38.5 -110t105.5 -38q60 0 111.5 32t84.5 87z" />
    <glyph glyph-name="Uhungarumlaut" unicode="&#x170;" horiz-adv-x="683" 
d="M305 719l-8 5l83 126l10 -8l-1 -5zM458 719l-8 6l83 125l10 -8l-1 -5zM313 -15q-103 0 -159 53.5t-56 151.5q0 30 4 55l57 415h15l-57 -414q-4 -25 -4 -53q0 -94 52.5 -143.5t149.5 -49.5q101 0 166 64t81 182l57 414h14l-57 -415q-17 -125 -84.5 -192.5t-178.5 -67.5z
" />
    <glyph glyph-name="uhungarumlaut" unicode="&#x171;" horiz-adv-x="565" 
d="M352 700l-114 -132l-7 6l113 139l9 -8zM492 700l-114 -132l-7 6l113 139l9 -8zM489 516h14l-72 -516h-12l12 97q-31 -48 -81 -78t-113 -30q-73 0 -115 40t-42 120q0 21 4 59l43 308h15l-44 -308q-4 -36 -4 -57q0 -72 38.5 -110t105.5 -38q60 0 111.5 32t84.5 87z" />
    <glyph glyph-name="Uogonek" unicode="&#x172;" horiz-adv-x="683" 
d="M619 660h14l-57 -415q-14 -104 -63.5 -168.5t-130.5 -83.5q-109 -71 -109 -142q0 -52 57 -52q17 0 28 4l2 -1l-2 -11q-15 -6 -31 -6q-70 0 -70 63q0 73 98 140q-21 -3 -42 -3q-103 0 -159 53.5t-56 151.5q0 30 4 55l57 415h15l-57 -414q-4 -25 -4 -53q0 -94 52.5 -143.5
t149.5 -49.5q101 0 166 64t81 182z" />
    <glyph glyph-name="uogonek" unicode="&#x173;" horiz-adv-x="565" 
d="M431 0q-121 -74 -121 -149q0 -52 57 -52q17 0 28 4l2 -1l-2 -11q-15 -6 -31 -6q-70 0 -70 63q0 84 126 157l11 92q-31 -48 -81 -78t-113 -30q-73 0 -115 40t-42 120q0 21 4 59l43 308h15l-44 -308q-4 -36 -4 -57q0 -72 38.5 -110t105.5 -38q60 0 111.5 32t84.5 87l55 394
h14z" />
    <glyph glyph-name="Wcircumflex" unicode="&#x174;" horiz-adv-x="925" 
d="M535 799l-122 -99l-6 8l127 108h7l100 -108l-8 -8zM946 660l1 -2l-306 -677h-7l-117 633l-2 13l-6 -14l-293 -632h-7l-118 677l1 2h13l109 -629l3 -19l8 19l290 629h8l116 -630l2 -18l8 18l284 630h13z" />
    <glyph glyph-name="wcircumflex" unicode="&#x175;" horiz-adv-x="765" 
d="M440 685l-119 -115l-6 6l123 128h7l88 -128l-8 -6zM762 516l1 -2l-233 -514h-14l-96 476l-3 19l-7 -18l-232 -477h-14l-93 514l1 2h14l87 -480l1 -13l7 13l232 480h13l98 -479l2 -14l6 14l218 479h12z" />
    <glyph glyph-name="Ycircumflex" unicode="&#x176;" horiz-adv-x="548" 
d="M227 700l-6 8l127 108h7l100 -108l-8 -8l-98 99zM231 0l40 288l-184 370l1 2h13l179 -358l278 358h13l1 -2l-287 -370l-40 -288h-14z" />
    <glyph glyph-name="ycircumflex" unicode="&#x177;" horiz-adv-x="508" 
d="M323 685l-119 -115l-6 6l123 128h7l88 -128l-8 -6zM512 516l1 -2l-285 -526q-50 -87 -85 -121t-95 -34q-21 0 -48 6l2 13l2 1q26 -6 46 -6q55 0 88 32.5t77 110.5l7 12l-153 512l1 2h15l146 -495l267 495h14z" />
    <glyph glyph-name="Ydieresis" unicode="&#x178;" horiz-adv-x="548" 
d="M263 746q-16 0 -16 16q0 9 5.5 14t12.5 5q16 0 16 -16q0 -9 -5.5 -14t-12.5 -5zM428 746q-16 0 -16 16q0 9 5.5 14t12.5 5q16 0 16 -16q0 -9 -5.5 -14t-12.5 -5zM231 0l40 288l-184 370l1 2h13l179 -358l278 358h13l1 -2l-287 -370l-40 -288h-14z" />
    <glyph glyph-name="Zacute" unicode="&#x179;" horiz-adv-x="547" 
d="M257 702l-4 9l178 102l4 -11l-3 -5zM5 0l-2 6l534 641h-439l2 13h459l2 -5l-536 -642h458l-2 -13h-476z" />
    <glyph glyph-name="zacute" unicode="&#x17a;" horiz-adv-x="477" 
d="M373 685l-137 -114l-6 9l132 121l11 -11v-5zM467 512l-437 -499h375l-2 -13h-395l-2 6l437 497h-365l2 13h386z" />
    <glyph glyph-name="Zdotaccent" unicode="&#x17b;" horiz-adv-x="547" 
d="M343 747q-16 0 -16 16q0 9 5.5 14t12.5 5q16 0 16 -16q0 -9 -5.5 -14t-12.5 -5zM5 0l-2 6l534 641h-439l2 13h459l2 -5l-536 -642h458l-2 -13h-476z" />
    <glyph glyph-name="zdotaccent" unicode="&#x17c;" horiz-adv-x="477" 
d="M295 647q-16 0 -16 16q0 9 5.5 14t12.5 5q16 0 16 -16q0 -9 -5.5 -14t-12.5 -5zM467 512l-437 -499h375l-2 -13h-395l-2 6l437 497h-365l2 13h386z" />
    <glyph glyph-name="Zcaron" unicode="&#x17d;" horiz-adv-x="547" 
d="M333 701l-100 107l8 8l98 -99l122 99l6 -8l-127 -107h-7zM5 0l-2 6l534 641h-439l2 13h459l2 -5l-536 -642h458l-2 -13h-476z" />
    <glyph glyph-name="zcaron" unicode="&#x17e;" horiz-adv-x="477" 
d="M287 570h-7l-88 128l8 6l86 -115l118 115l6 -6zM467 512l-437 -499h375l-2 -13h-395l-2 6l437 497h-365l2 13h386z" />
    <glyph glyph-name="uni01EA" unicode="&#x1ea;" horiz-adv-x="752" 
d="M391 -9q-119 -73 -119 -148q0 -52 57 -52q17 0 28 4l2 -1l-2 -11q-15 -6 -31 -6q-70 0 -70 63q0 80 114 150q-136 1 -216.5 79t-80.5 217q0 178 95 281t239 103q132 0 212 -79.5t80 -220.5q0 -169 -87.5 -270.5t-220.5 -108.5zM88 287q0 -135 77 -209.5t209 -74.5
t221 98.5t89 268.5q0 136 -75.5 211.5t-202.5 75.5q-139 0 -228.5 -99t-89.5 -271z" />
    <glyph glyph-name="uni01EB" unicode="&#x1eb;" horiz-adv-x="606" 
d="M358 -1q-120 -73 -120 -148q0 -52 57 -52q17 0 28 4l2 -1l-2 -11q-15 -6 -31 -6q-70 0 -70 63q0 75 104 144q-20 -4 -45 -4q-98 0 -159.5 63.5t-61.5 173.5q0 130 73.5 215.5t189.5 85.5q99 0 161 -63.5t62 -171.5q0 -107 -51 -186.5t-137 -105.5zM75 225
q0 -104 57.5 -163.5t151.5 -59.5q111 0 179 83t68 207q0 102 -58 161t-153 59q-110 0 -177.5 -83t-67.5 -204z" />
    <glyph glyph-name="AEacute" unicode="&#x1fc;" horiz-adv-x="772" 
d="M639 797l-175 -95l-4 9l178 102l4 -11zM758 646h-279l-41 -296h260l-2 -14h-260l-45 -322h294l-2 -14h-309l35 246h-243l-186 -246h-16l502 660h294zM176 259h234l54 380l-32 -41z" />
    <glyph glyph-name="aeacute" unicode="&#x1fd;" horiz-adv-x="914" 
d="M606 685l-137 -114l-6 9l132 121l11 -11v-5zM678 527q97 0 141.5 -55.5t44.5 -134.5q0 -30 -8 -68h-414q-3 -24 -3 -51q0 -104 57.5 -160.5t147.5 -56.5q98 0 159 47l2 -1l-2 -14q-63 -46 -161 -46q-92 0 -153 56t-65 160q-10 -40 -26 -75.5t-41 -68t-62 -51.5t-81 -19
q-83 0 -127 53.5t-44 143.5q0 159 79 250t192 91q74 0 114 -22t72 -62q73 84 178 84zM426 262q10 99 65 170q-31 40 -70.5 60.5t-108.5 20.5q-105 0 -179 -86.5t-74 -237.5q0 -84 39.5 -135t116.5 -51q46 0 84 23t62.5 62.5t40 82t24.5 91.5zM444 283h401q5 30 5 55
q0 71 -41 123t-132 52q-85 0 -150.5 -62t-82.5 -168z" />
    <glyph glyph-name="Oslashacute" unicode="&#x1fe;" horiz-adv-x="752" 
d="M531 797l-175 -95l-4 9l178 102l4 -11zM607 602q92 -81 92 -232q0 -175 -94 -277.5t-233 -102.5q-121 0 -200 62l-89 -112h-14v2l94 118q-90 79 -90 226q0 178 95 281t239 103q116 0 191 -61l88 111h12v-2zM88 287q0 -140 84 -216l418 527q-73 59 -184 59
q-139 0 -228.5 -99t-89.5 -271zM374 3q132 0 221 98.5t89 268.5q0 145 -86 221l-417 -527q73 -61 193 -61z" />
    <glyph glyph-name="oslashacute" unicode="&#x1ff;" horiz-adv-x="606" 
d="M394 685l-137 -114l-6 9l132 121l11 -11v-5zM466 479q80 -64 80 -188q0 -131 -74 -217t-191 -86q-71 0 -125 34l-50 -74h-14v3l53 79q-85 64 -85 195q0 130 73.5 215.5t189.5 85.5q76 0 132 -39l53 79h14l1 -3zM75 225q0 -122 79 -183l293 433q-54 37 -127 37
q-110 0 -177.5 -83t-67.5 -204zM284 2q111 0 179 83t68 207q0 115 -73 175l-293 -432q49 -33 119 -33z" />
    <glyph glyph-name="Scommaaccent" unicode="&#x218;" horiz-adv-x="496" 
d="M212 -15q-119 0 -188 57l2 16l2 1q72 -59 186 -59q89 0 141.5 45.5t52.5 120.5q0 67 -39 108t-106 72q-72 31 -111.5 66t-39.5 94q0 76 58 120t148 44q92 0 153 -39l-3 -13l-2 -1q-56 39 -150 39q-78 0 -133 -39t-55 -108q0 -30 11.5 -54t35 -42t44 -29.5t54.5 -26.5
q69 -32 109.5 -74.5t40.5 -113.5q0 -86 -57 -135t-154 -49zM163 -207q28 63 38 132q1 4 1.5 11.5t0.5 11.5l14 2l3 -3q-10 -77 -48 -154h-9z" />
    <glyph glyph-name="scommaaccent" unicode="&#x219;" horiz-adv-x="450" 
d="M179 -12q-109 0 -157 42l2 16l2 1q49 -44 155 -44q82 0 134 35.5t52 102.5q0 49 -32 73.5t-106 46.5q-69 20 -107 46.5t-38 75.5q0 67 55 105t139 38q74 0 128 -26l-2 -14l-2 -1q-57 27 -126 27q-77 0 -127 -34t-50 -94q0 -44 34.5 -67.5t103.5 -43.5q76 -22 110.5 -50
t34.5 -80q0 -74 -57 -114.5t-146 -40.5zM135 -207q28 63 38 132q1 4 1.5 11.5t0.5 11.5l14 2l3 -3q-10 -77 -48 -154h-9z" />
    <glyph glyph-name="uni021A" unicode="&#x21a;" horiz-adv-x="509" 
d="M544 660l-2 -13h-226l-90 -647h-14l90 647h-227l2 13h467zM199 -52l14 2l3 -3q-10 -77 -48 -154h-9q28 63 38 132q1 4 1.5 11.5t0.5 11.5z" />
    <glyph glyph-name="uni021B" unicode="&#x21b;" horiz-adv-x="332" 
d="M178 502l-49 -353q-3 -21 -3 -45q0 -44 27.5 -69t76.5 -25q40 0 70 19l1 -1l-2 -13q-28 -19 -71 -19q-53 0 -84.5 28.5t-31.5 76.5q0 17 4 50l48 351h-123l2 14h123l17 122l13 3l1 -1l-17 -124h172l-2 -14h-172zM179 -52l14 2l3 -3q-10 -77 -48 -154h-9q28 63 38 132
q1 4 1.5 11.5t0.5 11.5z" />
    <glyph glyph-name="uni0237" unicode="&#x237;" horiz-adv-x="225" 
d="M-60 -167q-19 0 -30 3l2 13l2 1q12 -3 28 -3q114 0 135 151l72 518h14l-72 -519q-22 -164 -151 -164z" />
    <glyph glyph-name="circumflex" unicode="&#x2c6;" horiz-adv-x="274" 
d="M78 570l-6 6l123 128h7l88 -128l-8 -6l-85 115z" />
    <glyph glyph-name="caron" unicode="&#x2c7;" horiz-adv-x="274" 
d="M177 570l-88 128l8 6l86 -115l118 115l6 -6l-123 -128h-7z" />
    <glyph glyph-name="breve" unicode="&#x2d8;" horiz-adv-x="274" 
d="M182 579q-46 0 -73 32.5t-19 87.5l10 1l1 -1q-5 -48 18 -77t64 -29q43 0 74 28.5t38 76.5l1 2l10 -1q-7 -57 -40 -88.5t-84 -31.5z" />
    <glyph glyph-name="dotaccent" unicode="&#x2d9;" horiz-adv-x="247" 
d="M179 647q-16 0 -16 16q0 9 5.5 14t12.5 5q16 0 16 -16q0 -9 -5.5 -14t-12.5 -5z" />
    <glyph glyph-name="ring" unicode="&#x2da;" horiz-adv-x="322" 
d="M180 569q-27 0 -44 17.5t-17 44.5q0 33 20.5 55.5t51.5 22.5q28 0 45.5 -17t17.5 -44q0 -34 -19.5 -56.5t-54.5 -22.5zM182 582q28 0 43.5 18.5t15.5 44.5q0 22 -14 36.5t-37 14.5q-25 0 -41 -18.5t-16 -44.5q0 -22 13 -36.5t36 -14.5z" />
    <glyph glyph-name="ogonek" unicode="&#x2db;" horiz-adv-x="167" 
d="M39 -215q-70 0 -70 63q0 84 127 158l10 -6q-121 -74 -121 -149q0 -52 57 -52q17 0 28 4l2 -1l-2 -11q-15 -6 -31 -6z" />
    <glyph glyph-name="tilde" unicode="&#x2dc;" horiz-adv-x="299" 
d="M80 610l-12 1q4 30 21.5 47t42.5 17q28 0 75.5 -22.5t68.5 -22.5q17 0 32 12.5t19 37.5l1 1l12 -1q-5 -30 -23.5 -47t-41.5 -17q-26 0 -72.5 22.5t-70.5 22.5q-19 0 -33 -13t-18 -37z" />
    <glyph glyph-name="hungarumlaut" unicode="&#x2dd;" horiz-adv-x="292" 
d="M76 568l-7 6l113 139l9 -8l-1 -5zM216 568l-7 6l113 139l9 -8l-1 -5z" />
    <glyph glyph-name="gravecomb" unicode="&#x300;" 
d="M10 575l-142 106l-1 5l11 12l138 -114z" />
    <glyph glyph-name="acutecomb" unicode="&#x301;" 
d="M-121 571l-6 9l132 121l11 -11v-5z" />
    <glyph glyph-name="uni0302" unicode="&#x302;" 
d="M-195 570l-6 6l123 128h7l88 -128l-8 -6l-85 115z" />
    <glyph glyph-name="tildecomb" unicode="&#x303;" 
d="M-220 610l-12 1q4 30 21.5 47t42.5 17q28 0 75.5 -22.5t68.5 -22.5q17 0 32 12.5t19 37.5l1 1l12 -1q-5 -30 -23.5 -47t-41.5 -17q-26 0 -72.5 22.5t-70.5 22.5q-19 0 -33 -13t-18 -37z" />
    <glyph glyph-name="uni0304" unicode="&#x304;" 
d="M-235 631l2 14h263l-2 -14h-263z" />
    <glyph glyph-name="uni0306" unicode="&#x306;" 
d="M-91 579q-46 0 -73 32.5t-19 87.5l10 1l1 -1q-5 -48 18 -77t64 -29q43 0 74 28.5t38 76.5l1 2l10 -1q-7 -57 -40 -88.5t-84 -31.5z" />
    <glyph glyph-name="uni0307" unicode="&#x307;" 
d="M-68 647q-16 0 -16 16q0 9 5.5 14t12.5 5q16 0 16 -16q0 -9 -5.5 -14t-12.5 -5z" />
    <glyph glyph-name="uni0308" unicode="&#x308;" 
d="M-156 646q-16 0 -16 16q0 9 5.5 14t12.5 5q16 0 16 -16q0 -9 -5.5 -14t-12.5 -5zM-4 646q-16 0 -16 16q0 9 5.5 14t12.5 5q16 0 16 -16q0 -9 -5.5 -14t-12.5 -5z" />
    <glyph glyph-name="uni030A" unicode="&#x30a;" 
d="M-86 569q-27 0 -44 17.5t-17 44.5q0 33 20.5 55.5t51.5 22.5q28 0 45.5 -17t17.5 -44q0 -34 -19.5 -56.5t-54.5 -22.5zM-84 582q28 0 43.5 18.5t15.5 44.5q0 22 -14 36.5t-37 14.5q-25 0 -41 -18.5t-16 -44.5q0 -22 13 -36.5t36 -14.5z" />
    <glyph glyph-name="uni030B" unicode="&#x30b;" 
d="M-216 568l-7 6l113 139l9 -8l-1 -5zM-76 568l-7 6l113 139l9 -8l-1 -5z" />
    <glyph glyph-name="uni030C" unicode="&#x30c;" 
d="M-96 570l-88 128l8 6l86 -115l118 115l6 -6l-123 -128h-7z" />
    <glyph glyph-name="uni0326" unicode="&#x326;" 
d="M-163 -207q28 63 38 132q1 4 1.5 11.5t0.5 11.5l14 2l3 -3q-10 -77 -48 -154h-9z" />
    <glyph glyph-name="uni0327" unicode="&#x327;" 
d="M-172 -216q-37 0 -59 11l2 13l1 1q21 -11 57 -11q37 0 61.5 19t24.5 56q0 27 -15.5 41.5t-40.5 14.5q-34 0 -58 -12l-1 1l2 13l47 69h14l-42 -63q18 6 38 6q31 0 50.5 -17t19.5 -50q0 -44 -29 -68t-72 -24z" />
    <glyph glyph-name="uni0328" unicode="&#x328;" 
d="M-128 -215q-70 0 -70 63q0 84 127 158l10 -6q-121 -74 -121 -149q0 -52 57 -52q17 0 28 4l2 -1l-2 -11q-15 -6 -31 -6z" />
    <glyph glyph-name="uni0335" unicode="&#x335;" 
d="M-247 240l1 13h216l-1 -13h-216z" />
    <glyph glyph-name="uni0336" unicode="&#x336;" 
d="M-545 330l2 13h566l-2 -13h-566z" />
    <glyph glyph-name="uni0337" unicode="&#x337;" 
d="M-192 300l2 12l181 105h3l-2 -12l-181 -105h-3z" />
    <glyph glyph-name="uni0338" unicode="&#x338;" 
d="M-505 -53v3l416 615h14l1 -3l-417 -615h-14z" />
    <glyph glyph-name="Wgrave" unicode="&#x1e80;" horiz-adv-x="925" 
d="M595 702l-150 95l-1 5l6 11l151 -102zM946 660l1 -2l-306 -677h-7l-117 633l-2 13l-6 -14l-293 -632h-7l-118 677l1 2h13l109 -629l3 -19l8 19l290 629h8l116 -630l2 -18l8 18l284 630h13z" />
    <glyph glyph-name="wgrave" unicode="&#x1e81;" horiz-adv-x="765" 
d="M486 575l-142 106l-1 5l11 12l138 -114zM762 516l1 -2l-233 -514h-14l-96 476l-3 19l-7 -18l-232 -477h-14l-93 514l1 2h14l87 -480l1 -13l7 13l232 480h13l98 -479l2 -14l6 14l218 479h12z" />
    <glyph glyph-name="Wacute" unicode="&#x1e82;" horiz-adv-x="925" 
d="M620 797l-175 -95l-4 9l178 102l4 -11zM946 660l1 -2l-306 -677h-7l-117 633l-2 13l-6 -14l-293 -632h-7l-118 677l1 2h13l109 -629l3 -19l8 19l290 629h8l116 -630l2 -18l8 18l284 630h13z" />
    <glyph glyph-name="wacute" unicode="&#x1e83;" horiz-adv-x="765" 
d="M516 685l-137 -114l-6 9l132 121l11 -11v-5zM762 516l1 -2l-233 -514h-14l-96 476l-3 19l-7 -18l-232 -477h-14l-93 514l1 2h14l87 -480l1 -13l7 13l232 480h13l98 -479l2 -14l6 14l218 479h12z" />
    <glyph glyph-name="Wdieresis" unicode="&#x1e84;" horiz-adv-x="925" 
d="M449 746q-16 0 -16 16q0 9 5.5 14t12.5 5q16 0 16 -16q0 -9 -5.5 -14t-12.5 -5zM614 746q-16 0 -16 16q0 9 5.5 14t12.5 5q16 0 16 -16q0 -9 -5.5 -14t-12.5 -5zM946 660l1 -2l-306 -677h-7l-117 633l-2 13l-6 -14l-293 -632h-7l-118 677l1 2h13l109 -629l3 -19l8 19
l290 629h8l116 -630l2 -18l8 18l284 630h13z" />
    <glyph glyph-name="wdieresis" unicode="&#x1e85;" horiz-adv-x="765" 
d="M358 646q-16 0 -16 16q0 9 5.5 14t12.5 5q16 0 16 -16q0 -9 -5.5 -14t-12.5 -5zM510 646q-16 0 -16 16q0 9 5.5 14t12.5 5q16 0 16 -16q0 -9 -5.5 -14t-12.5 -5zM762 516l1 -2l-233 -514h-14l-96 476l-3 19l-7 -18l-232 -477h-14l-93 514l1 2h14l87 -480l1 -13l7 13
l232 480h13l98 -479l2 -14l6 14l218 479h12z" />
    <glyph glyph-name="Ygrave" unicode="&#x1ef2;" horiz-adv-x="548" 
d="M409 702l-150 95l-1 5l6 11l151 -102zM231 0l40 288l-184 370l1 2h13l179 -358l278 358h13l1 -2l-287 -370l-40 -288h-14z" />
    <glyph glyph-name="ygrave" unicode="&#x1ef3;" horiz-adv-x="508" 
d="M369 575l-142 106l-1 5l11 12l138 -114zM512 516l1 -2l-285 -526q-50 -87 -85 -121t-95 -34q-21 0 -48 6l2 13l2 1q26 -6 46 -6q55 0 88 32.5t77 110.5l7 12l-153 512l1 2h15l146 -495l267 495h14z" />
    <glyph glyph-name="uni1EF8" unicode="&#x1ef8;" horiz-adv-x="548" 
d="M231 724l-11 2q4 29 21.5 46t41.5 17q25 0 66 -22.5t59 -22.5t32.5 12.5t18.5 37.5l1 1l12 -1q-5 -30 -23 -47t-41 -17q-22 0 -63 22.5t-62 22.5q-19 0 -33 -13t-18 -37zM231 0l40 288l-184 370l1 2h13l179 -358l278 358h13l1 -2l-287 -370l-40 -288h-14z" />
    <glyph glyph-name="uni1EF9" unicode="&#x1ef9;" horiz-adv-x="508" 
d="M196 611l-1 -1l-12 1q4 30 21.5 47t42.5 17q27 0 75 -22.5t69 -22.5q17 0 32 12.5t19 37.5l1 1l12 -1q-5 -30 -23.5 -47t-41.5 -17q-26 0 -72.5 22.5t-70.5 22.5q-19 0 -33 -13t-18 -37zM512 516l1 -2l-285 -526q-50 -87 -85 -121t-95 -34q-21 0 -48 6l2 13l2 1
q26 -6 46 -6q55 0 88 32.5t77 110.5l7 12l-153 512l1 2h15l146 -495l267 495h14z" />
    <glyph glyph-name="endash" unicode="&#x2013;" horiz-adv-x="478" 
d="M85 272l2 14h312l-2 -14h-312z" />
    <glyph glyph-name="emdash" unicode="&#x2014;" horiz-adv-x="811" 
d="M85 272l2 14h645l-2 -14h-645z" />
    <glyph glyph-name="quoteleft" unicode="&#x2018;" horiz-adv-x="177" 
d="M179 687q-36 -120 -36 -166v-5l-13 -2l-3 3q10 75 42 170h10z" />
    <glyph glyph-name="quoteright" unicode="&#x2019;" horiz-adv-x="162" 
d="M97 513q23 78 35 155q1 6 1 16l13 2l3 -3q-12 -82 -42 -170h-10z" />
    <glyph glyph-name="quotesinglbase" unicode="&#x201a;" horiz-adv-x="166" 
d="M-2 -122q23 78 35 155q1 6 1 16l14 2l2 -3q-13 -89 -42 -170h-10z" />
    <glyph glyph-name="quotedblleft" unicode="&#x201c;" horiz-adv-x="283" 
d="M179 687q-36 -120 -36 -166v-5l-13 -2l-3 3q10 75 42 170h10zM285 687q-35 -121 -35 -166v-5l-13 -2l-3 3q10 79 41 170h10z" />
    <glyph glyph-name="quotedblright" unicode="&#x201d;" horiz-adv-x="280" 
d="M97 513q23 78 35 155q1 6 1 16l13 2l3 -3q-12 -82 -42 -170h-10zM203 513q36 115 36 166v5l13 2l3 -3q-10 -75 -42 -170h-10z" />
    <glyph glyph-name="quotedblbase" unicode="&#x201e;" horiz-adv-x="271" 
d="M-2 -122q23 78 35 155q1 6 1 16l14 2l2 -3q-13 -89 -42 -170h-10zM105 -122q36 120 36 166q0 4 -1 5l15 2l1 -3q-11 -86 -41 -170h-10z" />
    <glyph glyph-name="dagger" unicode="&#x2020;" horiz-adv-x="442" 
d="M260 504l148 2l-4 -15l-144 2l-76 -529h-9l72 529l-146 -2l2 15l147 -2l23 166h13z" />
    <glyph glyph-name="daggerdbl" unicode="&#x2021;" horiz-adv-x="443" 
d="M172 -36l25 167l-148 -2l2 15l147 -3l27 176l22 176l-148 -2l2 15l148 -2l22 166h16l-26 -166l150 2l-2 -15l-148 2l-26 -176l-23 -176l149 3l-2 -15l-150 2l-21 -167h-16z" />
    <glyph glyph-name="bullet" unicode="&#x2022;" horiz-adv-x="343" 
d="M169 217q-28 0 -44.5 17.5t-16.5 44.5q0 33 19.5 55.5t53.5 22.5q27 0 44.5 -17.5t17.5 -44.5q0 -34 -19.5 -56t-54.5 -22z" />
    <glyph glyph-name="ellipsis" unicode="&#x2026;" horiz-adv-x="457" 
d="M51 0q-16 0 -16 16q0 8 5.5 14t13.5 6q16 0 16 -16q0 -8 -5.5 -14t-13.5 -6zM194 0q-16 0 -16 16q0 8 5.5 14t13.5 6q16 0 16 -16q0 -8 -5.5 -14t-13.5 -6zM337 0q-16 0 -16 16q0 8 5.5 14t13.5 6q16 0 16 -16q0 -8 -5.5 -14t-13.5 -6z" />
    <glyph glyph-name="perthousand" unicode="&#x2030;" horiz-adv-x="952" 
d="M203 367q-54 0 -86 33t-32 91q0 79 45 127t115 48q54 0 85.5 -33.5t31.5 -91.5q0 -79 -45 -126.5t-114 -47.5zM75 9l505 645h15l-504 -645h-16zM205 380q61 0 101.5 43.5t40.5 114.5q0 54 -28 84.5t-76 30.5q-62 0 -102.5 -44t-40.5 -115q0 -54 28.5 -84t76.5 -30z
M437 -5q-54 0 -85.5 32.5t-31.5 90.5q0 80 44.5 128t114.5 48q54 0 85.5 -33.5t31.5 -92.5q0 -78 -45 -125.5t-114 -47.5zM739 -5q-54 0 -86 33t-32 91q0 79 45 127t115 48q54 0 85.5 -33.5t31.5 -92.5q0 -78 -45.5 -125.5t-113.5 -47.5zM440 8q61 0 101 43.5t40 114.5
q0 54 -28 84.5t-75 30.5q-64 0 -104 -44t-40 -117q0 -53 28 -82.5t78 -29.5zM741 8q62 0 102 43t40 115q0 54 -28 84.5t-76 30.5q-62 0 -102.5 -44t-40.5 -116q0 -53 28 -83t77 -30z" />
    <glyph glyph-name="guilsinglleft" unicode="&#x2039;" horiz-adv-x="322" 
d="M275 83l-152 188l203 182h14v-4l-199 -179l147 -182l-1 -5h-12z" />
    <glyph glyph-name="guilsinglright" unicode="&#x203a;" horiz-adv-x="321" 
d="M121 453l152 -188l-203 -182h-14v4l199 179l-147 182l1 5h12z" />
    <glyph glyph-name="fraction" unicode="&#x2044;" horiz-adv-x="142" 
d="M-188 -12l527 672h17l-526 -672h-18z" />
    <glyph glyph-name="Euro" unicode="&#x20ac;" horiz-adv-x="684" 
d="M501 668q99 0 166 -31l-2 -14l-2 -1q-63 33 -164 33q-114 0 -199.5 -64t-120.5 -173h301l-4 -13h-301q-16 -61 -16 -123v-13h272l-3 -13h-268q7 -112 71.5 -177.5t177.5 -65.5q89 0 176 37l1 -1l-1 -12q-46 -21 -83.5 -29.5t-94.5 -8.5q-118 0 -187 70t-76 187h-113l3 13
h109v13q0 64 17 123h-81l4 13h80q37 114 128 182t210 68z" />
    <glyph glyph-name="trademark" unicode="&#x2122;" horiz-adv-x="743" 
d="M97 635l2 15h239l-2 -15h-112l-39 -285h-15l39 285h-112zM675 650h9l-10 -300h-15l7 259h-1l-154 -256h-5l-84 263h-1l-64 -266h-15l75 300h9l88 -269z" />
    <glyph glyph-name="minus" unicode="&#x2212;" horiz-adv-x="499" 
d="M91 286l1 14h326l-1 -14h-326z" />
    <glyph glyph-name="approxequal" unicode="&#x2248;" horiz-adv-x="482" 
d="M111 340l-12 2q4 29 24.5 46t50.5 17q37 0 89.5 -22.5t80.5 -22.5q53 0 60 50l1 1l12 -1q-4 -30 -24 -47t-50 -17q-34 0 -86.5 22.5t-84.5 22.5q-53 0 -60 -50zM87 166l-12 2q4 30 24 46.5t50 16.5q38 0 90.5 -22.5t80.5 -22.5q53 0 60 50l1 1l12 -1q-4 -30 -24 -47
t-50 -17q-34 0 -86.5 22.5t-84.5 22.5q-53 0 -60 -50z" />
    <glyph glyph-name="notequal" unicode="&#x2260;" horiz-adv-x="498" 
d="M430 380h-105l-109 -186h189l-2 -14h-195l-94 -160h-15l94 160h-116l2 14h122l109 186h-205l2 14h211l91 156h16l-92 -156h99z" />
    <glyph glyph-name="uniF8FF" unicode="&#xf8ff;" horiz-adv-x="1461" 
d="M721 522q-25 0 -43 18t-18 43q0 26 17.5 44t43.5 18t44 -18t18 -44t-18 -43.5t-44 -17.5zM69 270q0 134 9 314h100q10 -200 10 -314h-119zM573 264q-82 0 -82 66q0 12 2 49t2 38h-22v79l119 30l1 -17h178q10 -64 10 -239h-118q0 92 3 147h-61l3 -65q4 -4 15 -4q13 0 18 5
v-74q-14 -15 -68 -15zM297 265q-92 0 -92 114q0 135 134 135q124 0 124 -117v-127h-83l-8 61q-6 -33 -23.5 -49.5t-51.5 -16.5zM803 270q0 175 10 239h80q6 -44 6 -76q2 15 6.5 30t24 33t49.5 18q42 0 58.5 -25t18.5 -81l3 -138h-114q0 26 1 56t1 37q0 29 -15 29
q-18 0 -18 -29q0 -7 1.5 -37t1.5 -56h-114zM1197 265q-122 0 -122 124q0 125 124 125q121 0 121 -123q0 -126 -123 -126zM335 345q24 0 24 30q0 26 -24 26q-22 0 -22 -26q0 -30 22 -30zM1197 345q23 0 23 30q0 26 -23 26q-21 0 -21 -26q0 -30 21 -30zM359 -50q-61 0 -88 17
v83q24 -16 70 -16q21 0 34 6t16.5 11.5t3.5 10.5q-17 -11 -49 -11q-90 0 -90 83v13h-55l3 -65q6 -4 15 -4q13 0 18 5v-73q-19 -15 -68 -15q-45 0 -63 17t-18 54q0 39 3 81h-18v80l117 29l-1 -18h177v-119q0 -16 3 -21.5t12 -5.5q16 0 16 27v119h104q10 -52 10 -138
q0 -81 -33.5 -115.5t-118.5 -34.5zM527 -44q0 142 10 282h78q7 -42 7 -76q17 81 80 81q37 0 58.5 -29t21.5 -84q0 -135 -137 -135q1 -15 1 -39h-119zM939 -5q-141 0 -141 122q0 59 32.5 92.5t92.5 33.5q55 0 85.5 -30t30.5 -86q0 -21 -3 -35h-124q11 -18 50 -18q34 0 55 12
v-75q-23 -16 -78 -16zM907 109h40q3 27 -17 27q-23 0 -23 -27zM639 72q5 0 12.5 2.5t16 11.5t8.5 23q0 23 -20 23q-22 0 -22 -31q0 -14 5 -29zM1067 -10q-24 0 -24 23t24 23t24 -23t-24 -23zM1067 -5q18 0 18 18t-18 18t-18 -18t18 -18zM1057 2v23h11q10 0 10 -7t-7 -7l6 -9
h-6l-4 9h-5v-9h-5zM1062 15h7q4 0 4 3t-4 3h-7v-6z" />
    <glyph glyph-name="i.loclTRK" horiz-adv-x="210" 
d="M161 647q-16 0 -16 16q0 9 5.5 14t12.5 5q16 0 16 -16q0 -9 -5.5 -14t-12.5 -5zM62 0l72 516h14l-72 -516h-14z" />
    <glyph glyph-name="caroncomb.alt" 
d="M-25 526l35 188h10l4 -6l-40 -182h-9z" />
    <glyph glyph-name="uni0308.case" 
d="M-144 746q-16 0 -16 16q0 9 5.5 14t12.5 5q16 0 16 -16q0 -9 -5.5 -14t-12.5 -5zM21 746q-16 0 -16 16q0 9 5.5 14t12.5 5q16 0 16 -16q0 -9 -5.5 -14t-12.5 -5z" />
    <glyph glyph-name="uni0307.case" 
d="M-53 747q-16 0 -16 16q0 9 5.5 14t12.5 5q16 0 16 -16q0 -9 -5.5 -14t-12.5 -5z" />
    <glyph glyph-name="gravecomb.case" 
d="M29 702l-150 95l-1 5l6 11l151 -102z" />
    <glyph glyph-name="acutecomb.case" 
d="M-130 702l-4 9l178 102l4 -11l-3 -5z" />
    <glyph glyph-name="uni030B.case" 
d="M-193 719l-8 5l83 126l10 -8l-1 -5zM-40 719l-8 6l83 125l10 -8l-1 -5z" />
    <glyph glyph-name="uni0302.case" 
d="M-194 700l-6 8l127 108h7l100 -108l-8 -8l-98 99z" />
    <glyph glyph-name="uni030C.case" 
d="M-86 701l-100 107l8 8l98 -99l122 99l6 -8l-127 -107h-7z" />
    <glyph glyph-name="uni0306.case" 
d="M-73 703q-48 0 -74.5 29.5t-19.5 80.5l9 1q-3 -44 21 -70.5t64 -26.5q43 0 74.5 26.5t38.5 70.5l9 -1q-7 -52 -40 -81t-82 -29z" />
    <glyph glyph-name="uni030A.case" 
d="M-31 677q-28 0 -45.5 17.5t-17.5 44.5q0 33 20.5 55.5t51.5 22.5q28 0 45.5 -17t17.5 -44q0 -34 -19 -56.5t-53 -22.5zM-29 690q27 0 42 18.5t15 44.5q0 22 -14 36.5t-37 14.5q-25 0 -41 -18.5t-16 -44.5q0 -23 14 -37t37 -14z" />
    <glyph glyph-name="tildecomb.case" 
d="M-194 724l-11 2q4 29 21.5 46t41.5 17t65 -22.5t60 -22.5q18 0 32.5 12.5t18.5 37.5l1 1l12 -1q-5 -30 -23 -47t-41 -17q-22 0 -63 22.5t-62 22.5q-19 0 -33 -13t-18 -37z" />
    <glyph glyph-name="uni0304.case" 
d="M-189 756l1 13h235l-1 -13h-235z" />
    <glyph glyph-name="uni0337.case" 
d="M-197 263l1 11l181 105h3l-2 -12l-182 -105z" />
    <glyph glyph-name="uni0338.case" 
d="M-648 -57v2l617 778h12v-2l-615 -778h-14z" />
    <glyph glyph-name="caron.alt" horiz-adv-x="95" 
d="M71 526l35 188h10l4 -6l-40 -182h-9z" />
    <glyph glyph-name="acute.case" horiz-adv-x="227" 
d="M96 702l-4 9l178 102l4 -11l-3 -5z" />
    <glyph glyph-name="breve.case" horiz-adv-x="273" 
d="M200 703q-48 0 -74.5 29.5t-19.5 80.5l9 1q-3 -44 21 -70.5t64 -26.5q43 0 74.5 26.5t38.5 70.5l9 -1q-7 -52 -40 -81t-82 -29z" />
    <glyph glyph-name="caron.case" horiz-adv-x="291" 
d="M205 701l-100 107l8 8l98 -99l122 99l6 -8l-127 -107h-7z" />
    <glyph glyph-name="circumflex.case" horiz-adv-x="291" 
d="M97 700l-6 8l127 108h7l100 -108l-8 -8l-98 99z" />
    <glyph glyph-name="dieresis.case" horiz-adv-x="261" 
d="M117 746q-16 0 -16 16q0 9 5.5 14t12.5 5q16 0 16 -16q0 -9 -5.5 -14t-12.5 -5zM282 746q-16 0 -16 16q0 9 5.5 14t12.5 5q16 0 16 -16q0 -9 -5.5 -14t-12.5 -5z" />
    <glyph glyph-name="dotaccent.case" horiz-adv-x="246" 
d="M193 747q-16 0 -16 16q0 9 5.5 14t12.5 5q16 0 16 -16q0 -9 -5.5 -14t-12.5 -5z" />
    <glyph glyph-name="grave.case" horiz-adv-x="227" 
d="M256 702l-150 95l-1 5l6 11l151 -102z" />
    <glyph glyph-name="hungarumlaut.case" horiz-adv-x="312" 
d="M119 719l-8 5l83 126l10 -8l-1 -5zM272 719l-8 6l83 125l10 -8l-1 -5z" />
    <glyph glyph-name="macron.case" horiz-adv-x="349" 
d="M94 756l1 13h235l-1 -13h-235z" />
    <glyph glyph-name="ring.case" horiz-adv-x="192" 
d="M161 677q-28 0 -45.5 17.5t-17.5 44.5q0 33 20.5 55.5t51.5 22.5q28 0 45.5 -17t17.5 -44q0 -34 -19 -56.5t-53 -22.5zM163 690q27 0 42 18.5t15 44.5q0 22 -14 36.5t-37 14.5q-25 0 -41 -18.5t-16 -44.5q0 -23 14 -37t37 -14z" />
    <glyph glyph-name="tilde.case" horiz-adv-x="299" 
d="M105 724l-11 2q4 29 21.5 46t41.5 17q25 0 66 -22.5t59 -22.5t32.5 12.5t18.5 37.5l1 1l12 -1q-5 -30 -23 -47t-41 -17q-22 0 -63 22.5t-62 22.5q-19 0 -33 -13t-18 -37z" />
    <glyph glyph-name="IJacute" horiz-adv-x="558" 
d="M118 709l-4 9l178 102l4 -11l-3 -5zM427 709l-4 9l178 102l4 -11l-3 -5zM78 0l92 660h14l-92 -660h-14zM267 -3q-21 0 -43 3l2 13l2 1q15 -3 40 -3q72 0 114.5 46t54.5 127l67 476h14l-67 -478q-12 -88 -58.5 -136.5t-125.5 -48.5z" />
    <glyph glyph-name="ijacute" horiz-adv-x="425" 
d="M107 571l-6 8l129 124l11 -11v-5zM317 571l-6 8l129 124l11 -11v-5zM62 0l72 516h14l-72 -516h-14zM140 -167q-19 0 -30 3l2 13l2 1q12 -3 28 -3q114 0 135 151l72 518h14l-72 -519q-22 -164 -151 -164z" />
    </font>
</defs>
</svg>
